osu file format v14

[General]
AudioFilename: audio.mp3
AudioLeadIn: 0
PreviewTime: 33749
Countdown: 0
SampleSet: Soft
StackLeniency: 0.5
Mode: 0
LetterboxInBreaks: 0
WidescreenStoryboard: 0

[Editor]
DistanceSpacing: 0.4
BeatDivisor: 12
GridSize: 4
TimelineZoom: 1.419999

[Metadata]
Title:M jak milosc (TV Size)
TitleUnicode:M jak miłość (TV Size)
Artist:Wojciech Gassowski
ArtistUnicode:Wojciech Gąssowski
Creator:SaltKing
Version:Bardzo Trudny
Source:M jak Miłość
Tags:tvp soap opera opening pop polish polski hanka mostowiak mtj koncert życzeń zyczen 3 krfawy
BeatmapID:1830933
BeatmapSetID:872172

[Difficulty]
HPDrainRate:6
CircleSize:4.3
OverallDifficulty:6
ApproachRate:7
SliderMultiplier:2.5
SliderTickRate:1

[Events]
//Background and Video events
0,0,"bg.jpg",0,0
//Break Periods
//Storyboard Layer 0 (Background)
//Storyboard Layer 1 (Fail)
//Storyboard Layer 2 (Pass)
//Storyboard Layer 3 (Foreground)
//Storyboard Sound Samples

[TimingPoints]
76,612.244897959184,4,2,1,45,1,0
76,-111.111111111111,4,2,1,45,0,0
2448,-111.111111111111,4,2,1,5,0,0
2524,-111.111111111111,4,2,1,45,0,0
7346,-111.111111111111,4,2,1,5,0,0
7422,-111.111111111111,4,2,1,45,0,0
12244,-111.111111111111,4,2,1,5,0,0
12320,-111.111111111111,4,2,1,45,0,0
13851,-166.666666666666,4,2,1,45,0,0
14769,-133.333333333333,4,2,1,45,0,0
34361,-90.9090909090909,4,2,1,60,0,1
38647,-133.333333333333,4,2,1,60,0,1
39183,-76.9230769230769,4,2,1,60,0,0
39259,-90.9090909090909,4,2,1,60,0,1
43545,-133.333333333333,4,2,1,60,0,1
44081,-90.9090909090909,4,2,1,60,0,0
44157,-90.9090909090909,4,2,1,60,0,1
51428,-90.9090909090909,4,2,1,5,0,1
51504,-90.9090909090909,4,2,1,60,0,1
52729,-100,4,2,1,60,0,1
53035,-100,4,2,1,25,0,1
53341,-133.333333333333,4,2,1,60,0,1
53953,-111.111111111111,4,2,1,45,0,0
72627,-111.111111111111,4,2,1,25,0,0

[Colours]
Combo1 : 157,104,131
Combo2 : 162,165,90
Combo3 : 119,149,106
Combo4 : 100,124,132

[HitObjects]
88,234,76,5,4,3:2:0:0:
205,202,382,1,0,0:0:0:0:
117,119,688,1,2,0:0:0:0:
176,287,994,2,0,P|256:275|293:219,1,112.499996566773,0|0,3:0|3:0,0:0:0:0:
343,149,1606,5,2,0:0:0:0:
402,249,1912,1,8,0:0:0:0:
264,177,2218,2,0,L|188:132,1,84.3749974250794,2|0,0:0|0:0,0:0:0:0:
172,121,2524,1,0,3:0:0:0:
67,184,2831,5,2,0:0:0:0:
80,92,3137,1,0,3:0:0:0:
39,244,3443,2,0,P|67:286|70:239,1,112.499996566773,2|0,3:2|3:0,0:0:0:0:
172,121,4055,5,2,0:0:0:0:
201,230,4361,1,8,0:0:0:0:
260,80,4667,2,0,P|289:43|337:25,1,98.437496995926,2|0,0:0|0:0,0:0:0:0:
344,26,4973,5,2,3:2:0:0:
403,177,5280,1,2,0:0:0:0:
476,42,5586,1,0,0:0:0:0:
329,119,5892,2,0,L|222:173,1,112.499996566773,2|2,3:2|3:2,0:0:0:0:
128,218,6504,5,2,0:0:0:0:
280,235,6810,1,8,0:0:0:0:
140,112,7116,2,0,L|131:208,1,84.3749974250794,2|0,3:2|0:0,0:0:0:0:
128,218,7422,1,0,3:0:0:0:
154,348,7729,5,2,0:0:0:0:
47,310,8035,1,0,0:0:0:0:
224,350,8341,2,0,P|256:341|212:328,1,112.499996566773,2|0,3:2|3:0,0:0:0:0:
154,204,8953,5,2,0:0:0:0:
224,350,9259,1,8,0:0:0:0:
266,184,9565,2,0,L|294:89,1,98.437496995926,2|0,0:0|0:0,0:0:0:0:
296,82,9871,5,2,3:2:0:0:
400,168,10178,1,0,0:0:0:0:
418,36,10484,1,2,0:0:0:0:
455,223,10790,2,0,P|409:245|334:211,1,112.499996566773,2|0,3:2|3:0,0:0:0:0:
247,147,11402,5,2,0:0:0:0:
233,311,11708,1,8,0:0:0:0:
114,227,12014,2,0,P|159:227|216:218,1,84.3749974250794,2|0,3:2|0:0,0:0:0:0:
219,214,12320,1,0,3:0:0:0:
345,146,12627,5,2,0:0:0:0:
325,298,12933,1,2,3:2:0:0:
219,214,13239,1,2,3:2:0:0:
246,218,13392,1,0,0:0:0:0:
273,221,13545,1,8,0:0:0:0:
232,77,13851,6,0,P|289:60|318:59,2,74.9999977111817,0|0|2,0:0|0:0|0:0,0:0:0:0:
66,146,14769,5,4,3:2:0:0:
158,229,15076,2,0,L|174:117,1,93.7500035762788
186,56,15535,1,0,0:0:0:0:
190,60,15688,2,0,P|224:77|250:77,1,46.8750017881394,2|0,3:2|0:0,0:0:0:0:
337,75,15994,2,0,B|398:78|442:49|442:49|429:97|453:128,1,187.500007152558,2|8,3:2|0:0,0:0:0:0:
497,214,16912,1,0,0:0:0:0:
375,147,17218,5,2,3:2:0:0:
404,246,17524,1,0,0:0:0:0:
332,322,17831,1,2,0:0:0:0:
310,229,18137,2,0,B|227:240|252:298|214:338|144:320,1,187.500007152558,2|0,3:2|0:0,0:0:0:0:
163,221,19055,1,8,0:0:0:0:
83,335,19361,1,0,0:0:0:0:
71,217,19667,6,0,L|63:105,1,93.7500035762788,2|0,3:2|0:0,0:0:0:0:
58,47,20127,1,0,0:0:0:0:
58,47,20280,1,2,0:0:0:0:
170,88,20586,2,0,P|215:103|233:101,1,46.8750017881394,0|0,3:0|0:0,0:0:0:0:
296,52,20892,2,0,P|256:109|265:177,1,140.625005364418,2|0,3:2|0:0,0:0:0:0:
335,129,21504,2,0,P|377:119|439:135,1,93.7500035762788,8|0,0:0|0:0,0:0:0:0:
485,185,21963,1,2,0:0:0:0:
485,185,22116,1,0,3:0:0:0:
345,315,22422,5,2,0:0:0:0:
386,202,22729,1,2,0:0:0:0:
448,325,23035,1,0,3:0:0:0:
279,272,23341,1,2,3:2:0:0:
260,241,23494,1,0,0:0:0:0:
253,208,23647,2,0,P|238:259|200:287,1,93.7500035762788,2|8,0:0|0:0,0:0:0:0:
177,216,24106,1,0,0:0:0:0:
177,216,24259,1,2,0:0:0:0:
42,291,24565,5,2,3:2:0:0:
138,332,24871,1,2,0:0:0:0:
64,203,25178,2,0,P|57:156|69:120,2,62.5000023841859,2|0|0,0:0|0:0|0:0,0:0:0:0:
138,137,25790,2,0,P|129:176|162:127,1,187.500007152558,2|8,3:2|0:0,0:0:0:0:
138,31,26708,1,0,0:0:0:0:
290,63,27014,5,2,3:2:0:0:
161,53,27320,2,0,P|113:55|86:62,2,62.5000023841859,2|2|0,0:0|0:0|0:0,0:0:0:0:
228,114,27933,1,2,3:2:0:0:
250,137,28086,1,0,0:0:0:0:
272,160,28239,2,0,L|280:264,1,93.7500035762788,2|0,3:2|0:0,0:0:0:0:
383,348,28851,2,0,L|390:254,1,93.7500035762788,8|2,0:0|0:0,0:0:0:0:
398,177,29310,1,0,0:0:0:0:
398,177,29463,5,2,3:2:0:0:
287,263,29769,2,0,P|246:265|189:246,1,93.7500035762788,2|0,0:0|0:0,0:0:0:0:
124,199,30229,2,0,L|117:266,2,46.8750017881394,0|2|0,0:0|3:2|0:0,0:0:0:0:
132,125,30688,1,2,3:2:0:0:
42,252,30994,2,0,L|54:159,1,93.7500035762788,2|8,0:0|0:0,0:0:0:0:
67,37,31606,2,0,P|98:51|169:48,1,93.7500035762788,0|2,3:2|3:2,0:0:0:0:
271,25,32218,5,0,0:0:0:0:
249,129,32524,1,0,3:0:0:0:
356,45,32831,1,2,3:2:0:0:
355,215,33137,1,2,3:2:0:0:
448,34,33443,2,0,L|464:8,3,23.4375008940697,2|0|0|0,0:0|0:0|0:0|0:0,0:0:0:0:
458,108,33749,6,0,L|472:175,1,46.8750017881394,10|0,3:2|0:0,0:0:0:0:
457,216,34055,2,0,L|443:149,1,46.8750017881394,2|0,0:0|0:0,0:0:0:0:
375,47,34361,6,0,B|313:100|357:164|357:164|408:249|314:304,1,275.000008392334,4|10,3:2|0:0,0:0:0:0:
437,282,35127,1,0,0:0:0:0:
477,275,35280,1,2,0:0:0:0:
268,210,35586,2,0,L|130:157,1,137.500004196167,2|0,3:2|0:0,0:0:0:0:
10,106,36198,1,10,0:0:0:0:
85,272,36504,1,0,0:0:0:0:
98,75,36810,5,2,3:2:0:0:
177,254,37116,1,2,0:0:0:0:
21,181,37422,1,10,0:0:0:0:
62,176,37576,2,0,L|135:165,1,68.7500020980836,0|0,0:0|3:0,0:0:0:0:
213,150,37882,1,0,0:0:0:0:
248,132,38035,2,0,P|299:138|253:159,1,137.500004196167,2|0,3:2|0:0,0:0:0:0:
149,299,38647,6,0,L|215:296,1,46.8750017881394,10|0,0:0|0:0,0:0:0:0:
276,321,38953,2,0,L|209:323,1,46.8750017881394,2|0,0:0|0:0,0:0:0:0:
116,206,39259,6,0,B|153:235|204:215|204:215|295:276|365:211|369:164,1,275.000008392334,2|10,3:2|0:0,0:0:0:0:
384,288,40024,1,0,0:0:0:0:
392,328,40178,1,2,0:0:0:0:
278,159,40484,2,0,L|296:5,1,137.500004196167,2|0,3:2|0:0,0:0:0:0:
164,143,41096,1,10,0:0:0:0:
361,188,41402,1,0,3:0:0:0:
203,216,41708,6,0,L|105:233,1,68.7500020980836,2|0,3:2|0:0,0:0:0:0:
47,243,42014,1,2,3:2:0:0:
73,274,42167,2,0,P|100:315|109:363,1,68.7500020980836,0|10,0:0|0:0,0:0:0:0:
210,354,42473,2,0,P|183:313|174:265,1,68.7500020980836,0|2,0:0|3:2,0:0:0:0:
271,283,42780,1,0,0:0:0:0:
311,277,42933,2,0,L|453:264,1,137.500004196167,2|0,3:2|0:0,0:0:0:0:
322,132,43545,6,0,L|254:137,1,46.8750017881394,10|0,0:0|0:0,0:0:0:0:
195,104,43851,2,0,L|263:99,1,46.8750017881394,2|0,0:0|0:0,0:0:0:0:
127,61,44157,6,0,B|105:108|126:152|126:152|160:171|160:171|121:200|108:264|149:315,1,275.000008392334,2|10,3:2|0:0,0:0:0:0:
46,265,44922,1,0,0:0:0:0:
7,251,45076,1,2,3:2:0:0:
217,246,45382,2,0,L|379:242,1,137.500004196167,2|0,3:2|0:0,0:0:0:0:
485,148,45994,1,10,0:0:0:0:
389,328,46300,1,0,3:0:0:0:
401,108,46606,5,2,3:2:0:0:
477,283,46912,1,2,0:0:0:0:
510,119,47218,1,10,0:0:0:0:
469,114,47371,2,0,L|390:106,1,68.7500020980836,0|0,0:0|3:0,0:0:0:0:
300,95,47678,1,0,0:0:0:0:
322,129,47831,2,0,P|329:212|299:265,1,137.500004196167,2|0,3:2|0:0,0:0:0:0:
117,280,48443,1,10,0:0:0:0:
254,186,48749,1,0,3:0:0:0:
175,336,49055,6,0,B|215:290|186:237|186:237|157:178|195:130,1,206.250006294251,2|0,3:2|0:0,0:0:0:0:
254,88,49667,2,0,P|273:126|271:162,1,68.7500020980836,10|0,0:0|0:0,0:0:0:0:
177,64,49973,2,0,P|200:28|232:12,1,68.7500020980836,2|0,3:2|0:0,0:0:0:0:
305,25,50280,1,2,3:2:0:0:
471,110,50586,1,2,0:0:0:0:
273,151,50892,1,10,0:0:0:0:
403,27,51198,2,0,L|396:141,1,103.125003147125,0|0,3:0|0:0,0:0:0:0:
396,150,51504,5,2,3:2:0:0:
386,340,51810,1,2,0:0:0:0:
204,232,52116,2,0,L|297:192,1,68.7500020980836,10|0,0:0|0:0,0:0:0:0:
227,321,52422,1,2,3:2:0:0:
185,324,52576,1,0,0:0:0:0:
151,306,52729,5,0,3:0:0:0:
124,193,53035,1,4,0:0:0:0:
52,366,53341,2,0,L|63:257,1,93.7500035762788,2|0,0:0|0:0,0:0:0:0:
76,124,53953,6,0,P|106:146|192:136,1,112.499996566773,4|2,3:2|0:0,0:0:0:0:
246,97,54412,1,0,0:0:0:0:
246,97,54565,2,0,L|252:186,1,74.9999977111817,2|0,0:0|0:0,0:0:0:0:
257,242,54871,1,2,3:2:0:0:
369,129,55178,2,0,P|454:112|396:165,1,224.999993133545,2|8,3:2|0:0,0:0:0:0:
328,211,55943,2,0,P|366:240|422:245,1,93.7499971389771,2|2,0:0|0:0,0:0:0:0:
318,348,56402,6,0,P|254:313|209:324,1,112.499996566773,2|2,3:2|0:0,0:0:0:0:
196,330,56785,2,0,P|157:340|106:328,1,84.3749974250794,0|2,0:0|3:2,0:0:0:0:
48,269,57116,2,0,P|49:305|20:263,1,131.249995994568
48,194,57627,6,0,P|103:165|168:183,1,112.499996566773,2|0,3:2|0:0,0:0:0:0:
260,237,58239,1,8,0:0:0:0:
239,76,58545,1,2,3:2:0:0:
188,238,58851,6,0,L|203:355,1,112.499996566773,2|0,3:2|0:0,0:0:0:0:
274,348,59310,2,0,L|259:231,1,112.499996566773,2|0,0:0|0:0,0:0:0:0:
222,172,59769,1,2,3:2:0:0:
377,209,60076,2,0,P|434:218|509:197,1,112.499996566773,2|0,3:2|0:0,0:0:0:0:
339,125,60688,2,0,P|280:135|268:145,1,56.2499982833863,10|0,0:0|0:0,0:0:0:0:
222,172,60994,1,2,3:2:0:0:
31,134,61300,6,0,B|92:144|121:102|121:102|147:124|147:124|175:82|229:88,1,224.999993133545,0|2,3:0|0:0,0:0:0:0:
333,20,62218,2,0,L|345:150,1,112.499996566773,0|2,3:0|3:2,0:0:0:0:
359,273,62831,1,2,0:0:0:0:
440,171,63137,1,8,0:0:0:0:
445,316,63443,1,2,0:0:0:0:
273,224,63749,6,0,B|218:211|218:211|163:230,1,112.499996566773,2|0,3:2|3:0,0:0:0:0:
80,270,64170,2,0,B|160:307|160:307|224:286,1,154.687495279312,2|0,0:0|0:0,0:0:0:0:
261,295,64667,1,2,3:2:0:0:
237,143,64973,6,0,P|221:81|248:35,1,112.499996566773,2|0,3:2|3:0,0:0:0:0:
291,95,65394,2,0,P|307:157|247:216,1,154.687495279312,2|0,0:0|0:0,0:0:0:0:
215,211,65892,1,2,3:2:0:0:
362,249,66198,6,0,B|402:249|422:274|422:274|448:273|448:273|473:303|503:301,2,154.687495279312,2|2|2,3:2|0:0|0:0,0:0:0:0:
337,252,67116,1,2,3:2:0:0:
219,259,67422,1,0,3:0:0:0:
363,325,67729,1,2,3:2:0:0:
191,332,68035,2,0,P|158:307|144:253,1,84.3749974250794,8|0,0:0|0:0,0:0:0:0:
145,250,68341,1,2,3:2:0:0:
210,128,68647,6,0,P|152:141|98:127,1,112.499996566773,2|2,3:2|3:2,0:0:0:0:
54,78,69068,2,0,L|67:207,1,126.562496137619,2|0,0:0|0:0,0:0:0:0:
136,216,69527,1,2,3:2:0:0:
302,128,69871,6,0,P|360:141|414:127,1,112.499996566773,0|2,3:0|3:2,0:0:0:0:
458,78,70331,2,0,L|446:206,1,112.499996566773,2|0,0:0|0:0,0:0:0:0:
376,216,70790,2,0,P|340:219|314:213,1,56.2499982833863,2|0,3:2|0:0,0:0:0:0:
256,172,71096,6,0,B|241:213|257:252|257:252|273:296|252:339,2,168.749994850159,2|2|0,3:2|3:2|0:0,0:0:0:0:
254,63,72320,2,0,P|268:124|254:175,1,112.499996566773,2|2,3:2|0:0,0:0:0:0:
