osu file format v14

[General]
AudioFilename: WolfWood.mp3
AudioLeadIn: 0
PreviewTime: 119190
Countdown: 0
SampleSet: Soft
StackLeniency: 0.7
Mode: 2
LetterboxInBreaks: 1
WidescreenStoryboard: 0

[Editor]
DistanceSpacing: 2
BeatDivisor: 16
GridSize: 32
TimelineZoom: 2.899999

[Metadata]
Title:Various BGM
TitleUnicode:Various BGM
Artist:Wizet, Nexon
ArtistUnicode:Wizet, Nexon
Creator:ExGon
Version:Wolf Wood
Source:Maplestory
Tags:CODA SOUND Studio EIM Takkyu Ishino Riena Strait Henesys Market Haze Temple of Time Road Oblivion Regrets Sharenian Guild Quest Taiwan World Tour El Nath Territory Dead Trees Grand Athenaeum Resistance Xenon Tutorial Beryl Ludibrium Castle Dimensional Schism Tenyo
BeatmapID:512799
BeatmapSetID:217667

[Difficulty]
HPDrainRate:4
CircleSize:5
OverallDifficulty:0
ApproachRate:8
SliderMultiplier:1.4
SliderTickRate:1

[Events]
//Background and Video events
0,0,"wolf.jpg",0,0
//Break Periods
2,72042,77721
//Storyboard Layer 0 (Background)
//Storyboard Layer 1 (Fail)
//Storyboard Layer 2 (Pass)
//Storyboard Layer 3 (Foreground)
//Storyboard Sound Samples

[TimingPoints]
44,428.571428571429,4,1,0,5,1,0
13759,-100,4,2,0,8,0,0
14186,-100,4,2,0,15,0,0
17186,-100,4,2,0,8,0,0
17615,-100,4,2,0,15,0,0
20615,-100,4,2,0,8,0,0
21044,-100,4,2,0,15,0,0
24044,-100,4,2,0,8,0,0
24472,-100,4,2,0,15,0,0
27472,-100,4,2,0,8,0,0
27901,-100,4,2,0,15,0,0
30901,-100,4,2,0,8,0,0
31061,-100,4,3,0,10,0,0
31329,-100,4,2,0,15,0,0
32454,-100,4,3,0,10,0,0
33044,-100,4,2,0,15,0,0
34329,-100,4,2,0,8,0,0
34651,-100,4,3,0,10,0,0
35615,-100,4,2,0,15,0,0
37758,-100,4,2,0,8,0,0
37972,-100,4,3,0,3,0,0
39901,-100,4,2,0,15,0,0
41186,-100,4,2,0,8,0,0
44615,-100,4,1,0,10,0,0
46329,-100,4,2,0,15,0,0
48044,-100,4,2,0,7,0,0
49972,-100,4,2,0,15,0,0
51044,-100,4,1,0,10,0,0
51472,857.142857142857,4,2,0,10,1,0
51472,-50,4,2,0,10,0,0
52472,-50,4,2,0,0,0,0
54900,428.571428571429,4,2,0,15,1,0
55328,-100,4,2,0,0,0,0
68614,-100,4,2,0,15,0,0
78471,-100,4,1,0,8,0,0
90900,-100,4,2,0,15,0,0
92185,-100,4,1,0,8,0,0
94757,-100,4,2,0,15,0,0
99042,-100,4,1,0,8,0,0
101614,-100,4,2,0,15,0,0
105900,-100,4,1,0,8,0,0
106328,-100,4,1,0,10,0,1
106355,-100,4,1,0,10,0,0
106382,-100,4,1,0,10,0,1
106408,-100,4,1,0,10,0,0
106435,-100,4,1,0,10,0,1
106462,-100,4,1,0,10,0,0
106489,-100,4,1,0,10,0,1
106516,-100,4,1,0,10,0,0
106542,-100,4,1,0,10,0,1
106569,-100,4,1,0,10,0,0
106596,-100,4,1,0,10,0,1
106623,-100,4,1,0,10,0,0
106650,-100,4,1,0,10,0,1
106676,-100,4,1,0,10,0,0
106703,-100,4,1,0,10,0,1
106730,-100,4,1,0,10,0,0
106757,-100,4,1,0,10,0,1
106783,-100,4,1,0,10,0,0
106810,-100,4,1,0,10,0,1
106837,-100,4,1,0,10,0,0
106864,-100,4,1,0,10,0,1
106891,-100,4,1,0,10,0,0
106917,-100,4,1,0,10,0,1
106944,-100,4,1,0,10,0,0
106971,-100,4,1,0,10,0,1
106998,-100,4,1,0,10,0,0
107025,-100,4,1,0,10,0,1
107051,-100,4,1,0,10,0,0
107078,-100,4,1,0,10,0,1
107105,-100,4,1,0,10,0,0
107132,-100,4,1,0,10,0,1
107158,-100,4,1,0,10,0,0
107185,-100,4,1,0,10,0,1
107212,-100,4,1,0,10,0,0
107239,-100,4,1,0,10,0,1
107266,-100,4,1,0,10,0,0
107292,-100,4,1,0,10,0,1
107319,-100,4,1,0,10,0,0
107346,-100,4,1,0,10,0,1
107373,-100,4,1,0,10,0,0
107400,-100,4,1,0,10,0,1
107426,-100,4,1,0,10,0,0
107453,-100,4,1,0,10,0,1
107480,-100,4,1,0,10,0,0
107507,-100,4,1,0,10,0,1
107533,-100,4,1,0,10,0,0
107560,-100,4,1,0,10,0,1
107587,-100,4,1,0,10,0,0
107614,-100,4,1,0,10,0,1
107641,-100,4,1,0,10,0,0
113614,-100,4,2,0,15,0,0
114042,-100,4,1,0,10,0,0
114257,-100,4,2,0,15,0,0
115810,-100,4,1,0,10,0,0
119190,428.571428571429,4,2,0,15,1,0
119190,-66.6666666666667,4,2,0,10,0,0
120047,-66.6666666666667,4,2,5,10,0,1
121761,-100,4,2,5,10,0,1
123475,-66.6666666666667,4,2,5,10,0,1
125190,-100,4,2,5,10,0,1
126904,-66.6666666666667,4,2,5,10,0,1
128618,-100,4,2,5,10,0,1
130332,-66.6666666666667,4,2,5,10,0,1
132047,-100,4,2,5,10,0,1
133761,-66.6666666666667,4,2,5,10,0,1
135475,-100,4,2,5,10,0,1
137190,-66.6666666666667,4,2,5,10,0,1
138904,-100,4,2,5,10,0,1
140618,-66.6666666666667,4,2,5,10,0,1
142332,-100,4,2,5,10,0,1
144047,-66.6666666666667,4,2,5,10,0,1
145761,-40,4,2,5,10,0,1
147475,-66.6666666666667,4,2,5,0,0,0

[HitObjects]
256,192,44,12,4,3508,0:0:0:0:
256,192,3544,12,4,6936,0:0:0:0:
256,192,6972,12,4,10365,0:0:0:0:
32,192,13758,5,4,0:1:0:0:
128,256,14186,1,2,0:0:0:0:
224,320,14615,1,0,0:0:0:0:
320,384,15044,1,0,0:0:0:0:
106,192,15472,1,0,0:0:0:0:
170,234,15901,1,2,0:0:0:0:
234,277,16329,1,0,0:0:0:0:
298,320,16758,1,0,0:0:0:0:
213,320,17186,5,4,0:1:0:0:
277,277,17615,1,2,0:0:0:0:
341,234,18044,1,0,0:0:0:0:
405,192,18472,1,0,0:0:0:0:
192,384,18901,1,0,0:0:0:0:
288,320,19329,1,2,0:0:0:0:
384,256,19758,1,0,0:0:0:0:
480,192,20186,1,0,0:0:0:0:
288,64,20615,6,0,B|208:48|208:48|160:80,3,140,4|2|0|0,0:1|0:0|0:0|0:0,0:0:0:0:
384,288,22329,2,0,B|448:256|448:256|432:224|464:192,3,140,0|2|0|0,0:0|0:0|0:0|0:0,0:0:0:0:
224,64,24044,6,0,B|304:48|304:48|352:80,3,140,4|2|0|0,0:1|0:0|0:0|0:0,0:0:0:0:
128,288,25758,2,0,B|64:256|64:256|80:224|48:192,3,140,0|2|0|0,0:0|0:0|0:0|0:0,0:0:0:0:
80,192,27472,5,4,0:1:0:0:
240,192,27901,1,2,0:0:0:0:
144,192,28329,1,0,0:0:0:0:
304,192,28758,1,0,0:0:0:0:
208,192,29186,1,0,0:0:0:0:
368,192,29615,1,2,0:0:0:0:
272,192,30044,1,0,0:0:0:0:
432,192,30472,1,0,0:0:0:0:
512,192,30901,5,4,0:1:0:0:
64,64,31061,5,0,0:0:0:0:
32,60,31115,5,0,0:0:0:0:
44,80,31169,5,0,0:0:0:0:
40,92,31222,5,0,0:0:0:0:
0,192,31329,1,2,0:0:0:0:
64,320,31758,1,0,0:0:0:0:
128,224,32186,1,0,0:0:0:0:
448,64,32454,5,0,0:0:0:0:
480,60,32508,5,0,0:0:0:0:
468,80,32561,5,0,0:0:0:0:
472,92,32615,5,0,0:0:0:0:
448,320,33044,1,2,0:0:0:0:
384,224,33472,1,0,0:0:0:0:
256,192,33901,1,0,0:0:0:0:
428,324,34329,5,4,0:1:0:0:
48,96,34651,6,0,L|24:96,2,23.3333333333333,2|0|0,0:0|0:0|0:0,0:0:0:0:
152,132,34865,6,0,L|176:132,2,23.3333333333333,2|0|0,0:0|0:0|0:0,0:0:0:0:
88,160,35079,6,0,L|64:160,2,23.3333333333333,2|0|0,0:0|0:0|0:0,0:0:0:0:
192,196,35294,6,0,L|216:196,2,23.3333333333333,2|0|0,0:0|0:0|0:0,0:0:0:0:
84,324,35615,1,0,0:0:0:0:
352,256,36044,2,0,P|376:192|352:128,1,140,0|2,0:0|0:0,0:0:0:0:
160,127,36901,2,0,P|136:191|160:256,1,140
432,128,37758,5,4,0:1:0:0:
239,112,37972,5,0,0:0:0:0:
212,113,37999,5,0,0:0:0:0:
185,115,38026,5,0,0:0:0:0:
157,118,38052,5,0,0:0:0:0:
133,122,38079,5,0,0:0:0:0:
109,126,38106,5,0,0:0:0:0:
86,132,38133,5,0,0:0:0:0:
66,138,38160,5,0,0:0:0:0:
48,145,38186,5,0,0:0:0:0:
33,152,38213,5,0,0:0:0:0:
20,160,38240,5,0,0:0:0:0:
11,168,38267,5,0,0:0:0:0:
4,176,38294,5,0,0:0:0:0:
0,185,38320,5,0,0:0:0:0:
0,194,38347,5,0,0:0:0:0:
1,203,38374,5,0,0:0:0:0:
8,211,38401,5,0,0:0:0:0:
16,220,38427,5,0,0:0:0:0:
27,228,38454,5,0,0:0:0:0:
41,235,38481,5,0,0:0:0:0:
57,242,38508,5,0,0:0:0:0:
77,249,38535,5,0,0:0:0:0:
98,254,38561,5,0,0:0:0:0:
122,259,38588,5,0,0:0:0:0:
146,263,38615,5,0,0:0:0:0:
172,267,38642,5,0,0:0:0:0:
199,269,38669,5,0,0:0:0:0:
227,270,38695,5,0,0:0:0:0:
256,271,38722,5,0,0:0:0:0:
283,270,38749,5,0,0:0:0:0:
312,269,38776,5,0,0:0:0:0:
338,267,38802,5,0,0:0:0:0:
365,263,38829,5,0,0:0:0:0:
389,259,38856,5,0,0:0:0:0:
412,254,38883,5,0,0:0:0:0:
434,248,38910,5,0,0:0:0:0:
452,242,38936,5,0,0:0:0:0:
470,235,38963,5,0,0:0:0:0:
483,227,38990,5,0,0:0:0:0:
494,219,39017,5,0,0:0:0:0:
503,211,39044,5,0,0:0:0:0:
508,202,39070,5,0,0:0:0:0:
510,193,39097,5,0,0:0:0:0:
510,185,39124,5,0,0:0:0:0:
505,176,39151,5,0,0:0:0:0:
499,168,39177,5,0,0:0:0:0:
489,159,39204,5,0,0:0:0:0:
476,152,39231,5,0,0:0:0:0:
460,144,39258,5,0,0:0:0:0:
442,138,39285,5,0,0:0:0:0:
421,131,39311,5,0,0:0:0:0:
400,126,39338,5,0,0:0:0:0:
376,122,39365,5,0,0:0:0:0:
350,118,39392,5,0,0:0:0:0:
323,115,39419,5,0,0:0:0:0:
296,113,39445,5,0,0:0:0:0:
268,112,39472,5,0,0:0:0:0:
80,128,39901,5,2,0:0:0:0:
320,96,40329,2,0,B|256:68|256:68|192:96,2,140,0|0|4,0:0|0:1|0:1,0:0:0:0:
255,370,44615,5,0,0:0:0:0:
86,247,45258,1,0,0:0:0:0:
151,47,45794,1,0,0:0:0:0:
361,47,46329,1,2,0:0:0:0:
425,247,46758,5,2,0:0:0:0:
33,192,48044,5,2,0:0:0:0:
71,192,48070,5,2,0:0:0:0:
108,192,48097,5,2,0:0:0:0:
145,192,48124,5,2,0:0:0:0:
182,192,48151,5,2,0:0:0:0:
220,192,48177,5,2,0:0:0:0:
256,192,48204,5,2,0:0:0:0:
294,192,48231,5,2,0:0:0:0:
331,192,48258,5,2,0:0:0:0:
369,192,48285,5,2,0:0:0:0:
405,192,48311,5,2,0:0:0:0:
442,192,48338,5,2,0:0:0:0:
479,192,48365,5,2,0:0:0:0:
416,112,49972,5,0,0:0:0:0:
256,64,50186,1,2,0:0:0:0:
96,112,50615,5,2,0:0:0:0:
512,192,51044,5,0,0:0:0:0:
0,192,51472,5,4,0:1:0:0:
32,192,51614,2,0,B|312:192|312:192|32:192,1,560
64,192,54900,6,0,B|220:128|160:68|160:68|68:128|176:256|176:256|256:280|256:280|336:256|336:256|444:128|352:68|352:68|292:128|448:192|448:192,1,980,4|0,0:0|0:0,0:0:0:0:
152,144,58408,6,0,P|52:276|184:212,1,420
360,144,60176,2,0,P|460:276|328:212,1,420
192,64,61998,6,0,B|160:160|160:160|384:96|416:320|160:224|256:352|256:352|352:224|96:320|128:96|352:160|352:160|320:64,1,980
64,64,65346,6,0,B|4:152|124:192|124:192|276:320|40:340,1,420
448,64,67033,2,0,B|508:152|388:192|388:192|236:320|472:340,1,420
256,192,68614,1,2,0:0:0:0:
444,328,78471,5,0,0:0:0:0:
68,56,78900,5,0,0:0:0:0:
136,240,81042,5,2,2:2:0:0:
256,192,81685,1,2,2:2:0:0:
376,144,82328,1,2,2:2:0:0:
75,120,82757,1,4,0:0:0:0:
256,192,83400,1,4,0:0:0:0:
436,264,84042,1,4,0:0:0:0:
444,56,85328,5,0,0:0:0:0:
68,328,85757,5,0,0:0:0:0:
376,240,87900,5,2,2:2:0:0:
256,192,88542,1,2,2:2:0:0:
136,144,89185,1,2,2:2:0:0:
512,0,90900,1,2,0:0:0:0:
68,328,92185,5,0,0:0:0:0:
444,56,92614,5,0,0:0:0:0:
136,144,94757,5,2,0:0:0:0:
256,192,95400,1,2,0:0:0:0:
376,240,96042,1,2,0:0:0:0:
68,56,99042,5,0,0:0:0:0:
444,328,99471,5,0,0:0:0:0:
376,144,101614,5,2,1:2:0:0:
256,192,102257,1,2,1:2:0:0:
136,240,102900,1,2,1:2:0:0:
0,0,105900,5,0,0:0:0:0:
512,384,106328,5,4,0:0:0:0:
0,384,107185,5,0,0:0:0:0:
202,79,108953,1,0,2:0:0:0:
367,138,109167,1,0,2:0:0:0:
143,244,109382,1,0,2:0:0:0:
308,303,109596,1,0,2:0:0:0:
256,192,109757,1,0,0:0:0:0:
512,0,110614,1,0,0:0:0:0:
313,314,112382,5,0,2:0:0:0:
134,249,112596,1,0,2:0:0:0:
378,135,112810,1,0,2:0:0:0:
199,70,113025,1,0,2:0:0:0:
256,192,113185,1,0,0:0:0:0:
188,27,113614,6,0,L|325:-9,1,140,2|0,0:0|0:0,0:0:0:0:
78,202,114257,2,0,L|104:342,1,140,2|0,0:0|0:0,0:0:0:0:
303,221,114900,1,2,0:0:0:0:
424,240,115810,5,0,2:0:0:0:
312,104,116025,1,0,2:0:0:0:
200,280,116239,1,0,2:0:0:0:
88,144,116453,1,0,2:0:0:0:
512,160,116614,1,0,0:0:0:0:
0,224,117471,1,0,0:0:0:0:
256,96,119190,6,0,P|254:-38|255:96,2,420.000016021729,0|8|8,0:0|0:0|0:0,0:0:0:0:
320,240,121332,5,8,0:0:0:0:
304,128,121440,5,8,0:0:0:0:
192,144,121547,5,8,0:0:0:0:
208,256,121654,5,8,0:0:0:0:
352,128,121761,6,0,P|486:130|352:129,1,420.000016021729,8|8,0:0|0:0,0:0:0:0:
453,71,122190,1,8,0:0:0:0:
160,160,123475,6,0,P|26:162|160:161,1,420.000016021729,8|8,0:0|0:0,0:0:0:0:
326,244,124761,5,8,0:0:0:0:
308,121,124868,5,8,0:0:0:0:
185,139,124975,5,8,0:0:0:0:
203,262,125082,5,8,0:0:0:0:
352,192,125190,6,0,P|486:194|352:193,1,420.000016021729,8|8,0:0|0:0,0:0:0:0:
453,135,125618,1,8,0:0:0:0:
160,224,126904,6,0,P|26:226|160:225,1,420.000016021729,8|8,0:0|0:0,0:0:0:0:
332,249,128190,5,8,0:0:0:0:
313,115,128297,5,8,0:0:0:0:
179,134,128404,5,8,0:0:0:0:
198,268,128511,5,8,0:0:0:0:
352,256,128618,6,0,P|486:258|352:257,1,420.000016021729,8|8,0:0|0:0,0:0:0:0:
453,199,129047,1,8,0:0:0:0:
256,288,130332,6,0,P|254:422|255:288,1,420.000016021729,8|8,0:0|0:0,0:0:0:0:
416,192,131618,5,8,0:0:0:0:
336,192,131725,5,8,0:0:0:0:
96,192,131832,5,8,0:0:0:0:
176,192,131940,5,8,0:0:0:0:
256,192,132047,6,0,B|363:192|363:192|153:192|153:192|256:192,1,420,8|8,0:0|0:0,0:0:0:0:
330,192,132475,1,8,0:0:0:0:
256,288,133761,6,0,P|258:422|257:288,1,420.000016021729,8|8,0:0|0:0,0:0:0:0:
177,133,135047,5,8,0:0:0:0:
197,269,135154,5,8,0:0:0:0:
313,113,135261,5,8,0:0:0:0:
333,249,135368,5,8,0:0:0:0:
32,256,135475,6,0,P|166:258|32:257,1,420.000016021729,8|8,0:0|0:0,0:0:0:0:
133,199,135904,1,8,0:0:0:0:
480,224,137190,6,0,P|346:226|480:225,1,420.000016021729,8|8,0:0|0:0,0:0:0:0:
171,128,138475,5,8,0:0:0:0:
192,277,138582,5,8,0:0:0:0:
319,107,138690,5,8,0:0:0:0:
341,255,138797,5,8,0:0:0:0:
32,192,138904,6,0,P|166:193|32:193,1,420.000016021729,8|8,0:0|0:0,0:0:0:0:
133,135,139332,1,8,0:0:0:0:
480,160,140618,6,0,P|346:162|480:161,1,420.000016021729,8|8,0:0|0:0,0:0:0:0:
163,122,141904,5,8,0:0:0:0:
186,284,142011,5,8,0:0:0:0:
325,99,142118,5,8,0:0:0:0:
348,261,142225,5,8,0:0:0:0:
32,128,142332,6,0,P|166:130|32:129,1,420.000016021729,8|8,0:0|0:0,0:0:0:0:
133,70,142761,1,8,0:0:0:0:
256,96,144047,6,0,P|258:-38|257:96,1,420.000016021729,8|8,0:0|0:0,0:0:0:0:
166,192,145332,5,8,0:0:0:0:
76,192,145440,5,8,0:0:0:0:
345,192,145547,5,8,0:0:0:0:
435,192,145654,5,8,0:0:0:0:
256,192,145761,6,0,B|80:192|80:192|430:192|430:192|256:192,2,700,8|0|0,0:0|0:0|0:0,0:0:0:0:
256,192,146190,1,8,0:0:0:0:
256,192,147047,1,8,0:0:0:0:
