osu file format v14

[General]
AudioFilename: Repentance.mp3
AudioLeadIn: 1996
PreviewTime: 76215
Countdown: 0
SampleSet: Soft
StackLeniency: 0.7
Mode: 2
LetterboxInBreaks: 1
WidescreenStoryboard: 0

[Editor]
DistanceSpacing: 1
BeatDivisor: 16
GridSize: 4
TimelineZoom: 0.4239999

[Metadata]
Title:Various BGM
TitleUnicode:Various BGM
Artist:Wizet, Nexon
ArtistUnicode:Wizet, Nexon
Creator:ExGon
Version:Repentance
Source:Maplestory
Tags:CODA SOUND Studio EIM Takkyu Ishino Riena Strait Henesys Market Haze Temple of Time Road Oblivion Regrets Sharenian Guild Quest Taiwan World Tour El Nath Territory Dead Trees Grand Athenaeum Resistance Xenon Tutorial Beryl Ludibrium Castle Dimensional Schism Tenyo
BeatmapID:510521
BeatmapSetID:217667

[Difficulty]
HPDrainRate:4
CircleSize:5
OverallDifficulty:0
ApproachRate:8
SliderMultiplier:1.7
SliderTickRate:1

[Events]
//Background and Video events
0,0,"repentance.jpg",0,0
//Break Periods
2,132221,133371
//Storyboard Layer 0 (Background)
//Storyboard Layer 1 (Fail)
//Storyboard Layer 2 (Pass)
//Storyboard Layer 3 (Foreground)
//Storyboard Sound Samples

[TimingPoints]
21,600,4,2,0,20,1,0
171,-100,4,2,0,30,0,0
1071,-100,4,2,0,5,0,0
1371,-100,4,2,0,30,0,0
4371,-100,4,2,0,20,0,0
4971,-100,4,2,0,30,0,0
9171,-100,4,2,0,20,0,0
9771,-100,4,2,0,30,0,0
13971,-100,4,2,0,20,0,0
14571,-100,4,2,0,30,0,0
18771,-100,4,2,0,32,0,0
18921,-100,4,2,0,34,0,0
19071,-100,4,2,0,36,0,0
19221,-100,4,2,0,38,0,0
19371,-100,4,2,0,30,0,0
20421,-100,4,2,0,38,0,0
20571,-100,4,2,0,30,0,0
21621,-100,4,2,0,38,0,0
21771,-100,4,2,0,30,0,0
22821,-100,4,2,0,38,0,0
22971,-100,4,2,0,30,0,0
23721,-100,4,2,0,20,0,0
24021,-100,4,2,0,38,0,0
24171,-100,4,2,0,30,0,0
25221,-100,4,2,0,38,0,0
25371,-100,4,2,0,30,0,0
26421,-100,4,2,0,38,0,0
26571,-100,4,2,0,30,0,0
27621,-100,4,2,0,38,0,0
27771,-100,4,2,0,30,0,0
28821,-100,4,2,0,38,0,0
28971,-100,4,2,0,30,0,0
31221,-100,4,2,0,38,0,0
31371,-100,4,2,0,30,0,0
33321,-100,4,2,0,20,0,0
33771,-100,4,2,0,30,0,0
34821,-100,4,2,0,38,0,0
34971,-100,4,2,0,30,0,0
36021,-100,4,2,0,38,0,0
36171,-100,4,2,0,30,0,0
37221,-100,4,2,0,38,0,0
37371,-100,4,2,0,30,0,0
37821,-100,4,2,0,32,0,0
37971,-100,4,2,0,34,0,0
38121,-100,4,2,0,36,0,0
38271,-100,4,2,0,38,0,0
38421,-100,4,2,0,40,0,0
40971,-100,4,2,0,38,0,0
41271,-100,4,2,0,36,0,0
41571,-100,4,2,0,34,0,0
42771,-100,4,2,0,36,0,0
42921,-100,4,2,0,38,0,0
43071,-100,4,2,0,40,0,0
43221,-100,4,2,0,42,0,0
45771,-100,4,2,0,40,0,0
46071,-100,4,2,0,38,0,0
46371,-100,4,2,0,36,0,0
46671,-50,4,2,0,38,0,0
51621,-100,4,2,0,38,0,0
53571,-200,4,2,0,38,0,0
54621,-100,4,2,0,38,0,0
54921,-100,4,2,0,37,0,0
55221,-100,4,2,0,36,0,0
55521,-100,4,2,0,35,0,0
55821,-100,4,2,0,34,0,0
56121,-100,4,2,0,33,0,0
56421,-100,4,2,0,32,0,0
57021,-100,4,2,0,34,0,0
57621,-50,4,2,0,36,0,0
58221,-50,4,2,0,40,0,0
58521,-50,4,2,0,36,0,0
60621,-50,4,2,0,40,0,0
60921,-50,4,2,0,36,0,0
63021,-50,4,2,0,40,0,0
63321,-50,4,2,0,36,0,0
65421,-50,4,2,0,40,0,0
65721,-50,4,2,0,36,0,0
67821,-50,4,2,0,40,0,0
68121,-50,4,2,0,36,0,0
70221,-50,4,2,0,40,0,0
70521,-50,4,2,0,36,0,0
72621,-50,4,2,0,40,0,0
72921,-50,4,2,0,36,0,0
74721,-50,4,2,0,34,0,0
75021,-50,4,2,0,32,0,0
75321,-50,4,2,0,30,0,0
75621,-50,4,2,0,28,0,0
76221,-50,4,2,0,30,0,0
76371,-50,4,2,0,32,0,0
76521,-50,4,2,0,34,0,0
76671,-50,4,2,0,36,0,0
76821,-100,4,2,0,38,0,0
76971,-100,4,2,0,34,0,0
78021,-100,4,2,0,38,0,0
78171,-100,4,2,0,34,0,0
79221,-100,4,2,0,38,0,0
79371,-100,4,2,0,34,0,0
80421,-100,4,2,0,38,0,0
80571,-100,4,2,0,34,0,0
81621,-100,4,2,0,38,0,0
81771,-100,4,2,0,34,0,0
82821,-100,4,2,0,38,0,0
82971,-100,4,2,0,34,0,0
83721,-100,4,2,0,32,0,0
84021,-100,4,2,0,38,0,0
84171,-100,4,2,0,34,0,0
85221,-100,4,2,0,38,0,0
85371,-100,4,2,0,34,0,0
86421,-100,4,2,0,38,0,0
86571,-100,4,2,0,34,0,0
87621,-100,4,2,0,38,0,0
87771,-100,4,2,0,34,0,0
88821,-100,4,2,0,38,0,0
89271,-100,4,2,0,34,0,0
90021,-100,4,2,0,38,0,0
90171,-100,4,2,0,34,0,0
91221,-100,4,2,0,38,0,0
91371,-100,4,2,0,34,0,0
92421,-100,4,2,0,38,0,0
92571,-100,4,2,0,34,0,0
93621,-100,4,2,0,38,0,0
93771,-100,4,2,0,34,0,0
94821,-100,4,2,0,38,0,0
95571,-100,4,2,0,40,0,0
95721,-100,4,2,0,42,0,0
95871,-100,4,2,0,44,0,0
96021,-97.0873786407767,4,2,1,46,0,1
96171,-97.0873786407767,4,2,0,46,0,1
98421,-100,4,1,1,46,0,1
98571,-100,4,2,0,46,0,1
100221,-100,4,2,0,38,0,1
100371,-100,4,2,0,40,0,1
100521,-100,4,2,0,42,0,1
100671,-100,4,2,0,44,0,1
100821,-95.2380952380952,4,2,1,46,0,1
100971,-97.0873786407767,4,2,0,46,0,1
103221,-100,4,1,1,46,0,1
103371,-100,4,2,0,46,0,1
105621,-50,4,2,1,46,0,1
105771,-50,4,2,0,46,0,1
108021,-47.6190476190476,4,1,1,46,0,1
108171,-47.6190476190476,4,2,0,46,0,1
109821,-50,4,2,0,46,0,1
110421,-50,4,2,1,46,0,1
110571,-50,4,2,0,46,0,1
112821,-50,4,2,1,46,0,1
112971,-50,4,2,0,46,0,1
113721,300,4,2,0,46,1,1
113721,-50,4,2,0,46,0,1
114021,-50,4,1,1,46,0,1
114771,-50,4,2,0,46,0,1
115183,-50,4,2,0,46,0,0
115221,600,4,2,1,46,1,1
115221,-50,4,2,1,46,0,1
117021,-50,4,2,1,50,0,1
117171,-50,4,2,1,46,0,1
117621,-50,4,1,1,46,0,1
117771,-50,4,2,1,46,0,1
122421,-50,4,1,1,46,0,1
122571,-50,4,2,1,46,0,1
123321,-50,4,2,1,50,0,1
123471,-50,4,2,1,46,0,1
127221,-50,4,1,1,46,0,1
127371,-50,4,2,1,46,0,1
128121,-50,4,2,1,50,0,1
128721,-50,4,2,1,46,0,1
129021,300,4,2,1,46,1,1
129021,-50,4,2,1,46,0,1
129621,600,4,2,1,46,1,1
129621,-50,4,2,1,46,0,1
132021,-50,4,1,1,46,0,1
132058,-100,4,2,1,40,0,0
134721,-100,4,2,1,20,0,0
136521,-100,4,2,1,40,0,0
136821,-100,4,2,1,20,0,0
138921,-100,4,2,1,40,0,0
139521,-100,4,2,1,20,0,0
140421,-100,4,2,1,40,0,0
143421,-100,4,2,1,45,0,0
143571,-100,4,2,1,40,0,0
144321,-100,4,2,1,20,0,0
151108,-100,4,2,1,30,0,0
151183,-100,4,2,1,5,0,0

[Colours]
Combo1 : 77,164,251
Combo2 : 216,209,186

[HitObjects]
224,48,21,5,2,0:0:0:0:
160,64,321,1,0,0:0:0:0:
112,112,621,1,0,0:0:0:0:
96,176,921,1,0,0:0:0:0:
288,336,1221,5,0,0:0:0:0:
352,320,1521,1,0,0:0:0:0:
400,272,1821,1,0,0:0:0:0:
416,208,2121,1,0,0:0:0:0:
224,336,2421,5,0,0:0:0:0:
160,320,2721,1,0,0:0:0:0:
112,272,3021,1,0,0:0:0:0:
288,48,3321,1,2,0:0:0:0:
352,64,3621,5,0,0:0:0:0:
96,208,3921,1,2,0:0:0:0:
400,112,4221,1,0,0:0:0:0:
416,176,4521,1,2,0:0:0:0:
256,192,4821,6,0,L|160:192,1,85,2|0,0:0|0:0,0:0:0:0:
32,112,5421,6,0,P|112:32|240:64,1,255,2|0,0:0|0:0,0:0:0:0:
480,144,6621,2,0,P|400:224|272:192,1,255,2|0,0:0|0:0,0:0:0:0:
32,272,7821,2,0,P|112:352|240:320,1,255,2|0,0:0|0:0,0:0:0:0:
384,232,9021,5,0,0:0:0:0:
157,282,9321,1,2,0:0:0:0:
226,61,9621,1,2,0:0:0:0:
40,144,9921,6,0,B|24:192|24:192|32:232,2,85,0|0|0,0:0|0:0|0:0,0:0:0:0:
256,192,10821,1,2,0:0:0:0:
472,144,11121,2,0,B|488:192|488:192|480:232,2,85,0|0|0,0:0|0:0|0:0,0:0:0:0:
178,284,12021,5,0,0:0:0:0:
333,99,12321,1,2,0:0:0:0:
163,114,12621,1,0,0:0:0:0:
348,269,12921,1,2,0:0:0:0:
302,355,13221,5,0,0:0:0:0:
91,150,13521,1,2,0:0:0:0:
420,233,13821,1,0,0:0:0:0:
209,28,14121,1,2,0:0:0:0:
374,69,14421,1,2,0:0:0:0:
137,314,14721,1,0,0:0:0:0:
128,96,15021,6,0,B|103:79|103:79|93:84|93:84|83:89|83:89|55:70,1,85,0|0,0:0|0:0,0:0:0:0:
291,205,15621,2,0,B|266:188|266:188|256:193|256:193|246:198|246:198|218:179,1,85,2|0,0:0|0:0,0:0:0:0:
456,313,16221,2,0,B|428:294|428:294|418:299|418:299|408:304|408:304|384:288,1,85,0|0,0:0|0:0,0:0:0:0:
312,108,16821,6,0,P|353:103|390:121,1,85,2|0,0:0|0:0,0:0:0:0:
121,262,17421,2,0,P|158:280|200:276,1,85,0|0,0:0|0:0,0:0:0:0:
384,192,18021,5,2,0:0:0:0:
128,192,18321,1,2,0:0:0:0:
280,259,18621,5,0,0:0:0:0:
196,151,18771,1,2,0:0:0:0:
328,189,18921,1,2,0:0:0:0:
199,236,19071,1,2,0:0:0:0:
275,122,19221,1,2,0:0:0:0:
121,74,19521,6,0,L|160:101,1,42.5,0|0,0:0|0:0,0:0:0:0:
64,112,19821,2,0,L|136:162,1,85,2|0,0:0|0:0,0:0:0:0:
64,112,20421,1,2,0:0:0:0:
425,134,20721,2,0,L|382:154,1,42.5,0|0,0:0|0:0,0:0:0:0:
421,65,21021,2,0,L|341:102,1,85,2|0,0:0|0:0,0:0:0:0:
421,65,21621,1,2,0:0:0:0:
221,367,21921,2,0,L|225:320,1,42.5,0|0,0:0|0:0,0:0:0:0:
282,398,22221,2,0,L|290:310,1,85,2|0,0:0|0:0,0:0:0:0:
282,398,22821,1,2,0:0:0:0:
78,206,23121,6,0,L|124:197,1,42.5,0|0,0:0|0:0,0:0:0:0:
65,273,23421,2,0,L|151:257,1,85,2|2,0:0|0:0,0:0:0:0:
65,273,24021,1,2,0:0:0:0:
241,14,24321,2,0,L|250:60,1,42.5,0|0,0:0|0:0,0:0:0:0:
174,1,24621,2,0,L|190:87,1,85,2|0,0:0|0:0,0:0:0:0:
174,1,25221,1,2,0:0:0:0:
433,177,25521,2,0,L|387:186,1,42.5,0|0,0:0|0:0,0:0:0:0:
446,110,25821,2,0,L|360:126,1,85,2|0,0:0|0:0,0:0:0:0:
446,110,26421,1,2,0:0:0:0:
270,369,26721,2,0,L|261:323,1,42.5,0|0,0:0|0:0,0:0:0:0:
337,382,27021,2,0,L|321:296,1,85,2|0,0:0|0:0,0:0:0:0:
337,382,27621,1,2,0:0:0:0:
138,167,27921,5,2,0:0:0:0:
280,74,28221,1,0,0:0:0:0:
231,309,28521,1,2,0:0:0:0:
373,216,28821,1,2,0:0:0:0:
64,288,29121,6,0,L|112:288,1,42.5,0|0,0:0|0:0,0:0:0:0:
192,224,29421,2,0,L|104:223,1,85,2|0,0:0|0:0,0:0:0:0:
48,160,29871,2,0,L|136:160,1,85,0|0,0:0|0:0,0:0:0:0:
32,96,30321,2,0,L|120:96,3,85,0|2|0|2,0:0|0:0|0:0|0:0,0:0:0:0:
448,96,31521,6,0,L|400:96,1,42.5,0|0,0:0|0:0,0:0:0:0:
320,159,31821,2,0,L|408:160,1,85,2|0,0:0|0:0,0:0:0:0:
464,223,32271,2,0,L|376:224,1,85,0|0,0:0|0:0,0:0:0:0:
480,288,32721,2,0,L|392:288,3,85,0|2|2|2,0:0|0:0|0:0|0:0,0:0:0:0:
78,358,33921,6,0,L|161:328,3,85,0|2|0|2,0:0|0:0|0:0|0:0,0:0:0:0:
433,358,35121,2,0,L|350:328,3,85,0|2|0|2,0:0|0:0|0:0|0:0,0:0:0:0:
32,288,36321,6,0,L|114:257,1,85,0|2,0:0|0:0,0:0:0:0:
480,288,36921,2,0,L|397:257,1,85,0|2,0:0|0:0,0:0:0:0:
256,192,37521,1,2,0:0:0:0:
0,128,37821,5,0,0:0:0:0:
128,160,37971,5,2,0:0:0:0:
256,192,38121,1,2,0:0:0:0:
384,224,38271,1,2,0:0:0:0:
512,256,38421,5,2,0:0:0:0:
128,352,38721,1,2,0:0:0:0:
512,256,39021,1,0,0:0:0:0:
0,256,39621,1,2,0:0:0:0:
384,352,39921,1,0,0:0:0:0:
0,256,40221,1,0,0:0:0:0:
32,80,40821,5,2,0:0:0:0:
392,344,41121,1,2,0:0:0:0:
120,344,41421,1,0,0:0:0:0:
480,80,41721,1,2,0:0:0:0:
512,128,42621,5,0,0:0:0:0:
384,160,42771,5,2,0:0:0:0:
256,192,42921,1,2,0:0:0:0:
128,224,43071,1,2,0:0:0:0:
0,256,43221,5,2,0:0:0:0:
384,352,43521,1,2,0:0:0:0:
0,256,43821,1,0,0:0:0:0:
512,256,44421,1,2,0:0:0:0:
128,352,44721,1,0,0:0:0:0:
512,256,45021,1,0,0:0:0:0:
480,80,45621,5,2,0:0:0:0:
120,344,45921,1,2,0:0:0:0:
392,344,46221,1,0,0:0:0:0:
32,80,46521,1,2,0:0:0:0:
40,104,48021,6,0,P|208:84|376:104,1,340,2|0,0:0|0:0,0:0:0:0:
472,280,49221,2,0,P|304:300|136:280,1,340,2|0,0:0|0:0,0:0:0:0:
112,152,50421,6,0,P|196:144|280:152,1,170,2|2,0:0|0:0,0:0:0:0:
400,232,51021,2,0,P|316:240|232:232,1,170,0|2,0:0|0:0,0:0:0:0:
256,48,51921,5,0,0:0:0:0:
256,240,52221,1,0,0:0:0:0:
256,144,52521,5,2,0:0:0:0:
256,336,52821,1,2,0:0:0:0:
128,288,53121,6,0,L|104:184,1,85,2|0,0:0|0:0,0:0:0:0:
384,288,53721,2,0,L|408:184,1,85,2|0,0:0|0:0,0:0:0:0:
79,169,54621,5,2,0:0:0:0:
110,90,54921,1,0,0:0:0:0:
339,35,55221,1,2,0:0:0:0:
174,34,55521,1,2,0:0:0:0:
256,14,55821,1,0,0:0:0:0:
402,91,56121,1,2,0:0:0:0:
432,171,56421,1,2,0:0:0:0:
0,160,57021,5,2,0:0:0:0:
512,224,57621,1,0,0:0:0:0:
344,224,57921,6,0,P|280:192|344:160,2,170,0|2|0,0:0|0:0|0:0,0:0:0:0:
168,160,58821,2,0,P|232:192|168:224,2,170,0|0|0,0:0|0:0|0:0,0:0:0:0:
256,116,59571,1,0,0:0:0:0:
48,316,60021,6,0,P|160:296|166:260,1,170,0|0,0:0|0:0,0:0:0:0:
346,260,60621,2,0,P|352:296|464:316,1,170,2|0,0:0|0:0,0:0:0:0:
464,144,61221,6,0,P|384:80|260:72,1,170,0|0,0:0|0:0,0:0:0:0:
48,144,61821,2,0,P|128:80|252:72,1,170
448,44,62421,6,0,P|368:92|400:220,1,170
64,44,63021,2,0,P|144:92|112:220,1,170,2|0,0:0|0:0,0:0:0:0:
432,172,63621,6,0,L|408:360,1,170
80,172,64221,2,0,L|104:360,1,170
340,92,64821,6,0,B|472:60|472:60|448:92,3,170,0|0|2|0,0:0|0:0|0:0|0:0,0:0:0:0:
172,92,66021,2,0,B|40:60|40:60|64:92,3,170
32,192,67221,5,0,0:0:0:0:
168,212,67521,1,0,0:0:0:0:
32,184,67821,5,2,0:0:0:0:
305,230,68121,1,0,0:0:0:0:
168,204,68421,5,0,0:0:0:0:
305,230,68721,1,0,0:0:0:0:
33,168,69021,5,0,0:0:0:0:
344,172,69621,5,0,0:0:0:0:
208,152,69921,1,0,0:0:0:0:
343,176,70221,5,2,0:0:0:0:
206,153,70521,1,0,0:0:0:0:
479,207,70821,5,0,0:0:0:0:
342,181,71121,1,0,0:0:0:0:
478,215,71421,5,0,0:0:0:0:
204,157,71721,1,0,0:0:0:0:
104,52,72021,6,0,L|40:220,1,170
194,389,72621,2,0,L|54:275,1,170,2|0,0:0|0:0,0:0:0:0:
396,40,73221,6,0,L|228:-24,1,170
453,253,73821,2,0,L|339:393,1,170,0|0,0:0|0:0,0:0:0:0:
206,327,74421,5,0,0:0:0:0:
375,111,74721,1,0,0:0:0:0:
111,186,75021,1,0,0:0:0:0:
369,281,75321,1,0,0:0:0:0:
216,52,75621,1,0,0:0:0:0:
0,128,76221,5,0,0:0:0:0:
128,160,76371,5,0,0:0:0:0:
256,192,76521,1,0,0:0:0:0:
384,224,76671,1,0,0:0:0:0:
512,256,76821,5,2,0:0:0:0:
122,310,77121,6,0,L|154:275,1,42.5,0|0,0:0|0:0,0:0:0:0:
152,372,77421,2,0,L|212:306,1,85,2|0,0:0|0:0,0:0:0:0:
152,372,78021,1,2,0:0:0:0:
433,178,78321,6,0,L|386:176,1,42.5,0|0,0:0|0:0,0:0:0:0:
457,242,78621,2,0,L|368:240,1,85,2|0,0:0|0:0,0:0:0:0:
457,242,79221,1,2,0:0:0:0:
104,98,79521,6,0,L|141:127,1,42.5,0|0,0:0|0:0,0:0:0:0:
123,32,79821,2,0,L|192:86,1,85,2|0,0:0|0:0,0:0:0:0:
123,32,80421,5,2,0:0:0:0:
415,59,80721,1,2,0:0:0:0:
388,351,81021,1,0,0:0:0:0:
96,324,81321,1,2,0:0:0:0:
256,192,81621,1,2,0:0:0:0:
129,67,81921,6,0,L|158:104,1,42.5
161,7,82221,2,0,L|218:75,1,85,2|0,0:0|0:0,0:0:0:0:
161,7,82821,1,2,0:0:0:0:
420,259,83121,6,0,L|379:236,1,42.5,0|0,0:0|0:0,0:0:0:0:
412,327,83421,2,0,L|334:285,1,85,2|2,0:0|0:0,0:0:0:0:
412,327,84021,1,2,0:0:0:0:
248,369,84321,6,0,L|256:322,1,42.5,0|0,0:0|0:0,0:0:0:0:
181,385,84621,2,0,L|194:297,1,85,2|0,0:0|0:0,0:0:0:0:
181,385,85221,5,2,0:0:0:0:
330,0,85821,5,0,0:0:0:0:
62,117,86121,5,2,0:0:0:0:
449,266,86421,5,2,0:0:0:0:
432,172,86721,6,0,L|384:171,1,42.5,0|0,0:0|0:0,0:0:0:0:
458,235,87021,2,0,L|369:236,1,85,2|0,0:0|0:0,0:0:0:0:
458,235,87621,1,2,0:0:0:0:
78,187,87921,6,0,L|126:194,1,42.5,0|0,0:0|0:0,0:0:0:0:
61,120,88221,2,0,L|149:131,1,85,2|0,0:0|0:0,0:0:0:0:
61,120,88821,1,2,0:0:0:0:
318,26,89121,6,0,L|296:68,1,42.5,2|0,0:0|0:0,0:0:0:0:
386,31,89421,2,0,L|347:111,1,85,0|0,0:0|0:0,0:0:0:0:
386,31,90021,5,2,0:0:0:0:
125,31,90321,1,2,0:0:0:0:
386,31,90621,1,0,0:0:0:0:
125,31,90921,1,2,0:0:0:0:
256,192,91221,5,2,0:0:0:0:
434,358,91521,6,0,L|351:328,3,85,0|2|0|2,0:0|0:0|0:0|0:0,0:0:0:0:
79,358,92721,2,0,L|162:328,3,85,0|2|0|2,0:0|0:0|0:0|0:0,0:0:0:0:
480,288,93921,6,0,L|398:257,1,85,0|2,0:0|0:0,0:0:0:0:
32,288,94521,2,0,L|115:257,1,85,0|2,0:0|0:0,0:0:0:0:
256,192,95121,1,2,0:0:0:0:
512,128,95421,5,0,0:0:0:0:
384,160,95571,5,2,0:0:0:0:
256,192,95721,1,2,0:0:0:0:
128,224,95871,1,2,0:0:0:0:
0,256,96021,6,0,L|512:128,1,525.299995591507,4|2,0:0|0:0,0:0:0:0:
0,256,98421,5,8,0:0:0:0:
512,128,98721,1,0,0:0:0:0:
128,224,99021,1,0,0:0:0:0:
384,160,99321,1,0,0:0:0:0:
0,128,100221,5,0,0:0:0:0:
128,160,100371,5,2,0:0:0:0:
256,192,100521,1,2,0:0:0:0:
384,224,100671,1,2,0:0:0:0:
512,256,100821,6,0,L|0:128,1,525.299995591507,4|2,0:1|0:0,0:0:0:0:
512,256,103221,5,8,0:0:0:0:
0,128,103521,1,0,0:0:0:0:
384,224,103821,1,0,0:0:0:0:
128,160,104121,1,0,0:0:0:0:
32,64,105621,6,0,P|128:192|32:320,1,340,4|2,0:0|0:0,0:0:0:0:
480,64,106821,2,0,P|384:192|480:320,1,340,0|2,0:0|0:0,0:0:0:0:
126,172,108021,6,0,P|96:152|164:88,1,170,8|0,0:0|0:0,0:0:0:0:
385,172,108621,2,0,P|416:152|348:88,1,170
424,240,109821,6,0,P|256:260|88:240,1,340,0|4,0:0|0:0,0:0:0:0:
382,310,110721,5,2,0:0:0:0:
83,170,111021,1,0,0:0:0:0:
222,21,111321,1,2,0:0:0:0:
407,107,111921,1,2,0:0:0:0:
182,349,112521,1,2,0:0:0:0:
88,144,112821,6,0,P|256:124|424:144,1,340,4|0,0:0|0:0,0:0:0:0:
424,240,113721,2,0,P|256:260|88:240,1,340,2|0,0:0|0:0,0:0:0:0:
424,240,114471,5,0,0:0:0:0:
87,239,114621,1,0,0:0:0:0:
256,192,114921,1,0,0:0:0:0:
256,192,115071,1,0,0:0:0:0:
256,192,115221,1,4,0:0:0:0:
64,96,115521,6,0,P|52:204|100:228,1,170,0|2,0:0|0:0,0:0:0:0:
320,96,116121,2,0,P|308:204|356:228,1,170,0|2,0:0|0:0,0:0:0:0:
448,288,116721,6,0,P|460:180|412:156,1,170,0|2,0:0|0:0,0:0:0:0:
192,288,117321,2,0,P|204:180|156:156,1,170,0|8,0:0|0:0,0:0:0:0:
147,331,117921,5,0,0:0:0:0:
297,363,118221,1,2,0:0:0:0:
79,194,118521,1,0,0:0:0:0:
415,266,118821,1,2,0:0:0:0:
144,55,119121,1,2,0:0:0:0:
413,113,119421,1,0,0:0:0:0:
293,19,119721,1,2,0:0:0:0:
79,194,120021,6,0,P|188:192|180:272,1,170,4|0,0:0|0:0,0:0:0:0:
413,113,120471,2,0,P|436:80|472:96,1,85,0|2,0:0|0:0,0:0:0:0:
256,192,120921,1,0,0:0:0:0:
433,194,121221,6,0,P|324:192|332:272,1,170,2|0,0:0|0:0,0:0:0:0:
99,113,121671,2,0,P|76:80|40:96,1,85,0|2,0:0|0:0,0:0:0:0:
256,192,122121,1,0,0:0:0:0:
32,320,122421,6,0,B|112:328|112:328|204:320,1,170,8|0,0:0|0:0,0:0:0:0:
480,224,123021,2,0,B|400:232|400:232|308:224,1,170,0|2,0:0|0:0,0:0:0:0:
32,160,123621,2,0,B|112:152|112:152|204:160,1,170,0|2,0:0|0:0,0:0:0:0:
480,64,124221,2,0,B|400:56|400:56|308:64,2,170,2|2|4,0:0|0:0|0:0,0:0:0:0:
384,128,125121,6,0,P|472:120|488:196,1,170,0|2,0:0|0:0,0:0:0:0:
288,320,125721,2,0,P|376:328|392:252,1,170,0|2,0:0|0:0,0:0:0:0:
128,128,126321,6,0,P|40:120|24:196,1,170,0|2,0:0|0:0,0:0:0:0:
224,320,126921,2,0,P|136:328|120:252,1,170,0|8,0:0|0:0,0:0:0:0:
336,96,127521,6,0,P|256:72|176:96,1,170
268,136,128121,2,0,P|311:207|248:135,1,340,2|0,0:0|0:0,0:0:0:0:
245,135,129021,2,0,P|311:207|268:136,2,340,2|0|4,0:0|0:0|0:0,0:0:0:0:
24,116,130221,5,0,0:0:0:0:
224,60,130521,1,2,0:0:0:0:
488,116,130821,1,0,0:0:0:0:
24,268,131421,5,0,0:0:0:0:
288,324,131721,1,2,0:0:0:0:
488,268,132021,1,12,0:0:0:0:
32,128,134121,5,0,0:0:0:0:
32,128,134271,1,0,0:0:0:0:
32,128,134421,6,2,L|116:128,1,85
64,128,134721,6,2,L|148:128,1,85
96,128,135021,6,2,L|180:128,1,85
128,128,135321,6,2,L|212:128,1,85
160,128,135621,6,2,L|244:128,1,85
192,128,135921,6,2,L|276:128,1,85
224,128,136221,6,2,L|396:128,1,170
309,128,136521,1,0,0:0:0:0:
448,128,136821,6,2,L|364:128,1,85
416,128,137121,6,2,L|332:128,1,85
384,128,137421,6,2,L|300:128,1,85
352,128,137721,6,2,L|268:128,1,85
320,128,138021,6,2,L|236:128,1,85
288,128,138321,6,2,L|204:128,1,85
256,128,138621,6,2,L|172:128,1,85,2|0,0:0|0:0,0:0:0:0:
180,100,139071,1,0,0:0:0:0:
192,64,139221,6,2,L|276:64,1,85
328,64,139521,6,2,L|244:64,1,85
192,64,139821,6,2,L|276:64,1,85
328,64,140121,6,2,L|244:64,1,85,2|0,0:0|0:0,0:0:0:0:
322,327,140721,5,0,0:0:0:0:
239,341,141021,1,0,0:0:0:0:
160,308,141321,1,0,0:0:0:0:
314,52,141621,1,2,0:0:0:0:
112,238,141921,1,0,0:0:0:0:
110,153,142221,1,0,0:0:0:0:
153,81,142521,1,0,0:0:0:0:
230,43,142821,1,0,0:0:0:0:
380,106,143121,1,2,0:0:0:0:
406,187,143421,1,2,0:0:0:0:
480,128,144021,6,2,L|396:128,1,85
448,128,144321,6,2,L|364:128,1,85
416,128,144621,6,2,L|332:128,1,85
384,128,144921,6,2,L|300:128,1,85
352,128,145221,6,2,L|268:128,1,85
320,128,145521,6,2,L|236:128,1,85
288,128,145821,6,2,L|116:128,1,170
64,128,146421,6,2,L|148:128,1,85
96,128,146721,6,2,L|180:128,1,85
128,128,147021,6,2,L|212:128,1,85
160,128,147321,6,2,L|244:128,1,85
192,128,147621,6,2,L|276:128,1,85
224,128,147921,6,2,L|308:128,1,85
256,128,148221,6,2,L|428:128,1,170,2|0,0:0|0:0,0:0:0:0:
480,128,148821,6,2,L|396:128,1,85
448,128,149121,6,2,L|364:128,1,85
416,128,149421,6,2,L|332:128,1,85
384,128,149721,6,2,L|300:128,1,85
352,128,150021,6,2,L|308:128,1,42.5,2|0,0:0|0:0,0:0:0:0:
172,128,150583,5,0,0:0:0:0:
309,128,151108,5,0,0:0:0:0:
256,192,151183,12,0,152571,0:0:0:0:
