osu file format v14

[General]
AudioFilename: PoisonForest.mp3
AudioLeadIn: 0
PreviewTime: 0
Countdown: 0
SampleSet: Soft
StackLeniency: 0.7
Mode: 2
LetterboxInBreaks: 1
WidescreenStoryboard: 0

[Editor]
DistanceSpacing: 1.3
BeatDivisor: 16
GridSize: 4
TimelineZoom: 1

[Metadata]
Title:Various BGM
TitleUnicode:Various BGM
Artist:Wizet, Nexon
ArtistUnicode:Wizet, Nexon
Creator:ExGon
Version:Poison Forest
Source:Maplestory
Tags:CODA SOUND Studio EIM Takkyu Ishino Riena Strait Henesys Market Haze Temple of Time Road Oblivion Regrets Sharenian Guild Quest Taiwan World Tour El Nath Territory Dead Trees Grand Athenaeum Resistance Xenon Tutorial Beryl Ludibrium Castle Dimensional Schism Tenyo
BeatmapID:510520
BeatmapSetID:217667

[Difficulty]
HPDrainRate:4
CircleSize:5
OverallDifficulty:0
ApproachRate:8
SliderMultiplier:1.28
SliderTickRate:1

[Events]
//Background and Video events
0,0,"poison.jpg",0,0
//Break Periods
//Storyboard Layer 0 (Background)
//Storyboard Layer 1 (Fail)
//Storyboard Layer 2 (Pass)
//Storyboard Layer 3 (Foreground)
//Storyboard Sound Samples

[TimingPoints]
58,600,3,2,0,45,1,0
14608,-100,3,2,0,40,0,0
16258,-100,3,2,0,45,0,0
16408,-100,3,2,0,40,0,0
18058,-100,3,2,0,45,0,0
18208,-100,3,2,0,40,0,0
19858,-100,3,2,0,45,0,0
20008,-100,3,2,0,40,0,0
21658,-100,3,2,0,45,0,0
21808,-100,3,2,0,40,0,0
23458,-100,3,2,0,45,0,0
23608,-100,3,2,0,40,0,0
25258,-100,3,2,0,45,0,0
25408,-100,3,2,0,40,0,0
27058,-100,3,2,0,45,0,0
27208,-100,3,2,0,40,0,0
29458,-100,3,2,0,35,0,0
30058,-100,3,2,0,30,0,0
30658,300,3,1,2,15,1,0
30658,-50,3,1,2,15,0,0
33058,-50,3,1,2,13,0,0
33658,-50,3,1,2,11,0,0
34258,-50,3,1,2,17,0,0
36658,-50,3,1,2,15,0,0
37258,-50,3,1,2,13,0,0
37858,-50,3,1,2,15,0,0
40258,-50,3,1,2,13,0,0
40858,-50,3,1,2,11,0,0
41458,-50,3,1,2,17,0,0
43558,-100,3,2,0,25,0,0
43858,-100,3,2,0,5,0,0
44458,-100,3,2,0,25,0,0
45058,600,3,2,0,45,1,0
45058,-100,3,2,0,45,0,0
46858,-100,3,1,2,45,0,0
47758,-100,3,2,0,45,0,0
50458,-100,3,1,2,45,0,0
51358,-100,3,1,2,35,0,0
51658,-100,3,2,0,45,0,0
54058,-100,3,1,2,45,0,0
54958,-100,3,2,0,45,0,0
57658,-100,3,1,2,45,0,0
58558,-100,3,1,2,35,0,0
58858,-100,3,2,0,45,0,0
59158,-100,3,1,2,35,0,0
59758,-100,3,2,0,35,0,0
61258,-100,3,1,2,45,0,0
61858,-100,3,2,0,45,0,0
63658,-100,3,2,0,35,0,0
64858,-100,3,1,2,45,0,0
65158,-100,3,2,0,35,0,0
65758,-100,3,1,2,35,0,0
66058,-100,3,2,0,35,0,0
66658,-100,3,2,0,45,0,0
67258,-100,3,2,0,35,0,0
68458,-100,3,1,2,45,0,0
69058,-100,3,2,0,45,0,0
72058,-100,3,1,2,45,0,0
72358,-100,3,2,0,45,0,0
72958,-100,3,1,0,25,0,0
73258,-100,3,2,0,25,0,0
73858,-100,3,1,1,25,0,0
74008,-100,3,2,0,25,0,0
75658,-90.9090909090909,3,2,0,25,0,0
77458,-83.3333333333333,3,2,0,25,0,0
79258,-76.9230769230769,3,2,0,25,0,0
81058,-71.4285714285714,3,2,0,25,0,0
82858,-66.6666666666667,3,2,0,25,0,0
84658,-62.5,3,2,0,25,0,0
86458,300,3,2,0,25,1,0
86458,-66.6666666666667,3,2,0,25,0,0
86758,-66.6666666666667,3,2,0,23,0,0
87058,-66.6666666666667,3,2,0,21,0,0
87358,-66.6666666666667,3,2,0,19,0,0
87658,-66.6666666666667,3,2,0,17,0,0
87958,-66.6666666666667,3,2,0,15,0,0
88258,600,3,2,0,45,1,0
88258,-50,3,2,0,45,0,1
90058,-50,3,1,2,45,0,1
90358,-50,3,2,0,45,0,1
93658,-50,3,1,2,45,0,1
93958,-50,3,2,0,45,0,1
97258,-50,3,1,2,45,0,1
97558,-50,3,2,0,45,0,1
100858,-50,3,1,2,45,0,1
101158,-50,3,2,0,45,0,1
104458,-50,3,1,2,45,0,1
104758,-50,3,2,0,45,0,1
108058,-50,3,1,2,45,0,1
108358,-50,3,2,0,45,0,1
111658,-50,3,1,2,45,0,1
111958,-50,3,2,0,45,0,1
113458,-50,3,2,0,25,0,1
113758,-50,3,2,0,30,0,1
114058,-50,3,2,0,35,0,1
114358,-50,3,2,0,40,0,1
114658,-50,3,2,0,45,0,1
114958,-50,3,2,0,50,0,1
115258,-50,3,1,2,50,0,1
115558,-50,3,2,0,45,0,1
115858,-50,3,2,0,40,0,1
116158,-50,3,2,0,35,0,1
116458,-50,3,2,0,30,0,1
116758,-50,3,2,0,25,0,1
117020,-50,3,2,0,25,0,0
117058,-50,3,2,0,20,0,1
117095,-50,3,2,0,5,0,1
120958,-50,3,2,0,5,0,0

[HitObjects]
88,108,14458,5,0,0:0:0:0:
328,64,15058,2,0,P|420:40|412:176,1,256,2|0,0:0|0:0,0:0:0:0:
184,320,16858,2,0,P|92:344|100:208,1,256,2|0,0:0|0:0,0:0:0:0:
424,276,18658,1,2,0:0:0:0:
64,136,19858,5,0,0:0:0:0:
256,112,20458,1,2,0:0:0:0:
448,136,21058,1,0,0:0:0:0:
80,124,21658,6,0,L|206:146,2,128,0|2|0,0:0|0:0|0:0,0:0:0:0:
192,192,23158,1,2,0:0:0:0:
432,124,23458,2,0,L|305:146,2,128,0|2|0,0:0|0:0|0:0,0:0:0:0:
320,192,24958,1,2,0:0:0:0:
72,52,25258,6,0,L|198:74,2,128,0|2|0,0:0|0:0|0:0,0:0:0:0:
336,192,26758,1,2,0:0:0:0:
440,52,27058,2,0,L|314:74,2,128,0|2|0,0:0|0:0|0:0,0:0:0:0:
176,192,28558,1,2,0:0:0:0:
24,308,28858,5,0,0:0:0:0:
256,288,29458,1,0,0:0:0:0:
488,308,30058,1,0,0:0:0:0:
72,104,30658,6,0,P|55:172|122:103,5,256,6|2|2|2|2|2,0:0|0:0|0:0|0:0|0:0|0:0,0:0:0:0:
24,76,32458,5,6,0:0:0:0:
256,96,33058,1,2,0:0:0:0:
488,76,33658,1,2,0:0:0:0:
440,280,34258,6,0,P|456:211|389:280,5,256,6|2|2|2|2|2,0:0|0:0|0:0|0:0|0:0|0:0,0:0:0:0:
488,308,36058,5,6,0:0:0:0:
256,288,36658,1,2,0:0:0:0:
24,308,37258,1,2,0:0:0:0:
80,192,37858,6,0,P|80:21|16:42,1,256,6|2,0:0|0:0,0:0:0:0:
256,192,38458,2,0,P|256:21|192:42,1,256,2|2,0:0|0:0,0:0:0:0:
432,192,39058,2,0,P|432:21|368:42,1,256,2|2,0:0|0:0,0:0:0:0:
24,76,39658,5,6,0:0:0:0:
256,96,40258,1,2,0:0:0:0:
488,76,40858,1,2,0:0:0:0:
432,192,41458,6,0,P|432:363|496:342,1,256,6|2,0:0|0:0,0:0:0:0:
256,192,42058,2,0,P|256:363|320:342,1,256,2|2,0:0|0:0,0:0:0:0:
80,192,42658,2,0,P|80:363|144:342,1,256,2|2,0:0|0:0,0:0:0:0:
488,308,43258,5,6,0:0:0:0:
256,288,43558,1,8,0:0:0:0:
256,288,43858,1,0,0:0:0:0:
256,288,44158,1,0,0:0:0:0:
24,308,44458,1,8,0:0:0:0:
256,288,44758,1,8,0:0:0:0:
488,308,45058,6,0,P|576:304|480:128,1,384,4|2,0:0|0:0,0:0:0:0:
480,224,45658,1,0,0:0:0:0:
464,224,46258,1,0,0:0:0:0:
272,192,47758,1,0,0:0:0:0:
240,192,48058,1,2,0:0:0:0:
24,308,48658,2,0,P|-64:304|32:128,1,384,2|2,0:0|0:0,0:0:0:0:
32,224,49258,1,0,0:0:0:0:
48,224,49858,1,0,0:0:0:0:
192,192,51358,1,0,0:0:0:0:
320,192,51658,1,0,0:0:0:0:
48,80,52258,6,0,L|176:64,1,128,2|0,0:0|0:0,0:0:0:0:
336,64,53458,2,0,L|464:80,1,128,0|2,0:0|0:0,0:0:0:0:
368,192,54958,1,0,0:0:0:0:
144,192,55258,1,2,0:0:0:0:
464,304,55858,2,0,L|336:320,1,128,2|0,0:0|0:0,0:0:0:0:
176,320,57058,2,0,L|48:304,1,128,0|2,0:0|0:0,0:0:0:0:
116,96,58558,5,0,0:0:0:0:
396,288,58858,1,0,0:0:0:0:
160,332,59158,1,0,0:0:0:0:
352,52,59458,1,0,0:0:0:0:
64,208,60058,6,0,L|48:272,1,64,2|0,0:0|0:0,0:0:0:0:
272,0,60658,2,0,L|336:-16,1,64,2|0,0:0|0:0,0:0:0:0:
132,76,61258,1,2,0:0:0:0:
448,176,61858,6,0,L|464:112,1,64,0|2,0:0|0:0,0:0:0:0:
240,384,62458,2,0,L|176:400,1,64,2|0,0:0|0:0,0:0:0:0:
380,308,63058,1,2,0:0:0:0:
144,108,63658,6,0,L|76:144,1,64,2|0,0:0|0:0,0:0:0:0:
304,200,64258,2,0,L|357:144,1,64,2|0,0:0|0:0,0:0:0:0:
146,126,64858,2,0,L|184:59,1,64,2|0,0:0|0:0,0:0:0:0:
428,300,65458,2,0,L|357:330,1,64,2|0,0:0|0:0,0:0:0:0:
160,264,66058,2,0,L|212:320,1,64,2|0,0:0|0:0,0:0:0:0:
256,192,66658,1,2,0:0:0:0:
124,80,67258,6,0,L|108:156,1,64,2|0,0:0|0:0,0:0:0:0:
417,130,67858,2,0,L|359:80,1,64,2|0,0:0|0:0,0:0:0:0:
152,320,68458,1,2,0:0:0:0:
388,304,69058,6,0,L|404:228,1,64,0|2,0:0|0:0,0:0:0:0:
94,253,69658,2,0,L|152:303,1,64,2|0,0:0|0:0,0:0:0:0:
360,64,70258,5,2,0:0:0:0:
93,165,70558,1,0,0:0:0:0:
314,346,70858,1,0,0:0:0:0:
120,88,72058,5,2,0:0:0:0:
414,126,72358,1,0,0:0:0:0:
233,361,72658,1,0,0:0:0:0:
64,96,72958,1,0,0:0:0:0:
435,73,73258,1,8,0:0:0:0:
268,406,73558,1,8,0:0:0:0:
171,39,73858,5,4,0:0:0:0:
180,78,74008,1,0,0:0:0:0:
189,117,74158,1,0,0:0:0:0:
198,156,74308,1,0,0:0:0:0:
207,195,74458,2,0,L|232:216,1,32
344,196,74758,5,0,0:0:0:0:
372,168,74908,1,0,0:0:0:0:
400,140,75058,1,0,0:0:0:0:
429,112,75208,1,0,0:0:0:0:
457,83,75358,2,0,L|496:92,1,32
293,292,75658,5,0,0:0:0:0:
257,267,75808,1,0,0:0:0:0:
220,244,75958,1,0,0:0:0:0:
182,220,76108,1,0,0:0:0:0:
146,195,76258,2,0,L|112:216,1,35.2000010742188
249,344,76558,5,0,0:0:0:0:
274,307,76708,1,0,0:0:0:0:
296,270,76858,1,0,0:0:0:0:
320,232,77008,1,0,0:0:0:0:
344,195,77158,2,0,L|304:200,1,35.2000010742188
121,118,77458,5,0,0:0:0:0:
162,142,77608,1,0,0:0:0:0:
203,167,77758,1,0,0:0:0:0:
244,192,77908,1,0,0:0:0:0:
285,216,78058,2,0,L|300:252,1,38.399998828125
490,275,78358,5,0,0:0:0:0:
464,236,78508,1,0,0:0:0:0:
436,196,78658,1,0,0:0:0:0:
408,157,78808,1,0,0:0:0:0:
381,118,78958,2,0,L|328:132,1,38.399998828125
197,333,79258,5,0,0:0:0:0:
161,296,79408,1,0,0:0:0:0:
124,260,79558,1,0,0:0:0:0:
87,223,79708,1,0,0:0:0:0:
50,186,79858,2,0,L|76:148,1,41.5999980957032
301,295,80158,5,0,0:0:0:0:
315,246,80308,1,0,0:0:0:0:
328,196,80458,1,0,0:0:0:0:
341,145,80608,1,0,0:0:0:0:
355,94,80758,2,0,L|344:44,1,41.5999980957032
76,337,81058,5,2,0:0:0:0:
110,292,81208,1,0,0:0:0:0:
144,248,81358,1,0,0:0:0:0:
177,203,81508,1,0,0:0:0:0:
211,158,81658,2,0,L|216:108,1,44.7999986328125,2|0,0:0|0:0,0:0:0:0:
460,324,81958,5,0,0:0:0:0:
411,296,82108,1,0,0:0:0:0:
364,268,82258,1,2,0:0:0:0:
315,240,82408,1,0,0:0:0:0:
266,212,82558,2,0,L|216:200,1,44.7999986328125
8,215,82858,5,2,0:0:0:0:
57,189,83008,1,0,0:0:0:0:
108,164,83158,1,0,0:0:0:0:
157,138,83308,1,0,0:0:0:0:
207,113,83458,2,0,L|228:68,1,48.0000018310548,2|0,0:0|0:0,0:0:0:0:
367,347,83758,5,0,0:0:0:0:
365,292,83908,1,0,0:0:0:0:
365,234,84058,1,2,0:0:0:0:
364,180,84208,1,0,0:0:0:0:
363,124,84358,2,0,L|344:80,1,48.0000018310548
108,41,84658,5,2,0:0:0:0:
120,100,84808,1,0,0:0:0:0:
132,160,84958,1,0,0:0:0:0:
142,218,85108,1,0,0:0:0:0:
154,277,85258,2,0,L|163:328,1,51.2,2|0,0:0|0:0,0:0:0:0:
404,343,85558,5,0,0:0:0:0:
392,284,85708,1,0,0:0:0:0:
380,224,85858,1,2,0:0:0:0:
370,166,86008,1,0,0:0:0:0:
358,107,86158,2,0,L|348:55,1,51.2
157,50,86458,6,0,L|64:72,1,96.0000036621095,2|0,0:0|0:0,0:0:0:0:
172,112,86758,2,0,L|78:134,1,96.0000036621095
186,175,87058,2,0,L|92:196,1,96.0000036621095
200,237,87358,2,0,L|107:259,1,96.0000036621095,4|0,0:0|0:0,0:0:0:0:
215,299,87658,2,0,L|121:321,1,96.0000036621095,8|0,0:0|0:0,0:0:0:0:
229,362,87958,2,0,L|136:383,1,96.0000036621095,8|0,0:0|0:0,0:0:0:0:
160,64,88258,6,0,L|24:68,1,128,4|0,0:0|0:0,0:0:0:0:
284,116,88858,1,0,0:0:0:0:
160,228,89158,2,0,L|24:232,1,128,2|2,0:0|0:0,0:0:0:0:
284,280,89758,1,2,0:0:0:0:
479,316,90058,6,0,L|352:320,1,128,2|0,0:0|0:0,0:0:0:0:
228,268,90658,1,0,0:0:0:0:
479,152,90958,2,0,L|352:156,1,128,2|0,0:0|0:0,0:0:0:0:
228,104,91558,1,2,0:0:0:0:
36,271,91858,6,0,L|164:260,2,128,2|0|0,0:0|0:0|0:0,0:0:0:0:
348,260,92758,2,0,L|480:272,2,128,0|2|2,0:0|0:0|0:0,0:0:0:0:
65,85,93658,6,0,P|69:144|128:156,2,128,2|0|0,0:0|0:0|0:0,0:0:0:0:
384,156,94558,2,0,P|442:144|418:65,2,128,0|2|2,0:0|0:0|0:0,0:0:0:0:
79,223,95458,5,2,0:0:0:0:
432,160,95758,1,0,0:0:0:0:
194,360,96058,1,0,0:0:0:0:
371,329,96358,1,2,0:0:0:0:
140,54,96658,1,2,0:0:0:0:
317,23,96958,1,2,0:0:0:0:
84,288,97258,6,0,L|72:156,2,128,2|0|0,0:0|0:0|0:0,0:0:0:0:
428,96,98158,2,2,L|440:228,2,128,2|0|2,0:0|0:0|0:0,0:0:0:0:
256,192,99058,5,2,0:0:0:0:
126,269,99358,1,0,0:0:0:0:
410,105,99658,1,0,0:0:0:0:
112,278,99958,1,0,0:0:0:0:
428,96,100258,1,2,0:0:0:0:
96,288,100558,1,2,0:0:0:0:
256,192,100858,5,2,0:0:0:0:
416,288,101158,1,0,0:0:0:0:
84,96,101458,1,0,0:0:0:0:
400,278,101758,1,0,0:0:0:0:
101,105,102058,1,2,0:0:0:0:
385,269,102358,1,2,0:0:0:0:
448,64,102658,6,0,L|320:75,1,128,2|0,0:0|0:0,0:0:0:0:
112,89,103258,1,0,0:0:0:0:
191,308,103558,2,2,L|64:320,1,128
400,295,104158,1,2,0:0:0:0:
191,75,104458,6,0,L|64:64,1,128,2|0,0:0|0:0,0:0:0:0:
400,89,105058,1,0,0:0:0:0:
448,320,105358,2,2,L|320:308,1,128,2|0,0:0|0:0,0:0:0:0:
112,295,105958,1,2,0:0:0:0:
296,308,106258,5,2,0:0:0:0:
372,152,106558,1,0,0:0:0:0:
64,48,106858,2,0,L|185:87,2,128,0|0|2,0:0|0:0|0:0,0:0:0:0:
444,171,107758,1,2,0:0:0:0:
216,76,108058,5,2,0:0:0:0:
140,232,108358,1,0,0:0:0:0:
448,336,108658,2,0,L|326:296,2,128,0|0|2,0:0|0:0|0:0,0:0:0:0:
68,213,109558,1,2,0:0:0:0:
152,56,109858,5,2,0:0:0:0:
448,288,110158,1,0,0:0:0:0:
360,56,110458,1,0,0:0:0:0:
64,288,110758,1,2,0:0:0:0:
256,128,111058,1,2,0:0:0:0:
448,288,111358,1,2,0:0:0:0:
360,328,111658,5,2,0:0:0:0:
64,96,111958,1,0,0:0:0:0:
152,328,112258,1,0,0:0:0:0:
448,96,112558,1,2,0:0:0:0:
256,256,112858,1,0,0:0:0:0:
64,96,113158,1,2,0:0:0:0:
136,72,113458,6,2,P|120:72|156:108,1,128,2|2,0:0|0:0,0:0:0:0:
419,148,114058,2,2,P|427:134|378:147,1,128
212,355,114658,2,2,P|220:369|233:320,1,128
220,28,115258,6,0,P|190:61|190:141,1,128,2|2,0:0|0:0,0:0:0:0:
416,242,115858,2,2,P|401:200|332:160,1,128
131,305,116458,2,2,P|175:313|245:273,1,128
0,192,117058,5,4,0:0:0:0:
256,192,117095,12,0,120958,0:0:0:0:
