osu file format v14

[General]
AudioFilename: NxLogo.mp3
AudioLeadIn: 0
PreviewTime: 0
Countdown: 1
SampleSet: Soft
StackLeniency: 0.7
Mode: 2
LetterboxInBreaks: 0
WidescreenStoryboard: 0

[Editor]
DistanceSpacing: 0.8
BeatDivisor: 16
GridSize: 4
TimelineZoom: 8

[Metadata]
Title:Various BGM
TitleUnicode:Various BGM
Artist:Wizet, Nexon
ArtistUnicode:Wizet, Nexon
Creator:ExGon
Version:NxLogo
Source:
Tags:CODA SOUND Studio EIM Takkyu Ishino Riena Strait Henesys Market Haze Temple of Time Road Oblivion Regrets Sharenian Guild Quest Taiwan World Tour El Nath Territory Dead Trees Grand Athenaeum Resistance Xenon Tutorial Beryl Ludibrium Castle Dimensional Schism Tenyo
BeatmapID:1054659
BeatmapSetID:217667

[Difficulty]
HPDrainRate:0
CircleSize:0
OverallDifficulty:0
ApproachRate:10
SliderMultiplier:1.4
SliderTickRate:0.5

[Events]
//Background and Video events
0,0,"nexon.jpg",0,0
//Break Periods
//Storyboard Layer 0 (Background)
//Storyboard Layer 1 (Fail)
//Storyboard Layer 2 (Pass)
//Storyboard Layer 3 (Foreground)
//Storyboard Sound Samples

[TimingPoints]
0,6,4,2,0,0,1,0

[HitObjects]
184,192,0,5,0,0:0:0:0:
328,192,1,5,0,0:0:0:0:
184,192,2,5,0,0:0:0:0:
328,192,3,5,0,0:0:0:0:
184,192,4,5,0,0:0:0:0:
328,192,5,5,0,0:0:0:0:
184,192,6,5,0,0:0:0:0:
328,192,7,5,0,0:0:0:0:
184,192,8,5,0,0:0:0:0:
328,192,9,5,0,0:0:0:0:
184,192,10,5,0,0:0:0:0:
328,192,11,5,0,0:0:0:0:
184,192,12,5,0,0:0:0:0:
328,192,13,5,0,0:0:0:0:
184,192,14,5,0,0:0:0:0:
328,192,15,5,0,0:0:0:0:
184,192,16,5,0,0:0:0:0:
328,192,17,5,0,0:0:0:0:
184,192,18,5,0,0:0:0:0:
328,192,19,5,0,0:0:0:0:
184,192,20,5,0,0:0:0:0:
328,192,21,5,0,0:0:0:0:
184,192,22,5,0,0:0:0:0:
328,192,23,5,0,0:0:0:0:
184,192,24,5,0,0:0:0:0:
328,192,25,5,0,0:0:0:0:
184,192,26,5,0,0:0:0:0:
328,192,27,5,0,0:0:0:0:
184,192,28,5,0,0:0:0:0:
328,192,29,5,0,0:0:0:0:
184,192,30,5,0,0:0:0:0:
328,192,31,5,0,0:0:0:0:
184,192,32,5,0,0:0:0:0:
328,192,33,5,0,0:0:0:0:
184,192,34,5,0,0:0:0:0:
328,192,35,5,0,0:0:0:0:
184,192,36,5,0,0:0:0:0:
328,192,37,5,0,0:0:0:0:
184,192,38,5,0,0:0:0:0:
328,192,39,5,0,0:0:0:0:
184,192,40,5,0,0:0:0:0:
328,192,41,5,0,0:0:0:0:
184,192,42,5,0,0:0:0:0:
328,192,43,5,0,0:0:0:0:
184,192,44,5,0,0:0:0:0:
328,192,45,5,0,0:0:0:0:
184,192,46,5,0,0:0:0:0:
328,192,47,5,0,0:0:0:0:
184,192,48,5,0,0:0:0:0:
328,192,49,5,0,0:0:0:0:
184,192,50,5,0,0:0:0:0:
328,192,51,5,0,0:0:0:0:
184,192,52,5,0,0:0:0:0:
328,192,53,5,0,0:0:0:0:
184,192,54,5,0,0:0:0:0:
328,192,55,5,0,0:0:0:0:
184,192,56,5,0,0:0:0:0:
328,192,57,5,0,0:0:0:0:
184,192,58,5,0,0:0:0:0:
328,192,59,5,0,0:0:0:0:
184,192,60,5,0,0:0:0:0:
328,192,61,5,0,0:0:0:0:
184,192,62,5,0,0:0:0:0:
328,192,63,5,0,0:0:0:0:
184,192,64,5,0,0:0:0:0:
328,192,65,5,0,0:0:0:0:
184,192,66,5,0,0:0:0:0:
328,192,67,5,0,0:0:0:0:
184,192,68,5,0,0:0:0:0:
328,192,69,5,0,0:0:0:0:
184,192,70,5,0,0:0:0:0:
328,192,71,5,0,0:0:0:0:
184,192,72,5,0,0:0:0:0:
328,192,73,5,0,0:0:0:0:
184,192,74,5,0,0:0:0:0:
328,192,75,5,0,0:0:0:0:
184,192,76,5,0,0:0:0:0:
328,192,77,5,0,0:0:0:0:
184,192,78,5,0,0:0:0:0:
328,192,79,5,0,0:0:0:0:
184,192,80,5,0,0:0:0:0:
328,192,81,5,0,0:0:0:0:
184,192,82,5,0,0:0:0:0:
328,192,83,5,0,0:0:0:0:
184,192,84,5,0,0:0:0:0:
328,192,85,5,0,0:0:0:0:
184,192,86,5,0,0:0:0:0:
328,192,87,5,0,0:0:0:0:
184,192,88,5,0,0:0:0:0:
328,192,89,5,0,0:0:0:0:
184,192,90,5,0,0:0:0:0:
328,192,91,5,0,0:0:0:0:
184,192,92,5,0,0:0:0:0:
328,192,93,5,0,0:0:0:0:
184,192,94,5,0,0:0:0:0:
328,192,95,5,0,0:0:0:0:
184,192,96,5,0,0:0:0:0:
328,192,97,5,0,0:0:0:0:
184,192,98,5,0,0:0:0:0:
328,192,99,5,0,0:0:0:0:
184,192,100,5,0,0:0:0:0:
328,192,101,5,0,0:0:0:0:
184,192,102,5,0,0:0:0:0:
328,192,103,5,0,0:0:0:0:
184,192,104,5,0,0:0:0:0:
328,192,105,5,0,0:0:0:0:
184,192,106,5,0,0:0:0:0:
328,192,107,5,0,0:0:0:0:
184,192,108,5,0,0:0:0:0:
328,192,109,5,0,0:0:0:0:
184,192,110,5,0,0:0:0:0:
328,192,111,5,0,0:0:0:0:
184,192,112,5,0,0:0:0:0:
328,192,113,5,0,0:0:0:0:
184,192,114,5,0,0:0:0:0:
328,192,115,5,0,0:0:0:0:
184,192,116,5,0,0:0:0:0:
328,192,117,5,0,0:0:0:0:
184,192,118,5,0,0:0:0:0:
328,192,119,5,0,0:0:0:0:
184,192,120,5,0,0:0:0:0:
328,192,121,5,0,0:0:0:0:
184,192,122,5,0,0:0:0:0:
328,192,123,5,0,0:0:0:0:
184,192,124,5,0,0:0:0:0:
328,192,125,5,0,0:0:0:0:
184,192,126,5,0,0:0:0:0:
328,192,127,5,0,0:0:0:0:
184,192,128,5,0,0:0:0:0:
328,192,129,5,0,0:0:0:0:
184,192,130,5,0,0:0:0:0:
328,192,131,5,0,0:0:0:0:
184,192,132,5,0,0:0:0:0:
328,192,133,5,0,0:0:0:0:
184,192,134,5,0,0:0:0:0:
328,192,135,5,0,0:0:0:0:
184,192,136,5,0,0:0:0:0:
328,192,137,5,0,0:0:0:0:
184,192,138,5,0,0:0:0:0:
328,192,139,5,0,0:0:0:0:
184,192,140,5,0,0:0:0:0:
328,192,141,5,0,0:0:0:0:
184,192,142,5,0,0:0:0:0:
328,192,143,5,0,0:0:0:0:
184,192,144,5,0,0:0:0:0:
328,192,145,5,0,0:0:0:0:
184,192,146,5,0,0:0:0:0:
328,192,147,5,0,0:0:0:0:
184,192,148,5,0,0:0:0:0:
328,192,149,5,0,0:0:0:0:
184,192,150,5,0,0:0:0:0:
328,192,151,5,0,0:0:0:0:
184,192,152,5,0,0:0:0:0:
328,192,153,5,0,0:0:0:0:
184,192,154,5,0,0:0:0:0:
328,192,155,5,0,0:0:0:0:
184,192,156,5,0,0:0:0:0:
328,192,157,5,0,0:0:0:0:
184,192,158,5,0,0:0:0:0:
328,192,159,5,0,0:0:0:0:
184,192,160,5,0,0:0:0:0:
328,192,161,5,0,0:0:0:0:
184,192,162,5,0,0:0:0:0:
328,192,163,5,0,0:0:0:0:
184,192,164,5,0,0:0:0:0:
328,192,165,5,0,0:0:0:0:
184,192,166,5,0,0:0:0:0:
328,192,167,5,0,0:0:0:0:
184,192,168,5,0,0:0:0:0:
328,192,169,5,0,0:0:0:0:
184,192,170,5,0,0:0:0:0:
328,192,171,5,0,0:0:0:0:
184,192,172,5,0,0:0:0:0:
328,192,173,5,0,0:0:0:0:
184,192,174,5,0,0:0:0:0:
328,192,175,5,0,0:0:0:0:
184,192,176,5,0,0:0:0:0:
328,192,177,5,0,0:0:0:0:
184,192,178,5,0,0:0:0:0:
328,192,179,5,0,0:0:0:0:
184,192,180,5,0,0:0:0:0:
328,192,181,5,0,0:0:0:0:
184,192,182,5,0,0:0:0:0:
328,192,183,5,0,0:0:0:0:
184,192,184,5,0,0:0:0:0:
328,192,185,5,0,0:0:0:0:
184,192,186,5,0,0:0:0:0:
328,192,187,5,0,0:0:0:0:
184,192,188,5,0,0:0:0:0:
328,192,189,5,0,0:0:0:0:
184,192,190,5,0,0:0:0:0:
328,192,191,5,0,0:0:0:0:
184,192,192,5,0,0:0:0:0:
328,192,193,5,0,0:0:0:0:
184,192,194,5,0,0:0:0:0:
328,192,195,5,0,0:0:0:0:
184,192,196,5,0,0:0:0:0:
328,192,197,5,0,0:0:0:0:
184,192,198,5,0,0:0:0:0:
328,192,199,5,0,0:0:0:0:
184,192,200,5,0,0:0:0:0:
328,192,201,5,0,0:0:0:0:
184,192,202,5,0,0:0:0:0:
328,192,203,5,0,0:0:0:0:
184,192,204,5,0,0:0:0:0:
328,192,205,5,0,0:0:0:0:
184,192,206,5,0,0:0:0:0:
328,192,207,5,0,0:0:0:0:
184,192,208,5,0,0:0:0:0:
328,192,209,5,0,0:0:0:0:
184,192,210,5,0,0:0:0:0:
328,192,211,5,0,0:0:0:0:
184,192,212,5,0,0:0:0:0:
328,192,213,5,0,0:0:0:0:
184,192,214,5,0,0:0:0:0:
328,192,215,5,0,0:0:0:0:
184,192,216,5,0,0:0:0:0:
328,192,217,5,0,0:0:0:0:
184,192,218,5,0,0:0:0:0:
328,192,219,5,0,0:0:0:0:
184,192,220,5,0,0:0:0:0:
328,192,221,5,0,0:0:0:0:
184,192,222,5,0,0:0:0:0:
328,192,223,5,0,0:0:0:0:
184,192,224,5,0,0:0:0:0:
328,192,225,5,0,0:0:0:0:
184,192,226,5,0,0:0:0:0:
328,192,227,5,0,0:0:0:0:
184,192,228,5,0,0:0:0:0:
328,192,229,5,0,0:0:0:0:
184,192,230,5,0,0:0:0:0:
328,192,231,5,0,0:0:0:0:
184,192,232,5,0,0:0:0:0:
328,192,233,5,0,0:0:0:0:
184,192,234,5,0,0:0:0:0:
328,192,235,5,0,0:0:0:0:
184,192,236,5,0,0:0:0:0:
328,192,237,5,0,0:0:0:0:
184,192,238,5,0,0:0:0:0:
328,192,239,5,0,0:0:0:0:
184,192,240,5,0,0:0:0:0:
328,192,241,5,0,0:0:0:0:
184,192,242,5,0,0:0:0:0:
328,192,243,5,0,0:0:0:0:
184,192,244,5,0,0:0:0:0:
328,192,245,5,0,0:0:0:0:
184,192,246,5,0,0:0:0:0:
328,192,247,5,0,0:0:0:0:
184,192,248,5,0,0:0:0:0:
328,192,249,5,0,0:0:0:0:
184,192,250,5,0,0:0:0:0:
328,192,251,5,0,0:0:0:0:
184,192,252,5,0,0:0:0:0:
328,192,253,5,0,0:0:0:0:
184,192,254,5,0,0:0:0:0:
328,192,255,5,0,0:0:0:0:
184,192,256,5,0,0:0:0:0:
328,192,257,5,0,0:0:0:0:
184,192,258,5,0,0:0:0:0:
328,192,259,5,0,0:0:0:0:
184,192,260,5,0,0:0:0:0:
328,192,261,5,0,0:0:0:0:
184,192,262,5,0,0:0:0:0:
328,192,263,5,0,0:0:0:0:
184,192,264,5,0,0:0:0:0:
328,192,265,5,0,0:0:0:0:
184,192,266,5,0,0:0:0:0:
328,192,267,5,0,0:0:0:0:
184,192,268,5,0,0:0:0:0:
328,192,269,5,0,0:0:0:0:
184,192,270,5,0,0:0:0:0:
328,192,271,5,0,0:0:0:0:
184,192,272,5,0,0:0:0:0:
328,192,273,5,0,0:0:0:0:
184,192,274,5,0,0:0:0:0:
328,192,275,5,0,0:0:0:0:
184,192,276,5,0,0:0:0:0:
328,192,277,5,0,0:0:0:0:
184,192,278,5,0,0:0:0:0:
328,192,279,5,0,0:0:0:0:
184,192,280,5,0,0:0:0:0:
328,192,281,5,0,0:0:0:0:
184,192,282,5,0,0:0:0:0:
328,192,283,5,0,0:0:0:0:
184,192,284,5,0,0:0:0:0:
328,192,285,5,0,0:0:0:0:
184,192,286,5,0,0:0:0:0:
328,192,287,5,0,0:0:0:0:
184,192,288,5,0,0:0:0:0:
328,192,289,5,0,0:0:0:0:
184,192,290,5,0,0:0:0:0:
328,192,291,5,0,0:0:0:0:
184,192,292,5,0,0:0:0:0:
328,192,293,5,0,0:0:0:0:
184,192,294,5,0,0:0:0:0:
328,192,295,5,0,0:0:0:0:
184,192,296,5,0,0:0:0:0:
328,192,297,5,0,0:0:0:0:
184,192,298,5,0,0:0:0:0:
328,192,299,5,0,0:0:0:0:
184,192,300,5,0,0:0:0:0:
328,192,301,5,0,0:0:0:0:
184,192,302,5,0,0:0:0:0:
328,192,303,5,0,0:0:0:0:
184,192,304,5,0,0:0:0:0:
328,192,305,5,0,0:0:0:0:
184,192,306,5,0,0:0:0:0:
328,192,307,5,0,0:0:0:0:
184,192,308,5,0,0:0:0:0:
328,192,309,5,0,0:0:0:0:
184,192,310,5,0,0:0:0:0:
328,192,311,5,0,0:0:0:0:
184,192,312,5,0,0:0:0:0:
328,192,313,5,0,0:0:0:0:
184,192,314,5,0,0:0:0:0:
328,192,315,5,0,0:0:0:0:
184,192,316,5,0,0:0:0:0:
328,192,317,5,0,0:0:0:0:
184,192,318,5,0,0:0:0:0:
328,192,319,5,0,0:0:0:0:
184,192,320,5,0,0:0:0:0:
328,192,321,5,0,0:0:0:0:
184,192,322,5,0,0:0:0:0:
328,192,323,5,0,0:0:0:0:
184,192,324,5,0,0:0:0:0:
328,192,325,5,0,0:0:0:0:
184,192,326,5,0,0:0:0:0:
328,192,327,5,0,0:0:0:0:
184,192,328,5,0,0:0:0:0:
328,192,329,5,0,0:0:0:0:
184,192,330,5,0,0:0:0:0:
328,192,331,5,0,0:0:0:0:
184,192,332,5,0,0:0:0:0:
328,192,333,5,0,0:0:0:0:
184,192,334,5,0,0:0:0:0:
328,192,335,5,0,0:0:0:0:
184,192,336,5,0,0:0:0:0:
328,192,337,5,0,0:0:0:0:
184,192,338,5,0,0:0:0:0:
328,192,339,5,0,0:0:0:0:
184,192,340,5,0,0:0:0:0:
328,192,341,5,0,0:0:0:0:
184,192,342,5,0,0:0:0:0:
328,192,343,5,0,0:0:0:0:
184,192,344,5,0,0:0:0:0:
328,192,345,5,0,0:0:0:0:
184,192,346,5,0,0:0:0:0:
328,192,347,5,0,0:0:0:0:
184,192,348,5,0,0:0:0:0:
328,192,349,5,0,0:0:0:0:
184,192,350,5,0,0:0:0:0:
328,192,351,5,0,0:0:0:0:
184,192,352,5,0,0:0:0:0:
328,192,353,5,0,0:0:0:0:
184,192,354,5,0,0:0:0:0:
328,192,355,5,0,0:0:0:0:
184,192,356,5,0,0:0:0:0:
328,192,357,5,0,0:0:0:0:
184,192,358,5,0,0:0:0:0:
328,192,359,5,0,0:0:0:0:
184,192,360,5,0,0:0:0:0:
328,192,361,5,0,0:0:0:0:
184,192,362,5,0,0:0:0:0:
328,192,363,5,0,0:0:0:0:
184,192,364,5,0,0:0:0:0:
328,192,365,5,0,0:0:0:0:
184,192,366,5,0,0:0:0:0:
328,192,367,5,0,0:0:0:0:
184,192,368,5,0,0:0:0:0:
328,192,369,5,0,0:0:0:0:
184,192,370,5,0,0:0:0:0:
328,192,371,5,0,0:0:0:0:
184,192,372,5,0,0:0:0:0:
328,192,373,5,0,0:0:0:0:
184,192,374,5,0,0:0:0:0:
328,192,375,5,0,0:0:0:0:
184,192,376,5,0,0:0:0:0:
328,192,377,5,0,0:0:0:0:
184,192,378,5,0,0:0:0:0:
328,192,379,5,0,0:0:0:0:
184,192,380,5,0,0:0:0:0:
328,192,381,5,0,0:0:0:0:
184,192,382,5,0,0:0:0:0:
328,192,383,5,0,0:0:0:0:
184,192,384,5,0,0:0:0:0:
328,192,385,5,0,0:0:0:0:
184,192,386,5,0,0:0:0:0:
328,192,387,5,0,0:0:0:0:
184,192,388,5,0,0:0:0:0:
328,192,389,5,0,0:0:0:0:
184,192,390,5,0,0:0:0:0:
328,192,391,5,0,0:0:0:0:
184,192,392,5,0,0:0:0:0:
328,192,393,5,0,0:0:0:0:
184,192,394,5,0,0:0:0:0:
328,192,395,5,0,0:0:0:0:
184,192,396,5,0,0:0:0:0:
328,192,397,5,0,0:0:0:0:
184,192,398,5,0,0:0:0:0:
328,192,399,5,0,0:0:0:0:
184,192,400,5,0,0:0:0:0:
328,192,401,5,0,0:0:0:0:
184,192,402,5,0,0:0:0:0:
328,192,403,5,0,0:0:0:0:
184,192,404,5,0,0:0:0:0:
328,192,405,5,0,0:0:0:0:
184,192,406,5,0,0:0:0:0:
328,192,407,5,0,0:0:0:0:
184,192,408,5,0,0:0:0:0:
328,192,409,5,0,0:0:0:0:
184,192,410,5,0,0:0:0:0:
328,192,411,5,0,0:0:0:0:
184,192,412,5,0,0:0:0:0:
328,192,413,5,0,0:0:0:0:
184,192,414,5,0,0:0:0:0:
328,192,415,5,0,0:0:0:0:
184,192,416,5,0,0:0:0:0:
328,192,417,5,0,0:0:0:0:
184,192,418,5,0,0:0:0:0:
328,192,419,5,0,0:0:0:0:
184,192,420,5,0,0:0:0:0:
328,192,421,5,0,0:0:0:0:
184,192,422,5,0,0:0:0:0:
328,192,423,5,0,0:0:0:0:
184,192,424,5,0,0:0:0:0:
328,192,425,5,0,0:0:0:0:
184,192,426,5,0,0:0:0:0:
328,192,427,5,0,0:0:0:0:
184,192,428,5,0,0:0:0:0:
328,192,429,5,0,0:0:0:0:
184,192,430,5,0,0:0:0:0:
328,192,431,5,0,0:0:0:0:
184,192,432,5,0,0:0:0:0:
328,192,433,5,0,0:0:0:0:
184,192,434,5,0,0:0:0:0:
328,192,435,5,0,0:0:0:0:
184,192,436,5,0,0:0:0:0:
328,192,437,5,0,0:0:0:0:
184,192,438,5,0,0:0:0:0:
328,192,439,5,0,0:0:0:0:
184,192,440,5,0,0:0:0:0:
328,192,441,5,0,0:0:0:0:
184,192,442,5,0,0:0:0:0:
328,192,443,5,0,0:0:0:0:
184,192,444,5,0,0:0:0:0:
328,192,445,5,0,0:0:0:0:
184,192,446,5,0,0:0:0:0:
328,192,447,5,0,0:0:0:0:
184,192,448,5,0,0:0:0:0:
328,192,449,5,0,0:0:0:0:
184,192,450,5,0,0:0:0:0:
328,192,451,5,0,0:0:0:0:
184,192,452,5,0,0:0:0:0:
328,192,453,5,0,0:0:0:0:
184,192,454,5,0,0:0:0:0:
328,192,455,5,0,0:0:0:0:
184,192,456,5,0,0:0:0:0:
328,192,457,5,0,0:0:0:0:
184,192,458,5,0,0:0:0:0:
328,192,459,5,0,0:0:0:0:
184,192,460,5,0,0:0:0:0:
328,192,461,5,0,0:0:0:0:
184,192,462,5,0,0:0:0:0:
328,192,463,5,0,0:0:0:0:
184,192,464,5,0,0:0:0:0:
328,192,465,5,0,0:0:0:0:
184,192,466,5,0,0:0:0:0:
328,192,467,5,0,0:0:0:0:
184,192,468,5,0,0:0:0:0:
328,192,469,5,0,0:0:0:0:
184,192,470,5,0,0:0:0:0:
328,192,471,5,0,0:0:0:0:
184,192,472,5,0,0:0:0:0:
328,192,473,5,0,0:0:0:0:
184,192,474,5,0,0:0:0:0:
328,192,475,5,0,0:0:0:0:
184,192,476,5,0,0:0:0:0:
328,192,477,5,0,0:0:0:0:
184,192,478,5,0,0:0:0:0:
328,192,479,5,0,0:0:0:0:
184,192,480,5,0,0:0:0:0:
328,192,481,5,0,0:0:0:0:
184,192,482,5,0,0:0:0:0:
328,192,483,5,0,0:0:0:0:
184,192,484,5,0,0:0:0:0:
328,192,485,5,0,0:0:0:0:
184,192,486,5,0,0:0:0:0:
328,192,487,5,0,0:0:0:0:
184,192,488,5,0,0:0:0:0:
328,192,489,5,0,0:0:0:0:
184,192,490,5,0,0:0:0:0:
328,192,491,5,0,0:0:0:0:
184,192,492,5,0,0:0:0:0:
328,192,493,5,0,0:0:0:0:
184,192,494,5,0,0:0:0:0:
328,192,495,5,0,0:0:0:0:
184,192,496,5,0,0:0:0:0:
328,192,497,5,0,0:0:0:0:
184,192,498,5,0,0:0:0:0:
328,192,499,5,0,0:0:0:0:
184,192,500,5,0,0:0:0:0:
328,192,501,5,0,0:0:0:0:
184,192,502,5,0,0:0:0:0:
328,192,503,5,0,0:0:0:0:
184,192,504,5,0,0:0:0:0:
328,192,505,5,0,0:0:0:0:
184,192,506,5,0,0:0:0:0:
328,192,507,5,0,0:0:0:0:
184,192,508,5,0,0:0:0:0:
328,192,509,5,0,0:0:0:0:
184,192,510,5,0,0:0:0:0:
328,192,511,5,0,0:0:0:0:
184,192,512,5,0,0:0:0:0:
328,192,513,5,0,0:0:0:0:
184,192,514,5,0,0:0:0:0:
328,192,515,5,0,0:0:0:0:
184,192,516,5,0,0:0:0:0:
328,192,517,5,0,0:0:0:0:
184,192,518,5,0,0:0:0:0:
328,192,519,5,0,0:0:0:0:
184,192,520,5,0,0:0:0:0:
328,192,521,5,0,0:0:0:0:
184,192,522,5,0,0:0:0:0:
328,192,523,5,0,0:0:0:0:
184,192,524,5,0,0:0:0:0:
328,192,525,5,0,0:0:0:0:
184,192,526,5,0,0:0:0:0:
328,192,527,5,0,0:0:0:0:
184,192,528,5,0,0:0:0:0:
328,192,529,5,0,0:0:0:0:
184,192,530,5,0,0:0:0:0:
328,192,531,5,0,0:0:0:0:
184,192,532,5,0,0:0:0:0:
328,192,533,5,0,0:0:0:0:
184,192,534,5,0,0:0:0:0:
328,192,535,5,0,0:0:0:0:
184,192,536,5,0,0:0:0:0:
328,192,537,5,0,0:0:0:0:
184,192,538,5,0,0:0:0:0:
328,192,539,5,0,0:0:0:0:
184,192,540,5,0,0:0:0:0:
328,192,541,5,0,0:0:0:0:
184,192,542,5,0,0:0:0:0:
328,192,543,5,0,0:0:0:0:
184,192,544,5,0,0:0:0:0:
328,192,545,5,0,0:0:0:0:
184,192,546,5,0,0:0:0:0:
328,192,547,5,0,0:0:0:0:
184,192,548,5,0,0:0:0:0:
328,192,549,5,0,0:0:0:0:
184,192,550,5,0,0:0:0:0:
328,192,551,5,0,0:0:0:0:
184,192,552,5,0,0:0:0:0:
328,192,553,5,0,0:0:0:0:
184,192,554,5,0,0:0:0:0:
328,192,555,5,0,0:0:0:0:
184,192,556,5,0,0:0:0:0:
328,192,557,5,0,0:0:0:0:
184,192,558,5,0,0:0:0:0:
328,192,559,5,0,0:0:0:0:
184,192,560,5,0,0:0:0:0:
328,192,561,5,0,0:0:0:0:
184,192,562,5,0,0:0:0:0:
328,192,563,5,0,0:0:0:0:
184,192,564,5,0,0:0:0:0:
328,192,565,5,0,0:0:0:0:
184,192,566,5,0,0:0:0:0:
328,192,567,5,0,0:0:0:0:
184,192,568,5,0,0:0:0:0:
328,192,569,5,0,0:0:0:0:
184,192,570,5,0,0:0:0:0:
328,192,571,5,0,0:0:0:0:
184,192,572,5,0,0:0:0:0:
328,192,573,5,0,0:0:0:0:
184,192,574,5,0,0:0:0:0:
328,192,575,5,0,0:0:0:0:
184,192,576,5,0,0:0:0:0:
328,192,577,5,0,0:0:0:0:
184,192,578,5,0,0:0:0:0:
328,192,579,5,0,0:0:0:0:
184,192,580,5,0,0:0:0:0:
328,192,581,5,0,0:0:0:0:
184,192,582,5,0,0:0:0:0:
328,192,583,5,0,0:0:0:0:
184,192,584,5,0,0:0:0:0:
328,192,585,5,0,0:0:0:0:
184,192,586,5,0,0:0:0:0:
328,192,587,5,0,0:0:0:0:
184,192,588,5,0,0:0:0:0:
328,192,589,5,0,0:0:0:0:
184,192,590,5,0,0:0:0:0:
328,192,591,5,0,0:0:0:0:
184,192,592,5,0,0:0:0:0:
328,192,593,5,0,0:0:0:0:
184,192,594,5,0,0:0:0:0:
328,192,595,5,0,0:0:0:0:
184,192,596,5,0,0:0:0:0:
328,192,597,5,0,0:0:0:0:
184,192,598,5,0,0:0:0:0:
328,192,599,5,0,0:0:0:0:
184,192,600,5,0,0:0:0:0:
328,192,601,5,0,0:0:0:0:
184,192,602,5,0,0:0:0:0:
328,192,603,5,0,0:0:0:0:
184,192,604,5,0,0:0:0:0:
328,192,605,5,0,0:0:0:0:
184,192,606,5,0,0:0:0:0:
328,192,607,5,0,0:0:0:0:
184,192,608,5,0,0:0:0:0:
328,192,609,5,0,0:0:0:0:
184,192,610,5,0,0:0:0:0:
328,192,611,5,0,0:0:0:0:
184,192,612,5,0,0:0:0:0:
328,192,613,5,0,0:0:0:0:
184,192,614,5,0,0:0:0:0:
328,192,615,5,0,0:0:0:0:
184,192,616,5,0,0:0:0:0:
328,192,617,5,0,0:0:0:0:
184,192,618,5,0,0:0:0:0:
328,192,619,5,0,0:0:0:0:
184,192,620,5,0,0:0:0:0:
328,192,621,5,0,0:0:0:0:
184,192,622,5,0,0:0:0:0:
328,192,623,5,0,0:0:0:0:
184,192,624,5,0,0:0:0:0:
328,192,625,5,0,0:0:0:0:
184,192,626,5,0,0:0:0:0:
328,192,627,5,0,0:0:0:0:
184,192,628,5,0,0:0:0:0:
328,192,629,5,0,0:0:0:0:
184,192,630,5,0,0:0:0:0:
328,192,631,5,0,0:0:0:0:
184,192,632,5,0,0:0:0:0:
328,192,633,5,0,0:0:0:0:
184,192,634,5,0,0:0:0:0:
328,192,635,5,0,0:0:0:0:
184,192,636,5,0,0:0:0:0:
328,192,637,5,0,0:0:0:0:
184,192,638,5,0,0:0:0:0:
328,192,639,5,0,0:0:0:0:
184,192,640,5,0,0:0:0:0:
328,192,641,5,0,0:0:0:0:
184,192,642,5,0,0:0:0:0:
328,192,643,5,0,0:0:0:0:
184,192,644,5,0,0:0:0:0:
328,192,645,5,0,0:0:0:0:
184,192,646,5,0,0:0:0:0:
328,192,647,5,0,0:0:0:0:
184,192,648,5,0,0:0:0:0:
328,192,649,5,0,0:0:0:0:
184,192,650,5,0,0:0:0:0:
328,192,651,5,0,0:0:0:0:
184,192,652,5,0,0:0:0:0:
328,192,653,5,0,0:0:0:0:
184,192,654,5,0,0:0:0:0:
328,192,655,5,0,0:0:0:0:
184,192,656,5,0,0:0:0:0:
328,192,657,5,0,0:0:0:0:
184,192,658,5,0,0:0:0:0:
328,192,659,5,0,0:0:0:0:
184,192,660,5,0,0:0:0:0:
328,192,661,5,0,0:0:0:0:
184,192,662,5,0,0:0:0:0:
328,192,663,5,0,0:0:0:0:
184,192,664,5,0,0:0:0:0:
328,192,665,5,0,0:0:0:0:
184,192,666,5,0,0:0:0:0:
328,192,667,5,0,0:0:0:0:
184,192,668,5,0,0:0:0:0:
328,192,669,5,0,0:0:0:0:
184,192,670,5,0,0:0:0:0:
328,192,671,5,0,0:0:0:0:
184,192,672,5,0,0:0:0:0:
328,192,673,5,0,0:0:0:0:
184,192,674,5,0,0:0:0:0:
328,192,675,5,0,0:0:0:0:
184,192,676,5,0,0:0:0:0:
328,192,677,5,0,0:0:0:0:
184,192,678,5,0,0:0:0:0:
328,192,679,5,0,0:0:0:0:
184,192,680,5,0,0:0:0:0:
328,192,681,5,0,0:0:0:0:
184,192,682,5,0,0:0:0:0:
328,192,683,5,0,0:0:0:0:
184,192,684,5,0,0:0:0:0:
328,192,685,5,0,0:0:0:0:
184,192,686,5,0,0:0:0:0:
328,192,687,5,0,0:0:0:0:
184,192,688,5,0,0:0:0:0:
328,192,689,5,0,0:0:0:0:
184,192,690,5,0,0:0:0:0:
328,192,691,5,0,0:0:0:0:
184,192,692,5,0,0:0:0:0:
328,192,693,5,0,0:0:0:0:
184,192,694,5,0,0:0:0:0:
328,192,695,5,0,0:0:0:0:
184,192,696,5,0,0:0:0:0:
328,192,697,5,0,0:0:0:0:
184,192,698,5,0,0:0:0:0:
328,192,699,5,0,0:0:0:0:
184,192,700,5,0,0:0:0:0:
328,192,701,5,0,0:0:0:0:
184,192,702,5,0,0:0:0:0:
328,192,703,5,0,0:0:0:0:
184,192,704,5,0,0:0:0:0:
328,192,705,5,0,0:0:0:0:
184,192,706,5,0,0:0:0:0:
328,192,707,5,0,0:0:0:0:
184,192,708,5,0,0:0:0:0:
328,192,709,5,0,0:0:0:0:
184,192,710,5,0,0:0:0:0:
328,192,711,5,0,0:0:0:0:
184,192,712,5,0,0:0:0:0:
328,192,713,5,0,0:0:0:0:
184,192,714,5,0,0:0:0:0:
328,192,715,5,0,0:0:0:0:
184,192,716,5,0,0:0:0:0:
328,192,717,5,0,0:0:0:0:
184,192,718,5,0,0:0:0:0:
328,192,719,5,0,0:0:0:0:
184,192,720,5,0,0:0:0:0:
328,192,721,5,0,0:0:0:0:
184,192,722,5,0,0:0:0:0:
328,192,723,5,0,0:0:0:0:
184,192,724,5,0,0:0:0:0:
328,192,725,5,0,0:0:0:0:
184,192,726,5,0,0:0:0:0:
328,192,727,5,0,0:0:0:0:
184,192,728,5,0,0:0:0:0:
328,192,729,5,0,0:0:0:0:
184,192,730,5,0,0:0:0:0:
328,192,731,5,0,0:0:0:0:
184,192,732,5,0,0:0:0:0:
328,192,733,5,0,0:0:0:0:
184,192,734,5,0,0:0:0:0:
328,192,735,5,0,0:0:0:0:
184,192,736,5,0,0:0:0:0:
328,192,737,5,0,0:0:0:0:
184,192,738,5,0,0:0:0:0:
328,192,739,5,0,0:0:0:0:
184,192,740,5,0,0:0:0:0:
328,192,741,5,0,0:0:0:0:
184,192,742,5,0,0:0:0:0:
328,192,743,5,0,0:0:0:0:
184,192,744,5,0,0:0:0:0:
328,192,745,5,0,0:0:0:0:
184,192,746,5,0,0:0:0:0:
328,192,747,5,0,0:0:0:0:
184,192,748,5,0,0:0:0:0:
328,192,749,5,0,0:0:0:0:
184,192,750,5,0,0:0:0:0:
328,192,751,5,0,0:0:0:0:
184,192,752,5,0,0:0:0:0:
328,192,753,5,0,0:0:0:0:
184,192,754,5,0,0:0:0:0:
328,192,755,5,0,0:0:0:0:
184,192,756,5,0,0:0:0:0:
328,192,757,5,0,0:0:0:0:
184,192,758,5,0,0:0:0:0:
328,192,759,5,0,0:0:0:0:
184,192,760,5,0,0:0:0:0:
328,192,761,5,0,0:0:0:0:
184,192,762,5,0,0:0:0:0:
328,192,763,5,0,0:0:0:0:
184,192,764,5,0,0:0:0:0:
328,192,765,5,0,0:0:0:0:
184,192,766,5,0,0:0:0:0:
328,192,767,5,0,0:0:0:0:
184,192,768,5,0,0:0:0:0:
328,192,769,5,0,0:0:0:0:
184,192,770,5,0,0:0:0:0:
328,192,771,5,0,0:0:0:0:
184,192,772,5,0,0:0:0:0:
328,192,773,5,0,0:0:0:0:
184,192,774,5,0,0:0:0:0:
328,192,775,5,0,0:0:0:0:
184,192,776,5,0,0:0:0:0:
328,192,777,5,0,0:0:0:0:
184,192,778,5,0,0:0:0:0:
328,192,779,5,0,0:0:0:0:
184,192,780,5,0,0:0:0:0:
328,192,781,5,0,0:0:0:0:
184,192,782,5,0,0:0:0:0:
328,192,783,5,0,0:0:0:0:
184,192,784,5,0,0:0:0:0:
328,192,785,5,0,0:0:0:0:
184,192,786,5,0,0:0:0:0:
328,192,787,5,0,0:0:0:0:
184,192,788,5,0,0:0:0:0:
328,192,789,5,0,0:0:0:0:
184,192,790,5,0,0:0:0:0:
328,192,791,5,0,0:0:0:0:
184,192,792,5,0,0:0:0:0:
328,192,793,5,0,0:0:0:0:
184,192,794,5,0,0:0:0:0:
328,192,795,5,0,0:0:0:0:
184,192,796,5,0,0:0:0:0:
328,192,797,5,0,0:0:0:0:
184,192,798,5,0,0:0:0:0:
328,192,799,5,0,0:0:0:0:
184,192,800,5,0,0:0:0:0:
328,192,801,5,0,0:0:0:0:
184,192,802,5,0,0:0:0:0:
328,192,803,5,0,0:0:0:0:
184,192,804,5,0,0:0:0:0:
328,192,805,5,0,0:0:0:0:
184,192,806,5,0,0:0:0:0:
328,192,807,5,0,0:0:0:0:
184,192,808,5,0,0:0:0:0:
328,192,809,5,0,0:0:0:0:
184,192,810,5,0,0:0:0:0:
328,192,811,5,0,0:0:0:0:
184,192,812,5,0,0:0:0:0:
328,192,813,5,0,0:0:0:0:
184,192,814,5,0,0:0:0:0:
328,192,815,5,0,0:0:0:0:
184,192,816,5,0,0:0:0:0:
328,192,817,5,0,0:0:0:0:
184,192,818,5,0,0:0:0:0:
328,192,819,5,0,0:0:0:0:
184,192,820,5,0,0:0:0:0:
328,192,821,5,0,0:0:0:0:
184,192,822,5,0,0:0:0:0:
328,192,823,5,0,0:0:0:0:
184,192,824,5,0,0:0:0:0:
328,192,825,5,0,0:0:0:0:
184,192,826,5,0,0:0:0:0:
328,192,827,5,0,0:0:0:0:
184,192,828,5,0,0:0:0:0:
328,192,829,5,0,0:0:0:0:
184,192,830,5,0,0:0:0:0:
328,192,831,5,0,0:0:0:0:
184,192,832,5,0,0:0:0:0:
328,192,833,5,0,0:0:0:0:
184,192,834,5,0,0:0:0:0:
328,192,835,5,0,0:0:0:0:
184,192,836,5,0,0:0:0:0:
328,192,837,5,0,0:0:0:0:
184,192,838,5,0,0:0:0:0:
328,192,839,5,0,0:0:0:0:
184,192,840,5,0,0:0:0:0:
328,192,841,5,0,0:0:0:0:
184,192,842,5,0,0:0:0:0:
328,192,843,5,0,0:0:0:0:
184,192,844,5,0,0:0:0:0:
328,192,845,5,0,0:0:0:0:
184,192,846,5,0,0:0:0:0:
328,192,847,5,0,0:0:0:0:
184,192,848,5,0,0:0:0:0:
328,192,849,5,0,0:0:0:0:
184,192,850,5,0,0:0:0:0:
328,192,851,5,0,0:0:0:0:
184,192,852,5,0,0:0:0:0:
328,192,853,5,0,0:0:0:0:
184,192,854,5,0,0:0:0:0:
328,192,855,5,0,0:0:0:0:
184,192,856,5,0,0:0:0:0:
328,192,857,5,0,0:0:0:0:
184,192,858,5,0,0:0:0:0:
328,192,859,5,0,0:0:0:0:
184,192,860,5,0,0:0:0:0:
328,192,861,5,0,0:0:0:0:
184,192,862,5,0,0:0:0:0:
328,192,863,5,0,0:0:0:0:
184,192,864,5,0,0:0:0:0:
328,192,865,5,0,0:0:0:0:
184,192,866,5,0,0:0:0:0:
328,192,867,5,0,0:0:0:0:
184,192,868,5,0,0:0:0:0:
328,192,869,5,0,0:0:0:0:
184,192,870,5,0,0:0:0:0:
328,192,871,5,0,0:0:0:0:
184,192,872,5,0,0:0:0:0:
328,192,873,5,0,0:0:0:0:
184,192,874,5,0,0:0:0:0:
328,192,875,5,0,0:0:0:0:
184,192,876,5,0,0:0:0:0:
328,192,877,5,0,0:0:0:0:
184,192,878,5,0,0:0:0:0:
328,192,879,5,0,0:0:0:0:
184,192,880,5,0,0:0:0:0:
328,192,881,5,0,0:0:0:0:
184,192,882,5,0,0:0:0:0:
328,192,883,5,0,0:0:0:0:
184,192,884,5,0,0:0:0:0:
328,192,885,5,0,0:0:0:0:
184,192,886,5,0,0:0:0:0:
328,192,887,5,0,0:0:0:0:
184,192,888,5,0,0:0:0:0:
328,192,889,5,0,0:0:0:0:
184,192,890,5,0,0:0:0:0:
328,192,891,5,0,0:0:0:0:
184,192,892,5,0,0:0:0:0:
328,192,893,5,0,0:0:0:0:
184,192,894,5,0,0:0:0:0:
328,192,895,5,0,0:0:0:0:
184,192,896,5,0,0:0:0:0:
328,192,897,5,0,0:0:0:0:
184,192,898,5,0,0:0:0:0:
328,192,899,5,0,0:0:0:0:
184,192,900,5,0,0:0:0:0:
328,192,901,5,0,0:0:0:0:
184,192,902,5,0,0:0:0:0:
328,192,903,5,0,0:0:0:0:
184,192,904,5,0,0:0:0:0:
328,192,905,5,0,0:0:0:0:
184,192,906,5,0,0:0:0:0:
328,192,907,5,0,0:0:0:0:
184,192,908,5,0,0:0:0:0:
328,192,909,5,0,0:0:0:0:
184,192,910,5,0,0:0:0:0:
328,192,911,5,0,0:0:0:0:
184,192,912,5,0,0:0:0:0:
328,192,913,5,0,0:0:0:0:
184,192,914,5,0,0:0:0:0:
328,192,915,5,0,0:0:0:0:
184,192,916,5,0,0:0:0:0:
328,192,917,5,0,0:0:0:0:
184,192,918,5,0,0:0:0:0:
328,192,919,5,0,0:0:0:0:
184,192,920,5,0,0:0:0:0:
328,192,921,5,0,0:0:0:0:
184,192,922,5,0,0:0:0:0:
328,192,923,5,0,0:0:0:0:
184,192,924,5,0,0:0:0:0:
328,192,925,5,0,0:0:0:0:
184,192,926,5,0,0:0:0:0:
328,192,927,5,0,0:0:0:0:
184,192,928,5,0,0:0:0:0:
328,192,929,5,0,0:0:0:0:
184,192,930,5,0,0:0:0:0:
328,192,931,5,0,0:0:0:0:
184,192,932,5,0,0:0:0:0:
328,192,933,5,0,0:0:0:0:
184,192,934,5,0,0:0:0:0:
328,192,935,5,0,0:0:0:0:
184,192,936,5,0,0:0:0:0:
328,192,937,5,0,0:0:0:0:
184,192,938,5,0,0:0:0:0:
328,192,939,5,0,0:0:0:0:
184,192,940,5,0,0:0:0:0:
328,192,941,5,0,0:0:0:0:
184,192,942,5,0,0:0:0:0:
328,192,943,5,0,0:0:0:0:
184,192,944,5,0,0:0:0:0:
328,192,945,5,0,0:0:0:0:
184,192,946,5,0,0:0:0:0:
328,192,947,5,0,0:0:0:0:
184,192,948,5,0,0:0:0:0:
328,192,949,5,0,0:0:0:0:
184,192,950,5,0,0:0:0:0:
328,192,951,5,0,0:0:0:0:
184,192,952,5,0,0:0:0:0:
328,192,953,5,0,0:0:0:0:
184,192,954,5,0,0:0:0:0:
328,192,955,5,0,0:0:0:0:
184,192,956,5,0,0:0:0:0:
328,192,957,5,0,0:0:0:0:
184,192,958,5,0,0:0:0:0:
328,192,959,5,0,0:0:0:0:
184,192,960,5,0,0:0:0:0:
328,192,961,5,0,0:0:0:0:
184,192,962,5,0,0:0:0:0:
328,192,963,5,0,0:0:0:0:
184,192,964,5,0,0:0:0:0:
328,192,965,5,0,0:0:0:0:
184,192,966,5,0,0:0:0:0:
328,192,967,5,0,0:0:0:0:
184,192,968,5,0,0:0:0:0:
328,192,969,5,0,0:0:0:0:
184,192,970,5,0,0:0:0:0:
328,192,971,5,0,0:0:0:0:
184,192,972,5,0,0:0:0:0:
328,192,973,5,0,0:0:0:0:
184,192,974,5,0,0:0:0:0:
328,192,975,5,0,0:0:0:0:
184,192,976,5,0,0:0:0:0:
328,192,977,5,0,0:0:0:0:
184,192,978,5,0,0:0:0:0:
328,192,979,5,0,0:0:0:0:
184,192,980,5,0,0:0:0:0:
328,192,981,5,0,0:0:0:0:
184,192,982,5,0,0:0:0:0:
328,192,983,5,0,0:0:0:0:
184,192,984,5,0,0:0:0:0:
328,192,985,5,0,0:0:0:0:
184,192,986,5,0,0:0:0:0:
328,192,987,5,0,0:0:0:0:
184,192,988,5,0,0:0:0:0:
328,192,989,5,0,0:0:0:0:
184,192,990,5,0,0:0:0:0:
328,192,991,5,0,0:0:0:0:
184,192,992,5,0,0:0:0:0:
328,192,993,5,0,0:0:0:0:
184,192,994,5,0,0:0:0:0:
328,192,995,5,0,0:0:0:0:
184,192,996,5,0,0:0:0:0:
328,192,997,5,0,0:0:0:0:
184,192,998,5,0,0:0:0:0:
328,192,999,5,0,0:0:0:0:
184,192,1000,5,0,0:0:0:0:
328,192,1001,5,0,0:0:0:0:
184,192,1002,5,0,0:0:0:0:
328,192,1003,5,0,0:0:0:0:
184,192,1004,5,0,0:0:0:0:
328,192,1005,5,0,0:0:0:0:
184,192,1006,5,0,0:0:0:0:
328,192,1007,5,0,0:0:0:0:
184,192,1008,5,0,0:0:0:0:
328,192,1009,5,0,0:0:0:0:
184,192,1010,5,0,0:0:0:0:
328,192,1011,5,0,0:0:0:0:
184,192,1012,5,0,0:0:0:0:
328,192,1013,5,0,0:0:0:0:
184,192,1014,5,0,0:0:0:0:
328,192,1015,5,0,0:0:0:0:
184,192,1016,5,0,0:0:0:0:
328,192,1017,5,0,0:0:0:0:
184,192,1018,5,0,0:0:0:0:
328,192,1019,5,0,0:0:0:0:
184,192,1020,5,0,0:0:0:0:
328,192,1021,5,0,0:0:0:0:
184,192,1022,5,0,0:0:0:0:
328,192,1023,5,0,0:0:0:0:
184,192,1024,5,0,0:0:0:0:
328,192,1025,5,0,0:0:0:0:
184,192,1026,5,0,0:0:0:0:
328,192,1027,5,0,0:0:0:0:
184,192,1028,5,0,0:0:0:0:
328,192,1029,5,0,0:0:0:0:
184,192,1030,5,0,0:0:0:0:
328,192,1031,5,0,0:0:0:0:
184,192,1032,5,0,0:0:0:0:
328,192,1033,5,0,0:0:0:0:
184,192,1034,5,0,0:0:0:0:
328,192,1035,5,0,0:0:0:0:
184,192,1036,5,0,0:0:0:0:
328,192,1037,5,0,0:0:0:0:
184,192,1038,5,0,0:0:0:0:
328,192,1039,5,0,0:0:0:0:
184,192,1040,5,0,0:0:0:0:
328,192,1041,5,0,0:0:0:0:
184,192,1042,5,0,0:0:0:0:
328,192,1043,5,0,0:0:0:0:
184,192,1044,5,0,0:0:0:0:
328,192,1045,5,0,0:0:0:0:
184,192,1046,5,0,0:0:0:0:
328,192,1047,5,0,0:0:0:0:
184,192,1048,5,0,0:0:0:0:
328,192,1049,5,0,0:0:0:0:
184,192,1050,5,0,0:0:0:0:
328,192,1051,5,0,0:0:0:0:
184,192,1052,5,0,0:0:0:0:
328,192,1053,5,0,0:0:0:0:
184,192,1054,5,0,0:0:0:0:
328,192,1055,5,0,0:0:0:0:
184,192,1056,5,0,0:0:0:0:
328,192,1057,5,0,0:0:0:0:
184,192,1058,5,0,0:0:0:0:
328,192,1059,5,0,0:0:0:0:
184,192,1060,5,0,0:0:0:0:
328,192,1061,5,0,0:0:0:0:
184,192,1062,5,0,0:0:0:0:
328,192,1063,5,0,0:0:0:0:
184,192,1064,5,0,0:0:0:0:
328,192,1065,5,0,0:0:0:0:
184,192,1066,5,0,0:0:0:0:
328,192,1067,5,0,0:0:0:0:
184,192,1068,5,0,0:0:0:0:
328,192,1069,5,0,0:0:0:0:
184,192,1070,5,0,0:0:0:0:
328,192,1071,5,0,0:0:0:0:
184,192,1072,5,0,0:0:0:0:
328,192,1073,5,0,0:0:0:0:
184,192,1074,5,0,0:0:0:0:
328,192,1075,5,0,0:0:0:0:
184,192,1076,5,0,0:0:0:0:
328,192,1077,5,0,0:0:0:0:
184,192,1078,5,0,0:0:0:0:
328,192,1079,5,0,0:0:0:0:
184,192,1080,5,0,0:0:0:0:
328,192,1081,5,0,0:0:0:0:
184,192,1082,5,0,0:0:0:0:
328,192,1083,5,0,0:0:0:0:
184,192,1084,5,0,0:0:0:0:
328,192,1085,5,0,0:0:0:0:
184,192,1086,5,0,0:0:0:0:
328,192,1087,5,0,0:0:0:0:
184,192,1088,5,0,0:0:0:0:
328,192,1089,5,0,0:0:0:0:
184,192,1090,5,0,0:0:0:0:
328,192,1091,5,0,0:0:0:0:
184,192,1092,5,0,0:0:0:0:
328,192,1093,5,0,0:0:0:0:
184,192,1094,5,0,0:0:0:0:
328,192,1095,5,0,0:0:0:0:
184,192,1096,5,0,0:0:0:0:
328,192,1097,5,0,0:0:0:0:
184,192,1098,5,0,0:0:0:0:
328,192,1099,5,0,0:0:0:0:
184,192,1100,5,0,0:0:0:0:
328,192,1101,5,0,0:0:0:0:
184,192,1102,5,0,0:0:0:0:
328,192,1103,5,0,0:0:0:0:
184,192,1104,5,0,0:0:0:0:
328,192,1105,5,0,0:0:0:0:
184,192,1106,5,0,0:0:0:0:
328,192,1107,5,0,0:0:0:0:
184,192,1108,5,0,0:0:0:0:
328,192,1109,5,0,0:0:0:0:
184,192,1110,5,0,0:0:0:0:
328,192,1111,5,0,0:0:0:0:
184,192,1112,5,0,0:0:0:0:
328,192,1113,5,0,0:0:0:0:
184,192,1114,5,0,0:0:0:0:
328,192,1115,5,0,0:0:0:0:
184,192,1116,5,0,0:0:0:0:
328,192,1117,5,0,0:0:0:0:
184,192,1118,5,0,0:0:0:0:
328,192,1119,5,0,0:0:0:0:
184,192,1120,5,0,0:0:0:0:
328,192,1121,5,0,0:0:0:0:
184,192,1122,5,0,0:0:0:0:
328,192,1123,5,0,0:0:0:0:
184,192,1124,5,0,0:0:0:0:
328,192,1125,5,0,0:0:0:0:
184,192,1126,5,0,0:0:0:0:
328,192,1127,5,0,0:0:0:0:
184,192,1128,5,0,0:0:0:0:
328,192,1129,5,0,0:0:0:0:
184,192,1130,5,0,0:0:0:0:
328,192,1131,5,0,0:0:0:0:
184,192,1132,5,0,0:0:0:0:
328,192,1133,5,0,0:0:0:0:
184,192,1134,5,0,0:0:0:0:
328,192,1135,5,0,0:0:0:0:
184,192,1136,5,0,0:0:0:0:
328,192,1137,5,0,0:0:0:0:
184,192,1138,5,0,0:0:0:0:
328,192,1139,5,0,0:0:0:0:
184,192,1140,5,0,0:0:0:0:
328,192,1141,5,0,0:0:0:0:
184,192,1142,5,0,0:0:0:0:
328,192,1143,5,0,0:0:0:0:
184,192,1144,5,0,0:0:0:0:
328,192,1145,5,0,0:0:0:0:
184,192,1146,5,0,0:0:0:0:
328,192,1147,5,0,0:0:0:0:
184,192,1148,5,0,0:0:0:0:
328,192,1149,5,0,0:0:0:0:
184,192,1150,5,0,0:0:0:0:
328,192,1151,5,0,0:0:0:0:
184,192,1152,5,0,0:0:0:0:
328,192,1153,5,0,0:0:0:0:
184,192,1154,5,0,0:0:0:0:
328,192,1155,5,0,0:0:0:0:
184,192,1156,5,0,0:0:0:0:
328,192,1157,5,0,0:0:0:0:
184,192,1158,5,0,0:0:0:0:
328,192,1159,5,0,0:0:0:0:
184,192,1160,5,0,0:0:0:0:
328,192,1161,5,0,0:0:0:0:
184,192,1162,5,0,0:0:0:0:
328,192,1163,5,0,0:0:0:0:
184,192,1164,5,0,0:0:0:0:
328,192,1165,5,0,0:0:0:0:
184,192,1166,5,0,0:0:0:0:
328,192,1167,5,0,0:0:0:0:
184,192,1168,5,0,0:0:0:0:
328,192,1169,5,0,0:0:0:0:
184,192,1170,5,0,0:0:0:0:
328,192,1171,5,0,0:0:0:0:
184,192,1172,5,0,0:0:0:0:
328,192,1173,5,0,0:0:0:0:
184,192,1174,5,0,0:0:0:0:
328,192,1175,5,0,0:0:0:0:
184,192,1176,5,0,0:0:0:0:
328,192,1177,5,0,0:0:0:0:
184,192,1178,5,0,0:0:0:0:
328,192,1179,5,0,0:0:0:0:
184,192,1180,5,0,0:0:0:0:
328,192,1181,5,0,0:0:0:0:
184,192,1182,5,0,0:0:0:0:
328,192,1183,5,0,0:0:0:0:
184,192,1184,5,0,0:0:0:0:
328,192,1185,5,0,0:0:0:0:
184,192,1186,5,0,0:0:0:0:
328,192,1187,5,0,0:0:0:0:
184,192,1188,5,0,0:0:0:0:
328,192,1189,5,0,0:0:0:0:
184,192,1190,5,0,0:0:0:0:
328,192,1191,5,0,0:0:0:0:
184,192,1192,5,0,0:0:0:0:
328,192,1193,5,0,0:0:0:0:
184,192,1194,5,0,0:0:0:0:
328,192,1195,5,0,0:0:0:0:
184,192,1196,5,0,0:0:0:0:
328,192,1197,5,0,0:0:0:0:
184,192,1198,5,0,0:0:0:0:
328,192,1199,5,0,0:0:0:0:
184,192,1200,5,0,0:0:0:0:
328,192,1201,5,0,0:0:0:0:
184,192,1202,5,0,0:0:0:0:
328,192,1203,5,0,0:0:0:0:
184,192,1204,5,0,0:0:0:0:
328,192,1205,5,0,0:0:0:0:
184,192,1206,5,0,0:0:0:0:
328,192,1207,5,0,0:0:0:0:
184,192,1208,5,0,0:0:0:0:
328,192,1209,5,0,0:0:0:0:
184,192,1210,5,0,0:0:0:0:
328,192,1211,5,0,0:0:0:0:
184,192,1212,5,0,0:0:0:0:
328,192,1213,5,0,0:0:0:0:
184,192,1214,5,0,0:0:0:0:
328,192,1215,5,0,0:0:0:0:
184,192,1216,5,0,0:0:0:0:
328,192,1217,5,0,0:0:0:0:
184,192,1218,5,0,0:0:0:0:
328,192,1219,5,0,0:0:0:0:
184,192,1220,5,0,0:0:0:0:
328,192,1221,5,0,0:0:0:0:
184,192,1222,5,0,0:0:0:0:
328,192,1223,5,0,0:0:0:0:
184,192,1224,5,0,0:0:0:0:
328,192,1225,5,0,0:0:0:0:
184,192,1226,5,0,0:0:0:0:
328,192,1227,5,0,0:0:0:0:
184,192,1228,5,0,0:0:0:0:
328,192,1229,5,0,0:0:0:0:
184,192,1230,5,0,0:0:0:0:
328,192,1231,5,0,0:0:0:0:
184,192,1232,5,0,0:0:0:0:
328,192,1233,5,0,0:0:0:0:
184,192,1234,5,0,0:0:0:0:
328,192,1235,5,0,0:0:0:0:
184,192,1236,5,0,0:0:0:0:
328,192,1237,5,0,0:0:0:0:
184,192,1238,5,0,0:0:0:0:
328,192,1239,5,0,0:0:0:0:
184,192,1240,5,0,0:0:0:0:
328,192,1241,5,0,0:0:0:0:
184,192,1242,5,0,0:0:0:0:
328,192,1243,5,0,0:0:0:0:
184,192,1244,5,0,0:0:0:0:
328,192,1245,5,0,0:0:0:0:
184,192,1246,5,0,0:0:0:0:
328,192,1247,5,0,0:0:0:0:
184,192,1248,5,0,0:0:0:0:
328,192,1249,5,0,0:0:0:0:
184,192,1250,5,0,0:0:0:0:
328,192,1251,5,0,0:0:0:0:
184,192,1252,5,0,0:0:0:0:
328,192,1253,5,0,0:0:0:0:
184,192,1254,5,0,0:0:0:0:
328,192,1255,5,0,0:0:0:0:
184,192,1256,5,0,0:0:0:0:
328,192,1257,5,0,0:0:0:0:
184,192,1258,5,0,0:0:0:0:
328,192,1259,5,0,0:0:0:0:
184,192,1260,5,0,0:0:0:0:
328,192,1261,5,0,0:0:0:0:
184,192,1262,5,0,0:0:0:0:
328,192,1263,5,0,0:0:0:0:
184,192,1264,5,0,0:0:0:0:
328,192,1265,5,0,0:0:0:0:
184,192,1266,5,0,0:0:0:0:
328,192,1267,5,0,0:0:0:0:
184,192,1268,5,0,0:0:0:0:
328,192,1269,5,0,0:0:0:0:
184,192,1270,5,0,0:0:0:0:
328,192,1271,5,0,0:0:0:0:
184,192,1272,5,0,0:0:0:0:
328,192,1273,5,0,0:0:0:0:
184,192,1274,5,0,0:0:0:0:
328,192,1275,5,0,0:0:0:0:
184,192,1276,5,0,0:0:0:0:
328,192,1277,5,0,0:0:0:0:
184,192,1278,5,0,0:0:0:0:
328,192,1279,5,0,0:0:0:0:
184,192,1280,5,0,0:0:0:0:
328,192,1281,5,0,0:0:0:0:
184,192,1282,5,0,0:0:0:0:
328,192,1283,5,0,0:0:0:0:
184,192,1284,5,0,0:0:0:0:
328,192,1285,5,0,0:0:0:0:
184,192,1286,5,0,0:0:0:0:
328,192,1287,5,0,0:0:0:0:
184,192,1288,5,0,0:0:0:0:
328,192,1289,5,0,0:0:0:0:
184,192,1290,5,0,0:0:0:0:
328,192,1291,5,0,0:0:0:0:
184,192,1292,5,0,0:0:0:0:
328,192,1293,5,0,0:0:0:0:
184,192,1294,5,0,0:0:0:0:
328,192,1295,5,0,0:0:0:0:
184,192,1296,5,0,0:0:0:0:
328,192,1297,5,0,0:0:0:0:
184,192,1298,5,0,0:0:0:0:
328,192,1299,5,0,0:0:0:0:
184,192,1300,5,0,0:0:0:0:
328,192,1301,5,0,0:0:0:0:
184,192,1302,5,0,0:0:0:0:
328,192,1303,5,0,0:0:0:0:
184,192,1304,5,0,0:0:0:0:
328,192,1305,5,0,0:0:0:0:
184,192,1306,5,0,0:0:0:0:
328,192,1307,5,0,0:0:0:0:
184,192,1308,5,0,0:0:0:0:
328,192,1309,5,0,0:0:0:0:
184,192,1310,5,0,0:0:0:0:
328,192,1311,5,0,0:0:0:0:
184,192,1312,5,0,0:0:0:0:
328,192,1313,5,0,0:0:0:0:
184,192,1314,5,0,0:0:0:0:
328,192,1315,5,0,0:0:0:0:
184,192,1316,5,0,0:0:0:0:
328,192,1317,5,0,0:0:0:0:
184,192,1318,5,0,0:0:0:0:
328,192,1319,5,0,0:0:0:0:
184,192,1320,5,0,0:0:0:0:
328,192,1321,5,0,0:0:0:0:
184,192,1322,5,0,0:0:0:0:
328,192,1323,5,0,0:0:0:0:
184,192,1324,5,0,0:0:0:0:
328,192,1325,5,0,0:0:0:0:
184,192,1326,5,0,0:0:0:0:
328,192,1327,5,0,0:0:0:0:
184,192,1328,5,0,0:0:0:0:
328,192,1329,5,0,0:0:0:0:
184,192,1330,5,0,0:0:0:0:
328,192,1331,5,0,0:0:0:0:
184,192,1332,5,0,0:0:0:0:
328,192,1333,5,0,0:0:0:0:
184,192,1334,5,0,0:0:0:0:
328,192,1335,5,0,0:0:0:0:
184,192,1336,5,0,0:0:0:0:
328,192,1337,5,0,0:0:0:0:
184,192,1338,5,0,0:0:0:0:
328,192,1339,5,0,0:0:0:0:
184,192,1340,5,0,0:0:0:0:
328,192,1341,5,0,0:0:0:0:
184,192,1342,5,0,0:0:0:0:
328,192,1343,5,0,0:0:0:0:
184,192,1344,5,0,0:0:0:0:
328,192,1345,5,0,0:0:0:0:
184,192,1346,5,0,0:0:0:0:
328,192,1347,5,0,0:0:0:0:
184,192,1348,5,0,0:0:0:0:
328,192,1349,5,0,0:0:0:0:
184,192,1350,5,0,0:0:0:0:
328,192,1351,5,0,0:0:0:0:
184,192,1352,5,0,0:0:0:0:
328,192,1353,5,0,0:0:0:0:
184,192,1354,5,0,0:0:0:0:
328,192,1355,5,0,0:0:0:0:
184,192,1356,5,0,0:0:0:0:
328,192,1357,5,0,0:0:0:0:
184,192,1358,5,0,0:0:0:0:
328,192,1359,5,0,0:0:0:0:
184,192,1360,5,0,0:0:0:0:
328,192,1361,5,0,0:0:0:0:
184,192,1362,5,0,0:0:0:0:
328,192,1363,5,0,0:0:0:0:
184,192,1364,5,0,0:0:0:0:
328,192,1365,5,0,0:0:0:0:
184,192,1366,5,0,0:0:0:0:
328,192,1367,5,0,0:0:0:0:
184,192,1368,5,0,0:0:0:0:
328,192,1369,5,0,0:0:0:0:
184,192,1370,5,0,0:0:0:0:
328,192,1371,5,0,0:0:0:0:
184,192,1372,5,0,0:0:0:0:
328,192,1373,5,0,0:0:0:0:
184,192,1374,5,0,0:0:0:0:
328,192,1375,5,0,0:0:0:0:
184,192,1376,5,0,0:0:0:0:
328,192,1377,5,0,0:0:0:0:
184,192,1378,5,0,0:0:0:0:
328,192,1379,5,0,0:0:0:0:
184,192,1380,5,0,0:0:0:0:
328,192,1381,5,0,0:0:0:0:
184,192,1382,5,0,0:0:0:0:
328,192,1383,5,0,0:0:0:0:
184,192,1384,5,0,0:0:0:0:
328,192,1385,5,0,0:0:0:0:
184,192,1386,5,0,0:0:0:0:
328,192,1387,5,0,0:0:0:0:
184,192,1388,5,0,0:0:0:0:
328,192,1389,5,0,0:0:0:0:
184,192,1390,5,0,0:0:0:0:
328,192,1391,5,0,0:0:0:0:
184,192,1392,5,0,0:0:0:0:
328,192,1393,5,0,0:0:0:0:
184,192,1394,5,0,0:0:0:0:
328,192,1395,5,0,0:0:0:0:
184,192,1396,5,0,0:0:0:0:
328,192,1397,5,0,0:0:0:0:
184,192,1398,5,0,0:0:0:0:
328,192,1399,5,0,0:0:0:0:
184,192,1400,5,0,0:0:0:0:
328,192,1401,5,0,0:0:0:0:
184,192,1402,5,0,0:0:0:0:
328,192,1403,5,0,0:0:0:0:
184,192,1404,5,0,0:0:0:0:
328,192,1405,5,0,0:0:0:0:
184,192,1406,5,0,0:0:0:0:
328,192,1407,5,0,0:0:0:0:
184,192,1408,5,0,0:0:0:0:
328,192,1409,5,0,0:0:0:0:
184,192,1410,5,0,0:0:0:0:
328,192,1411,5,0,0:0:0:0:
184,192,1412,5,0,0:0:0:0:
328,192,1413,5,0,0:0:0:0:
184,192,1414,5,0,0:0:0:0:
328,192,1415,5,0,0:0:0:0:
184,192,1416,5,0,0:0:0:0:
328,192,1417,5,0,0:0:0:0:
184,192,1418,5,0,0:0:0:0:
328,192,1419,5,0,0:0:0:0:
184,192,1420,5,0,0:0:0:0:
328,192,1421,5,0,0:0:0:0:
184,192,1422,5,0,0:0:0:0:
328,192,1423,5,0,0:0:0:0:
184,192,1424,5,0,0:0:0:0:
328,192,1425,5,0,0:0:0:0:
184,192,1426,5,0,0:0:0:0:
328,192,1427,5,0,0:0:0:0:
184,192,1428,5,0,0:0:0:0:
328,192,1429,5,0,0:0:0:0:
184,192,1430,5,0,0:0:0:0:
328,192,1431,5,0,0:0:0:0:
184,192,1432,5,0,0:0:0:0:
328,192,1433,5,0,0:0:0:0:
184,192,1434,5,0,0:0:0:0:
328,192,1435,5,0,0:0:0:0:
184,192,1436,5,0,0:0:0:0:
328,192,1437,5,0,0:0:0:0:
184,192,1438,5,0,0:0:0:0:
328,192,1439,5,0,0:0:0:0:
184,192,1440,5,0,0:0:0:0:
328,192,1441,5,0,0:0:0:0:
184,192,1442,5,0,0:0:0:0:
328,192,1443,5,0,0:0:0:0:
184,192,1444,5,0,0:0:0:0:
328,192,1445,5,0,0:0:0:0:
184,192,1446,5,0,0:0:0:0:
328,192,1447,5,0,0:0:0:0:
184,192,1448,5,0,0:0:0:0:
328,192,1449,5,0,0:0:0:0:
184,192,1450,5,0,0:0:0:0:
328,192,1451,5,0,0:0:0:0:
184,192,1452,5,0,0:0:0:0:
328,192,1453,5,0,0:0:0:0:
184,192,1454,5,0,0:0:0:0:
328,192,1455,5,0,0:0:0:0:
184,192,1456,5,0,0:0:0:0:
328,192,1457,5,0,0:0:0:0:
184,192,1458,5,0,0:0:0:0:
328,192,1459,5,0,0:0:0:0:
184,192,1460,5,0,0:0:0:0:
328,192,1461,5,0,0:0:0:0:
184,192,1462,5,0,0:0:0:0:
328,192,1463,5,0,0:0:0:0:
184,192,1464,5,0,0:0:0:0:
328,192,1465,5,0,0:0:0:0:
184,192,1466,5,0,0:0:0:0:
328,192,1467,5,0,0:0:0:0:
184,192,1468,5,0,0:0:0:0:
328,192,1469,5,0,0:0:0:0:
184,192,1470,5,0,0:0:0:0:
328,192,1471,5,0,0:0:0:0:
184,192,1472,5,0,0:0:0:0:
328,192,1473,5,0,0:0:0:0:
184,192,1474,5,0,0:0:0:0:
328,192,1475,5,0,0:0:0:0:
184,192,1476,5,0,0:0:0:0:
328,192,1477,5,0,0:0:0:0:
184,192,1478,5,0,0:0:0:0:
328,192,1479,5,0,0:0:0:0:
184,192,1480,5,0,0:0:0:0:
328,192,1481,5,0,0:0:0:0:
184,192,1482,5,0,0:0:0:0:
328,192,1483,5,0,0:0:0:0:
184,192,1484,5,0,0:0:0:0:
328,192,1485,5,0,0:0:0:0:
184,192,1486,5,0,0:0:0:0:
328,192,1487,5,0,0:0:0:0:
184,192,1488,5,0,0:0:0:0:
328,192,1489,5,0,0:0:0:0:
184,192,1490,5,0,0:0:0:0:
328,192,1491,5,0,0:0:0:0:
184,192,1492,5,0,0:0:0:0:
328,192,1493,5,0,0:0:0:0:
184,192,1494,5,0,0:0:0:0:
328,192,1495,5,0,0:0:0:0:
184,192,1496,5,0,0:0:0:0:
328,192,1497,5,0,0:0:0:0:
184,192,1498,5,0,0:0:0:0:
328,192,1499,5,0,0:0:0:0:
184,192,1500,5,0,0:0:0:0:
328,192,1501,5,0,0:0:0:0:
184,192,1502,5,0,0:0:0:0:
328,192,1503,5,0,0:0:0:0:
184,192,1504,5,0,0:0:0:0:
328,192,1505,5,0,0:0:0:0:
184,192,1506,5,0,0:0:0:0:
328,192,1507,5,0,0:0:0:0:
184,192,1508,5,0,0:0:0:0:
328,192,1509,5,0,0:0:0:0:
184,192,1510,5,0,0:0:0:0:
328,192,1511,5,0,0:0:0:0:
184,192,1512,5,0,0:0:0:0:
328,192,1513,5,0,0:0:0:0:
184,192,1514,5,0,0:0:0:0:
328,192,1515,5,0,0:0:0:0:
184,192,1516,5,0,0:0:0:0:
328,192,1517,5,0,0:0:0:0:
184,192,1518,5,0,0:0:0:0:
328,192,1519,5,0,0:0:0:0:
184,192,1520,5,0,0:0:0:0:
328,192,1521,5,0,0:0:0:0:
184,192,1522,5,0,0:0:0:0:
328,192,1523,5,0,0:0:0:0:
184,192,1524,5,0,0:0:0:0:
328,192,1525,5,0,0:0:0:0:
184,192,1526,5,0,0:0:0:0:
328,192,1527,5,0,0:0:0:0:
184,192,1528,5,0,0:0:0:0:
328,192,1529,5,0,0:0:0:0:
184,192,1530,5,0,0:0:0:0:
328,192,1531,5,0,0:0:0:0:
184,192,1532,5,0,0:0:0:0:
328,192,1533,5,0,0:0:0:0:
184,192,1534,5,0,0:0:0:0:
328,192,1535,5,0,0:0:0:0:
184,192,1536,5,0,0:0:0:0:
328,192,1537,5,0,0:0:0:0:
184,192,1538,5,0,0:0:0:0:
328,192,1539,5,0,0:0:0:0:
184,192,1540,5,0,0:0:0:0:
328,192,1541,5,0,0:0:0:0:
184,192,1542,5,0,0:0:0:0:
328,192,1543,5,0,0:0:0:0:
184,192,1544,5,0,0:0:0:0:
328,192,1545,5,0,0:0:0:0:
184,192,1546,5,0,0:0:0:0:
328,192,1547,5,0,0:0:0:0:
184,192,1548,5,0,0:0:0:0:
328,192,1549,5,0,0:0:0:0:
184,192,1550,5,0,0:0:0:0:
328,192,1551,5,0,0:0:0:0:
184,192,1552,5,0,0:0:0:0:
328,192,1553,5,0,0:0:0:0:
184,192,1554,5,0,0:0:0:0:
328,192,1555,5,0,0:0:0:0:
184,192,1556,5,0,0:0:0:0:
328,192,1557,5,0,0:0:0:0:
184,192,1558,5,0,0:0:0:0:
328,192,1559,5,0,0:0:0:0:
184,192,1560,5,0,0:0:0:0:
328,192,1561,5,0,0:0:0:0:
184,192,1562,5,0,0:0:0:0:
328,192,1563,5,0,0:0:0:0:
184,192,1564,5,0,0:0:0:0:
328,192,1565,5,0,0:0:0:0:
184,192,1566,5,0,0:0:0:0:
328,192,1567,5,0,0:0:0:0:
184,192,1568,5,0,0:0:0:0:
328,192,1569,5,0,0:0:0:0:
184,192,1570,5,0,0:0:0:0:
328,192,1571,5,0,0:0:0:0:
184,192,1572,5,0,0:0:0:0:
328,192,1573,5,0,0:0:0:0:
184,192,1574,5,0,0:0:0:0:
328,192,1575,5,0,0:0:0:0:
184,192,1576,5,0,0:0:0:0:
328,192,1577,5,0,0:0:0:0:
184,192,1578,5,0,0:0:0:0:
328,192,1579,5,0,0:0:0:0:
184,192,1580,5,0,0:0:0:0:
328,192,1581,5,0,0:0:0:0:
184,192,1582,5,0,0:0:0:0:
328,192,1583,5,0,0:0:0:0:
184,192,1584,5,0,0:0:0:0:
328,192,1585,5,0,0:0:0:0:
184,192,1586,5,0,0:0:0:0:
328,192,1587,5,0,0:0:0:0:
184,192,1588,5,0,0:0:0:0:
328,192,1589,5,0,0:0:0:0:
184,192,1590,5,0,0:0:0:0:
328,192,1591,5,0,0:0:0:0:
184,192,1592,5,0,0:0:0:0:
328,192,1593,5,0,0:0:0:0:
184,192,1594,5,0,0:0:0:0:
328,192,1595,5,0,0:0:0:0:
184,192,1596,5,0,0:0:0:0:
328,192,1597,5,0,0:0:0:0:
184,192,1598,5,0,0:0:0:0:
328,192,1599,5,0,0:0:0:0:
184,192,1600,5,0,0:0:0:0:
328,192,1601,5,0,0:0:0:0:
184,192,1602,5,0,0:0:0:0:
328,192,1603,5,0,0:0:0:0:
184,192,1604,5,0,0:0:0:0:
328,192,1605,5,0,0:0:0:0:
184,192,1606,5,0,0:0:0:0:
328,192,1607,5,0,0:0:0:0:
184,192,1608,5,0,0:0:0:0:
328,192,1609,5,0,0:0:0:0:
184,192,1610,5,0,0:0:0:0:
328,192,1611,5,0,0:0:0:0:
184,192,1612,5,0,0:0:0:0:
328,192,1613,5,0,0:0:0:0:
184,192,1614,5,0,0:0:0:0:
328,192,1615,5,0,0:0:0:0:
184,192,1616,5,0,0:0:0:0:
328,192,1617,5,0,0:0:0:0:
184,192,1618,5,0,0:0:0:0:
328,192,1619,5,0,0:0:0:0:
184,192,1620,5,0,0:0:0:0:
328,192,1621,5,0,0:0:0:0:
184,192,1622,5,0,0:0:0:0:
328,192,1623,5,0,0:0:0:0:
184,192,1624,5,0,0:0:0:0:
328,192,1625,5,0,0:0:0:0:
184,192,1626,5,0,0:0:0:0:
328,192,1627,5,0,0:0:0:0:
184,192,1628,5,0,0:0:0:0:
328,192,1629,5,0,0:0:0:0:
184,192,1630,5,0,0:0:0:0:
328,192,1631,5,0,0:0:0:0:
184,192,1632,5,0,0:0:0:0:
328,192,1633,5,0,0:0:0:0:
184,192,1634,5,0,0:0:0:0:
328,192,1635,5,0,0:0:0:0:
184,192,1636,5,0,0:0:0:0:
328,192,1637,5,0,0:0:0:0:
184,192,1638,5,0,0:0:0:0:
328,192,1639,5,0,0:0:0:0:
184,192,1640,5,0,0:0:0:0:
328,192,1641,5,0,0:0:0:0:
184,192,1642,5,0,0:0:0:0:
328,192,1643,5,0,0:0:0:0:
184,192,1644,5,0,0:0:0:0:
328,192,1645,5,0,0:0:0:0:
184,192,1646,5,0,0:0:0:0:
328,192,1647,5,0,0:0:0:0:
184,192,1648,5,0,0:0:0:0:
328,192,1649,5,0,0:0:0:0:
184,192,1650,5,0,0:0:0:0:
328,192,1651,5,0,0:0:0:0:
184,192,1652,5,0,0:0:0:0:
328,192,1653,5,0,0:0:0:0:
184,192,1654,5,0,0:0:0:0:
328,192,1655,5,0,0:0:0:0:
184,192,1656,5,0,0:0:0:0:
328,192,1657,5,0,0:0:0:0:
184,192,1658,5,0,0:0:0:0:
328,192,1659,5,0,0:0:0:0:
184,192,1660,5,0,0:0:0:0:
328,192,1661,5,0,0:0:0:0:
184,192,1662,5,0,0:0:0:0:
328,192,1663,5,0,0:0:0:0:
184,192,1664,5,0,0:0:0:0:
328,192,1665,5,0,0:0:0:0:
184,192,1666,5,0,0:0:0:0:
328,192,1667,5,0,0:0:0:0:
184,192,1668,5,0,0:0:0:0:
328,192,1669,5,0,0:0:0:0:
184,192,1670,5,0,0:0:0:0:
328,192,1671,5,0,0:0:0:0:
184,192,1672,5,0,0:0:0:0:
328,192,1673,5,0,0:0:0:0:
184,192,1674,5,0,0:0:0:0:
328,192,1675,5,0,0:0:0:0:
184,192,1676,5,0,0:0:0:0:
328,192,1677,5,0,0:0:0:0:
184,192,1678,5,0,0:0:0:0:
328,192,1679,5,0,0:0:0:0:
184,192,1680,5,0,0:0:0:0:
328,192,1681,5,0,0:0:0:0:
184,192,1682,5,0,0:0:0:0:
328,192,1683,5,0,0:0:0:0:
184,192,1684,5,0,0:0:0:0:
328,192,1685,5,0,0:0:0:0:
184,192,1686,5,0,0:0:0:0:
328,192,1687,5,0,0:0:0:0:
184,192,1688,5,0,0:0:0:0:
328,192,1689,5,0,0:0:0:0:
184,192,1690,5,0,0:0:0:0:
328,192,1691,5,0,0:0:0:0:
184,192,1692,5,0,0:0:0:0:
328,192,1693,5,0,0:0:0:0:
184,192,1694,5,0,0:0:0:0:
328,192,1695,5,0,0:0:0:0:
184,192,1696,5,0,0:0:0:0:
328,192,1697,5,0,0:0:0:0:
184,192,1698,5,0,0:0:0:0:
328,192,1699,5,0,0:0:0:0:
184,192,1700,5,0,0:0:0:0:
328,192,1701,5,0,0:0:0:0:
184,192,1702,5,0,0:0:0:0:
328,192,1703,5,0,0:0:0:0:
184,192,1704,5,0,0:0:0:0:
328,192,1705,5,0,0:0:0:0:
184,192,1706,5,0,0:0:0:0:
328,192,1707,5,0,0:0:0:0:
184,192,1708,5,0,0:0:0:0:
328,192,1709,5,0,0:0:0:0:
184,192,1710,5,0,0:0:0:0:
328,192,1711,5,0,0:0:0:0:
184,192,1712,5,0,0:0:0:0:
328,192,1713,5,0,0:0:0:0:
184,192,1714,5,0,0:0:0:0:
328,192,1715,5,0,0:0:0:0:
184,192,1716,5,0,0:0:0:0:
328,192,1717,5,0,0:0:0:0:
184,192,1718,5,0,0:0:0:0:
328,192,1719,5,0,0:0:0:0:
184,192,1720,5,0,0:0:0:0:
328,192,1721,5,0,0:0:0:0:
184,192,1722,5,0,0:0:0:0:
328,192,1723,5,0,0:0:0:0:
184,192,1724,5,0,0:0:0:0:
328,192,1725,5,0,0:0:0:0:
184,192,1726,5,0,0:0:0:0:
328,192,1727,5,0,0:0:0:0:
184,192,1728,5,0,0:0:0:0:
328,192,1729,5,0,0:0:0:0:
184,192,1730,5,0,0:0:0:0:
328,192,1731,5,0,0:0:0:0:
184,192,1732,5,0,0:0:0:0:
328,192,1733,5,0,0:0:0:0:
184,192,1734,5,0,0:0:0:0:
328,192,1735,5,0,0:0:0:0:
184,192,1736,5,0,0:0:0:0:
328,192,1737,5,0,0:0:0:0:
184,192,1738,5,0,0:0:0:0:
328,192,1739,5,0,0:0:0:0:
184,192,1740,5,0,0:0:0:0:
328,192,1741,5,0,0:0:0:0:
184,192,1742,5,0,0:0:0:0:
328,192,1743,5,0,0:0:0:0:
184,192,1744,5,0,0:0:0:0:
328,192,1745,5,0,0:0:0:0:
184,192,1746,5,0,0:0:0:0:
328,192,1747,5,0,0:0:0:0:
184,192,1748,5,0,0:0:0:0:
328,192,1749,5,0,0:0:0:0:
184,192,1750,5,0,0:0:0:0:
328,192,1751,5,0,0:0:0:0:
184,192,1752,5,0,0:0:0:0:
328,192,1753,5,0,0:0:0:0:
184,192,1754,5,0,0:0:0:0:
328,192,1755,5,0,0:0:0:0:
184,192,1756,5,0,0:0:0:0:
328,192,1757,5,0,0:0:0:0:
184,192,1758,5,0,0:0:0:0:
328,192,1759,5,0,0:0:0:0:
184,192,1760,5,0,0:0:0:0:
328,192,1761,5,0,0:0:0:0:
184,192,1762,5,0,0:0:0:0:
328,192,1763,5,0,0:0:0:0:
184,192,1764,5,0,0:0:0:0:
328,192,1765,5,0,0:0:0:0:
184,192,1766,5,0,0:0:0:0:
328,192,1767,5,0,0:0:0:0:
184,192,1768,5,0,0:0:0:0:
328,192,1769,5,0,0:0:0:0:
184,192,1770,5,0,0:0:0:0:
328,192,1771,5,0,0:0:0:0:
184,192,1772,5,0,0:0:0:0:
328,192,1773,5,0,0:0:0:0:
184,192,1774,5,0,0:0:0:0:
328,192,1775,5,0,0:0:0:0:
184,192,1776,5,0,0:0:0:0:
328,192,1777,5,0,0:0:0:0:
184,192,1778,5,0,0:0:0:0:
328,192,1779,5,0,0:0:0:0:
184,192,1780,5,0,0:0:0:0:
328,192,1781,5,0,0:0:0:0:
184,192,1782,5,0,0:0:0:0:
328,192,1783,5,0,0:0:0:0:
184,192,1784,5,0,0:0:0:0:
328,192,1785,5,0,0:0:0:0:
184,192,1786,5,0,0:0:0:0:
328,192,1787,5,0,0:0:0:0:
184,192,1788,5,0,0:0:0:0:
328,192,1789,5,0,0:0:0:0:
184,192,1790,5,0,0:0:0:0:
328,192,1791,5,0,0:0:0:0:
184,192,1792,5,0,0:0:0:0:
328,192,1793,5,0,0:0:0:0:
184,192,1794,5,0,0:0:0:0:
328,192,1795,5,0,0:0:0:0:
184,192,1796,5,0,0:0:0:0:
328,192,1797,5,0,0:0:0:0:
184,192,1798,5,0,0:0:0:0:
328,192,1799,5,0,0:0:0:0:
184,192,1800,5,0,0:0:0:0:
328,192,1801,5,0,0:0:0:0:
184,192,1802,5,0,0:0:0:0:
328,192,1803,5,0,0:0:0:0:
184,192,1804,5,0,0:0:0:0:
328,192,1805,5,0,0:0:0:0:
184,192,1806,5,0,0:0:0:0:
328,192,1807,5,0,0:0:0:0:
184,192,1808,5,0,0:0:0:0:
328,192,1809,5,0,0:0:0:0:
184,192,1810,5,0,0:0:0:0:
328,192,1811,5,0,0:0:0:0:
184,192,1812,5,0,0:0:0:0:
328,192,1813,5,0,0:0:0:0:
184,192,1814,5,0,0:0:0:0:
328,192,1815,5,0,0:0:0:0:
184,192,1816,5,0,0:0:0:0:
328,192,1817,5,0,0:0:0:0:
184,192,1818,5,0,0:0:0:0:
328,192,1819,5,0,0:0:0:0:
184,192,1820,5,0,0:0:0:0:
328,192,1821,5,0,0:0:0:0:
184,192,1822,5,0,0:0:0:0:
328,192,1823,5,0,0:0:0:0:
184,192,1824,5,0,0:0:0:0:
328,192,1825,5,0,0:0:0:0:
184,192,1826,5,0,0:0:0:0:
328,192,1827,5,0,0:0:0:0:
184,192,1828,5,0,0:0:0:0:
328,192,1829,5,0,0:0:0:0:
184,192,1830,5,0,0:0:0:0:
328,192,1831,5,0,0:0:0:0:
184,192,1832,5,0,0:0:0:0:
328,192,1833,5,0,0:0:0:0:
184,192,1834,5,0,0:0:0:0:
328,192,1835,5,0,0:0:0:0:
184,192,1836,5,0,0:0:0:0:
328,192,1837,5,0,0:0:0:0:
184,192,1838,5,0,0:0:0:0:
328,192,1839,5,0,0:0:0:0:
184,192,1840,5,0,0:0:0:0:
328,192,1841,5,0,0:0:0:0:
184,192,1842,5,0,0:0:0:0:
328,192,1843,5,0,0:0:0:0:
184,192,1844,5,0,0:0:0:0:
328,192,1845,5,0,0:0:0:0:
184,192,1846,5,0,0:0:0:0:
328,192,1847,5,0,0:0:0:0:
184,192,1848,5,0,0:0:0:0:
328,192,1849,5,0,0:0:0:0:
184,192,1850,5,0,0:0:0:0:
328,192,1851,5,0,0:0:0:0:
184,192,1852,5,0,0:0:0:0:
328,192,1853,5,0,0:0:0:0:
184,192,1854,5,0,0:0:0:0:
328,192,1855,5,0,0:0:0:0:
184,192,1856,5,0,0:0:0:0:
328,192,1857,5,0,0:0:0:0:
184,192,1858,5,0,0:0:0:0:
328,192,1859,5,0,0:0:0:0:
184,192,1860,5,0,0:0:0:0:
328,192,1861,5,0,0:0:0:0:
184,192,1862,5,0,0:0:0:0:
328,192,1863,5,0,0:0:0:0:
184,192,1864,5,0,0:0:0:0:
328,192,1865,5,0,0:0:0:0:
184,192,1866,5,0,0:0:0:0:
328,192,1867,5,0,0:0:0:0:
184,192,1868,5,0,0:0:0:0:
328,192,1869,5,0,0:0:0:0:
184,192,1870,5,0,0:0:0:0:
328,192,1871,5,0,0:0:0:0:
184,192,1872,5,0,0:0:0:0:
328,192,1873,5,0,0:0:0:0:
184,192,1874,5,0,0:0:0:0:
328,192,1875,5,0,0:0:0:0:
184,192,1876,5,0,0:0:0:0:
328,192,1877,5,0,0:0:0:0:
184,192,1878,5,0,0:0:0:0:
328,192,1879,5,0,0:0:0:0:
184,192,1880,5,0,0:0:0:0:
328,192,1881,5,0,0:0:0:0:
184,192,1882,5,0,0:0:0:0:
328,192,1883,5,0,0:0:0:0:
184,192,1884,5,0,0:0:0:0:
328,192,1885,5,0,0:0:0:0:
184,192,1886,5,0,0:0:0:0:
328,192,1887,5,0,0:0:0:0:
184,192,1888,5,0,0:0:0:0:
328,192,1889,5,0,0:0:0:0:
184,192,1890,5,0,0:0:0:0:
328,192,1891,5,0,0:0:0:0:
184,192,1892,5,0,0:0:0:0:
328,192,1893,5,0,0:0:0:0:
184,192,1894,5,0,0:0:0:0:
328,192,1895,5,0,0:0:0:0:
184,192,1896,5,0,0:0:0:0:
328,192,1897,5,0,0:0:0:0:
184,192,1898,5,0,0:0:0:0:
328,192,1899,5,0,0:0:0:0:
184,192,1900,5,0,0:0:0:0:
328,192,1901,5,0,0:0:0:0:
184,192,1902,5,0,0:0:0:0:
328,192,1903,5,0,0:0:0:0:
184,192,1904,5,0,0:0:0:0:
328,192,1905,5,0,0:0:0:0:
184,192,1906,5,0,0:0:0:0:
328,192,1907,5,0,0:0:0:0:
184,192,1908,5,0,0:0:0:0:
328,192,1909,5,0,0:0:0:0:
184,192,1910,5,0,0:0:0:0:
328,192,1911,5,0,0:0:0:0:
184,192,1912,5,0,0:0:0:0:
328,192,1913,5,0,0:0:0:0:
184,192,1914,5,0,0:0:0:0:
328,192,1915,5,0,0:0:0:0:
184,192,1916,5,0,0:0:0:0:
328,192,1917,5,0,0:0:0:0:
184,192,1918,5,0,0:0:0:0:
328,192,1919,5,0,0:0:0:0:
184,192,1920,5,0,0:0:0:0:
328,192,1921,5,0,0:0:0:0:
184,192,1922,5,0,0:0:0:0:
328,192,1923,5,0,0:0:0:0:
184,192,1924,5,0,0:0:0:0:
328,192,1925,5,0,0:0:0:0:
184,192,1926,5,0,0:0:0:0:
328,192,1927,5,0,0:0:0:0:
184,192,1928,5,0,0:0:0:0:
328,192,1929,5,0,0:0:0:0:
184,192,1930,5,0,0:0:0:0:
328,192,1931,5,0,0:0:0:0:
184,192,1932,5,0,0:0:0:0:
328,192,1933,5,0,0:0:0:0:
