osu file format v14

[General]
AudioFilename: GoPicnic.mp3
AudioLeadIn: 0
PreviewTime: 40288
Countdown: 0
SampleSet: Soft
StackLeniency: 0.7
Mode: 2
LetterboxInBreaks: 1
WidescreenStoryboard: 0

[Editor]
DistanceSpacing: 0.8
BeatDivisor: 16
GridSize: 4
TimelineZoom: 0.3516747

[Metadata]
Title:Various BGM
TitleUnicode:Various BGM
Artist:Wizet, Nexon
ArtistUnicode:Wizet, Nexon
Creator:ExGon
Version:Go Picnic
Source:Maplestory
Tags:CODA SOUND Studio EIM Takkyu Ishino Riena Strait Henesys Market Haze Temple of Time Road Oblivion Regrets Sharenian Guild Quest Taiwan World Tour El Nath Territory Dead Trees Grand Athenaeum Resistance Xenon Tutorial Beryl Ludibrium Castle Dimensional Schism Tenyo
BeatmapID:1054756
BeatmapSetID:217667

[Difficulty]
HPDrainRate:4
CircleSize:5.8
OverallDifficulty:0
ApproachRate:8
SliderMultiplier:2.2
SliderTickRate:2

[Events]
//Background and Video events
0,0,"go.jpg",0,0
//Break Periods
//Storyboard Layer 0 (Background)
//Storyboard Layer 1 (Fail)
//Storyboard Layer 2 (Pass)
//Storyboard Layer 3 (Foreground)
//Storyboard Sound Samples

[TimingPoints]
208,480,4,2,0,23,1,0
10048,-100,4,2,0,29,0,0
11728,-100,4,2,0,23,0,0
17728,-100,4,2,0,29,0,0
19408,-100,4,2,0,23,0,0
22528,-100,4,2,0,17,0,0
22768,-100,4,2,0,23,0,0
23008,-100,4,2,0,17,0,0
23248,-100,4,2,0,23,0,0
25408,-100,4,2,0,17,0,0
27088,-100,4,2,0,23,0,0
30208,-100,4,2,0,17,0,0
30448,-100,4,2,0,23,0,0
30688,-100,4,2,0,17,0,0
30928,-100,4,2,0,23,0,0
32848,-100,4,2,0,23,0,1
32908,-100,4,2,0,13,0,0
35968,-100,4,2,0,8,0,0
36688,-100,4,2,0,13,0,0
39808,-100,4,2,0,8,0,0
40528,-100,4,2,0,23,0,0
42448,-144.927536231884,4,2,0,23,0,0
42928,-100,4,2,0,23,0,0
43408,-200,4,2,0,23,0,0
44368,-100,4,2,0,23,0,0
46288,3840,4,2,0,23,1,0
46528,-100,4,2,0,29,0,0
47968,-100,4,2,0,23,0,0
48208,480,4,2,0,23,1,0
50128,-144.927536231884,4,2,0,23,0,0
50608,-100,4,2,0,23,0,0
51088,-200,4,2,0,23,0,0
52048,-100,4,2,0,23,0,0
53968,3840,4,2,0,23,1,0
54208,-100,4,2,0,29,0,0
55648,-100,4,2,0,23,0,0
55888,480,4,2,0,23,1,0
59008,-100,4,2,0,17,0,0
59248,-100,4,2,0,23,0,0
59488,-100,4,2,0,17,0,0
59728,-100,4,2,0,23,0,0
61888,-100,4,2,0,17,0,0
62128,-100,4,2,0,23,0,0
62368,-100,4,2,0,17,0,0
62608,-100,4,2,0,23,0,0
62848,-100,4,2,0,17,0,0
63088,-100,4,2,0,23,0,0
63328,-100,4,2,0,17,0,0
63568,-100,4,2,0,23,0,0
66688,-100,4,2,0,17,0,0
66928,-100,4,2,0,23,0,0
67168,-100,4,2,0,17,0,0
67408,-43.1034482758621,4,2,0,23,0,0
69328,-43.1034482758621,4,2,0,23,0,1
69388,-43.1034482758621,4,2,0,23,0,0

[HitObjects]
52,100,4048,6,0,L|228:100,1,165
108,100,4528,1,2,0:0:0:0:
460,100,5008,2,0,L|284:100,1,165
404,100,5488,1,2,0:0:0:0:
204,160,5968,6,0,P|144:192|204:224,1,165,0|2,0:0|0:0,0:0:0:0:
304,176,6448,2,0,P|344:192|304:208,1,110,0|0,0:0|0:0,0:0:0:0:
152,96,6928,2,0,B|256:60|256:60|360:96,2,220,2|2|0,0:0|0:0|0:0,0:0:0:0:
116,48,8368,6,0,P|104:120|164:188,1,165,0|2,0:0|0:0,0:0:0:0:
336,320,8848,1,0,0:0:0:0:
176,320,9088,1,2,0:0:0:0:
396,48,9328,2,0,P|408:120|348:188,1,165,2|0,0:0|0:0,0:0:0:0:
256,320,9808,1,2,0:0:0:0:
484,192,10048,5,2,0:0:0:0:
452,192,10288,1,2,0:0:0:0:
420,192,10528,1,2,0:0:0:0:
92,192,11008,1,2,0:0:0:0:
338,247,11728,6,0,L|477:158,1,165
404,284,12208,1,2,0:0:0:0:
173,247,12688,2,0,L|34:158,1,165
108,284,13168,1,2,0:0:0:0:
308,160,13648,6,0,P|248:191|308:223,1,165,0|2,0:0|0:0,0:0:0:0:
208,176,14128,2,0,P|248:192|208:208,1,110
360,288,14608,2,0,B|256:324|256:324|152:288,2,220,2|2|2,0:0|0:0|0:0,0:0:0:0:
352,197,16048,6,0,P|405:256|396:336,1,165,2|0,0:0|0:0,0:0:0:0:
199,100,16528,1,0,0:0:0:0:
312,100,16768,1,2,0:0:0:0:
159,197,17008,2,0,P|106:256|116:336,1,165,2|0,0:0|0:0,0:0:0:0:
256,64,17488,1,2,0:0:0:0:
92,192,17728,5,2,0:0:0:0:
28,192,17968,1,2,0:0:0:0:
60,192,18208,1,2,0:0:0:0:
452,192,18688,1,2,0:0:0:0:
108,296,19408,6,0,B|92:212|92:212|116:192|92:172|92:172|108:88,1,220,2|2,0:0|0:0,0:0:0:0:
376,256,20368,2,0,B|472:224|472:224|416:192|416:192|472:160|472:160|376:128,1,330,2|2,0:0|0:0,0:0:0:0:
256,60,21328,5,0,0:0:0:0:
375,163,21568,2,0,B|393:212|393:212|396:272,1,110,2|0,0:0|0:0,0:0:0:0:
136,163,22048,2,0,B|118:212|118:212|116:272,1,110,2|0,0:0|0:0,0:0:0:0:
392,89,22528,2,0,B|412:145|412:145|416:201,1,110,2|0,0:0|0:0,0:0:0:0:
120,89,23008,2,0,B|100:145|100:145|96:201,1,110,2|2,0:0|0:0,0:0:0:0:
256,140,23728,5,2,0:0:0:0:
192,96,24208,2,0,B|256:56|320:128|308:176|256:224|204:176|192:128|256:56|320:96,1,330,2|2,0:0|0:0,0:0:0:0:
282,6,25168,5,0,0:0:0:0:
343,357,25408,1,2,0:0:0:0:
125,326,25888,1,2,0:0:0:0:
440,159,26368,1,2,0:0:0:0:
87,109,26848,1,2,0:0:0:0:
256,251,27088,6,0,B|164:192|164:192|256:132,1,220,2|2,0:0|0:0,0:0:0:0:
253,100,28048,2,0,B|393:192|393:192|256:281,1,330,2|2,0:0|0:0,0:0:0:0:
116,192,29008,5,0,0:0:0:0:
356,212,29248,2,0,B|448:271|448:271|356:331,1,220,2|2,0:0|0:0,0:0:0:0:
156,172,30208,2,0,B|64:113|64:113|156:53,1,220,2|2,0:0|0:0,0:0:0:0:
464,96,30928,6,0,P|512:192|464:288,1,220,0|2,0:0|0:0,0:0:0:0:
48,288,31888,2,0,P|0:192|48:96,1,220,0|2,0:0|0:0,0:0:0:0:
448,64,32848,5,2,1:2:0:0:
320,64,33088,1,0,0:0:0:0:
304,80,33208,1,0,0:0:0:0:
288,96,33328,1,4,1:3:0:0:
160,96,33568,1,0,0:0:0:0:
128,128,33808,1,0,1:0:0:0:
288,320,34048,5,4,0:3:0:0:
272,304,34168,1,0,0:0:0:0:
256,288,34288,1,4,1:3:0:0:
128,288,34528,1,0,0:0:0:0:
112,272,34648,1,0,0:0:0:0:
96,256,34768,1,0,1:0:0:0:
256,64,35008,5,0,0:0:0:0:
240,80,35128,1,0,0:0:0:0:
224,96,35248,1,4,1:3:0:0:
96,96,35488,1,0,0:0:0:0:
64,128,35728,1,0,1:0:0:0:
448,192,35968,5,8,0:0:0:0:
448,192,36208,1,8,0:0:0:0:
64,320,36688,5,0,1:0:0:0:
224,288,36928,1,0,0:0:0:0:
208,304,37048,1,0,0:0:0:0:
192,320,37168,1,4,1:3:0:0:
384,256,37408,1,0,0:0:0:0:
352,288,37648,1,0,1:0:0:0:
256,96,37888,5,4,0:3:0:0:
240,80,38008,1,0,0:0:0:0:
224,64,38128,1,4,1:3:0:0:
416,128,38368,1,0,0:0:0:0:
400,112,38488,1,0,0:0:0:0:
384,96,38608,1,0,1:0:0:0:
288,288,38848,5,0,0:0:0:0:
272,304,38968,1,0,0:0:0:0:
256,320,39088,1,4,1:3:0:0:
448,256,39328,1,0,0:0:0:0:
416,288,39568,1,0,1:0:0:0:
64,192,39808,5,8,0:2:0:0:
64,192,40048,1,8,0:2:0:0:
510,152,40528,5,0,0:0:0:0:
92,0,40888,1,0,0:0:0:0:
152,15,41008,1,2,0:0:0:0:
1,231,41488,1,0,0:0:0:0:
419,391,41848,1,0,0:0:0:0:
359,368,41968,1,2,0:0:0:0:
116,80,42448,6,0,P|83:112|116:161,1,113.850000173721,0|2,0:0|0:0,0:0:0:0:
216,80,42928,2,0,P|184:111|216:158,1,110
316,80,43408,2,0,P|284:111|316:158,1,110,2|2,0:0|0:0,0:0:0:0:
208,160,44368,5,0,0:0:0:0:
304,352,44608,1,0,0:0:0:0:
208,160,44848,2,0,B|128:156|104:176|104:192|128:212|184:208,1,165,0|2,0:0|0:0,0:0:0:0:
304,224,45328,1,0,0:0:0:0:
208,32,45568,1,2,0:0:0:0:
304,224,45808,2,0,B|384:228|408:208|408:192|384:172|328:176,1,165,2|0,0:0|0:0,0:0:0:0:
256,76,46288,6,0,L|256:172,1,96.25,2|0,0:0|0:0,0:0:0:0:
222,78,46528,1,2,0:0:0:0:
244,100,46768,1,2,0:0:0:0:
267,123,47008,1,2,0:0:0:0:
289,145,47488,1,2,0:0:0:0:
392,32,48208,5,0,0:0:0:0:
342,45,48568,1,0,0:0:0:0:
45,158,48688,1,2,0:0:0:0:
120,351,49168,1,0,0:0:0:0:
170,338,49528,1,0,0:0:0:0:
467,224,49648,1,2,0:0:0:0:
396,304,50128,6,0,P|429:272|396:223,1,113.850000173721,0|2,0:0|0:0,0:0:0:0:
296,304,50608,2,0,P|328:273|296:226,1,110
196,304,51088,2,0,P|228:273|196:226,1,110,2|2,0:0|0:0,0:0:0:0:
304,160,52048,5,2,0:0:0:0:
400,192,52288,1,0,0:0:0:0:
304,224,52528,2,0,B|224:220|200:240|200:256|224:276|280:272,1,165,2|0,0:0|0:0,0:0:0:0:
208,224,53008,1,0,0:0:0:0:
112,192,53248,1,2,0:0:0:0:
208,160,53488,2,0,B|288:164|312:144|312:128|288:108|232:112,1,165,2|0,0:0|0:0,0:0:0:0:
256,308,53968,6,0,L|256:212,1,96.25,2|0,0:0|0:0,0:0:0:0:
268,284,54208,1,2,0:0:0:0:
290,306,54448,1,2,0:0:0:0:
245,261,54688,1,2,0:0:0:0:
223,239,55168,1,2,0:0:0:0:
64,352,55888,5,2,0:0:0:0:
183,306,56128,1,0,0:0:0:0:
37,327,56368,1,2,0:0:0:0:
157,281,56608,1,0,0:0:0:0:
304,304,56848,2,0,B|416:304|416:304|304:304|304:304|304:192,1,330,2|2,0:0|0:0,0:0:0:0:
104,200,57808,5,0,0:0:0:0:
344,64,58048,2,0,P|292:48|228:48,1,110,2|0,0:0|0:0,0:0:0:0:
344,128,58528,2,0,P|292:112|228:112,1,110,2|0,0:0|0:0,0:0:0:0:
344,192,59008,2,0,P|292:176|228:176,1,110,2|0,0:0|0:0,0:0:0:0:
168,160,59488,1,2,0:0:0:0:
448,352,59728,5,2,0:0:0:0:
329,306,59968,1,0,0:0:0:0:
475,327,60208,1,2,0:0:0:0:
355,281,60448,1,0,0:0:0:0:
208,198,60688,2,0,B|208:304|208:304|96:304|96:304|208:304,1,330,2|2,0:0|0:0,0:0:0:0:
408,200,61648,5,0,0:0:0:0:
168,64,61888,2,0,P|220:48|284:48,1,110,2|0,0:0|0:0,0:0:0:0:
168,128,62368,2,0,P|220:112|284:112,1,110,2|0,0:0|0:0,0:0:0:0:
168,192,62848,2,0,P|220:176|284:176,1,110,2|0,0:0|0:0,0:0:0:0:
344,160,63328,1,2,0:0:0:0:
256,48,63568,5,2,0:0:0:0:
172,112,63808,1,0,0:0:0:0:
339,271,64048,1,2,0:0:0:0:
150,238,64288,1,0,0:0:0:0:
256,336,64528,5,2,0:0:0:0:
378,223,64768,1,0,0:0:0:0:
132,159,65008,1,0,0:0:0:0:
331,90,65248,1,2,0:0:0:0:
256,336,65488,5,0,0:0:0:0:
414,145,65728,2,0,P|390:98|338:101,2,110,2|0|2,0:0|0:0|0:0,0:0:0:0:
256,336,66448,1,0,0:0:0:0:
98,145,66688,2,0,P|121:98|173:101,2,110,2|0|2,0:0|0:0|0:0,0:0:0:0:
0,0,67408,6,0,L|512:0,1,510.400015576172,0|2,0:0|0:0,0:0:0:0:
512,384,68368,2,0,L|0:384,1,510.400015576172,0|2,0:0|0:0,0:0:0:0:
256,192,69328,5,2,1:2:0:0:
