osu file format v14

[General]
AudioFilename: GlacierAdventure.mp3
AudioLeadIn: 0
PreviewTime: 87894
Countdown: 0
SampleSet: Soft
StackLeniency: 0
Mode: 0
LetterboxInBreaks: 1
WidescreenStoryboard: 0

[Editor]
DistanceSpacing: 1
BeatDivisor: 16
GridSize: 4
TimelineZoom: 0.2

[Metadata]
Title:Various BGM
TitleUnicode:Various BGM
Artist:Wizet, Nexon
ArtistUnicode:Wizet, Nexon
Creator:ExGon
Version:Glacier Adventure
Source:Maplestory
Tags:CODA SOUND Studio EIM Takkyu Ishino Riena Strait Henesys Market Haze Temple of Time Road Oblivion Regrets Sharenian Guild Quest Taiwan World Tour El Nath Territory Dead Trees Grand Athenaeum Resistance Xenon Tutorial Beryl Ludibrium Castle Dimensional Schism Tenyo
BeatmapID:1151178
BeatmapSetID:217667

[Difficulty]
HPDrainRate:4
CircleSize:5
OverallDifficulty:7
ApproachRate:7
SliderMultiplier:1.92
SliderTickRate:1

[Events]
//Background and Video events
0,0,"glacier.jpg",0,0
//Break Periods
//Storyboard Layer 0 (Background)
//Storyboard Layer 1 (Fail)
//Storyboard Layer 2 (Pass)
//Storyboard Layer 3 (Foreground)
//Storyboard Sound Samples
Sample,18644,0,"soft-hitclap5.wav",15
Sample,36644,0,"soft-hitclap5.wav",16
Sample,60394,0,"soft-hitclap5.wav",15
Sample,64394,0,"soft-hitclap5.wav",15
Sample,92644,0,"soft-hitclap5.wav",16

[TimingPoints]
1144,2000,4,2,0,15,1,0
1144,-1000,4,2,0,15,0,0
16644,-66.6666666666667,4,2,0,20,0,0
17144,500,4,2,0,20,1,0
17144,-66.6666666666667,4,2,0,20,0,0
33144,-66.6666666666667,4,2,0,22,0,1
49112,-66.6666666666667,4,2,0,22,0,0
49144,-66.6666666666667,4,2,0,22,0,1
49175,-66.6666666666667,4,2,0,16,0,0
53175,-66.6666666666667,4,2,0,14,0,0
57144,-66.6666666666667,4,2,0,22,0,1
57175,-66.6666666666667,4,2,0,20,0,0
58769,-57.1428571428571,4,2,0,20,0,0
58894,-50,4,2,0,20,0,0
59019,-57.1428571428571,4,2,0,20,0,0
59144,-66.6666666666667,4,2,0,20,0,0
60644,-50,4,2,0,20,0,0
60769,-57.1428571428571,4,2,0,20,0,0
60894,-66.6666666666667,4,2,0,20,0,0
61019,-57.1428571428571,4,2,0,20,0,0
61144,-66.6666666666667,4,2,0,20,0,0
62769,-57.1428571428571,4,2,0,20,0,0
62894,-50,4,2,0,20,0,0
63019,-57.1428571428571,4,2,0,20,0,0
63144,-66.6666666666667,4,2,0,20,0,0
64769,-57.1428571428571,4,2,0,20,0,0
64894,-50,4,2,0,20,0,0
65019,-57.1428571428571,4,2,0,20,0,0
65144,-66.6666666666667,4,2,0,22,0,1
65175,-66.6666666666667,4,2,0,22,0,0
66769,-57.1428571428571,4,2,0,22,0,0
66894,-50,4,2,0,22,0,0
67019,-57.1428571428571,4,2,0,22,0,0
67144,-66.6666666666667,4,2,0,22,0,0
68769,-57.1428571428571,4,2,0,22,0,0
68894,-50,4,2,0,22,0,0
69019,-57.1428571428571,4,2,0,22,0,0
69144,-66.6666666666667,4,2,0,22,0,0
70769,-57.1428571428571,4,2,0,22,0,0
70894,-50,4,2,0,22,0,0
71019,-57.1428571428571,4,2,0,22,0,0
71144,-66.6666666666667,4,2,0,22,0,0
72769,-57.1428571428571,4,2,0,22,0,0
72894,-50,4,2,0,22,0,0
73019,-57.1428571428571,4,2,0,22,0,0
73144,-133.333333333333,4,2,0,22,0,1
73175,-133.333333333333,4,2,0,20,0,0
73519,-100,4,2,0,20,0,0
75144,-133.333333333333,4,2,0,20,0,0
75519,-100,4,2,0,20,0,0
77144,-133.333333333333,4,2,0,20,0,0
77519,-100,4,2,0,20,0,0
79144,-133.333333333333,4,2,0,20,0,0
79519,-100,4,2,0,20,0,0
80644,-50,4,2,0,20,0,0
80769,-100,4,2,0,20,0,0
81144,-133.333333333333,4,2,0,20,0,0
81519,-100,4,2,0,20,0,0
83144,-200,4,2,0,20,0,0
83519,-100,4,2,0,20,0,0
84644,-50,4,2,0,20,0,0
84769,-100,4,2,0,20,0,0
85144,-400,4,2,0,20,0,0
85519,-100,4,2,0,20,0,0
87144,-1000,4,2,0,20,0,0
88144,-66.6666666666667,4,2,0,20,0,0
89144,-66.6666666666667,4,2,0,22,0,1
105144,-66.6666666666667,4,2,0,15,0,0
105519,-133.333333333333,4,2,0,10,0,0
105644,-66.6666666666667,4,2,0,15,0,0
106019,-133.333333333333,4,2,0,10,0,0
106144,-66.6666666666667,4,2,0,15,0,0
107519,-133.333333333333,4,2,0,10,0,0
107644,-66.6666666666667,4,2,0,15,0,0
108019,-133.333333333333,4,2,0,10,0,0
108144,-66.6666666666667,4,2,0,15,0,0
109519,-133.333333333333,4,2,0,10,0,0
109644,-66.6666666666667,4,2,0,15,0,0
110019,-133.333333333333,4,2,0,10,0,0
110144,-66.6666666666667,4,2,0,15,0,0
111519,-133.333333333333,4,2,0,10,0,0
111644,-66.6666666666667,4,2,0,15,0,0
112019,-133.333333333333,4,2,0,10,0,0
112144,-66.6666666666667,4,2,0,15,0,0
113144,2000,4,2,0,15,1,0
113144,-1000,4,2,0,15,0,0
113519,-1000,4,2,0,15,0,0
115144,-1000,4,2,0,10,0,0
115519,-1000,4,2,0,15,0,0
117144,-1000,4,2,0,10,0,0
117519,-1000,4,2,0,15,0,0
119144,-1000,4,2,0,10,0,0
119519,-1000,4,2,0,15,0,0
121144,50,4,2,0,20,1,1
121269,55.5555555555556,4,2,0,20,1,0
121394,62.5,4,2,0,20,1,0
121519,71.4285714285714,4,2,0,20,1,0
121644,83.3333333333333,4,2,0,20,1,0
121769,100,4,2,0,20,1,0
121894,125,4,2,0,20,1,0
122019,166.666666666667,4,2,0,20,1,0
122144,250,4,2,0,20,1,0
122269,500,4,2,0,20,1,0

[HitObjects]
64,112,1144,6,0,L|65:112,7,1.2,0|0|0|0|0|0|0|0,1:0|0:0|0:0|0:0|0:0|0:0|0:0|0:0,0:0:0:0:
128,96,2144,2,0,L,2,1.2,2|0|0,0:0|0:0|0:0,0:0:0:0:
192,112,2519,2,0,L,2,1.2,2|0|0,0:0|0:0|0:0,0:0:0:0:
240,160,2894,2,0,L|241:160,17,1.2,2|0|0|0|0|0|0|0|0|0|0|0|0|0|0|0|0|0,0:0|0:0|1:0|0:0|0:0|0:0|0:0|0:0|0:0|0:0|0:0|0:0|0:0|0:0|0:0|0:0|0:0|0:0,0:0:0:0:
224,224,5144,6,0,L|225:224,7,1.2,0|0|0|0|0|0|0|0,1:0|0:0|0:0|0:0|0:0|0:0|0:0|0:0,0:0:0:0:
240,288,6144,2,0,L,2,1.2,2|0|0,0:0|0:0|0:0,0:0:0:0:
288,336,6519,2,0,L,2,1.2,2|0|0,0:0|0:0|0:0,0:0:0:0:
352,320,6894,2,0,L|353:320,17,1.2,2|0|0|0|0|0|0|0|0|0|0|0|0|0|0|0|0|0,0:0|0:0|1:0|0:0|0:0|0:0|0:0|0:0|0:0|0:0|0:0|0:0|0:0|0:0|0:0|0:0|0:0|0:0,0:0:0:0:
368,256,9144,6,0,L|369:256,7,1.2,2|0|0|0|0|0|0|0,1:2|0:0|0:0|0:0|0:0|0:0|0:0|0:0,0:0:0:0:
416,208,10144,2,0,L,2,1.2,2|0|0,0:0|0:0|0:0,0:0:0:0:
400,144,10519,2,0,L,2,1.2,2|0|0,0:0|0:0|0:0,0:0:0:0:
448,96,10894,2,0,L,1,1.2,2|0,0:0|0:0,0:0:0:0:
384,80,11144,2,0,L|385:80,15,1.2,2|0|0|0|0|0|0|0|0|0|0|0|0|0|0|0,1:2|0:0|0:0|0:0|0:0|0:0|0:0|0:0|0:0|0:0|0:0|0:0|0:0|0:0|0:0|0:0,0:0:0:0:
320,96,13144,6,0,L|321:96,7,1.2,2|0|0|0|0|0|0|0,1:2|0:0|0:0|0:0|0:0|0:0|0:0|0:0,0:0:0:0:
304,160,14144,2,0,L,2,1.2,2|0|0,0:0|0:0|0:0,0:0:0:0:
240,144,14519,2,0,L,2,1.2,2|0|0,0:0|0:0|0:0,0:0:0:0:
192,192,14894,2,0,L|193:192,13,1.2,2|0|0|0|0|0|0|0|0|0|0|0|0|0,0:0|0:0|1:0|0:0|0:0|0:0|0:0|0:0|0:0|0:0|0:0|0:0|0:0|0:0,0:0:0:0:
128,224,16644,5,2,0:0:0:0:
160,288,16769,1,2,0:0:0:0:
224,256,16894,1,2,0:0:0:0:
256,320,17019,1,2,0:0:0:0:
320,288,17144,5,2,1:2:0:0:
448,352,17394,1,0,0:0:0:0:
480,288,17519,1,0,0:0:0:0:
448,224,17644,2,0,P|420:160|448:96,1,144.000005493164,0|2,1:0|0:0,0:0:0:0:
320,32,18144,2,0,L|192:96,1,144.000005493164,0|0,1:0|0:0,0:0:0:0:
128,64,18519,2,0,P|100:128|128:192,1,144.000005493164,2|0,0:0|0:0,0:0:0:0:
192,160,18894,1,2,0:0:0:0:
320,224,19144,6,0,P|348:288|320:352,1,144.000005493164,2|0,1:2|0:0,0:0:0:0:
192,320,19644,1,0,1:0:0:0:
128,288,19769,1,0,0:0:0:0:
64,320,19894,1,0,0:0:0:0:
32,192,20144,2,0,L|96:64,1,144.000005493164,0|0,1:0|0:0,0:0:0:0:
224,96,20644,1,0,1:0:0:0:
288,64,20769,1,0,0:0:0:0:
320,128,20894,1,0,0:0:0:0:
448,96,21144,6,0,P|476:160|448:224,1,144.000005493164,2|0,1:2|0:0,0:0:0:0:
320,192,21644,1,0,1:0:0:0:
416,288,21894,2,0,L|288:352,1,144.000005493164,2|0,0:0|1:0,0:0:0:0:
256,224,22394,1,0,0:0:0:0:
224,352,22644,1,0,1:0:0:0:
96,320,22894,1,2,0:0:0:0:
64,192,23144,6,0,P|50:160|64:128,1,72.0000027465821,2|0,1:2|0:0,0:0:0:0:
32,64,23394,2,0,L|96:32,1,72.0000027465821
160,64,23644,1,0,1:0:0:0:
288,32,23894,1,0,0:0:0:0:
352,160,24144,2,0,L|384:96,1,72.0000027465821,0|0,1:0|0:0,0:0:0:0:
416,32,24394,2,0,P|448:18|480:32,1,72.0000027465821
448,96,24644,2,0,B|500:160|400:160|448:224,1,144.000005493164,0|2,1:0|0:0,0:0:0:0:
384,352,25144,6,0,L|256:288,1,144.000005493164,2|0,1:2|0:0,0:0:0:0:
128,320,25644,1,0,1:0:0:0:
32,224,25894,2,0,P|96:196|160:224,1,144.000005493164,2|0,0:0|1:0,0:0:0:0:
224,96,26394,2,0,L|288:224,1,144.000005493164,2|0,0:0|1:0,0:0:0:0:
416,288,26894,1,0,0:0:0:0:
480,160,27144,5,0,1:0:0:0:
448,96,27269,1,0,0:0:0:0:
384,64,27394,1,0,0:0:0:0:
256,96,27644,1,0,1:0:0:0:
224,224,27894,1,0,0:0:0:0:
96,160,28144,2,0,P|68:224|96:288,1,144.000005493164,2|0,1:2|0:0,0:0:0:0:
224,352,28644,2,0,B|288:404|288:304|352:352,1,144.000005493164,2|0,1:2|0:0,0:0:0:0:
480,288,29144,6,0,L|416:160,1,144.000005493164,2|0,1:2|0:0,0:0:0:0:
288,64,29644,1,0,1:0:0:0:
224,32,29769,1,0,0:0:0:0:
160,64,29894,1,0,0:0:0:0:
128,128,30019,1,0,0:0:0:0:
64,96,30144,1,0,1:0:0:0:
32,160,30269,1,0,0:0:0:0:
64,224,30394,1,0,0:0:0:0:
32,288,30519,1,0,0:0:0:0:
64,352,30644,1,0,1:0:0:0:
128,384,30769,1,0,0:0:0:0:
192,352,30894,1,0,0:0:0:0:
224,288,31019,1,0,0:0:0:0:
288,320,31144,6,0,L|352:288,3,72.0000027465821,0|0|0|0,1:0|0:0|0:0|0:0,0:0:0:0:
416,320,31644,2,0,P|430:288|416:256,3,72.0000027465821,0|0|0|0,1:0|0:0|0:0|0:0,0:0:0:0:
448,192,32144,2,0,B|488:224|502:287|488:352|448:384,2,216.000008239746,2|2|2,1:2|0:0|0:0,0:0:0:0:
352,96,33144,6,0,P|416:68|480:96,1,144.000005493164,2|2,1:2|0:0,0:0:0:0:
384,192,33644,1,0,1:0:0:0:
256,192,33894,1,2,0:0:0:0:
320,224,34019,1,0,0:0:0:0:
384,192,34144,2,0,P|412:256|384:320,1,144.000005493164,0|0,1:0|0:0,0:0:0:0:
256,320,34644,1,0,1:0:0:0:
160,224,34894,1,0,0:0:0:0:
192,288,35019,1,0,0:0:0:0:
256,256,35144,6,0,B|320:240|302:288|320:336|256:320,1,144.000005493164,0|2,1:0|0:0,0:0:0:0:
128,288,35644,1,0,1:0:0:0:
32,192,35894,1,0,0:0:0:0:
64,128,36019,1,0,0:0:0:0:
0,96,36144,2,0,B|64:44|64:144|128:96,1,144.000005493164,0|0,1:0|0:0,0:0:0:0:
192,64,36519,2,0,P|256:36|320:64,1,144.000005493164,2|0,0:0|0:0,0:0:0:0:
384,96,36894,2,0,B|448:44|448:144|512:96,2,144.000005493164,2|2|2,0:0|1:2|0:0,0:0:0:0:
416,224,37644,5,0,1:0:0:0:
320,128,37894,1,2,0:0:0:0:
320,192,38019,1,0,0:0:0:0:
256,160,38144,2,0,B|192:144|210:192|192:240|256:224,2,144.000005493164,0|0|0,1:0|0:0|1:0,0:0:0:0:
384,224,38894,1,0,0:0:0:0:
416,288,39019,1,0,0:0:0:0:
384,352,39144,6,0,P|320:380|256:352,2,144.000005493164,0|2|0,1:0|0:0|1:0,0:0:0:0:
320,224,39894,1,0,0:0:0:0:
288,288,40019,1,0,0:0:0:0:
224,256,40144,2,0,L|96:192,2,144.000005493164,0|0|0,1:0|0:0|1:0,0:0:0:0:
160,384,40894,1,0,0:0:0:0:
32,320,41144,6,0,P|4:256|32:192,2,144.000005493164,2|0|0,1:2|0:0|1:0,0:0:0:0:
160,224,41894,2,0,B|212:160|112:160|160:96,2,144.000005493164,2|0|0,0:0|1:0|0:0,0:0:0:0:
288,128,42644,1,0,1:0:0:0:
416,192,42894,1,0,0:0:0:0:
480,64,43144,6,0,P|508:128|480:192,2,144.000005493164,2|0|0,1:2|0:0|1:0,0:0:0:0:
352,160,43894,2,0,B|300:224|400:224|352:288,1,144.000005493164,2|0,0:0|1:0,0:0:0:0:
224,256,44394,2,0,L|96:192,1,144.000005493164,2|0,0:0|1:0,0:0:0:0:
96,320,44894,1,2,0:0:0:0:
224,384,45144,6,0,B|288:400|270:352|288:304|224:320,1,144.000005493164,2|2,1:2|0:0,0:0:0:0:
96,384,45644,1,0,1:0:0:0:
160,352,45769,1,0,0:0:0:0:
128,288,45894,1,0,0:0:0:0:
64,256,46019,1,0,0:0:0:0:
32,192,46144,1,0,1:0:0:0:
96,160,46269,1,0,0:0:0:0:
128,96,46394,1,0,0:0:0:0:
192,64,46519,1,0,0:0:0:0:
256,96,46644,1,0,1:0:0:0:
224,160,46769,1,0,0:0:0:0:
256,224,46894,1,0,0:0:0:0:
320,256,47019,1,0,0:0:0:0:
384,224,47144,6,0,P|412:160|384:96,1,144.000005493164,0|2,1:0|0:0,0:0:0:0:
128,224,47894,2,0,P|100:160|128:96,1,144.000005493164,2|0,0:0|1:0,0:0:0:0:
288,352,48644,2,0,P|302:320|288:288,1,72.0000027465821,0|0,1:0|0:0,0:0:0:0:
224,32,48894,2,0,P|210:64|224:96,1,72.0000027465821
256,192,49144,5,4,1:0:0:0:
416,32,49550,1,0,3:0:0:0:
384,128,49675,1,0,3:0:0:0:
416,352,50050,1,0,3:0:0:0:
320,320,50175,1,0,3:0:0:0:
96,352,50550,1,0,3:0:0:0:
128,256,50675,1,0,3:0:0:0:
96,32,51050,1,0,3:0:0:0:
192,64,51175,6,0,B|243:102|185:179|134:140|134:140|95:191,1,216.000008239746,0|0,3:0|3:0,3:0:0:0:
128,256,51675,2,0,B|166:204|243:262|204:313|204:313|255:352,1,216.000008239746,0|0,3:0|3:0,3:0:0:0:
320,320,52175,2,0,B|268:281|326:204|377:243|377:243|416:192,1,216.000008239746,0|0,3:0|3:0,3:0:0:0:
384,128,52675,2,0,B|345:179|268:121|307:70|307:70|256:31,1,216.000008239746,0|0,3:0|3:0,3:0:0:0:
192,128,53175,5,2,3:0:0:0:
416,192,53550,1,2,3:0:0:0:
320,128,53675,1,2,3:0:0:0:
256,352,54050,1,2,3:0:0:0:
320,256,54175,1,2,3:0:0:0:
96,192,54550,1,2,3:0:0:0:
192,256,54675,1,2,3:0:0:0:
352,64,55050,1,2,3:0:0:0:
352,128,55175,5,2,3:0:0:0:
128,96,55550,1,2,3:0:0:0:
192,96,55675,1,2,3:0:0:0:
160,320,56050,1,2,3:0:0:0:
160,256,56175,1,2,3:0:0:0:
384,288,56550,1,2,3:0:0:0:
320,288,56675,1,2,3:0:0:0:
256,64,57050,1,2,3:0:0:0:
256,112,57144,5,4,1:0:0:0:
128,352,58644,5,0,1:0:0:0:
192,320,58769,1,0,0:0:0:0:
256,288,58894,1,0,0:0:0:0:
320,320,59019,1,0,0:0:0:0:
384,352,59144,1,0,1:0:0:0:
384,160,60644,5,0,0:0:0:0:
320,192,60769,1,0,0:0:0:0:
256,224,60894,1,0,1:0:0:0:
192,192,61019,1,0,0:0:0:0:
128,224,61144,1,0,1:0:0:0:
128,32,62644,5,0,1:0:0:0:
192,64,62769,1,0,0:0:0:0:
256,96,62894,1,0,0:0:0:0:
320,64,63019,1,0,0:0:0:0:
384,32,63144,1,0,1:0:0:0:
32,224,64769,5,0,0:0:0:0:
64,240,64894,1,0,1:0:0:0:
96,224,65019,1,0,0:0:0:0:
112,192,65144,1,4,1:0:0:0:
112,192,65894,5,2,0:0:0:0:
112,192,66644,5,0,1:0:0:0:
128,160,66769,1,0,0:0:0:0:
160,144,66894,1,0,0:0:0:0:
192,160,67019,1,0,0:0:0:0:
208,192,67144,1,0,1:0:0:0:
208,192,67269,5,0,0:0:0:0:
208,192,67894,5,2,0:0:0:0:
208,192,68394,5,0,1:0:0:0:
208,192,68519,5,0,0:0:0:0:
208,192,68644,5,0,0:0:0:0:
224,224,68769,1,0,0:0:0:0:
256,240,68894,1,0,1:0:0:0:
288,224,69019,1,0,0:0:0:0:
304,192,69144,1,0,1:0:0:0:
304,192,69269,5,0,0:0:0:0:
304,192,69519,5,2,0:0:0:0:
304,192,69894,5,0,0:0:0:0:
304,192,70019,5,0,0:0:0:0:
304,192,70394,5,0,0:0:0:0:
304,192,70519,5,0,0:0:0:0:
304,192,70644,5,0,1:0:0:0:
320,160,70769,1,0,0:0:0:0:
352,144,70894,1,0,0:0:0:0:
384,160,71019,1,0,0:0:0:0:
400,192,71144,1,0,1:0:0:0:
400,192,71394,5,2,0:0:0:0:
400,192,71894,5,0,0:0:0:0:
400,192,72019,5,0,0:0:0:0:
400,192,72269,5,0,0:0:0:0:
400,192,72394,5,0,1:0:0:0:
400,192,72519,5,0,0:0:0:0:
416,224,72769,5,0,0:0:0:0:
448,240,72894,1,0,1:0:0:0:
480,224,73019,1,0,0:0:0:0:
496,192,73144,1,4,1:0:0:0:
448,64,73394,5,0,0:0:0:0:
448,64,73519,1,0,0:0:0:0:
448,64,73644,1,0,0:0:0:0:
384,96,73894,1,0,0:0:0:0:
384,96,74019,1,0,0:0:0:0:
384,96,74144,1,0,0:0:0:0:
320,128,74394,1,0,0:0:0:0:
320,128,74519,1,0,0:0:0:0:
320,128,74644,1,0,0:0:0:0:
320,128,74769,1,0,0:0:0:0:
320,128,74894,1,0,0:0:0:0:
320,128,75019,1,0,0:0:0:0:
320,128,75144,1,0,0:0:0:0:
192,64,75394,5,0,0:0:0:0:
192,64,75519,1,0,0:0:0:0:
192,64,75644,1,0,0:0:0:0:
128,96,75894,1,0,0:0:0:0:
128,96,76019,1,0,0:0:0:0:
128,96,76144,1,0,0:0:0:0:
64,128,76394,1,0,0:0:0:0:
64,128,76519,1,0,0:0:0:0:
64,128,76644,1,0,0:0:0:0:
64,128,76769,1,0,0:0:0:0:
64,128,76894,1,0,0:0:0:0:
64,128,77019,1,0,0:0:0:0:
64,128,77144,1,0,0:0:0:0:
64,256,77394,5,0,0:0:0:0:
64,256,77519,1,0,0:0:0:0:
64,256,77644,1,0,0:0:0:0:
128,288,77894,1,0,0:0:0:0:
128,288,78019,1,0,0:0:0:0:
128,288,78144,1,0,0:0:0:0:
192,256,78394,1,0,0:0:0:0:
192,256,78519,1,0,0:0:0:0:
192,256,78644,1,0,0:0:0:0:
192,256,78769,1,0,0:0:0:0:
192,256,78894,1,0,0:0:0:0:
192,256,79019,1,0,0:0:0:0:
192,256,79144,1,0,0:0:0:0:
320,256,79394,5,0,0:0:0:0:
320,256,79519,1,0,0:0:0:0:
320,256,79644,1,0,0:0:0:0:
384,288,79894,1,0,0:0:0:0:
384,288,80019,1,0,0:0:0:0:
384,288,80144,1,0,0:0:0:0:
448,256,80394,1,0,0:0:0:0:
448,256,80519,1,0,0:0:0:0:
448,256,80644,1,0,0:0:0:0:
448,256,80769,1,0,0:0:0:0:
448,256,80894,1,0,0:0:0:0:
448,256,81019,1,0,0:0:0:0:
448,256,81144,1,0,0:0:0:0:
480,128,81394,5,0,0:0:0:0:
448,112,81519,1,0,0:0:0:0:
416,96,81644,1,0,0:0:0:0:
352,128,81894,1,0,0:0:0:0:
320,112,82019,1,0,0:0:0:0:
288,96,82144,1,0,0:0:0:0:
224,128,82394,1,0,0:0:0:0:
192,112,82519,1,0,0:0:0:0:
160,96,82644,1,0,0:0:0:0:
128,112,82769,1,0,0:0:0:0:
96,128,82894,1,0,0:0:0:0:
80,160,83019,1,0,0:0:0:0:
64,192,83144,1,0,0:0:0:0:
32,320,83394,5,0,0:0:0:0:
64,336,83519,1,0,0:0:0:0:
96,352,83644,1,0,0:0:0:0:
160,320,83894,1,0,0:0:0:0:
192,336,84019,1,0,0:0:0:0:
224,352,84144,1,0,0:0:0:0:
288,320,84394,1,0,0:0:0:0:
320,336,84519,1,0,0:0:0:0:
352,352,84644,1,0,0:0:0:0:
384,336,84769,1,0,0:0:0:0:
416,320,84894,1,0,0:0:0:0:
432,288,85019,1,0,0:0:0:0:
448,256,85144,1,0,0:0:0:0:
384,128,85394,5,0,0:0:0:0:
368,96,85519,1,0,0:0:0:0:
336,80,85644,1,0,0:0:0:0:
320,144,85894,1,0,0:0:0:0:
304,176,86019,1,0,0:0:0:0:
272,192,86144,1,0,0:0:0:0:
256,128,86394,1,0,0:0:0:0:
240,96,86519,1,0,0:0:0:0:
208,80,86644,1,0,0:0:0:0:
176,96,86769,1,0,0:0:0:0:
144,112,86894,1,0,0:0:0:0:
112,96,87019,1,0,0:0:0:0:
96,64,87144,1,0,0:0:0:0:
64,192,87394,5,0,0:0:0:0:
64,192,88144,2,0,B|24:224|10:287|24:352|64:384,2,216.000008239746,2|2|2,0:0|0:0|0:0,0:0:0:0:
160,96,89144,6,0,P|96:68|32:96,2,144.000005493164,2|2|0,1:2|0:0|1:0,0:0:0:0:
128,224,89894,1,2,0:0:0:0:
96,288,90019,1,0,0:0:0:0:
128,352,90144,2,0,P|192:380|256:352,1,144.000005493164,0|0,1:0|0:0,0:0:0:0:
320,320,90519,1,0,0:0:0:0:
384,352,90644,2,0,P|412:288|384:224,1,144.000005493164,0|0,1:0|0:0,0:0:0:0:
320,192,91019,1,0,0:0:0:0:
256,160,91144,6,0,L|128:224,2,144.000005493164,0|2|0,1:0|0:0|1:0,0:0:0:0:
384,96,91894,1,0,0:0:0:0:
320,128,92019,1,0,0:0:0:0:
352,192,92144,2,0,P|380:256|352:320,1,144.000005493164,0|0,1:0|0:0,0:0:0:0:
288,288,92519,2,0,B|304:224|256:242|208:224|224:288,1,144.000005493164,2|0,0:0|0:0,0:0:0:0:
160,320,92894,2,0,P|132:256|160:192,2,144.000005493164,2|2|2,0:0|1:2|0:0,0:0:0:0:
288,352,93644,5,0,1:0:0:0:
224,224,93894,1,2,0:0:0:0:
288,256,94019,1,0,0:0:0:0:
352,288,94144,2,0,B|404:224|304:224|352:160,1,144.000005493164,0|0,1:0|0:0,0:0:0:0:
416,192,94519,1,0,0:0:0:0:
480,160,94644,2,0,L|352:96,1,144.000005493164,0|0,1:0|0:0,0:0:0:0:
288,64,95019,1,0,0:0:0:0:
224,96,95144,6,0,P|160:124|96:96,1,144.000005493164,0|2,1:0|0:0,0:0:0:0:
64,224,95644,1,0,1:0:0:0:
128,352,95894,1,0,0:0:0:0:
192,320,96019,1,0,0:0:0:0:
256,352,96144,2,0,L|384:288,1,144.000005493164,0|0,1:0|0:0,0:0:0:0:
256,224,96644,1,0,1:0:0:0:
384,160,96894,1,0,0:0:0:0:
480,64,97144,6,0,P|508:128|480:192,2,144.000005493164,2|0|0,1:2|0:0|1:0,0:0:0:0:
352,160,97894,2,0,B|300:224|400:224|352:288,2,144.000005493164,2|0|0,0:0|1:0|0:0,0:0:0:0:
224,256,98644,1,0,1:0:0:0:
96,192,98894,1,0,0:0:0:0:
32,320,99144,6,0,P|4:256|32:192,2,144.000005493164,2|0|0,1:2|0:0|1:0,0:0:0:0:
160,224,99894,2,0,B|212:160|112:160|160:96,1,144.000005493164,2|0,0:0|1:0,0:0:0:0:
288,128,100394,2,0,L|416:192,1,144.000005493164,2|0,0:0|1:0,0:0:0:0:
416,64,100894,1,2,0:0:0:0:
288,0,101144,6,0,B|224:-16|242:32|224:80|288:64,1,144.000005493164,2|2,1:2|0:0,0:0:0:0:
416,0,101644,1,0,1:0:0:0:
352,32,101769,1,0,0:0:0:0:
384,96,101894,1,0,0:0:0:0:
448,128,102019,1,0,0:0:0:0:
480,192,102144,1,0,1:0:0:0:
416,224,102269,1,0,0:0:0:0:
384,288,102394,1,0,0:0:0:0:
320,320,102519,1,0,0:0:0:0:
256,288,102644,1,0,1:0:0:0:
288,224,102769,1,0,0:0:0:0:
256,160,102894,1,0,0:0:0:0:
192,128,103019,1,0,0:0:0:0:
128,160,103144,6,0,P|100:224|128:288,1,144.000005493164,0|2,1:0|0:0,0:0:0:0:
384,160,103894,2,0,P|412:224|384:288,1,144.000005493164,2|0,0:0|1:0,0:0:0:0:
224,32,104644,2,0,P|210:64|224:96,1,72.0000027465821,0|0,1:0|0:0,0:0:0:0:
288,352,104894,2,0,P|302:320|288:288,1,72.0000027465821
256,192,105144,6,0,B|192:96|192:96|256:92|256:92|256:128,1,216.000008239746,2|2,0:0|0:0,0:0:0:0:
256,192,105644,2,0,B|320:288|320:288|256:292|256:292|256:256,1,216.000008239746,2|2,0:0|0:0,0:0:0:0:
256,192,106144,1,2,0:0:0:0:
32,0,106644,2,0,P|18:32|32:64,3,72.0000027465821,2|0|0|0,0:0|0:0|0:0|0:0,0:0:0:0:
96,0,107144,5,2,0:0:0:0:
96,64,107269,1,0,0:0:0:0:
96,128,107394,1,0,0:0:0:0:
160,160,107519,1,2,0:0:0:0:
96,192,107644,1,2,0:0:0:0:
96,256,107769,1,0,0:0:0:0:
96,320,107894,1,0,0:0:0:0:
160,352,108019,1,2,0:0:0:0:
96,384,108144,1,2,0:0:0:0:
480,384,108644,2,0,P|494:352|480:320,3,72.0000027465821,2|0|0|0,0:0|0:0|0:0|0:0,0:0:0:0:
416,384,109144,5,2,0:0:0:0:
416,320,109269,1,0,0:0:0:0:
416,256,109394,1,0,0:0:0:0:
352,224,109519,1,2,0:0:0:0:
416,192,109644,1,2,0:0:0:0:
416,128,109769,1,0,0:0:0:0:
416,64,109894,1,0,0:0:0:0:
352,32,110019,1,2,0:0:0:0:
416,0,110144,1,2,0:0:0:0:
288,352,110644,2,0,P|256:366|224:352,3,72.0000027465821,2|0|0|0,0:0|0:0|0:0|0:0,0:0:0:0:
256,288,111144,5,2,0:0:0:0:
192,256,111269,1,0,0:0:0:0:
160,192,111394,1,0,0:0:0:0:
192,128,111519,1,2,0:0:0:0:
256,96,111644,1,2,0:0:0:0:
320,128,111769,1,0,0:0:0:0:
352,192,111894,1,0,0:0:0:0:
320,256,112019,1,2,0:0:0:0:
256,288,112144,1,2,0:0:0:0:
224,32,112644,2,0,P|256:18|288:32,3,72.0000027465821,2|0|0|0,0:0|0:0|0:0|0:0,0:0:0:0:
352,64,113144,5,2,0:0:0:0:
400,160,113519,1,0,0:0:0:0:
384,128,113644,1,0,0:0:0:0:
304,192,114019,1,0,0:0:0:0:
288,160,114144,1,0,0:0:0:0:
400,256,114644,2,0,L|400:255,3,1.2
384,288,115144,5,2,0:0:0:0:
288,336,115519,1,0,0:0:0:0:
320,320,115644,1,0,0:0:0:0:
256,240,116019,1,0,0:0:0:0:
288,224,116144,1,0,0:0:0:0:
192,336,116644,2,0,L|193:336,3,1.2
160,320,117144,5,2,0:0:0:0:
112,224,117519,1,0,0:0:0:0:
128,256,117644,1,0,0:0:0:0:
208,192,118019,1,0,0:0:0:0:
224,224,118144,1,0,0:0:0:0:
112,128,118644,2,0,L|112:129,3,1.2
128,96,119144,5,2,0:0:0:0:
224,48,119519,1,0,0:0:0:0:
192,64,119644,1,0,0:0:0:0:
256,144,120019,1,0,0:0:0:0:
224,160,120144,1,0,0:0:0:0:
320,48,120644,2,0,L|318:48,3,1.2
384,80,121144,5,2,0:0:0:0:
