osu file format v14

[General]
AudioFilename: Forgetfulness.mp3
AudioLeadIn: 0
PreviewTime: 85835
Countdown: 0
SampleSet: Normal
StackLeniency: 0.7
Mode: 2
LetterboxInBreaks: 1
WidescreenStoryboard: 0

[Editor]
DistanceSpacing: 0.8
BeatDivisor: 16
GridSize: 4
TimelineZoom: 0.376

[Metadata]
Title:Various BGM
TitleUnicode:Various BGM
Artist:Wizet, Nexon
ArtistUnicode:Wizet, Nexon
Creator:ExGon
Version:Forgetfulness
Source:Maplestory
Tags:CODA SOUND Studio EIM Takkyu Ishino Riena Strait Henesys Market Haze Temple of Time Road Oblivion Regrets Sharenian Guild Quest Taiwan World Tour El Nath Territory Dead Trees Grand Athenaeum Resistance Xenon Tutorial Beryl Ludibrium Castle Dimensional Schism Tenyo
BeatmapID:510519
BeatmapSetID:217667

[Difficulty]
HPDrainRate:4
CircleSize:5
OverallDifficulty:0
ApproachRate:8
SliderMultiplier:1.7
SliderTickRate:1

[Events]
//Background and Video events
0,0,"forgetfulness.jpg",0,0
//Break Periods
//Storyboard Layer 0 (Background)
//Storyboard Layer 1 (Fail)
//Storyboard Layer 2 (Pass)
//Storyboard Layer 3 (Foreground)
//Storyboard Sound Samples

[TimingPoints]
35,600,4,1,0,22,1,0
19272,-100,4,2,0,22,0,0
24036,-100,4,1,0,22,0,0
24073,-100,4,2,0,22,0,0
28836,-100,4,1,0,25,0,0
28873,-100,4,2,0,25,0,0
33035,-100,4,1,0,35,0,0
33635,-100,4,1,0,25,0,0
33672,-100,4,2,0,25,0,0
37835,-100,4,1,0,35,0,0
38435,-100,4,1,0,25,0,0
38472,-100,4,2,0,25,0,0
42635,-100,4,1,0,35,0,0
43235,-100,4,1,0,25,0,0
43272,-100,4,2,0,25,0,0
47435,-100,4,1,0,35,0,0
48035,-100,4,1,0,28,0,0
48072,-100,4,2,0,28,0,0
52235,-100,4,1,0,35,0,0
52835,-100,4,1,0,28,0,0
52872,-100,4,2,0,28,0,0
57035,-100,4,1,0,35,0,0
57072,-100,4,2,0,28,0,0
57635,-100,4,1,0,28,0,0
57672,-100,4,2,0,28,0,0
61835,-100,4,1,0,35,0,0
62435,-100,4,1,0,28,0,0
62472,-100,4,2,0,28,0,0
66635,-100,4,1,0,35,0,0
66672,-100,4,2,0,28,0,0
67197,-66.6666666666667,4,2,0,28,0,0
67272,-66.6666666666667,4,2,0,25,0,0
67835,-66.6666666666667,4,1,0,22,0,0
68135,-66.6666666666667,4,2,0,25,0,0
69635,-66.6666666666667,4,1,0,22,0,0
69935,-66.6666666666667,4,2,0,25,0,0
70235,-66.6666666666667,4,1,0,22,0,0
70535,-66.6666666666667,4,2,0,25,0,0
72035,-66.6666666666667,4,1,0,22,0,0
72335,-66.6666666666667,4,2,0,25,0,0
72635,-66.6666666666667,4,1,0,22,0,0
72935,-66.6666666666667,4,2,0,25,0,0
74435,-66.6666666666667,4,1,0,22,0,0
74735,-66.6666666666667,4,2,0,25,0,0
75035,-66.6666666666667,4,1,0,22,0,0
75335,-66.6666666666667,4,2,0,25,0,0
75935,-66.6666666666667,4,1,0,22,0,0
76835,-66.6666666666667,4,2,0,25,0,0
77135,-66.6666666666667,4,1,0,22,0,0
77735,-66.6666666666667,4,2,0,25,0,0
78335,-66.6666666666667,4,1,0,22,0,0
79235,-66.6666666666667,4,2,0,25,0,0
79535,-66.6666666666667,4,1,0,22,0,0
80435,-66.6666666666667,4,2,0,25,0,0
80735,-66.6666666666667,4,1,0,22,0,0
81635,-66.6666666666667,4,2,0,25,0,0
81935,-66.6666666666667,4,1,0,22,0,0
82535,-66.6666666666667,4,2,0,25,0,0
83135,-66.6666666666667,4,1,0,22,0,0
83735,-66.6666666666667,4,2,0,25,0,0
84035,-66.6666666666667,4,2,0,20,0,0
85985,-66.6666666666667,4,2,0,22,0,0
86135,-66.6666666666667,4,2,0,24,0,0
86285,-66.6666666666667,4,2,0,26,0,0
86435,-50,4,1,0,28,0,1
86472,-50,4,2,0,28,0,1
90635,-50,4,1,0,35,0,1
91085,-50,4,2,0,5,0,1
91197,-50,4,2,0,5,0,0
91235,-50,4,1,0,28,0,1
91272,-50,4,2,0,28,0,1
95435,-50,4,1,0,35,0,1
95885,-50,4,2,0,5,0,1
95997,-50,4,2,0,5,0,0
96035,-50,4,1,0,28,0,1
96072,-50,4,2,0,28,0,1
100235,-50,4,1,0,35,0,1
100685,-50,4,2,0,5,0,1
100797,-50,4,2,0,5,0,0
100835,-50,4,1,0,28,0,1
100872,-50,4,2,0,28,0,1
105035,-50,4,1,0,35,0,1
105335,-50,4,2,0,28,0,1
105597,-50,4,2,0,28,0,0
105635,-50,4,1,0,28,0,1
105672,-50,4,2,0,28,0,0
109835,-50,4,1,0,35,0,0
109872,-50,4,2,0,28,0,0
110435,-50,4,1,0,28,0,1
110472,-50,4,2,0,28,0,0
114635,-50,4,1,0,35,0,0
114672,-50,4,2,0,28,0,0
115235,300,4,1,0,28,1,0
115235,-50,4,1,0,28,0,1
115272,-50,4,2,0,28,0,0
119435,-50,4,1,0,35,0,0
119472,-50,4,2,0,28,0,0
120035,-50,4,1,0,28,0,1
120072,-50,4,2,0,28,0,0
124235,-50,4,1,0,35,0,0
124272,-50,4,2,0,28,0,0
124835,600,4,2,0,28,1,0
124835,-66.6666666666667,4,2,0,28,0,0
124872,-66.6666666666667,4,2,0,25,0,0
129035,300,4,2,0,25,1,0
129035,-66.6666666666667,4,2,0,25,0,0
129635,600,4,2,0,25,1,0
129635,-66.6666666666667,4,2,0,25,0,0
133835,-66.6666666666667,4,1,0,22,0,0
134435,-66.6666666666667,4,2,0,25,0,0
134735,-66.6666666666667,4,1,0,22,0,0
135335,-66.6666666666667,4,2,0,25,0,0
135935,-66.6666666666667,4,1,0,22,0,0
136835,-66.6666666666667,4,2,0,25,0,0
137135,-66.6666666666667,4,1,0,22,0,0
138035,-66.6666666666667,4,2,0,25,0,0
138335,-66.6666666666667,4,1,0,22,0,0
138785,-66.6666666666667,4,2,0,25,0,0
139535,-66.6666666666667,4,1,0,22,0,0
140135,-66.6666666666667,4,2,0,25,0,0
140735,-66.6666666666667,4,1,0,22,0,0
141335,-66.6666666666667,4,2,0,25,0,0
141635,-66.6666666666667,4,2,0,20,0,0

[HitObjects]
96,72,35,5,0,0:0:0:0:
416,72,635,1,0,0:0:0:0:
72,152,1235,1,0,0:0:0:0:
440,152,1835,1,0,0:0:0:0:
96,232,2435,5,0,0:0:0:0:
416,232,3035,1,0,0:0:0:0:
120,312,3635,1,0,0:0:0:0:
392,312,4085,1,0,0:0:0:0:
120,312,4535,1,0,0:0:0:0:
416,312,4835,5,0,0:0:0:0:
96,312,5435,1,0,0:0:0:0:
392,232,6035,1,0,0:0:0:0:
120,232,6635,1,0,0:0:0:0:
416,152,7235,5,0,0:0:0:0:
96,152,7835,1,0,0:0:0:0:
440,72,8435,1,0,0:0:0:0:
72,72,8885,1,0,0:0:0:0:
440,72,9335,1,0,0:0:0:0:
72,72,9635,5,4,0:0:0:0:
440,72,10235,1,0,0:0:0:0:
96,152,10835,1,0,0:0:0:0:
416,152,11435,1,0,0:0:0:0:
72,232,12035,5,0,0:0:0:0:
440,232,12635,1,0,0:0:0:0:
96,312,13235,1,0,0:0:0:0:
416,312,13685,1,0,0:0:0:0:
96,312,14135,1,0,0:0:0:0:
440,312,14435,5,4,0:0:0:0:
72,312,15035,1,0,0:0:0:0:
416,232,15635,1,0,0:0:0:0:
96,232,16235,1,0,0:0:0:0:
440,152,16835,5,0,0:0:0:0:
72,152,17435,1,0,0:0:0:0:
464,72,18035,1,0,0:0:0:0:
48,72,18485,1,0,0:0:0:0:
464,72,18935,1,0,0:0:0:0:
64,128,19235,5,4,0:0:0:0:
56,132,19535,1,2,0:0:0:0:
192,288,19835,1,0,0:0:0:0:
184,284,20135,1,2,0:0:0:0:
320,128,20435,1,0,0:0:0:0:
312,132,20735,1,2,0:0:0:0:
448,288,21035,1,0,0:0:0:0:
64,256,21635,5,0,0:0:0:0:
192,96,22235,1,0,0:0:0:0:
184,100,22535,1,2,0:0:0:0:
320,256,22835,1,0,0:0:0:0:
312,252,23135,1,2,0:0:0:0:
448,96,23435,1,0,0:0:0:0:
440,100,23735,1,2,0:0:0:0:
256,192,24035,5,4,0:0:0:0:
64,64,24335,1,2,0:0:0:0:
192,224,24635,1,0,0:0:0:0:
128,384,24935,1,2,0:0:0:0:
383,384,25235,1,0,0:0:0:0:
320,224,25535,1,2,0:0:0:0:
448,64,25835,1,0,0:0:0:0:
398,274,26435,5,0,0:0:0:0:
173,334,26735,1,2,0:0:0:0:
113,109,27035,1,0,0:0:0:0:
338,49,27335,1,2,0:0:0:0:
173,49,27635,1,0,0:0:0:0:
398,109,27935,1,2,0:0:0:0:
338,334,28235,1,0,0:0:0:0:
113,274,28535,1,2,0:0:0:0:
336,80,28835,6,0,L|424:64,1,85,4|0,0:0|0:0,0:0:0:0:
199,317,29435,2,0,L|229:401,1,85,0|0,0:0|0:0,0:0:0:0:
176,80,30035,2,0,L|88:64,1,85,0|0,0:0|0:0,0:0:0:0:
312,317,30635,1,0,0:0:0:0:
48,192,32135,6,0,B|128:168|136:232|240:200,1,170,0|0,0:0|0:0,0:0:0:0:
464,192,33035,1,0,0:0:0:0:
176,80,33635,6,0,L|88:64,1,85,4|0,0:0|0:0,0:0:0:0:
313,317,34235,2,0,L|283:401,1,85,0|0,0:0|0:0,0:0:0:0:
336,80,34835,2,0,L|424:64,1,85,0|0,0:0|0:0,0:0:0:0:
200,317,35435,1,0,0:0:0:0:
256,192,36635,5,0,0:0:0:0:
464,192,36935,2,0,B|384:168|376:232|272:200,1,170
48,192,37835,1,0,0:0:0:0:
48,64,38435,6,0,P|128:64|136:56,1,85,4|0,0:0|0:0,0:0:0:0:
297,192,39035,2,0,L|212:192,1,85
385,65,39635,2,0,P|424:78|464:64,1,85
256,256,40235,1,0,0:0:0:0:
80,256,41735,6,0,P|48:304|128:352,1,170
432,128,42635,1,0,0:0:0:0:
464,64,43235,6,0,P|384:64|376:56,1,85,4|0,0:0|0:0,0:0:0:0:
215,192,43835,2,0,L|300:192,1,85
127,65,44435,2,0,P|88:78|48:64,1,85
256,256,45035,1,0,0:0:0:0:
432,256,46535,6,0,P|464:304|384:352,1,170
80,128,47435,1,0,0:0:0:0:
48,272,48035,5,4,0:0:0:0:
208,240,48335,1,0,0:0:0:0:
368,208,48635,1,2,0:0:0:0:
80,112,49235,1,2,0:0:0:0:
240,144,49535,1,0,0:0:0:0:
400,176,49835,1,2,0:0:0:0:
464,112,50435,5,2,0:0:0:0:
304,144,50735,1,0,0:0:0:0:
144,176,51035,1,2,0:0:0:0:
432,272,51635,1,2,0:0:0:0:
272,240,51935,1,0,0:0:0:0:
112,208,52235,1,0,0:0:0:0:
464,72,52835,5,4,0:0:0:0:
208,136,53135,2,0,L|296:136,1,85,0|2,0:0|0:0,0:0:0:0:
48,312,54035,1,2,0:0:0:0:
304,248,54335,2,0,L|216:248,1,85,0|2,0:0|0:0,0:0:0:0:
208,136,55235,6,0,L|296:136,1,85,2|0,0:0|0:0,0:0:0:0:
48,72,55835,1,2,0:0:0:0:
304,248,56435,6,0,L|216:248,1,85,2|2,0:0|0:0,0:0:0:0:
464,312,57035,1,0,0:0:0:0:
256,192,57335,1,2,0:0:0:0:
120,80,57635,6,0,P|80:120|72:152,1,85,4|0,0:0|0:0,0:0:0:0:
392,16,58235,1,2,0:0:0:0:
392,304,58835,2,0,P|432:264|440:232,1,85,2|0,0:0|0:0,0:0:0:0:
120,368,59435,1,2,0:0:0:0:
392,16,60035,5,2,0:0:0:0:
72,146,60335,2,0,P|87:106|120:80,1,85,0|2,0:0|0:0,0:0:0:0:
120,368,61235,1,2,0:0:0:0:
439,237,61535,2,0,P|424:277|392:304,1,85,0|0,0:0|0:0,0:0:0:0:
344,48,62435,5,4,0:0:0:0:
107,272,62735,1,0,0:0:0:0:
424,196,63035,1,2,0:0:0:0:
168,48,63635,1,2,0:0:0:0:
404,272,63935,1,0,0:0:0:0:
87,196,64235,1,2,0:0:0:0:
16,272,64835,5,2,0:0:0:0:
256,192,65135,2,0,L|256:280,1,85,0|2,0:0|0:0,0:0:0:0:
496,272,66035,1,2,0:0:0:0:
256,192,66335,2,0,L|256:280,1,85,2|0,0:0|0:0,0:0:0:0:
16,272,66935,1,2,0:0:0:0:
16,272,67085,1,0,0:0:0:0:
296,72,67235,6,0,L|424:64,1,127.500004863739,2|0,0:0|0:0,0:0:0:0:
384,248,67835,6,0,P|368:304|304:344,1,127.500004863739
91,292,68435,6,0,B|168:272|168:272|168:320,1,127.500004863739
248,80,69035,6,0,B|312:96|312:96|240:120,1,127.500004863739
104,88,69635,6,0,P|32:192|40:216,1,127.500004863739
272,264,70235,6,0,B|192:256|192:256|232:232,1,127.500004863739
464,80,70835,6,0,P|472:160|392:168,1,127.500004863739
169,94,71435,6,0,L|296:80,1,127.500004863739
32,288,72035,6,0,P|80:344|144:344,1,127.500004863739
360,336,72635,6,0,L|480:256,1,127.500004863739
256,48,73235,6,0,L|120:80,1,127.500004863739
368,168,73835,6,0,B|440:184|440:184|384:200,1,127.500004863739
120,272,74435,6,0,B|88:272|88:272|152:272|152:272|120:272,1,127.500004863739
406,119,75035,6,0,L|288:72,1,127.500004863739
176,224,75635,6,0,B|97:188|97:188|137:180,1,127.500004863739
452,328,76235,6,0,B|404:296|404:296|436:232,1,127.500004863739
256,64,76835,6,0,L|8:120,1,255.000009727478,2|0,0:0|0:0,0:0:0:0:
132,92,77135,1,0,0:0:0:0:
69,106,77285,1,0,0:0:0:0:
324,260,77735,1,0,0:0:0:0:
96,280,78035,2,0,P|184:232|136:72,1,255.000009727478,2|0,0:0|0:0,0:0:0:0:
194,212,78335,1,0,0:0:0:0:
412,96,79235,6,0,L|152:80,2,255.000009727478,2|0|2,0:0|0:0|0:0,0:0:0:0:
284,88,79535,1,0,0:0:0:0:
124,232,80735,1,0,0:0:0:0:
124,232,81035,1,0,0:0:0:0:
400,304,81635,6,0,B|232:308|320:224|152:228,1,255.000009727478,2|0,0:0|0:0,0:0:0:0:
281,271,81935,1,0,0:0:0:0:
256,112,82535,1,0,0:0:0:0:
28,232,82835,2,0,P|44:128|188:96,1,255.000009727478,2|0,0:0|0:0,0:0:0:0:
56,115,83135,1,0,0:0:0:0:
452,228,83735,1,0,0:0:0:0:
460,220,83885,1,0,0:0:0:0:
468,212,84035,5,4,0:0:0:0:
256,192,84072,12,0,84935,0:0:0:0:
0,96,85835,5,0,0:0:0:0:
128,144,85985,1,0,0:0:0:0:
256,192,86135,1,0,0:0:0:0:
384,240,86285,1,0,0:0:0:0:
512,288,86435,6,0,P|448:320|352:288,1,170,4|0,0:0|0:0,0:0:0:0:
0,288,87035,2,0,P|64:320|160:288,1,170,2|0,0:0|0:0,0:0:0:0:
512,224,87635,2,0,L|320:224,1,170,2|0,0:0|0:0,0:0:0:0:
0,224,88235,2,0,L|192:224,1,170,2|0,0:0|0:0,0:0:0:0:
512,160,88835,6,0,P|448:192|352:160,1,170,2|0,0:0|0:0,0:0:0:0:
0,160,89435,2,0,P|64:192|160:160,1,170,2|0,0:0|0:0,0:0:0:0:
512,96,90035,2,0,L|320:96,1,170,2|0,0:0|0:0,0:0:0:0:
0,96,90635,2,0,B|128:96|128:96|0:96,1,255
0,96,91235,6,0,L|192:96,1,170,4|0,0:0|0:0,0:0:0:0:
512,96,91835,2,0,L|320:96,1,170,2|0,0:0|0:0,0:0:0:0:
0,160,92435,2,0,P|64:192|160:160,1,170,2|0,0:0|0:0,0:0:0:0:
512,160,93035,2,0,P|448:192|352:160,1,170,2|0,0:0|0:0,0:0:0:0:
0,224,93635,6,0,L|192:224,1,170,2|0,0:0|0:0,0:0:0:0:
512,224,94235,2,0,L|320:224,1,170,2|0,0:0|0:0,0:0:0:0:
0,288,94835,2,0,P|64:320|160:288,1,170,2|0,0:0|0:0,0:0:0:0:
357,293,95435,2,0,B|485:293|485:293|357:293,1,255
357,293,96035,6,0,P|435:321|512:288,1,170,4|0,0:0|0:0,0:0:0:0:
154,293,96635,2,0,P|76:321|0:288,1,170,2|0,0:0|0:0,0:0:0:0:
342,224,97235,2,0,L|512:224,1,170,2|0,0:0|0:0,0:0:0:0:
170,224,97835,2,0,L|0:224,1,170,2|0,0:0|0:0,0:0:0:0:
357,165,98435,6,0,P|435:193|512:160,1,170,2|0,0:0|0:0,0:0:0:0:
154,165,99035,2,0,P|76:193|0:160,1,170,2|0,0:0|0:0,0:0:0:0:
342,96,99635,2,0,L|512:96,1,170,2|0,0:0|0:0,0:0:0:0:
168,96,100235,2,0,B|40:96|40:96|168:96,1,255
170,96,100835,6,0,L|0:96,1,170,4|0,0:0|0:0,0:0:0:0:
342,96,101435,2,0,L|512:96,1,170,2|0,0:0|0:0,0:0:0:0:
155,165,102035,2,0,P|77:193|0:160,1,170,2|0,0:0|0:0,0:0:0:0:
358,165,102635,2,0,P|436:193|512:160,1,170,2|0,0:0|0:0,0:0:0:0:
170,224,103235,6,0,L|0:224,1,170,2|0,0:0|0:0,0:0:0:0:
342,224,103835,2,0,L|512:224,1,170,2|0,0:0|0:0,0:0:0:0:
155,293,104435,2,0,P|77:321|0:288,1,170,2|0,0:0|0:0,0:0:0:0:
358,293,105035,2,0,P|436:321|512:288,1,170
96,128,105635,6,0,P|45:73|109:35,1,170,4|0,0:0|0:0,0:0:0:0:
352,256,106235,2,0,P|301:310|365:348,1,170,2|0,0:0|0:0,0:0:0:0:
416,128,106835,2,0,P|466:73|402:35,1,170,2|0,0:0|0:0,0:0:0:0:
160,256,107435,2,0,P|210:310|146:348,1,170,2|0,0:0|0:0,0:0:0:0:
424,80,108035,6,0,L|408:272,1,170,2|0,0:0|0:0,0:0:0:0:
64,80,108635,2,0,L|80:272,1,170,2|0,0:0|0:0,0:0:0:0:
448,112,109235,2,0,L|432:304,1,170,2|0,0:0|0:0,0:0:0:0:
88,112,109835,2,0,L|104:304,1,170
416,72,110435,5,4,0:0:0:0:
96,72,110735,1,0,0:0:0:0:
432,112,111035,1,2,0:0:0:0:
104,112,111335,1,0,0:0:0:0:
408,152,111635,1,2,0:0:0:0:
80,152,111935,1,0,0:0:0:0:
416,192,112235,1,2,0:0:0:0:
96,192,112535,1,0,0:0:0:0:
432,312,112835,5,2,0:0:0:0:
80,312,113135,1,0,0:0:0:0:
448,272,113435,1,2,0:0:0:0:
88,272,113735,1,0,0:0:0:0:
424,232,114035,1,2,0:0:0:0:
64,232,114335,1,2,0:0:0:0:
432,192,114635,1,0,0:0:0:0:
80,192,114935,1,2,0:0:0:0:
120,80,115235,6,0,L|416:248,1,340,4|0,0:0|0:0,0:0:0:0:
384,80,115835,2,0,L|64:208,1,340,2|0,0:0|0:0,0:0:0:0:
120,256,116435,2,0,L|464:208,1,340,2|0,0:0|0:0,0:0:0:0:
144,40,117035,2,0,L|466:150,1,340,2|0,0:0|0:0,0:0:0:0:
368,160,117635,6,0,L|24:152,1,340,2|0,0:0|0:0,0:0:0:0:
176,256,118235,2,0,L|520:208,1,340,2|0,0:0|0:0,0:0:0:0:
336,208,118835,2,0,L|-32:152,1,340,2|0,0:0|0:0,0:0:0:0:
280,72,119435,2,0,L|-16:272,1,340
32,144,120035,6,0,P|140:135|32:145,1,340,4|0,0:0|0:0,0:0:0:0:
288,0,120635,2,0,P|297:108|287:0,1,340,2|0,0:0|0:0,0:0:0:0:
480,240,121235,2,0,P|372:249|480:239,1,340,2|0,0:0|0:0,0:0:0:0:
224,384,121835,2,0,P|215:276|225:384,1,340,2|0,0:0|0:0,0:0:0:0:
448,144,122435,6,0,P|340:143|449:143,1,340,2|0,0:0|0:0,0:0:0:0:
208,0,123035,2,0,P|207:108|207:-1,1,340,2|0,0:0|0:0,0:0:0:0:
64,240,123635,2,0,P|172:241|63:241,1,340,2|2,0:0|0:0,0:0:0:0:
304,384,124235,2,0,P|305:276|305:385,1,340,0|2,0:0|0:0,0:0:0:0:
496,272,124685,1,0,0:0:0:0:
216,72,124835,6,0,L|88:64,1,127.500004863739,2|0,0:0|0:0,0:0:0:0:
128,248,125435,6,0,P|144:304|208:344,1,127.500004863739
421,292,126035,6,0,B|344:272|344:272|344:320,1,127.500004863739
264,80,126635,6,0,B|200:96|200:96|272:120,1,127.500004863739
408,88,127235,6,0,P|480:192|472:216,1,127.500004863739
240,264,127835,6,0,B|320:256|320:256|280:232,1,127.500004863739
48,80,128435,6,0,P|40:160|120:168,1,127.500004863739
343,94,129035,6,0,L|216:80,1,127.500004863739
420,176,129335,6,0,L|293:162,1,127.500004863739
480,288,129635,6,0,P|432:344|368:344,1,127.500004863739
152,336,130235,6,0,L|32:256,1,127.500004863739
256,48,130835,6,0,L|392:80,1,127.500004863739
144,168,131435,6,0,B|72:184|72:184|128:200,1,127.500004863739
392,272,132035,6,0,B|424:272|424:272|360:272|360:272|392:272,1,127.500004863739
106,119,132635,6,0,L|224:72,1,127.500004863739
336,224,133235,6,0,B|415:188|415:188|375:180,1,127.500004863739
60,328,133835,6,0,B|108:296|108:296|76:232,1,127.500004863739
76,233,134285,5,0,0:0:0:0:
256,64,134435,6,0,L|504:120,1,255.000009727478,2|0,0:0|0:0,0:0:0:0:
380,92,134735,1,0,0:0:0:0:
443,106,134885,1,0,0:0:0:0:
188,260,135335,1,0,0:0:0:0:
416,280,135635,2,0,P|328:232|376:72,1,255.000009727478,2|0,0:0|0:0,0:0:0:0:
318,212,135935,1,0,0:0:0:0:
100,96,136835,6,0,L|360:80,2,255.000009727478,2|0|2,0:0|0:0|0:0,0:0:0:0:
228,88,137135,1,0,0:0:0:0:
388,232,138335,1,0,0:0:0:0:
388,232,138635,1,0,0:0:0:0:
388,232,138785,1,0,0:0:0:0:
256,304,138935,1,0,0:0:0:0:
256,304,139085,1,0,0:0:0:0:
112,304,139235,6,0,B|280:308|192:224|360:228,1,255.000009727478,2|0,0:0|0:0,0:0:0:0:
231,271,139535,1,0,0:0:0:0:
283,235,139685,1,0,0:0:0:0:
256,112,140135,1,0,0:0:0:0:
484,232,140435,2,0,P|468:128|324:96,1,255.000009727478,2|0,0:0|0:0,0:0:0:0:
456,115,140735,1,0,0:0:0:0:
60,228,141335,1,0,0:0:0:0:
52,220,141485,1,0,0:0:0:0:
44,212,141635,5,4,0:0:0:0:
256,192,141672,12,0,142535,0:0:0:0:
