osu file format v14

[General]
AudioFilename: EllinForest.mp3
AudioLeadIn: 0
PreviewTime: 2295
Countdown: 0
SampleSet: Soft
StackLeniency: 0.7
Mode: 2
LetterboxInBreaks: 1
WidescreenStoryboard: 0

[Editor]
DistanceSpacing: 2.9
BeatDivisor: 16
GridSize: 8
TimelineZoom: 0.4674096

[Metadata]
Title:Various BGM
TitleUnicode:Various BGM
Artist:Wizet, Nexon
ArtistUnicode:Wizet, Nexon
Creator:ExGon
Version:Ellin Forest
Source:Maplestory
Tags:CODA SOUND Studio EIM Takkyu Ishino Riena Strait Henesys Market Haze Temple of Time Road Oblivion Regrets Sharenian Guild Quest Taiwan World Tour El Nath Territory Dead Trees Grand Athenaeum Resistance Xenon Tutorial Beryl Ludibrium Castle Dimensional Schism Tenyo
BeatmapID:1165159
BeatmapSetID:217667

[Difficulty]
HPDrainRate:4
CircleSize:5.8
OverallDifficulty:0
ApproachRate:2.2
SliderMultiplier:0.64
SliderTickRate:0.5

[Events]
//Background and Video events
0,0,"ellin.jpg",0,0
//Break Periods
//Storyboard Layer 0 (Background)
//Storyboard Layer 1 (Fail)
//Storyboard Layer 2 (Pass)
//Storyboard Layer 3 (Foreground)
//Storyboard Sound Samples

[TimingPoints]
3541,415.228386310776,4,2,99,10,1,0
4357,423.566666666668,4,2,99,10,1,0
5218,427.066666666668,4,2,99,10,1,0
6926,440.866666666669,4,2,99,10,1,0
7807,433.266666666668,4,2,99,10,1,0
8673,421.066666666668,4,2,99,10,1,0
10357,439.866666666667,4,2,99,10,1,0
11236,431.866666666667,4,2,99,10,1,0
12099,428.566666666666,4,2,99,10,1,0
13813,424.566666666666,4,2,99,10,1,0
14662,432.166666666666,4,2,99,10,1,0
15526,423.971428571428,4,2,99,10,1,0
16373,427.571428571428,4,2,99,10,1,0
16800,436.671428571428,4,2,99,10,1,0
17236,432.771428571428,4,2,99,15,1,0
18054,428.271428571428,4,2,99,15,1,0
18910,426.871428571428,4,2,99,15,1,0
20664,421.871428571428,4,2,99,15,1,0
21507,426.571428571428,4,2,99,15,1,0
22360,435.871428571428,4,2,99,15,1,0
24103,412.671428571428,4,2,99,15,1,0
24928,412.171428571428,4,2,99,15,1,0
25752,430.971428571428,4,2,99,15,1,0
26182,457.971428571428,4,2,99,15,1,0
26639,424.971428571428,4,2,99,15,1,0
27063,450.971428571428,4,2,99,15,1,0
27513,431.671428571429,4,2,99,15,1,0
27620,-100,4,2,99,5,0,0
30966,428.571428571429,4,2,99,15,1,0
39323,-100,4,2,99,7,0,0
39537,-100,4,2,99,15,0,0
39751,-100,4,2,99,7,0,0
40394,-100,4,2,99,15,0,0
40608,-100,4,2,99,7,0,0
41251,-100,4,2,99,15,0,0
41680,-50,4,2,99,9,0,0
41894,-50,4,2,99,12,0,0
42108,-50,4,2,99,15,0,0
42966,-50,4,2,99,18,0,0
43394,-50,4,2,99,15,0,0
43608,-50,4,2,99,12,0,0
43823,-50,4,2,99,9,0,0
44680,-50,4,2,99,15,0,0
52394,107.142857142857,4,2,99,9,1,0
52689,-83.3333333333333,4,2,99,12,0,0
53144,-71.4285714285714,4,2,99,12,0,0
53526,-62.5,4,2,99,12,0,0
54536,-62.5,4,2,99,15,0,0
56251,-62.5,4,2,99,12,0,0
56679,-62.5,4,2,99,15,0,0
57108,-62.5,4,2,99,18,0,0
57536,-62.5,4,2,99,12,0,0
57751,-62.5,4,2,99,15,0,0
57966,421.571428571429,4,2,99,15,1,0
58176,408.571428571429,4,2,99,15,1,0
58380,-100,4,2,99,15,0,1
58405,-100,4,2,99,15,0,0
58608,428.571428571429,4,2,99,15,1,0
58822,428.571428571429,4,2,99,15,1,0
59893,410.271428571428,4,2,99,15,1,0
60098,-100,4,2,99,15,0,1
60123,-100,4,2,99,15,0,0
60322,428.571428571429,4,2,99,15,1,0
60536,428.571428571429,4,2,99,15,1,0
61607,407.571428571429,4,2,99,15,1,0
61810,-100,4,2,99,5,0,1
61836,-100,4,2,99,5,0,0
62028,428.571428571429,4,2,99,15,1,0
62242,428.571428571429,4,2,99,15,1,0
65028,417.371428571429,4,2,99,15,1,0
65236,-100,4,2,99,15,0,1
65262,-100,4,2,99,15,0,0
65456,428.571428571429,4,2,99,15,1,0
65670,428.571428571429,4,2,99,15,1,0
66741,417.571428571429,4,2,99,15,1,0
66949,-100,4,2,99,15,0,1
66975,-100,4,2,99,15,0,0
67170,428.571428571429,4,2,99,15,1,0
67384,428.571428571429,4,2,99,15,1,0
68455,414.671428571429,4,2,99,7,1,0
68662,-100,4,2,99,7,0,1
68688,-100,4,2,99,7,0,0
68880,428.571428571429,4,2,99,15,1,0
69094,428.571428571429,4,2,99,15,1,0
71879,425.071428571429,4,2,99,15,1,0
72091,-100,4,2,99,15,0,1
72118,-100,4,2,99,15,0,0
72318,428.571428571429,4,2,99,15,1,0
72532,428.571428571429,4,2,99,15,1,0
73603,422.271428571429,4,2,99,15,1,0
73814,-100,4,2,99,15,0,1
73840,-100,4,2,99,15,0,0
74032,428.571428571429,4,2,99,15,1,0
74246,428.571428571429,4,2,99,15,1,0
75317,412.271428571429,4,2,99,5,1,0
75523,-100,4,2,99,5,0,1
75548,-100,4,2,99,5,0,0
75740,428.571428571429,4,2,99,15,1,0
75954,428.571428571429,4,2,99,15,1,0
78739,423.771428571429,4,2,99,15,1,0
78950,-100,4,2,99,15,0,1
78977,-100,4,2,99,15,0,0
79164,428.571428571429,4,2,99,15,1,0
79378,428.571428571429,4,2,99,15,1,0
80449,423.471428571429,4,2,99,15,1,0
80660,-100,4,2,99,15,0,1
80687,-100,4,2,99,15,0,0
80878,428.571428571429,4,2,99,15,1,0
81092,428.571428571429,4,2,99,15,1,0
82163,424.071428571429,4,2,99,6,1,0
82375,-100,4,2,99,6,0,1
82401,-100,4,2,99,6,0,0
82592,428.571428571429,4,2,99,15,1,0
84092,428.571428571429,4,2,99,15,1,0
85809,1714.28571428571,4,2,99,15,1,0
85809,-26.9905533063428,4,2,99,15,0,1
85916,-25,4,2,99,15,0,1
99521,1714.28571428571,4,2,99,15,1,1
99521,-26.9905533063428,4,2,99,15,0,1
99628,-25,4,2,99,15,0,1
113235,600000000,4,2,99,0,1,0

[HitObjects]
448,96,3541,5,0,0:0:0:0:
288,192,4357,5,0,0:0:0:0:
448,288,5218,5,0,0:0:0:0:
64,96,6926,5,0,0:0:0:0:
224,192,7807,5,0,0:0:0:0:
64,288,8673,5,0,0:0:0:0:
224,32,10357,5,0,0:0:0:0:
416,224,11236,5,0,0:0:0:0:
183,230,12099,5,0,0:0:0:0:
197,135,12527,5,0,0:0:0:0:
291,118,12956,5,0,0:0:0:0:
336,203,13384,5,0,0:0:0:0:
270,272,13813,5,0,0:0:0:0:
64,160,14662,5,0,0:0:0:0:
288,384,15526,5,0,0:0:0:0:
185,224,16373,5,2,0:0:0:0:
327,160,16800,5,2,0:0:0:0:
38,128,17236,6,0,L|155:150,1,120,2|0,0:0|0:0,0:0:0:0:
161,155,18080,6,0,P|147:211|87:220,1,124,2|2,0:0|0:0,0:0:0:0:
474,128,20664,6,0,L|349:151,1,128,2|0,0:0|0:0,0:0:0:0:
348,151,21507,6,0,P|362:207|422:216,1,128,2|2,0:0|0:0,0:0:0:0:
73,199,24103,6,0,P|99:245|166:237,1,128,2|0,0:0|0:0,0:0:0:0:
166,236,24928,6,0,P|224:248|258:197,1,128,2|0,0:0|0:0,0:0:0:0:
258,197,25752,6,0,P|270:219|304:215,1,64,2|0,0:0|0:0,0:0:0:0:
304,214,26182,6,0,P|333:221|349:195,1,64,2|0,0:0|0:0,0:0:0:0:
348,195,26639,6,0,P|360:217|394:213,1,64,2|0,0:0|0:0,0:0:0:0:
394,212,27063,6,0,P|423:217|440:192,1,64,2|2,0:0|0:0,0:0:0:0:
256,192,27620,12,0,31290,0:0:0:0:
330,196,30966,6,0,P|282:203|300:289,1,160
96,256,32251,5,0,0:0:0:0:
192,288,32466,5,0,0:0:0:0:
128,192,32680,5,0,0:0:0:0:
224,192,32894,5,0,0:0:0:0:
160,128,33108,5,0,0:0:0:0:
224,128,33323,5,0,0:0:0:0:
352,160,33537,6,0,L|320:160,1,32
388,161,33966,6,0,L|420:161,1,32
256,256,34394,6,0,B|192:224|224:192|256:192|320:192|256:160|192:128|256:128|288:128|256:96|192:96|288:96|288:96|192:64|192:64|192:32,1,352
192,64,36537,6,0,L|224:64,1,32
256,192,36858,12,0,37073,0:0:0:0:
288,64,37180,6,0,L|256:64,1,32
312,32,37180,6,0,L|280:32,1,32
256,192,37501,12,0,37823,0:0:0:0:
131,224,37823,6,0,B|163:224|163:224|131:224|131:224,1,64
112,192,37823,6,0,B|144:192|144:192|112:192|112:192,1,64
256,192,38466,5,0,0:0:0:0:
285,288,38680,6,0,B|253:288|253:288|285:288|285:288,1,64
304,256,38680,6,0,B|272:256|272:256|304:256|304:256,1,64
184,256,39323,5,2,0:0:0:0:
352,224,39537,5,0,0:0:0:0:
416,224,39751,5,2,0:0:0:0:
224,224,39966,5,2,0:0:0:0:
288,224,40180,5,2,0:0:0:0:
96,224,40394,5,0,0:0:0:0:
160,224,40608,5,2,0:0:0:0:
0,224,40823,6,0,L|32:224,1,32,2|2,0:0|0:0,0:0:0:0:
480,224,41251,5,0,0:0:0:0:
256,192,41358,12,0,41680,0:0:0:0:
256,96,41680,6,0,L|320:128,1,64,0|0,3:0|0:0,0:0:0:0:
320,128,41894,6,0,L|256:160,1,64,0|0,3:0|0:0,0:0:0:0:
256,160,42108,6,0,L|192:192,1,64,0|0,3:0|0:0,0:0:0:0:
192,192,42323,6,0,L|256:224,1,64,0|0,3:0|0:0,0:0:0:0:
256,224,42537,6,0,L|320:256,1,64,0|0,3:0|0:0,0:0:0:0:
320,256,42751,6,0,L|262:284,1,64,0|0,3:0|0:0,0:0:0:0:
256,288,42966,6,0,L|224:224,1,64,0|0,3:0|0:0,0:0:0:0:
256,288,43180,6,0,L|288:224,1,64,0|0,3:0|0:0,0:0:0:0:
256,288,43394,6,0,L|224:224,1,64,0|0,3:0|0:0,0:0:0:0:
256,288,43608,6,0,L|288:224,1,64,0|0,3:0|0:0,0:0:0:0:
256,288,43823,6,0,L|224:224,1,64,0|0,3:0|0:0,0:0:0:0:
256,160,44251,5,0,0:0:0:0:
416,288,44680,6,0,B|448:256|448:256|384:256|384:256|448:224|448:224|384:224|384:224|448:192|448:192|352:192|352:192,1,384
256,192,46180,5,0,0:0:0:0:
96,288,46394,6,0,B|64:256|64:256|128:256|128:256|64:224|64:224|128:224|128:224|64:192|64:192|160:192|160:192,1,384
256,160,47894,6,0,L|256:224,1,64
160,256,48537,5,0,0:0:0:0:
352,256,48966,5,0,0:0:0:0:
288,288,49180,5,0,0:0:0:0:
224,288,49394,5,0,0:0:0:0:
160,256,49608,5,0,0:0:0:0:
320,320,49823,6,0,L|192:320,1,128
192,320,50251,6,0,L|256:320,1,64
352,320,50894,5,0,0:0:0:0:
160,320,51108,5,0,0:0:0:0:
400,320,51537,6,0,L|336:320,1,64
112,320,51966,6,0,L|176:320,1,64
352,320,52394,6,0,L|224:320,1,128,0|0,3:0|3:0,3:0:0:0:
384,288,52822,6,0,L|224:288,1,153.5999953125,0|0,3:0|3:0,3:0:0:0:
416,256,53251,6,0,L|224:256,1,179.19999453125,0|0,3:0|3:0,3:0:0:0:
448,224,53679,6,0,L|224:224,1,204.8,0|0,3:0|3:0,3:0:0:0:
96,160,54108,5,0,3:0:0:0:
256,160,54536,5,0,0:0:0:0:
416,160,54965,5,0,0:0:0:0:
256,192,55393,6,0,B|231:396|256:192|256:192|256:192|256:192,1,204.8
352,192,55822,5,0,0:0:0:0:
160,192,56036,5,0,0:0:0:0:
160,128,56251,6,0,L|284:292,1,204.8,0|0,3:0|3:0,3:0:0:0:
352,128,56679,6,0,L|224:290,1,204.8,0|0,3:0|3:0,3:0:0:0:
320,128,57108,6,0,L|435:301,1,204.8,0|0,3:0|3:0,3:0:0:0:
224,128,57536,5,0,3:0:0:0:
256,192,57751,12,0,58173,0:0:0:0:
32,224,58176,5,0,0:0:0:0:
96,256,58380,5,2,0:0:0:0:
256,320,58608,5,0,0:0:0:0:
192,352,58822,5,0,0:0:0:0:
352,288,59036,6,0,L|416:256,1,64
408,256,59250,6,0,L|408:288,1,32
192,288,59679,6,0,L|128:256,1,64
136,256,59893,6,0,L|136:288,1,32,0|8,0:0|0:0,0:0:0:0:
288,224,60322,5,0,0:0:0:0:
352,192,60536,5,0,0:0:0:0:
288,256,60750,5,0,0:0:0:0:
384,192,60964,5,0,0:0:0:0:
288,288,61178,5,0,0:0:0:0:
416,320,61393,6,0,L|480:320,1,64
480,256,61810,6,0,L|448:256,1,32,8|0,0:1|0:0,0:0:0:0:
256,288,62242,5,0,0:0:0:0:
160,288,62456,5,0,0:0:0:0:
256,256,62670,5,0,0:0:0:0:
128,256,62884,5,0,0:0:0:0:
320,224,63099,6,0,L|352:224,1,32
384,224,63527,6,0,L|352:224,1,32
192,288,63956,6,0,L|128:288,1,64
128,256,64384,6,0,L|192:224,1,64
192,224,64813,6,0,L|128:192,1,64
128,192,65236,6,0,L|160:160,1,32,2|0,0:0|0:0,0:0:0:0:
160,160,65445,6,0,L|192:160,1,32
195,164,65670,6,0,B|419:164|419:164|367:93|367:93|195:100,1,480
198,167,65670,6,0,B|422:167|422:167|370:96|370:96|198:103,1,480
355,178,66949,5,8,0:0:0:0:
278,99,68662,5,12,0:2:0:0:
88,160,69094,5,0,0:0:0:0:
72,192,69094,5,0,0:0:0:0:
58,222,69094,5,0,0:0:0:0:
179,160,69308,5,0,0:0:0:0:
163,192,69308,5,0,0:0:0:0:
149,222,69308,5,0,0:0:0:0:
256,192,69522,5,0,0:0:0:0:
270,160,69522,5,0,0:0:0:0:
240,222,69522,5,0,0:0:0:0:
361,160,69736,5,0,0:0:0:0:
347,192,69736,5,0,0:0:0:0:
331,222,69736,5,0,0:0:0:0:
468,192,69951,5,0,0:0:0:0:
452,160,69951,5,0,0:0:0:0:
483,222,69951,5,0,0:0:0:0:
377,192,70165,5,0,0:0:0:0:
361,160,70165,5,0,0:0:0:0:
392,222,70165,5,0,0:0:0:0:
286,192,70379,5,0,0:0:0:0:
270,160,70379,5,0,0:0:0:0:
301,222,70379,5,0,0:0:0:0:
179,160,70594,5,0,0:0:0:0:
194,192,70594,5,0,0:0:0:0:
209,222,70594,5,0,0:0:0:0:
42,283,70808,5,0,0:0:0:0:
27,313,70808,5,0,0:0:0:0:
11,343,70808,5,0,0:0:0:0:
133,283,71022,5,0,0:0:0:0:
118,313,71022,5,0,0:0:0:0:
103,343,71022,5,0,0:0:0:0:
224,283,71236,5,0,0:0:0:0:
209,313,71236,5,0,0:0:0:0:
194,343,71236,5,0,0:0:0:0:
301,313,71451,5,0,0:0:0:0:
316,283,71451,5,0,0:0:0:0:
286,343,71451,5,0,0:0:0:0:
426,269,71665,6,0,L|395:269,1,32
395,269,71665,6,0,L|426:269,1,32
388,269,71665,6,0,L|419:269,1,32
433,269,71665,6,0,L|402:269,1,32
352,192,72091,6,0,L|320:192,2,32,2|0|0,0:0|0:0|0:0,0:0:0:0:
224,192,72746,6,0,L|256:192,2,32
160,192,73389,6,0,L|128:192,2,32
160,192,73814,6,0,L|224:160,1,64,8|0,0:0|0:0,0:0:0:0:
217,163,74246,6,0,L|160:128,1,64
160,128,74674,6,0,L|224:112,1,64
224,112,75103,6,0,L|160:80,1,64
166,83,75523,6,0,L|208:64,1,32,8|0,0:1|0:0,0:0:0:0:
195,69,75729,6,0,L|160:48,1,32
256,192,75954,12,0,82382,0:0:0:0:
416,192,76382,5,2,0:0:0:0:
256,192,77239,5,2,0:0:0:0:
96,192,78096,5,2,0:0:0:0:
256,32,78950,6,0,L|256:64,1,32,2|0,0:0|0:0,0:0:0:0:
160,240,79378,6,0,B|352:240|352:240|352:192|352:192|160:192|160:192|160:176,1,448
388,240,80660,5,8,0:0:0:0:
80,176,82375,5,12,0:0:0:0:
512,192,83234,5,2,0:0:0:0:
128,208,84092,5,2,3:2:0:0:
256,208,84306,5,2,3:2:0:0:
384,208,84520,5,2,3:2:0:0:
256,160,84734,5,2,3:2:0:0:
128,160,84949,5,2,3:2:0:0:
42,286,85809,6,0,B|113:359|203:253|114:197|114:197|100:107|207:85|241:149,1,414.960006213066
42,286,85916,6,0,B|113:359|203:253|114:197|114:197|100:107|207:85|241:149,1,416
42,286,85916,6,0,B|115:358|202:250|113:196|113:196|97:106|203:82|239:145,1,416
42,286,85916,6,0,B|112:360|204:256|116:198|116:198|103:108|210:88|243:152,1,416
340,249,89023,5,0,0:0:0:0:
434,119,89237,6,0,P|344:88|300:98,2,128
434,119,89237,6,0,P|346:81|301:88,2,128
434,119,89237,6,0,P|342:94|298:107,2,128
378,263,91380,5,0,0:0:0:0:
134,121,91594,5,0,0:0:0:0:
256,192,92237,5,0,0:0:0:0:
144,192,92666,6,0,B|181:162|167:103|167:103|226:117|256:88|256:88|285:117|344:103|344:103|330:162|367:192|367:192,1,384,0|2,0:0|0:2,0:0:0:0:
144,192,92666,6,0,B|181:162|167:103|167:103|226:117|256:88|256:88|285:117|344:103|344:103|330:162|367:192|367:192,1,384
144,192,92666,6,0,B|181:162|167:103|167:103|226:117|256:88|256:88|285:117|344:103|344:103|330:162|367:192|367:192,1,384
512,192,95666,5,2,0:2:0:0:
364,301,96094,6,0,B|287:317|287:317|256:301|224:317|224:317|147:301,1,224,2|0,0:2|0:0,0:0:0:0:
364,301,96094,6,0,B|287:317|287:317|256:301|224:317|224:317|147:301,1,224
364,301,96094,6,0,B|287:317|287:317|256:301|224:317|224:317|147:301,1,224
0,192,97808,5,0,0:0:0:0:
170,192,98237,5,2,0:2:0:0:
341,192,98666,5,2,0:2:0:0:
511,192,99094,5,2,0:2:0:0:
470,286,99521,6,0,B|399:359|309:253|398:197|398:197|412:107|305:85|271:149,1,414.960006213066,2|0,0:2|0:0,0:0:0:0:
470,286,99628,6,0,B|399:359|309:253|398:197|398:197|412:107|305:85|271:149,1,416
470,286,99628,6,0,B|397:358|310:250|399:196|399:196|415:106|309:82|273:145,1,416
470,286,99628,6,0,B|400:360|308:256|396:198|396:198|409:108|302:88|269:152,1,416
172,249,102735,5,0,0:0:0:0:
78,119,102949,6,0,P|170:94|214:107,2,128
78,119,102949,6,0,P|166:81|211:88,2,128
78,119,102949,6,0,P|168:88|212:98,2,128
134,263,105306,5,0,0:0:0:0:
378,121,105949,5,0,0:0:0:0:
254,217,106378,6,0,P|259:115|257:217,1,320,0|2,0:0|0:2,0:0:0:0:
254,217,106378,6,0,P|259:115|257:217,1,320
254,217,106378,6,0,P|259:115|257:217,1,320
383,176,108949,6,0,L|449:180,2,64,2|2|2,0:2|0:2|0:2,0:0:0:0:
383,176,108949,6,0,L|449:177,2,64
383,176,108949,6,0,L|448:182,2,64
302,272,110235,5,0,0:0:0:0:
209,111,110663,5,0,0:0:0:0:
348,192,110878,5,0,0:0:0:0:
163,191,111306,5,0,0:0:0:0:
302,111,111520,5,2,0:2:0:0:
209,272,111949,5,0,0:0:0:0:
129,176,112163,6,0,L|63:180,2,64
129,176,112163,6,0,L|62:177,2,64
129,176,112163,6,0,L|63:182,2,64
512,192,113235,5,0,3:0:0:0:
256,192,114092,12,0,114105,0:0:0:0:
256,192,114949,12,0,114962,0:0:0:0:
256,192,115806,12,0,115819,0:0:0:0:
256,192,116663,12,0,116676,0:0:0:0:
256,192,117520,12,0,117534,0:0:0:0:
256,192,118377,12,0,118391,0:0:0:0:
256,192,119234,12,0,119248,0:0:0:0:
256,192,120092,12,0,120105,0:0:0:0:
256,192,120949,12,0,120962,0:0:0:0:
256,192,121806,12,0,121819,0:0:0:0:
256,192,122663,12,0,122676,0:0:0:0:
256,192,123520,12,0,126092,0:0:0:0:
0,192,126949,5,0,0:0:0:0:
