osu file format v14

[General]
AudioFilename: TheStormyForest.mp3
AudioLeadIn: 0
PreviewTime: 884
Countdown: 0
SampleSet: None
StackLeniency: 0.7
Mode: 2
LetterboxInBreaks: 1
WidescreenStoryboard: 0

[Editor]
DistanceSpacing: 0.8
BeatDivisor: 16
GridSize: 16
TimelineZoom: 1.154937

[Metadata]
Title:Various BGM
TitleUnicode:Various BGM
Artist:Wizet, Nexon
ArtistUnicode:Wizet, Nexon
Creator:ExGon
Version:The Stormy Forest
Source:Maplestory
Tags:CODA SOUND Studio EIM Takkyu Ishino Riena Strait Henesys Market Haze Temple of Time Road Oblivion Regrets Sharenian Guild Quest Taiwan World Tour El Nath Territory Dead Trees Grand Athenaeum Resistance Xenon Tutorial Beryl Ludibrium Castle Dimensional Schism Tenyo
BeatmapID:1176539
BeatmapSetID:217667

[Difficulty]
HPDrainRate:4
CircleSize:7.1
OverallDifficulty:0
ApproachRate:10
SliderMultiplier:2.4
SliderTickRate:8

[Events]
//Background and Video events
0,0,"stormy.jpg",0,0
//Break Periods
2,86903,95290
2,96801,101992
//Storyboard Layer 0 (Background)
//Storyboard Layer 1 (Fail)
//Storyboard Layer 2 (Pass)
//Storyboard Layer 3 (Foreground)
//Storyboard Sound Samples

[TimingPoints]
8016,491.803278688525,4,2,99,25,1,0
16407,-100,4,2,99,5,0,1
16868,-100,4,2,99,25,0,1
16899,-100,4,2,99,5,0,1
17268,-100,4,2,99,5,0,0
21786,-100,4,2,99,25,0,0
23753,-100,4,2,10,35,0,0
24737,-100,4,2,10,25,0,0
27688,-100,4,2,10,20,0,0
28179,-100,4,2,10,25,0,0
31622,-100,4,2,10,20,0,0
32114,-100,4,2,10,25,0,0
37524,-100,4,2,10,20,0,0
38261,-100,4,2,10,25,0,0
43425,-100,4,2,10,20,0,0
43917,-100,4,2,10,25,0,0
47360,-100,4,2,10,20,0,0
47852,-100,4,2,10,25,0,0
51294,-48.5436893203883,4,2,99,35,0,0
51786,-200,4,2,99,25,0,0
52524,-48.5436893203883,4,2,99,25,0,0
53016,-200,4,2,99,25,0,0
53261,-24.2718446601942,4,2,99,25,0,0
53507,-200,4,2,99,25,0,0
53999,-24.2718446601942,4,2,99,25,0,0
54245,-200,4,2,99,25,0,0
54491,-29.940119760479,4,2,99,25,0,0
54983,-29.940119760479,4,2,10,20,0,0
55228,3934.4262295082,4,2,99,30,1,0
55229,491.803278688525,4,2,99,30,1,0
55259,-100,4,2,99,30,0,0
58794,-100,4,2,99,25,0,0
59162,3934.4262295082,4,2,99,30,1,0
59163,491.803278688525,4,2,99,30,1,0
62574,-100,4,2,99,25,0,0
63096,3934.4262295082,4,2,99,30,1,0
63097,491.803278688525,4,2,99,30,1,0
66539,-100,4,2,99,25,0,0
67031,3934.4262295082,4,2,99,30,1,0
67032,491.803278688525,4,2,99,30,1,0
70474,-100,4,2,99,25,0,0
70966,491.803278688525,4,2,99,30,1,1
73916,-100,4,2,10,30,0,1
74900,-100,4,2,99,30,0,1
77851,-100,4,2,10,30,0,1
85966,-100,4,2,99,25,0,1
86396,-100,4,2,99,20,0,1
86672,-100,4,2,99,20,0,0
86703,-100,4,2,99,25,0,1
86734,-100,4,2,99,5,0,0
95740,-100,4,2,99,5,0,1
96601,-100,4,2,99,5,0,0
102442,487.80487804878,4,2,99,28,1,0
104393,491.803278688525,4,2,99,28,1,0
106353,487.80487804878,4,2,99,28,1,0
108304,491.803278688525,4,2,99,28,1,0
110288,493.827160493827,4,2,99,28,1,0
110288,-31.25,4,2,99,28,0,0
114234,493.827160493827,4,2,99,28,1,0
114234,-31.25,4,2,99,28,0,0
118179,491.803278688525,4,2,99,30,1,1
121129,-100,4,2,10,30,0,1
122113,-66.6666666666667,4,2,99,30,0,1
125064,-66.6666666666667,4,2,10,30,0,1
125740,-66.6666666666667,4,2,10,30,0,0
125771,-66.6666666666667,4,2,99,5,0,1
125801,-66.6666666666667,4,2,10,30,0,1
125832,-66.6666666666667,4,2,99,5,0,1
126047,-65.359477124183,4,2,10,30,0,1
126078,-65.359477124183,4,2,99,5,0,1
126662,-65.359477124183,4,2,10,30,0,1
131457,-65.359477124183,4,2,10,30,0,1
133179,-65.359477124183,4,2,99,25,0,1
133609,-65.359477124183,4,2,99,20,0,1
133885,-65.359477124183,4,2,99,20,0,0
133916,-65.359477124183,4,1,0,35,0,1
135883,-65.359477124183,4,1,0,35,0,0

[HitObjects]
0,0,8015,5,0,3:0:0:0:
512,0,11950,5,0,3:0:0:0:
512,0,12442,5,0,3:0:0:0:
512,384,15884,5,0,3:0:0:0:
512,384,16376,5,0,3:0:0:0:
256,192,16407,12,0,17145,0:0:0:0:
256,192,16407,12,0,17145,0:0:0:0:
256,192,16438,12,0,17175,0:0:0:0:
256,192,16438,12,0,17175,0:0:0:0:
256,192,16438,12,0,17175,0:0:0:0:
256,192,16438,12,0,17175,0:0:0:0:
256,192,16468,12,0,17206,0:0:0:0:
256,192,16468,12,0,17206,0:0:0:0:
256,192,16468,12,0,17206,0:0:0:0:
256,192,16468,12,0,17206,0:0:0:0:
256,192,16499,12,0,17237,0:0:0:0:
256,192,16499,12,0,17237,0:0:0:0:
256,192,16499,12,0,17237,0:0:0:0:
256,192,16499,12,0,17237,0:0:0:0:
256,192,16530,12,0,17268,0:0:0:0:
256,192,16530,12,0,17268,0:0:0:0:
512,384,16868,5,0,3:0:0:0:
0,384,21786,5,0,3:0:0:0:
0,384,22278,5,0,3:0:0:0:
0,384,22770,5,0,3:0:0:0:
288,320,23016,1,0,1:0:0:0:
224,64,23261,1,0,1:0:0:0:
0,0,23753,5,4,0:0:0:0:
448,96,24737,1,0,1:0:0:0:
256,192,25229,1,0,0:0:0:0:
256,192,25475,1,0,3:0:0:0:
256,192,25720,1,0,3:0:0:0:
64,96,26212,1,0,0:0:0:0:
160,192,26704,1,0,1:0:0:0:
64,288,27196,1,0,0:0:0:0:
352,192,27688,5,4,3:1:0:0:
256,192,28179,1,0,0:0:0:0:
448,96,28671,1,0,1:0:0:0:
448,288,29163,1,0,0:0:0:0:
352,192,29409,1,0,3:0:0:0:
224,0,29655,2,0,B|176:0|176:0|176:143|176:143|224:143,1,240,0|0,3:0|0:0,0:0:0:0:
64,0,30638,2,0,P|26:111|64:222,1,240,0|0,1:0|0:0,0:0:0:0:
448,96,31622,5,4,3:1:0:0:
256,192,32114,1,0,0:0:0:0:
160,192,32606,1,0,1:0:0:0:
64,96,33097,1,0,0:0:0:0:
256,192,33343,1,0,3:0:0:0:
64,288,33589,1,0,3:0:0:0:
352,192,34081,1,0,0:0:0:0:
448,96,34573,1,0,1:0:0:0:
256,192,35065,1,0,0:0:0:0:
448,288,35556,5,0,3:0:0:0:
221,331,36048,1,0,0:0:0:0:
395,226,36540,1,0,1:0:0:0:
290,52,37032,1,0,0:0:0:0:
116,157,37278,1,0,3:0:0:0:
416,320,37524,1,4,3:1:0:0:
96,64,38261,1,0,1:0:0:0:
128,352,38507,1,0,1:0:0:0:
384,32,38999,1,0,3:0:0:0:
0,64,39491,5,4,3:1:0:0:
256,128,39983,1,0,0:0:0:0:
448,132,40475,2,0,B|328:132|328:251|448:251,1,240,0|0,1:0|0:0,0:0:0:0:
352,192,41212,1,0,3:0:0:0:
512,320,41458,1,0,3:0:0:0:
256,256,41950,1,0,0:0:0:0:
160,192,42442,1,0,1:0:0:0:
256,192,42934,1,0,0:0:0:0:
64,132,43425,6,0,B|184:132|184:251|64:251,1,240,4|0,3:1|0:0,0:0:0:0:
0,320,44409,1,0,1:0:0:0:
256,256,44901,1,0,0:0:0:0:
160,192,45147,1,0,3:0:0:0:
288,0,45393,2,0,B|336:0|336:0|336:143|336:143|288:143,1,240,0|0,3:0|0:0,0:0:0:0:
448,0,46376,2,0,P|486:111|448:222,1,240,0|0,1:0|0:0,0:0:0:0:
0,320,47360,5,4,3:1:0:0:
256,128,47852,1,0,0:0:0:0:
352,192,48343,1,0,1:0:0:0:
160,192,48835,1,0,0:0:0:0:
0,64,49081,1,0,3:0:0:0:
160,192,49327,1,0,3:0:0:0:
256,256,49819,1,0,0:0:0:0:
512,64,50311,1,0,1:0:0:0:
351,192,50802,1,0,0:0:0:0:
500,128,51294,6,0,L|7:128,1,494.39999585083,4|0,0:0|0:0,0:0:0:0:
5,128,51786,2,0,L|5:308,1,180,0|0,1:0|0:0,0:0:0:0:
5,308,52524,2,0,L|498:308,1,494.39999585083,8|0,0:3|0:0,0:0:0:0:
499,308,53016,2,0,L|499:248,1,60,4|0,0:3|0:0,0:0:0:0:
499,248,53261,2,0,L|5:248,1,494.39999585083,0|0,1:0|0:0,0:0:0:0:
4,248,53507,2,0,L|4:128,1,120,4|0,0:3|0:0,0:0:0:0:
4,128,53999,2,0,L|498:128,1,494.39999585083,4|0,0:3|0:0,0:0:0:0:
498,128,54245,2,0,L|498:188,1,60,0|0,1:0|0:0,0:0:0:0:
498,188,54491,2,0,L|97:188,1,400.799987462769,8|8,0:3|0:3,0:0:0:0:
97,188,54983,1,0,3:0:0:0:
108,191,55228,6,0,B|60:223|60:223|108:191|108:191|60:223,1,180
83,0,55229,6,0,B|83:384|83:384|83:0|83:0|83:384|83:384|83:96,1,1440,4|0,3:2|1:0,0:0:0:0:
256,192,58794,1,0,3:2:0:0:
404,191,59162,6,0,B|452:223|452:223|404:191|404:191|452:223,1,180
429,0,59163,6,0,B|429:384|429:384|429:0|429:0|429:384|429:384|429:96,1,1440,4|0,3:1|1:0,0:0:0:0:
256,192,62574,1,2,3:2:0:0:
256,192,62790,1,2,3:2:0:0:
0,0,63096,6,0,L|-180:0,1,180
0,384,63097,6,0,B|44:26|44:26|0:384|0:384|44:26|44:26|0:384,1,1440,4|0,3:1|1:0,0:0:0:0:
256,192,66539,1,2,3:2:0:0:
512,0,67031,6,0,L|692:0,1,180
512,384,67032,6,0,B|468:26|468:26|512:384|512:384|468:26|468:26|512:384,1,1440,4|0,3:1|1:0,0:0:0:0:
256,192,70474,1,8,3:2:0:0:
256,192,70689,1,2,3:2:0:0:
128,352,70966,6,0,B|167:352|167:352|87:212|87:212|128:212,1,240,4|0,3:1|0:0,0:0:0:0:
126,212,71457,2,0,B|165:212|165:212|85:72|85:72|126:72,1,240,2|2,3:2|1:2,0:0:0:0:
384,352,72441,2,0,B|344:352|344:352|424:212|424:212|384:212,1,240,2|0,3:2|0:0,0:0:0:0:
385,212,72933,2,0,B|345:212|345:212|425:72|425:72|385:72,1,240,2|2,3:2|3:2,0:0:0:0:
269,151,73916,1,2,1:2:0:0:
215,178,74162,1,0,3:0:0:0:
242,232,74408,1,2,0:0:0:0:
296,205,74654,1,0,0:0:0:0:
224,128,74900,6,0,B|171:128|171:128|357:128,1,240,2|0,3:2|0:0,0:0:0:0:
358,128,75392,2,0,B|305:128|305:128|491:128,1,240,2|2,3:2|1:2,0:0:0:0:
288,256,76375,2,0,B|341:256|341:256|155:256,1,240,2|0,3:2|0:0,0:0:0:0:
154,256,76867,2,0,B|207:256|207:256|21:256,1,240,2|2,3:2|3:2,0:0:0:0:
283,252,77851,1,2,1:2:0:0:
193,220,78097,1,0,3:0:0:0:
316,163,78343,1,2,0:0:0:0:
226,129,78588,1,0,0:0:0:0:
507,192,78834,6,0,B|507:-17|256:-59|4:-17|4:192,1,720,4|0,3:1|0:0,0:0:0:0:
88,192,80556,1,0,3:0:0:0:
172,192,80802,2,0,B|172:261|256:275|339:261|339:192,2,240,0|0|0,3:0|3:0|1:0,0:0:0:0:
339,190,82277,1,0,0:0:0:0:
256,192,82431,1,2,0:0:0:0:
5,192,82769,6,0,B|5:401|256:443|508:401|508:192,1,720,4|2,3:1|0:0,0:0:0:0:
460,14,84490,1,0,1:0:0:0:
358,14,84736,1,0,1:0:0:0:
204,14,84982,1,0,3:0:0:0:
0,192,85228,1,2,0:0:0:0:
51,14,85474,1,0,1:0:0:0:
153,14,85720,1,0,1:0:0:0:
307,14,85966,1,8,0:3:0:0:
409,14,86211,1,4,0:3:0:0:
256,14,86396,1,8,0:0:0:0:
102,14,86703,1,4,1:2:0:0:
256,192,95740,12,0,96478,0:0:0:0:
256,192,95740,12,0,96478,0:0:0:0:
256,192,95771,12,0,96509,0:0:0:0:
256,192,95771,12,0,96509,0:0:0:0:
256,192,95771,12,0,96509,0:0:0:0:
256,192,95771,12,0,96509,0:0:0:0:
256,192,95802,12,0,96539,0:0:0:0:
256,192,95802,12,0,96539,0:0:0:0:
256,192,95802,12,0,96539,0:0:0:0:
256,192,95802,12,0,96539,0:0:0:0:
256,192,95832,12,0,96570,0:0:0:0:
256,192,95832,12,0,96570,0:0:0:0:
256,192,95832,12,0,96570,0:0:0:0:
256,192,95832,12,0,96570,0:0:0:0:
256,192,95863,12,0,96601,0:0:0:0:
256,192,95863,12,0,96601,0:0:0:0:
26,77,102442,5,2,3:2:0:0:
247,262,103417,1,2,3:2:0:0:
162,28,104149,1,2,3:2:0:0:
112,312,104638,1,2,3:2:0:0:
272,120,104884,1,0,3:0:0:0:
1,219,105376,1,2,3:2:0:0:
137,170,105868,1,2,3:2:0:0:
137,170,106114,1,0,3:2:0:0:
486,77,106353,5,2,3:2:0:0:
265,262,107328,1,2,3:2:0:0:
350,28,108060,1,2,3:2:0:0:
400,312,108549,1,2,3:2:0:0:
240,120,108795,1,0,3:0:0:0:
511,219,109287,1,2,3:2:0:0:
375,170,109779,1,2,3:2:0:0:
375,170,110025,1,2,3:2:0:0:
16,0,110288,6,0,B|16:384|16:384|16:0|16:0|16:384|16:384|16:96|16:96|112:96,1,1536,0|0,3:2|0:0,0:0:0:0:
112,96,111275,2,0,B|112:0|112:0|112:384|112:384|112:0|112:0|112:192|112:192|208:192,1,1152,2|0,3:2|0:0,0:0:0:0:
208,192,112016,2,0,B|208:0|208:0|208:384|208:384|208:288|208:288|304:288,1,768,2|0,3:2|0:0,0:0:0:0:
304,288,112510,2,0,B|304:384|304:384|304:192|304:192|400:192,1,384,2|0,3:2|0:0,0:0:0:0:
400,192,112757,2,0,B|400:384|400:384|400:0|400:0|400:96|400:96|496:96,1,768,0|2,3:0|3:2,0:0:0:0:
288,64,113744,1,2,3:2:0:0:
384,160,113960,1,0,3:0:0:0:
496,0,114234,6,0,B|496:384|496:384|496:0|496:0|496:384|496:384|496:96|496:96|400:96,1,1536,2|0,3:2|0:0,0:0:0:0:
400,96,115221,2,0,B|400:0|400:0|400:384|400:384|400:0|400:0|400:192|400:192|304:192,1,1152,2|0,3:2|0:0,0:0:0:0:
304,192,115962,2,0,B|304:0|304:0|304:384|304:384|304:288|304:288|208:288,1,768,2|0,3:2|0:0,0:0:0:0:
208,288,116456,2,0,B|208:384|208:384|208:192|208:192|112:192,1,384,2|0,3:2|0:0,0:0:0:0:
112,192,116703,2,0,B|112:384|112:384|112:0|112:0|112:96|112:96|16:96,1,768,0|2,3:0|3:2,0:0:0:0:
128,224,117443,1,0,1:0:0:0:
224,320,117690,1,0,1:0:0:0:
416,352,118179,6,0,B|455:352|455:352|375:212|375:212|416:212,1,240,4|0,3:1|0:0,0:0:0:0:
414,212,118670,2,0,B|453:212|453:212|373:72|373:72|414:72,1,240,2|2,3:2|1:2,0:0:0:0:
96,352,119654,2,0,B|57:352|57:352|137:212|137:212|96:212,1,240,2|0,3:2|0:0,0:0:0:0:
97,212,120146,2,0,B|58:212|58:212|138:72|138:72|97:72,1,240,2|2,3:2|3:2,0:0:0:0:
218,170,121129,1,2,1:2:0:0:
276,153,121375,1,0,3:0:0:0:
293,211,121621,1,2,0:0:0:0:
235,228,121867,1,0,0:0:0:0:
424,320,122113,6,0,B|376:320|376:320|304:64|304:64|256:64|256:64,1,360.000013732911,2|0,3:2|0:0,0:0:0:0:
257,320,122605,2,0,B|256:320|304:320|304:320|376:64|376:64|424:64,1,360.000013732911,2|2,3:2|1:2,0:0:0:0:
88,320,123588,2,0,B|136:320|136:320|208:64|208:64|256:64|256:64,1,360.000013732911,2|0,3:2|0:0,0:0:0:0:
255,320,124080,2,0,B|256:320|208:320|208:320|136:64|136:64|88:64,1,360.000013732911,2|2,3:2|3:2,0:0:0:0:
283,252,125064,1,2,1:2:0:0:
193,220,125310,1,0,3:0:0:0:
316,163,125556,1,2,0:0:0:0:
256,192,125771,12,0,126509,0:0:0:0:
226,129,125801,5,0,0:0:0:0:
256,192,125802,12,0,126540,0:0:0:0:
256,192,125802,12,0,126540,0:0:0:0:
256,192,125832,12,0,126569,0:0:0:0:
256,192,125832,12,0,126569,0:0:0:0:
256,192,125863,12,0,126601,0:0:0:0:
256,192,125863,12,0,126601,0:0:0:0:
256,192,125894,12,0,126632,0:0:0:0:
509,35,126047,6,0,B|41:35|-192:192|41:348|509:348,1,1101.60004958679,4|0,3:1|0:0,0:0:0:0:
344,192,127769,1,0,3:0:0:0:
171,139,128015,2,0,B|327:139|405:192|327:243|171:243,2,367.200016528931,0|0|0,3:0|3:0|1:0,0:0:0:0:
339,194,129490,1,0,0:0:0:0:
256,192,129644,1,2,0:0:0:0:
2,348,129982,6,0,B|470:348|704:192|470:35|2:35,1,1101.60004958679,4|2,3:1|0:0,0:0:0:0:
103,370,131703,1,0,1:0:0:0:
205,370,131949,1,0,1:0:0:0:
154,370,132195,1,0,3:0:0:0:
510,34,132441,1,2,0:0:0:0:
410,370,132687,1,0,1:0:0:0:
308,370,132933,1,0,1:0:0:0:
359,370,133179,1,8,0:3:0:0:
257,370,133424,1,4,0:3:0:0:
461,370,133609,1,8,0:0:0:0:
52,370,133916,1,4,0:0:0:0:
