osu file format v14

[General]
AudioFilename: PulseResonance.mp3
AudioLeadIn: 0
PreviewTime: 27950
Countdown: 0
SampleSet: None
StackLeniency: 0.7
Mode: 3
LetterboxInBreaks: 0
SpecialStyle: 0
WidescreenStoryboard: 0

[Editor]
DistanceSpacing: 0.8
BeatDivisor: 4
GridSize: 4
TimelineZoom: 1.089617

[Metadata]
Title:Various BGM
TitleUnicode:Various BGM
Artist:Wizet, Nexon
ArtistUnicode:Wizet, Nexon
Creator:ExGon
Version:Pulse Resonance
Source:Maplestory
Tags:CODA SOUND Studio EIM Takkyu Ishino Riena Strait Henesys Market Haze Temple of Time Road Oblivion Regrets Sharenian Guild Quest Taiwan World Tour El Nath Territory Dead Trees Grand Athenaeum Resistance Xenon Tutorial Beryl Ludibrium Castle Dimensional Schism Tenyo
BeatmapID:1170197
BeatmapSetID:217667

[Difficulty]
HPDrainRate:6
CircleSize:1
OverallDifficulty:4
ApproachRate:5
SliderMultiplier:1.4
SliderTickRate:1

[Events]
//Background and Video events
0,0,"under to pulse.jpg",0,0
//Break Periods
//Storyboard Layer 0 (Background)
//Storyboard Layer 1 (Fail)
//Storyboard Layer 2 (Pass)
//Storyboard Layer 3 (Foreground)
//Storyboard Sound Samples

[TimingPoints]
575,428.571428571429,4,3,0,40,1,0
28003,-100,4,1,0,25,0,1
28271,-95.2380952380952,4,1,0,25,0,1
28325,-90.9090909090909,4,1,0,25,0,1
28432,-83.3333333333333,4,1,0,25,0,1
28700,-80,4,1,0,25,0,1
28753,-76.9230769230769,4,1,0,25,0,1
28860,-71.4285714285714,4,1,0,25,0,1
29128,-68.9655172413793,4,1,0,25,0,1
29182,-66.6666666666667,4,1,0,25,0,1
29289,-62.5,4,1,0,25,0,1
29557,-60.6060606060606,4,1,0,25,0,1
29610,-58.8235294117647,4,1,0,25,0,1
29717,-55.5555555555556,4,1,0,25,0,1
29985,-54.054054054054,4,1,0,25,0,1
30039,-52.6315789473684,4,1,0,25,0,1
30146,-50,4,1,0,25,0,1
30414,-48.780487804878,4,1,0,25,0,1
30467,-47.6190476190476,4,1,0,25,0,1
30575,-45.4545454545455,4,1,0,25,0,1
30842,-44.4444444444445,4,1,0,25,0,1
30896,-43.4782608695652,4,1,0,25,0,1
31003,-41.6666666666667,4,1,0,25,0,1
31271,-40.8163265306122,4,1,0,25,0,1
31325,-40,4,1,0,25,0,1
31432,-38.4615384615385,4,1,0,25,0,1
31700,-37.7358490566038,4,1,0,25,0,1
31753,-37.037037037037,4,1,0,25,0,1
31860,-35.7142857142857,4,1,0,25,0,1
32128,-35.0877192982456,4,1,0,25,0,1
32182,-34.4827586206897,4,1,0,25,0,1
32289,-33.3333333333333,4,1,0,25,0,1
32557,-32.7868852459016,4,1,0,25,0,1
32610,-32.258064516129,4,1,0,25,0,1
32717,-31.25,4,1,0,25,0,1
32985,-30.7692307692308,4,1,0,25,0,1
33039,-30.3030303030303,4,1,0,25,0,1
33146,-29.4117647058824,4,1,0,25,0,1
33414,-28.9855072463768,4,1,0,25,0,1
33467,-28.5714285714286,4,1,0,25,0,1
33575,-27.7777777777778,4,1,0,25,0,1
33842,-27.3972602739726,4,1,0,25,0,1
33896,-27.027027027027,4,1,0,25,0,1
34003,-26.3157894736842,4,1,0,25,0,1
34271,-25.974025974026,4,1,0,25,0,1
34325,-25.6410256410256,4,1,0,25,0,1
34432,-25,4,1,0,25,0,1
34700,-25.6410256410256,4,1,0,25,0,1
34807,-25.974025974026,4,1,0,25,0,1
34860,-26.3157894736842,4,1,0,25,0,1
35128,-27.027027027027,4,1,0,25,0,1
35235,-27.3972602739726,4,1,0,25,0,1
35289,-27.7777777777778,4,1,0,25,0,1
35557,-28.5714285714286,4,1,0,25,0,1
35664,-28.9855072463768,4,1,0,25,0,1
35717,-29.4117647058824,4,1,0,25,0,1
35985,-30.3030303030304,4,1,0,25,0,1
36092,-30.7692307692308,4,1,0,25,0,1
36146,-31.25,4,1,0,25,0,1
36414,-32.258064516129,4,1,0,25,0,1
36521,-32.7868852459016,4,1,0,25,0,1
36575,-33.3333333333333,4,1,0,25,0,1
36842,-34.4827586206897,4,1,0,25,0,1
36950,-35.0877192982456,4,1,0,25,0,1
37003,-35.7142857142857,4,1,0,25,0,1
37271,-37.037037037037,4,1,0,25,0,1
37378,-37.7358490566038,4,1,0,25,0,1
37432,-38.4615384615385,4,1,0,25,0,1
37700,-40,4,1,0,25,0,1
37807,-40.8163265306122,4,1,0,25,0,1
37860,-41.6666666666667,4,1,0,25,0,1
38128,-43.4782608695652,4,1,0,25,0,1
38235,-44.4444444444445,4,1,0,25,0,1
38289,-45.4545454545455,4,1,0,25,0,1
38557,-47.6190476190476,4,1,0,25,0,1
38664,-48.780487804878,4,1,0,25,0,1
38717,-50,4,1,0,25,0,1
38985,-52.6315789473684,4,1,0,25,0,1
39092,-54.054054054054,4,1,0,25,0,1
39146,-55.5555555555556,4,1,0,25,0,1
39414,-58.8235294117647,4,1,0,25,0,1
39521,-60.6060606060606,4,1,0,25,0,1
39575,-62.5,4,1,0,25,0,1
39842,-66.6666666666667,4,1,0,25,0,1
39950,-68.9655172413793,4,1,0,25,0,1
40003,-71.4285714285714,4,1,0,25,0,1
40271,-76.9230769230769,4,1,0,25,0,1
40378,-80,4,1,0,25,0,1
40432,-83.3333333333333,4,1,0,25,0,1
40700,-90.9090909090909,4,1,0,25,0,1
40807,-95.2380952380952,4,1,0,25,0,1
40860,-100,4,1,0,25,0,1
41717,-100,4,3,0,40,0,0
53717,-100,4,1,0,25,0,0
55432,-100,4,3,0,40,0,0
72039,-100,4,2,0,25,0,0
72146,-100,4,3,0,40,0,0
72253,-100,4,2,0,25,0,0
72360,-100,4,3,0,40,0,0
75467,-100,4,2,0,25,0,0
75575,-100,4,3,0,40,0,0
75682,-100,4,2,0,25,0,0
75789,-100,4,3,0,40,0,0
78896,-100,4,2,0,25,0,0
79003,-100,4,3,0,40,0,0
79110,-100,4,2,0,25,0,0
79217,-100,4,3,0,40,0,0
82325,-100,4,2,0,25,0,0
82432,-100,4,3,0,40,0,0
82539,-100,4,2,0,25,0,0
82646,-100,4,3,0,40,0,0
82860,600000000,4,1,0,25,1,1
83075,428.571428571429,4,1,0,25,1,1
83289,600000000,4,1,0,25,1,1
83503,428.571428571429,4,1,0,25,1,1
83717,600000000,4,1,0,25,1,1
83932,428.571428571429,4,1,0,25,1,1
84146,600000000,4,1,0,25,1,1
84360,428.571428571429,4,1,0,25,1,1
84575,600000000,4,1,0,25,1,1
84789,214.285714285714,4,1,0,25,1,1
85003,600000000,4,1,0,25,1,1
85217,214.285714285714,4,1,0,25,1,1
85432,600000000,4,1,0,25,1,1
85646,214.285714285714,4,1,0,25,1,1
85860,600000000,4,1,0,25,1,1
86075,214.285714285714,4,1,0,25,1,1
86289,600000000,4,1,0,25,1,1
86503,142.857142857143,4,1,0,25,1,1
86717,600000000,4,1,0,25,1,1
86932,142.857142857143,4,1,0,25,1,1
87146,600000000,4,1,0,25,1,1
87360,142.857142857143,4,1,0,25,1,1
87575,600000000,4,1,0,25,1,1
87789,142.857142857143,4,1,0,25,1,1
88003,600000000,4,1,0,25,1,1
88217,107.142857142857,4,1,0,25,1,1
88432,600000000,4,1,0,25,1,1
88646,107.142857142857,4,1,0,25,1,1
88860,600000000,4,1,0,25,1,1
89075,107.142857142857,4,1,0,25,1,1
89289,600000000,4,1,0,25,1,1
89503,107.142857142857,4,1,0,25,1,1
89717,600000000,4,1,0,25,1,1
89932,428.571428571429,4,1,0,25,1,1
90146,600000000,4,1,0,25,1,1
90360,428.571428571429,4,1,0,25,1,1
90575,600000000,4,1,0,25,1,1
90789,428.571428571429,4,1,0,25,1,1
91003,600000000,4,1,0,25,1,1
91217,428.571428571429,4,1,0,25,1,1
91432,600000000,4,1,0,25,1,1
91646,214.285714285714,4,1,0,25,1,1
91860,600000000,4,1,0,25,1,1
92075,214.285714285714,4,1,0,25,1,1
92289,600000000,4,1,0,25,1,1
92503,214.285714285714,4,1,0,25,1,1
92717,600000000,4,1,0,25,1,1
92932,214.285714285714,4,1,0,25,1,1
93146,600000000,4,1,0,25,1,1
93360,142.857142857143,4,1,0,25,1,1
93575,600000000,4,1,0,25,1,1
93789,142.857142857143,4,1,0,25,1,1
94003,600000000,4,1,0,25,1,1
94217,142.857142857143,4,1,0,25,1,1
94432,600000000,4,1,0,25,1,1
94646,142.857142857143,4,1,0,25,1,1
94860,600000000,4,1,0,25,1,1
95075,107.142857142857,4,1,0,25,1,1
95289,600000000,4,1,0,25,1,1
95503,214.285714285714,4,1,0,25,1,1
95717,428.571428571429,4,1,0,25,1,1
96575,428.571428571429,4,2,0,40,1,0
97003,-100,4,1,0,25,0,0
97110,-100,4,2,0,40,0,0
97432,-100,4,1,0,25,0,0
97539,-100,4,2,0,40,0,0
97860,-100,4,1,0,25,0,0
97967,-100,4,2,0,40,0,0
98289,-100,4,1,0,25,0,0
98396,-100,4,2,0,40,0,0
98717,-100,4,1,0,25,0,0
98825,-100,4,2,0,40,0,0
99146,-100,4,1,0,25,0,0
99253,-100,4,2,0,40,0,0
99575,-100,4,1,0,25,0,0
99682,-100,4,2,0,40,0,0
100003,-100,4,1,0,25,0,0
100110,-100,4,2,0,40,0,0
100432,-100,4,1,0,25,0,0
100539,-100,4,2,0,40,0,0
100860,-100,4,1,0,25,0,0
100967,-100,4,2,0,40,0,0
101289,-100,4,1,0,25,0,0
101396,-100,4,2,0,40,0,0
101717,-100,4,1,0,25,0,0
101825,-100,4,2,0,40,0,0
102146,-100,4,1,0,25,0,0
102253,-100,4,2,0,40,0,0
102575,-100,4,1,0,25,0,0
102682,-100,4,2,0,40,0,0
103003,-100,4,1,0,25,0,0
103110,-100,4,2,0,40,0,0
103432,-100,4,1,0,25,0,0
103539,-100,4,2,0,40,0,0
103860,-100,4,1,0,25,0,0
103967,-100,4,2,0,40,0,0
104289,-100,4,1,0,25,0,0
104396,-100,4,2,0,40,0,0
104717,-100,4,1,0,25,0,0
104825,-100,4,2,0,40,0,0
105146,-100,4,1,0,25,0,0
105253,-100,4,2,0,40,0,0
105575,-100,4,1,0,25,0,0
105682,-100,4,2,0,40,0,0
106003,-100,4,1,0,25,0,0
106110,-100,4,2,0,40,0,0
106432,-100,4,1,0,25,0,0
106539,-100,4,2,0,40,0,0
106860,-100,4,1,0,25,0,0
106967,-100,4,2,0,40,0,0
107289,-100,4,1,0,25,0,0
107396,-100,4,2,0,40,0,0
107717,-100,4,1,0,25,0,0
107825,-100,4,2,0,40,0,0
107932,-100,4,1,0,25,0,0
108039,-100,4,2,0,40,0,0
108146,-100,4,1,0,25,0,0
108253,-100,4,2,0,40,0,0
108575,-100,4,1,0,25,0,0
108682,-100,4,2,0,40,0,0
109003,-100,4,1,0,25,0,0
109110,-100,4,2,0,40,0,0
109432,-100,4,1,0,25,0,0
109539,-100,4,2,0,40,0,0
110289,-100,4,3,0,40,0,0
113182,-100,4,2,0,25,0,0
113610,-100,4,3,0,40,0,0
116610,-100,4,2,0,25,0,0
116717,-100,4,3,0,40,0,0
120039,-100,4,2,0,25,0,0
120146,-100,4,3,0,40,0,0
120253,-100,4,2,0,25,0,0
120360,-100,4,3,0,40,0,0
124003,-100,4,1,0,65,0,1
127217,-100,4,1,0,65,0,0

[HitObjects]
256,192,575,5,4,0:0:0:53:
256,192,789,1,0,0:0:0:53:
256,192,1110,1,0,0:0:0:53:
256,192,1325,1,0,0:0:0:53:
256,192,1432,1,0,0:0:0:53:
256,192,1646,128,2,1860:0:2:0:53:
256,192,1967,1,0,0:0:0:53:
256,192,2182,1,0,0:0:0:53:
256,192,2289,1,0,0:0:0:53:
256,192,2503,1,0,0:0:0:53:
256,192,2825,1,0,0:0:0:53:
256,192,3039,1,0,0:0:0:53:
256,192,3146,1,0,0:0:0:53:
256,192,3360,128,2,3575:0:2:0:53:
256,192,3682,1,0,0:0:0:53:
256,192,3896,1,0,0:0:0:53:
256,192,4003,1,0,0:0:0:53:
256,192,4217,1,0,0:0:0:53:
256,192,4539,1,0,0:0:0:53:
256,192,4753,1,0,0:0:0:53:
256,192,4860,1,0,0:0:0:53:
256,192,5075,1,0,0:0:0:53:
256,192,5396,1,0,0:0:0:53:
256,192,5610,1,0,0:0:0:53:
256,192,5717,1,0,0:0:0:53:
256,192,5932,1,0,0:0:0:53:
256,192,6253,1,0,0:0:0:53:
256,192,6467,1,0,0:0:0:53:
256,192,6575,1,0,0:0:0:53:
256,192,6789,1,0,0:0:0:53:
256,192,7110,1,0,0:0:0:53:
256,192,7432,128,2,7539:0:2:0:53:
256,192,7646,1,0,0:0:0:53:
256,192,7860,1,0,0:0:0:53:
256,192,7967,1,0,0:0:0:53:
256,192,8182,1,0,0:0:0:53:
256,192,8289,1,0,0:0:0:53:
256,192,8503,1,0,0:0:0:53:
256,192,8717,1,0,0:0:0:53:
256,192,8825,1,0,0:0:0:53:
256,192,9039,1,0,0:0:0:53:
256,192,9146,1,0,0:0:0:53:
256,192,9360,1,0,0:0:0:53:
256,192,9575,1,0,0:0:0:53:
256,192,9682,1,0,0:0:0:53:
256,192,9896,1,0,0:0:0:53:
256,192,10003,1,0,0:0:0:53:
256,192,10217,1,0,0:0:0:53:
256,192,10432,1,0,0:0:0:53:
256,192,10539,1,0,0:0:0:53:
256,192,10753,1,0,0:0:0:53:
256,192,10860,128,2,10967:0:2:0:53:
256,192,11075,1,0,0:0:0:53:
256,192,11289,1,0,0:0:0:53:
256,192,11396,1,0,0:0:0:53:
256,192,11610,1,0,0:0:0:53:
256,192,11717,1,0,0:0:0:53:
256,192,11932,1,0,0:0:0:53:
256,192,12146,1,0,0:0:0:53:
256,192,12253,1,0,0:0:0:53:
256,192,12467,1,0,0:0:0:53:
256,192,12575,1,0,0:0:0:53:
256,192,12789,1,0,0:0:0:53:
256,192,13003,1,0,0:0:0:53:
256,192,13110,1,0,0:0:0:53:
256,192,13325,1,0,0:0:0:53:
256,192,13432,1,0,0:0:0:53:
256,192,13539,1,0,0:0:0:53:
256,192,13646,1,0,0:0:0:53:
256,192,13753,1,4,0:2:0:53:
256,192,13967,1,0,0:0:0:53:
256,192,14075,1,0,0:0:0:53:
256,192,14182,1,0,0:0:0:53:
256,192,14289,1,4,0:2:0:53:
256,192,14503,1,0,0:0:0:53:
256,192,14610,1,0,0:0:0:53:
256,192,14825,1,0,0:0:0:53:
256,192,15039,1,0,0:0:0:53:
256,192,15360,128,0,15575:0:0:0:53:
256,192,15789,1,0,0:0:0:53:
256,192,16003,1,0,0:0:0:53:
256,192,16217,1,0,0:0:0:53:
256,192,16325,1,0,0:0:0:53:
256,192,16539,1,0,0:0:0:53:
256,192,16753,1,0,0:0:0:53:
256,192,17075,1,0,0:0:0:53:
256,192,17289,1,0,0:0:0:53:
256,192,17503,1,0,0:0:0:53:
256,192,17717,1,0,0:0:0:53:
256,192,17932,1,0,0:0:0:53:
256,192,18039,1,0,0:0:0:53:
256,192,18253,1,0,0:0:0:53:
256,192,18467,1,0,0:0:0:53:
256,192,18789,128,0,19003:0:0:0:53:
256,192,19217,1,0,0:0:0:53:
256,192,19432,1,0,0:0:0:53:
256,192,19646,1,0,0:0:0:53:
256,192,19753,1,0,0:0:0:53:
256,192,19967,1,0,0:0:0:53:
256,192,20182,1,0,0:0:0:53:
256,192,20503,1,0,0:0:0:53:
256,192,20717,1,0,0:0:0:53:
256,192,20932,1,0,0:0:0:53:
256,192,21146,1,0,0:0:0:53:
256,192,21360,1,2,0:0:0:53:
256,192,21467,1,0,0:0:0:53:
256,192,21682,1,2,0:0:0:53:
256,192,21896,1,2,0:0:0:53:
256,192,22003,1,0,0:0:0:53:
256,192,22217,128,0,22432:0:0:0:53:
256,192,22646,1,0,0:0:0:53:
256,192,22860,1,0,0:0:0:53:
256,192,23075,1,2,0:0:0:53:
256,192,23182,1,0,0:0:0:53:
256,192,23396,1,2,0:0:0:53:
256,192,23610,1,2,0:0:0:53:
256,192,23717,1,0,0:0:0:53:
256,192,23932,1,0,0:0:0:53:
256,192,24146,1,0,0:0:0:53:
256,192,24360,1,0,0:0:0:53:
256,192,24575,1,0,0:0:0:53:
256,192,24789,1,2,0:0:0:53:
256,192,24896,1,0,0:0:0:53:
256,192,25110,1,2,0:0:0:53:
256,192,25325,1,2,0:0:0:53:
256,192,25432,1,0,0:0:0:53:
256,192,25646,128,0,25860:0:0:0:53:
256,192,26075,1,0,0:0:0:53:
256,192,26289,1,0,0:0:0:53:
256,192,26503,1,2,0:0:0:53:
256,192,26610,1,0,0:0:0:53:
256,192,26825,1,2,0:0:0:53:
256,192,27039,1,2,0:0:0:53:
256,192,27146,1,0,0:0:0:53:
256,192,27360,1,0,0:0:0:53:
256,192,27575,1,0,0:0:0:53:
256,192,27789,1,0,0:0:0:53:
256,192,28003,5,4,0:0:0:33:
256,192,28110,1,0,0:0:0:33:
256,192,28217,1,0,0:0:0:33:
256,192,28325,1,0,0:0:0:33:
256,192,28432,1,8,0:2:0:33:
256,192,28539,1,0,0:0:0:33:
256,192,28646,1,0,0:0:0:33:
256,192,28753,1,0,0:0:0:33:
256,192,28860,1,0,0:0:0:33:
256,192,28967,1,0,0:0:0:33:
256,192,29075,1,0,0:0:0:33:
256,192,29182,1,0,0:0:0:33:
256,192,29289,1,8,0:2:0:33:
256,192,29396,1,0,0:0:0:33:
256,192,29503,1,0,0:0:0:33:
256,192,29610,1,0,0:0:0:33:
256,192,29717,1,0,0:0:0:33:
256,192,29825,1,0,0:0:0:33:
256,192,29932,1,0,0:0:0:33:
256,192,30039,1,0,0:0:0:33:
256,192,30146,1,8,0:2:0:33:
256,192,30253,1,0,0:0:0:33:
256,192,30360,1,0,0:0:0:33:
256,192,30467,1,0,0:0:0:33:
256,192,30575,1,0,0:0:0:33:
256,192,30682,1,0,0:0:0:33:
256,192,30789,1,0,0:0:0:33:
256,192,30896,1,0,0:0:0:33:
256,192,31003,1,8,0:2:0:33:
256,192,31110,1,0,0:0:0:33:
256,192,31217,1,0,0:0:0:33:
256,192,31325,1,0,0:0:0:33:
256,192,31432,1,0,0:0:0:33:
256,192,31539,1,0,0:0:0:33:
256,192,31646,1,0,0:0:0:33:
256,192,31753,1,0,0:0:0:33:
256,192,31860,1,8,0:2:0:33:
256,192,31967,1,0,0:0:0:33:
256,192,32075,1,0,0:0:0:33:
256,192,32182,1,0,0:0:0:33:
256,192,32289,1,0,0:0:0:33:
256,192,32396,1,0,0:0:0:33:
256,192,32503,1,0,0:0:0:33:
256,192,32610,1,0,0:0:0:33:
256,192,32717,1,8,0:2:0:33:
256,192,32825,1,0,0:0:0:33:
256,192,32932,1,0,0:0:0:33:
256,192,33039,1,0,0:0:0:33:
256,192,33146,1,0,0:0:0:33:
256,192,33253,1,0,0:0:0:33:
256,192,33360,1,0,0:0:0:33:
256,192,33467,1,0,0:0:0:33:
256,192,33575,1,8,0:2:0:33:
256,192,33682,1,0,0:0:0:33:
256,192,33789,1,0,0:0:0:33:
256,192,33896,1,0,0:0:0:33:
256,192,34003,1,0,0:0:0:33:
256,192,34110,1,0,0:0:0:33:
256,192,34217,1,0,0:0:0:33:
256,192,34325,1,0,0:0:0:33:
256,192,34432,1,8,0:2:0:33:
256,192,34539,1,0,0:0:0:33:
256,192,34646,1,0,0:0:0:33:
256,192,34753,1,0,0:0:0:33:
256,192,34860,1,0,0:0:0:33:
256,192,34967,1,0,0:0:0:33:
256,192,35075,1,0,0:0:0:33:
256,192,35182,1,0,0:0:0:33:
256,192,35289,1,8,0:2:0:33:
256,192,35396,1,0,0:0:0:33:
256,192,35503,1,0,0:0:0:33:
256,192,35610,1,0,0:0:0:33:
256,192,35717,1,0,0:0:0:33:
256,192,35825,1,0,0:0:0:33:
256,192,35932,1,0,0:0:0:33:
256,192,36039,1,0,0:0:0:33:
256,192,36146,1,8,0:2:0:33:
256,192,36253,1,0,0:0:0:33:
256,192,36360,1,0,0:0:0:33:
256,192,36467,1,0,0:0:0:33:
256,192,36575,1,0,0:0:0:33:
256,192,36682,1,0,0:0:0:33:
256,192,36789,1,0,0:0:0:33:
256,192,36896,1,0,0:0:0:33:
256,192,37003,1,8,0:2:0:33:
256,192,37110,1,0,0:0:0:33:
256,192,37217,1,0,0:0:0:33:
256,192,37325,1,0,0:0:0:33:
256,192,37432,1,0,0:0:0:33:
256,192,37539,1,0,0:0:0:33:
256,192,37646,1,0,0:0:0:33:
256,192,37753,1,0,0:0:0:33:
256,192,37860,1,8,0:2:0:33:
256,192,37967,1,0,0:0:0:33:
256,192,38075,1,0,0:0:0:33:
256,192,38182,1,0,0:0:0:33:
256,192,38289,1,0,0:0:0:33:
256,192,38396,1,0,0:0:0:33:
256,192,38503,1,0,0:0:0:33:
256,192,38610,1,0,0:0:0:33:
256,192,38717,1,8,0:2:0:33:
256,192,38825,1,0,0:0:0:33:
256,192,38932,1,0,0:0:0:33:
256,192,39039,1,0,0:0:0:33:
256,192,39146,1,0,0:0:0:33:
256,192,39253,1,0,0:0:0:33:
256,192,39360,1,0,0:0:0:33:
256,192,39467,1,0,0:0:0:33:
256,192,39575,1,8,0:2:0:33:
256,192,39682,1,0,0:0:0:33:
256,192,39789,1,0,0:0:0:33:
256,192,39896,1,0,0:0:0:33:
256,192,40003,1,0,0:0:0:33:
256,192,40110,1,0,0:0:0:33:
256,192,40217,1,0,0:0:0:33:
256,192,40325,1,0,0:0:0:33:
256,192,40432,1,8,0:2:0:33:
256,192,40539,1,0,0:0:0:33:
256,192,40646,1,0,0:0:0:33:
256,192,40753,1,0,0:0:0:33:
256,192,40860,128,0,41610:0:0:0:33:
256,192,41717,1,4,0:2:0:53:
256,192,41932,1,0,0:0:0:53:
256,192,42146,1,0,0:0:0:53:
256,192,42360,1,0,0:0:0:53:
256,192,42575,128,0,42682:0:0:0:53:
256,192,42789,1,0,0:0:0:53:
256,192,43003,1,0,0:0:0:53:
256,192,43217,1,0,0:0:0:53:
256,192,43432,128,0,43539:0:0:0:53:
256,192,43646,1,0,0:0:0:53:
256,192,43860,1,0,0:0:0:53:
256,192,44075,1,0,0:0:0:53:
256,192,44289,128,0,44396:0:0:0:53:
256,192,44503,1,0,0:0:0:53:
256,192,44717,1,0,0:0:0:53:
256,192,44932,1,0,0:0:0:53:
256,192,45146,128,0,45253:0:0:0:53:
256,192,45360,1,0,0:0:0:53:
256,192,45575,1,0,0:0:0:53:
256,192,45789,1,0,0:0:0:53:
256,192,46003,128,0,46110:0:0:0:53:
256,192,46217,1,0,0:0:0:53:
256,192,46432,1,0,0:0:0:53:
256,192,46646,1,0,0:0:0:53:
256,192,46860,128,0,46967:0:0:0:53:
256,192,47075,1,0,0:0:0:53:
256,192,47289,1,0,0:0:0:53:
256,192,47503,1,0,0:0:0:53:
256,192,47717,128,0,47825:0:0:0:53:
256,192,47932,1,0,0:0:0:53:
256,192,48146,1,0,0:0:0:53:
256,192,48360,1,0,0:0:0:53:
256,192,48575,1,0,0:0:0:53:
256,192,48789,128,0,48896:0:0:0:53:
256,192,49003,1,0,0:0:0:53:
256,192,49217,128,0,49325:0:0:0:53:
256,192,49432,1,0,0:0:0:53:
256,192,49646,128,0,49753:0:0:0:53:
256,192,49860,1,0,0:0:0:53:
256,192,50075,128,0,50182:0:0:0:53:
256,192,50289,1,0,0:0:0:53:
256,192,50503,128,0,50610:0:0:0:53:
256,192,50717,1,0,0:0:0:53:
256,192,50932,128,0,51039:0:0:0:53:
256,192,51146,1,0,0:0:0:53:
256,192,51360,128,0,51467:0:0:0:53:
256,192,51575,1,0,0:0:0:53:
256,192,51789,128,0,51896:0:0:0:53:
256,192,52003,1,0,0:0:0:53:
256,192,52217,128,0,52325:0:0:0:53:
256,192,52432,1,0,0:0:0:53:
256,192,52646,128,0,52753:0:0:0:53:
256,192,52860,1,0,0:0:0:53:
256,192,53075,128,0,53182:0:0:0:53:
256,192,53289,1,0,0:0:0:53:
256,192,53503,128,0,53610:0:0:0:53:
256,192,53717,5,4,0:0:0:33:
256,192,53825,1,0,0:0:0:33:
256,192,53932,1,0,0:0:0:33:
256,192,54039,1,0,0:0:0:33:
256,192,54146,1,0,0:0:0:33:
256,192,54360,1,0,0:0:0:33:
256,192,54575,5,4,0:0:0:33:
256,192,54896,1,0,0:0:0:33:
256,192,55217,1,0,0:0:0:33:
256,192,55432,1,4,0:2:0:53:
256,192,55539,1,0,0:0:0:53:
256,192,55646,128,0,55860:0:0:0:53:
256,192,56075,128,0,56289:0:0:0:53:
256,192,56396,1,0,0:0:0:53:
256,192,56503,128,0,56717:0:0:0:53:
256,192,56932,128,0,57146:0:0:0:53:
256,192,57253,1,0,0:0:0:53:
256,192,57360,128,0,57575:0:0:0:53:
256,192,57789,128,0,58003:0:0:0:53:
256,192,58110,1,0,0:0:0:53:
256,192,58217,128,0,58432:0:0:0:53:
256,192,58646,128,0,58860:0:0:0:53:
256,192,58967,1,0,0:0:0:53:
256,192,59075,128,0,59289:0:0:0:53:
256,192,59503,128,0,59717:0:0:0:53:
256,192,59825,1,0,0:0:0:53:
256,192,59932,128,0,60146:0:0:0:53:
256,192,60360,128,0,60575:0:0:0:53:
256,192,60682,1,0,0:0:0:53:
256,192,60789,128,0,61003:0:0:0:53:
256,192,61217,128,0,61432:0:0:0:53:
256,192,61539,1,0,0:0:0:53:
256,192,61646,128,0,62182:0:0:0:53:
256,192,62289,1,0,0:0:0:53:
256,192,62396,1,0,0:0:0:53:
256,192,62503,128,0,62717:0:0:0:53:
256,192,62932,128,0,63146:0:0:0:53:
256,192,63253,1,0,0:0:0:53:
256,192,63360,128,0,63575:0:0:0:53:
256,192,63789,128,0,64003:0:0:0:53:
256,192,64110,1,0,0:0:0:53:
256,192,64217,128,0,64432:0:0:0:53:
256,192,64646,128,0,64860:0:0:0:53:
256,192,64967,1,0,0:0:0:53:
256,192,65075,128,0,65289:0:0:0:53:
256,192,65503,128,0,65717:0:0:0:53:
256,192,65825,1,0,0:0:0:53:
256,192,65932,128,0,66146:0:0:0:53:
256,192,66360,128,0,66575:0:0:0:53:
256,192,66682,1,0,0:0:0:53:
256,192,66789,128,0,67003:0:0:0:53:
256,192,67217,128,0,67432:0:0:0:53:
256,192,67539,1,0,0:0:0:53:
256,192,67646,128,0,67860:0:0:0:53:
256,192,68075,128,0,68289:0:0:0:53:
256,192,68396,1,0,0:0:0:53:
256,192,68503,128,0,69039:0:0:0:53:
256,192,69146,1,4,0:2:0:53:
256,192,69360,1,0,0:0:0:53:
256,192,69467,1,0,0:0:0:53:
256,192,69682,1,0,0:0:0:53:
256,192,69896,1,0,0:0:0:53:
256,192,70217,128,0,70432:0:0:0:53:
256,192,70646,1,0,0:0:0:53:
256,192,70860,1,0,0:0:0:53:
256,192,71075,1,0,0:0:0:53:
256,192,71182,1,0,0:0:0:53:
256,192,71396,1,0,0:0:0:53:
256,192,71610,1,0,0:0:0:53:
256,192,71932,1,0,0:0:0:53:
256,192,72039,1,8,0:0:0:33:
256,192,72146,1,0,0:0:0:53:
256,192,72253,1,8,0:0:0:33:
256,192,72360,1,0,0:0:0:53:
256,192,72575,1,0,0:0:0:53:
256,192,72789,1,0,0:0:0:53:
256,192,72896,1,0,0:0:0:53:
256,192,73110,1,0,0:0:0:53:
256,192,73325,1,0,0:0:0:53:
256,192,73646,128,0,73860:0:0:0:53:
256,192,74075,1,0,0:0:0:53:
256,192,74289,1,0,0:0:0:53:
256,192,74503,1,0,0:0:0:53:
256,192,74610,1,0,0:0:0:53:
256,192,74825,1,0,0:0:0:53:
256,192,75039,1,0,0:0:0:53:
256,192,75360,1,0,0:0:0:53:
256,192,75467,1,8,0:0:0:33:
256,192,75575,1,0,0:0:0:53:
256,192,75682,1,8,0:0:0:33:
256,192,75789,1,0,0:0:0:53:
256,192,76003,1,0,0:0:0:53:
256,192,76217,1,2,0:0:0:53:
256,192,76325,1,0,0:0:0:53:
256,192,76539,1,2,0:0:0:53:
256,192,76753,1,2,0:0:0:53:
256,192,76860,1,0,0:0:0:53:
256,192,77075,128,0,77289:0:0:0:53:
256,192,77503,1,0,0:0:0:53:
256,192,77717,1,0,0:0:0:53:
256,192,77932,1,2,0:0:0:53:
256,192,78039,1,0,0:0:0:53:
256,192,78253,1,2,0:0:0:53:
256,192,78467,1,2,0:0:0:53:
256,192,78575,1,0,0:0:0:53:
256,192,78789,1,0,0:0:0:53:
256,192,78896,1,8,0:0:0:33:
256,192,79003,1,0,0:0:0:53:
256,192,79110,1,8,0:0:0:33:
256,192,79217,1,0,0:0:0:53:
256,192,79432,1,0,0:0:0:53:
256,192,79646,1,2,0:0:0:53:
256,192,79753,1,0,0:0:0:53:
256,192,79967,1,2,0:0:0:53:
256,192,80182,1,2,0:0:0:53:
256,192,80289,1,0,0:0:0:53:
256,192,80503,128,0,80717:0:0:0:53:
256,192,80932,1,0,0:0:0:53:
256,192,81146,1,0,0:0:0:53:
256,192,81360,1,2,0:0:0:53:
256,192,81467,1,0,0:0:0:53:
256,192,81682,5,2,0:0:0:53:
256,192,81896,1,2,0:0:0:53:
256,192,82003,1,0,0:0:0:53:
256,192,82217,1,0,0:0:0:53:
256,192,82325,1,8,0:0:0:33:
256,192,82432,1,0,0:0:0:53:
256,192,82539,1,8,0:0:0:33:
256,192,82646,1,0,0:0:0:53:
256,192,82860,5,4,0:0:0:33:
256,192,82967,1,0,0:0:0:33:
256,192,83074,1,0,0:0:0:33:
256,192,83182,1,0,0:0:0:33:
256,192,83289,1,8,0:2:0:33:
256,192,83396,1,0,0:0:0:33:
256,192,83503,1,0,0:0:0:33:
256,192,83610,1,0,0:0:0:33:
256,192,83717,1,0,0:0:0:33:
256,192,83824,1,0,0:0:0:33:
256,192,83931,1,0,0:0:0:33:
256,192,84039,1,0,0:0:0:33:
256,192,84146,1,8,0:2:0:33:
256,192,84253,1,0,0:0:0:33:
256,192,84360,1,0,0:0:0:33:
256,192,84467,1,0,0:0:0:33:
256,192,84574,1,0,0:0:0:33:
256,192,84682,1,0,0:0:0:33:
256,192,84789,1,0,0:0:0:33:
256,192,84896,1,0,0:0:0:33:
256,192,85003,1,8,0:2:0:33:
256,192,85110,1,0,0:0:0:33:
256,192,85217,1,0,0:0:0:33:
256,192,85324,1,0,0:0:0:33:
256,192,85431,1,0,0:0:0:33:
256,192,85539,1,0,0:0:0:33:
256,192,85646,1,0,0:0:0:33:
256,192,85753,1,0,0:0:0:33:
256,192,85860,1,8,0:2:0:33:
256,192,85967,1,0,0:0:0:33:
256,192,86074,1,0,0:0:0:33:
256,192,86182,1,0,0:0:0:33:
256,192,86289,1,0,0:0:0:33:
256,192,86396,1,0,0:0:0:33:
256,192,86503,1,0,0:0:0:33:
256,192,86610,1,0,0:0:0:33:
256,192,86717,1,8,0:2:0:33:
256,192,86824,1,0,0:0:0:33:
256,192,86931,1,0,0:0:0:33:
256,192,87039,1,0,0:0:0:33:
256,192,87146,1,0,0:0:0:33:
256,192,87253,1,0,0:0:0:33:
256,192,87360,1,0,0:0:0:33:
256,192,87467,1,0,0:0:0:33:
256,192,87574,1,8,0:2:0:33:
256,192,87682,1,0,0:0:0:33:
256,192,87789,1,0,0:0:0:33:
256,192,87896,1,0,0:0:0:33:
256,192,88003,1,0,0:0:0:33:
256,192,88110,1,0,0:0:0:33:
256,192,88217,1,0,0:0:0:33:
256,192,88324,1,0,0:0:0:33:
256,192,88431,1,8,0:2:0:33:
256,192,88539,1,0,0:0:0:33:
256,192,88646,1,0,0:0:0:33:
256,192,88753,1,0,0:0:0:33:
256,192,88860,1,0,0:0:0:33:
256,192,88967,1,0,0:0:0:33:
256,192,89074,1,0,0:0:0:33:
256,192,89182,1,0,0:0:0:33:
256,192,89289,1,8,0:2:0:33:
256,192,89396,1,0,0:0:0:33:
256,192,89503,1,0,0:0:0:33:
256,192,89610,1,0,0:0:0:33:
256,192,89717,1,0,0:0:0:33:
256,192,89824,1,0,0:0:0:33:
256,192,89931,1,0,0:0:0:33:
256,192,90039,1,0,0:0:0:33:
256,192,90146,1,8,0:2:0:33:
256,192,90253,1,0,0:0:0:33:
256,192,90360,1,0,0:0:0:33:
256,192,90467,1,0,0:0:0:33:
256,192,90574,1,0,0:0:0:33:
256,192,90682,1,0,0:0:0:33:
256,192,90789,1,0,0:0:0:33:
256,192,90896,1,0,0:0:0:33:
256,192,91003,1,8,0:2:0:33:
256,192,91110,1,0,0:0:0:33:
256,192,91217,1,0,0:0:0:33:
256,192,91324,1,0,0:0:0:33:
256,192,91431,1,0,0:0:0:33:
256,192,91539,1,0,0:0:0:33:
256,192,91646,1,0,0:0:0:33:
256,192,91753,1,0,0:0:0:33:
256,192,91860,1,8,0:2:0:33:
256,192,91967,1,0,0:0:0:33:
256,192,92074,1,0,0:0:0:33:
256,192,92182,1,0,0:0:0:33:
256,192,92289,1,0,0:0:0:33:
256,192,92396,1,0,0:0:0:33:
256,192,92503,1,0,0:0:0:33:
256,192,92610,1,0,0:0:0:33:
256,192,92717,1,8,0:2:0:33:
256,192,92824,1,0,0:0:0:33:
256,192,92931,1,0,0:0:0:33:
256,192,93039,1,0,0:0:0:33:
256,192,93146,1,0,0:0:0:33:
256,192,93253,1,0,0:0:0:33:
256,192,93360,1,0,0:0:0:33:
256,192,93467,1,0,0:0:0:33:
256,192,93574,1,8,0:2:0:33:
256,192,93682,1,0,0:0:0:33:
256,192,93789,1,0,0:0:0:33:
256,192,93896,1,0,0:0:0:33:
256,192,94003,1,0,0:0:0:33:
256,192,94110,1,0,0:0:0:33:
256,192,94217,1,0,0:0:0:33:
256,192,94324,1,0,0:0:0:33:
256,192,94431,1,8,0:2:0:33:
256,192,94539,1,0,0:0:0:33:
256,192,94646,1,0,0:0:0:33:
256,192,94753,1,0,0:0:0:33:
256,192,94860,1,0,0:0:0:33:
256,192,94967,1,0,0:0:0:33:
256,192,95074,1,0,0:0:0:33:
256,192,95182,1,0,0:0:0:33:
256,192,95289,1,8,0:2:0:33:
256,192,95396,1,0,0:0:0:33:
256,192,95503,1,0,0:0:0:33:
256,192,95610,1,0,0:0:0:33:
256,192,95717,128,0,96467:0:0:0:33:
256,192,96574,1,4,0:0:0:33:
256,192,96789,1,2,0:0:0:53:
256,192,97003,1,0,0:0:0:33:
256,192,97110,1,0,0:0:0:53:
256,192,97217,1,0,0:0:0:53:
256,192,97325,1,0,0:0:0:53:
256,192,97432,1,0,0:0:0:33:
256,192,97539,1,0,0:0:0:53:
256,192,97646,1,2,0:0:0:53:
256,192,97753,1,0,0:0:0:53:
256,192,97860,1,0,0:0:0:33:
256,192,98289,1,0,0:0:0:33:
256,192,98503,1,2,0:0:0:53:
256,192,98717,1,0,0:0:0:33:
256,192,98825,1,0,0:0:0:53:
256,192,98932,1,0,0:0:0:53:
256,192,99039,1,0,0:0:0:53:
256,192,99146,1,0,0:0:0:33:
256,192,99253,1,0,0:0:0:53:
256,192,99360,1,2,0:0:0:53:
256,192,99467,1,0,0:0:0:53:
256,192,99575,1,0,0:0:0:33:
256,192,100003,128,0,100110:0:0:0:33:
256,192,100217,128,0,100325:0:0:0:53:
256,192,100432,1,0,0:0:0:33:
256,192,100539,1,0,0:0:0:53:
256,192,100646,1,0,0:0:0:53:
256,192,100753,1,0,0:0:0:53:
256,192,100860,1,0,0:0:0:33:
256,192,100967,1,0,0:0:0:53:
256,192,101075,1,0,0:0:0:53:
256,192,101182,1,0,0:0:0:53:
256,192,101289,1,0,0:0:0:33:
256,192,101717,1,0,0:0:0:33:
256,192,101932,1,2,0:0:0:53:
256,192,102146,1,0,0:0:0:33:
256,192,102253,1,0,0:0:0:53:
256,192,102360,1,0,0:0:0:53:
256,192,102467,1,0,0:0:0:53:
256,192,102575,1,0,0:0:0:33:
256,192,102682,1,0,0:0:0:53:
256,192,102789,1,2,0:0:0:53:
256,192,102896,1,0,0:0:0:53:
256,192,103003,1,0,0:0:0:33:
256,192,103432,5,0,0:0:0:33:
256,192,103539,1,0,0:0:0:53:
256,192,103646,1,2,0:0:0:53:
256,192,103753,1,0,0:0:0:53:
256,192,103860,1,0,0:0:0:33:
256,192,103967,1,0,0:0:0:53:
256,192,104075,1,0,0:0:0:53:
256,192,104182,1,0,0:0:0:53:
256,192,104289,1,0,0:0:0:33:
256,192,104396,1,0,0:0:0:53:
256,192,104503,1,2,0:0:0:53:
256,192,104610,1,0,0:0:0:53:
256,192,104717,1,0,0:0:0:33:
256,192,105146,1,0,0:0:0:33:
256,192,105253,1,0,0:0:0:53:
256,192,105360,1,2,0:0:0:53:
256,192,105467,1,0,0:0:0:53:
256,192,105575,1,0,0:0:0:33:
256,192,105682,1,0,0:0:0:53:
256,192,105789,1,0,0:0:0:53:
256,192,105896,1,0,0:0:0:53:
256,192,106003,1,0,0:0:0:33:
256,192,106110,1,0,0:0:0:53:
256,192,106217,1,2,0:0:0:53:
256,192,106325,1,0,0:0:0:53:
256,192,106432,1,0,0:0:0:33:
256,192,106860,1,0,0:0:0:33:
256,192,106967,1,0,0:0:0:53:
256,192,107075,1,0,0:0:0:53:
256,192,107182,1,0,0:0:0:53:
256,192,107289,1,0,0:0:0:33:
256,192,107396,1,0,0:0:0:53:
256,192,107503,1,2,0:0:0:53:
256,192,107610,1,0,0:0:0:53:
256,192,107717,1,0,0:0:0:33:
256,192,107825,1,0,0:0:0:53:
256,192,107932,1,2,0:0:0:33:
256,192,108039,1,0,0:0:0:53:
256,192,108146,1,0,0:0:0:33:
256,192,108575,1,0,0:0:0:33:
256,192,108682,1,0,0:0:0:53:
256,192,108789,1,2,0:0:0:53:
256,192,108896,1,0,0:0:0:53:
256,192,109003,1,0,0:0:0:33:
256,192,109110,5,0,0:0:0:53:
256,192,109217,1,0,0:0:0:53:
256,192,109325,1,0,0:0:0:53:
256,192,109432,1,0,0:0:0:33:
256,192,109539,1,0,0:0:0:53:
256,192,109646,128,2,110182:0:0:0:53:
256,192,110289,1,4,0:0:0:53:
256,192,110503,1,0,0:0:0:53:
256,192,110825,1,0,0:0:0:53:
256,192,111039,1,0,0:0:0:53:
256,192,111146,1,0,0:0:0:53:
256,192,111360,128,2,111575:0:2:0:53:
256,192,111682,1,0,0:0:0:53:
256,192,111896,1,0,0:0:0:53:
256,192,112003,1,0,0:0:0:53:
256,192,112217,1,0,0:0:0:53:
256,192,112539,1,0,0:0:0:53:
256,192,112753,1,0,0:0:0:53:
256,192,112860,1,0,0:0:0:53:
256,192,113075,1,2,0:2:0:53:
256,192,113182,1,8,0:0:0:33:
256,192,113396,1,8,0:0:0:33:
256,192,113610,1,0,0:0:0:53:
256,192,113717,1,0,0:0:0:53:
256,192,113932,1,0,0:0:0:53:
256,192,114253,1,0,0:0:0:53:
256,192,114467,1,0,0:0:0:53:
256,192,114575,1,0,0:0:0:53:
256,192,114789,1,0,0:0:0:53:
256,192,115110,1,0,0:0:0:53:
256,192,115325,1,0,0:0:0:53:
256,192,115432,1,0,0:0:0:53:
256,192,115646,1,0,0:0:0:53:
256,192,115967,1,0,0:0:0:53:
256,192,116182,1,0,0:0:0:53:
256,192,116289,1,0,0:0:0:53:
256,192,116503,1,0,0:0:0:53:
256,192,116610,1,8,0:0:0:33:
256,192,116825,1,0,0:0:0:53:
256,192,117146,128,2,117253:0:2:0:53:
256,192,117360,1,0,0:0:0:53:
256,192,117575,1,0,0:0:0:53:
256,192,117682,1,0,0:0:0:53:
256,192,117896,1,0,0:0:0:53:
256,192,118003,1,0,0:0:0:53:
256,192,118217,1,0,0:0:0:53:
256,192,118432,1,0,0:0:0:53:
256,192,118539,1,0,0:0:0:53:
256,192,118753,1,0,0:0:0:53:
256,192,118860,1,0,0:0:0:53:
256,192,119075,1,0,0:0:0:53:
256,192,119289,1,0,0:0:0:53:
256,192,119396,1,0,0:0:0:53:
256,192,119610,1,0,0:0:0:53:
256,192,119717,1,0,0:0:0:53:
256,192,119932,1,0,0:0:0:53:
256,192,120039,1,8,0:0:0:33:
256,192,120146,1,0,0:0:0:53:
256,192,120253,1,8,0:0:0:33:
256,192,120467,1,0,0:0:0:53:
256,192,120575,128,2,120682:0:2:0:53:
256,192,120789,1,0,0:0:0:53:
256,192,121003,1,0,0:0:0:53:
256,192,121110,1,0,0:0:0:53:
256,192,121325,1,0,0:0:0:53:
256,192,121432,1,0,0:0:0:53:
256,192,121646,1,0,0:0:0:53:
256,192,121860,1,0,0:0:0:53:
256,192,121967,1,0,0:0:0:53:
256,192,122182,1,0,0:0:0:53:
256,192,122289,1,0,0:0:0:53:
256,192,122503,1,0,0:0:0:53:
256,192,122717,1,0,0:0:0:53:
256,192,122825,1,0,0:0:0:53:
256,192,123039,1,0,0:0:0:53:
256,192,123146,1,0,0:0:0:53:
256,192,123253,1,0,0:0:0:53:
256,192,123360,1,0,0:0:0:53:
256,192,123467,1,4,0:2:0:53:
256,192,123682,1,0,0:0:0:53:
256,192,123789,1,0,0:0:0:53:
256,192,123896,1,0,0:0:0:53:
256,192,124003,1,4,0:0:0:0:
