osu file format v14

[General]
AudioFilename: NightField.mp3
AudioLeadIn: 0
PreviewTime: 59182
Countdown: 0
SampleSet: Normal
StackLeniency: 0.7
Mode: 2
LetterboxInBreaks: 1
WidescreenStoryboard: 0

[Editor]
DistanceSpacing: 0.8
BeatDivisor: 16
GridSize: 4
TimelineZoom: 1.104

[Metadata]
Title:Various BGM
TitleUnicode:Various BGM
Artist:Wizet, Nexon
ArtistUnicode:Wizet, Nexon
Creator:ExGon
Version:Night Field
Source:Maplestory
Tags:CODA SOUND Studio EIM Takkyu Ishino Riena Strait Henesys Market Haze Temple of Time Road Oblivion Regrets Sharenian Guild Quest Taiwan World Tour El Nath Territory Dead Trees Grand Athenaeum Resistance Xenon Tutorial Beryl Ludibrium Castle Dimensional Schism Tenyo
BeatmapID:510518
BeatmapSetID:217667

[Difficulty]
HPDrainRate:4
CircleSize:5
OverallDifficulty:0
ApproachRate:8
SliderMultiplier:1.92
SliderTickRate:1

[Events]
//Background and Video events
0,0,"night.jpg",0,0
//Break Periods
//Storyboard Layer 0 (Background)
//Storyboard Layer 1 (Fail)
//Storyboard Layer 2 (Pass)
//Storyboard Layer 3 (Foreground)
//Storyboard Sound Samples

[TimingPoints]
3261,437.956204379562,4,1,0,45,1,0
3288,-100,4,3,0,45,0,0
5231,-100,4,2,0,30,0,0
5259,-100,4,3,0,45,0,0
5669,-100,4,2,0,30,0,0
5697,-100,4,3,0,45,0,0
6107,-100,4,2,0,30,0,0
6135,-100,4,3,0,45,0,0
6545,-100,4,2,0,30,0,0
6573,-100,4,3,0,45,0,0
7421,-100,4,2,0,30,0,0
7448,-100,4,3,0,45,0,0
9611,-100,4,2,0,30,0,0
9638,-100,4,3,0,45,0,0
13115,-100,4,2,0,30,0,0
13142,-100,4,3,0,45,0,0
17275,-66.6666666666667,4,1,0,45,0,0
18589,-133.333333333333,4,1,0,45,0,0
18917,-133.333333333333,4,1,0,5,0,0
19027,-66.6666666666667,4,1,0,45,0,0
22093,-133.333333333333,4,1,0,45,0,0
22421,-133.333333333333,4,1,0,5,0,0
22531,-66.6666666666667,4,1,0,45,0,0
25596,-133.333333333333,4,1,0,45,0,0
25925,-133.333333333333,4,1,0,5,0,0
26034,-66.6666666666667,4,1,0,45,0,0
29100,-133.333333333333,4,1,0,45,0,0
29428,-133.333333333333,4,1,0,5,0,0
29538,-66.6666666666667,4,1,0,45,0,0
31317,-66.6666666666667,4,2,0,55,0,0
45304,-100,4,1,0,45,0,1
45332,-100,4,1,0,45,0,0
45414,-100,4,2,0,45,0,0
45742,-100,4,3,0,45,0,0
45852,-100,4,2,0,45,0,0
46180,-100,4,3,0,45,0,0
46290,-100,4,2,0,45,0,0
46618,-100,4,3,0,45,0,0
46728,-100,4,2,0,45,0,0
47056,-100,4,3,0,45,0,0
47166,-100,4,2,0,45,0,0
47494,-100,4,3,0,45,0,0
47604,-100,4,2,0,45,0,0
47932,-100,4,3,0,45,0,0
48042,-100,4,2,0,45,0,0
48370,-100,4,3,0,45,0,0
48479,-100,4,2,0,45,0,0
48589,-100,4,3,0,45,0,0
48698,-100,4,2,0,45,0,0
48808,-100,4,3,0,45,0,0
48917,-100,4,2,0,45,0,0
49246,-100,4,3,0,45,0,0
49355,-100,4,2,0,45,0,0
49684,-100,4,3,0,45,0,0
49793,-100,4,2,0,45,0,0
50122,-100,4,3,0,45,0,0
50231,-100,4,2,0,45,0,0
50560,-100,4,3,0,45,0,0
50669,-100,4,2,0,45,0,0
50998,-100,4,3,0,45,0,0
51107,-100,4,2,0,45,0,0
51436,-100,4,3,0,45,0,0
51545,-100,4,2,0,45,0,0
51874,-100,4,3,0,45,0,0
51983,-100,4,2,0,45,0,0
52093,-100,4,3,0,45,0,0
52202,-100,4,2,0,45,0,0
52312,-100,4,3,0,45,0,0
58635,-100,4,2,0,5,0,0
58662,-50,4,2,0,45,0,0
59319,-66.6666666666667,4,1,0,45,0,1
73306,-66.6666666666667,4,1,0,45,0,0
73333,-66.6666666666667,4,1,0,45,0,1
87348,-100,4,3,0,45,0,0
101363,-66.6666666666667,4,1,0,45,0,1
107713,-50,4,1,0,35,0,1
108370,-66.6666666666667,4,1,0,45,0,1
114720,-50,4,1,0,35,0,1
115350,-50,4,1,0,35,0,0
115377,-66.6666666666667,4,1,0,45,0,1
121728,218.978102189781,4,1,0,35,1,1
121728,-50,4,1,0,35,0,1
122384,437.956204379562,4,1,0,45,1,1
122384,-66.6666666666667,4,1,0,45,0,1
129363,-66.6666666666667,4,1,0,45,0,0
129391,-100,4,1,0,45,0,1
129418,-100,4,1,0,45,0,0
136398,-100,4,1,0,45,0,1
136425,-100,4,1,0,45,0,0
143405,-100,4,1,0,45,0,1
143433,-100,4,1,0,45,0,0

[HitObjects]
64,96,3260,6,0,P|120:80|168:112,1,96,4|0,0:0|0:0,0:0:0:0:
384,192,3698,2,0,L|288:192,1,96,8|0,0:0|0:0,0:0:0:0:
64,288,4136,2,0,P|120:304|168:272,1,96
104,192,4574,2,0,L|8:192,1,96,8|0,0:0|0:0,0:0:0:0:
352,200,5012,6,0,P|408:160|440:120,1,96,0|2,0:0|0:0,0:0:0:0:
294,280,5450,2,0,P|355:311|405:320,1,96,0|2,0:0|0:0,0:0:0:0:
195,267,5888,2,0,P|197:335|212:384,1,96,0|10,0:0|0:0,0:0:0:0:
161,174,6326,2,0,P|101:207|65:244,1,96,8|2,0:0|0:0,0:0:0:0:
448,288,6764,6,0,P|392:304|344:272,1,96,0|0,0:0|0:0,0:0:0:0:
128,192,7202,2,0,L|224:192,1,96,8|2,0:0|0:0,0:0:0:0:
448,96,7640,2,0,P|392:80|344:112,1,96
408,192,8078,2,0,L|504:192,1,96,8|0,0:0|0:0,0:0:0:0:
160,184,8516,6,0,P|104:224|72:264,1,96,0|0,0:0|0:0,0:0:0:0:
217,103,8954,2,0,P|156:72|106:63,1,96,8|0,0:0|0:0,0:0:0:0:
316,116,9392,2,0,P|314:48|299:0,1,96,0|8,0:0|0:0,0:0:0:0:
350,209,9830,2,0,P|410:176|446:139,1,96,8|0,0:0|0:0,0:0:0:0:
272,312,10268,5,0,0:0:0:0:
96,64,10487,2,0,L|192:80,1,96,0|8,0:0|0:0,0:0:0:0:
48,200,10925,1,0,0:0:0:0:
256,192,11144,1,0,0:0:0:0:
24,336,11363,2,0,P|8:280|16:240,1,96,0|8,0:0|0:0,0:0:0:0:
152,288,11801,1,0,0:0:0:0:
240,312,12020,5,0,0:0:0:0:
416,64,12239,2,0,L|320:80,1,96,0|8,0:0|0:0,0:0:0:0:
464,200,12677,1,0,0:0:0:0:
256,192,12896,1,0,0:0:0:0:
488,336,13115,2,0,P|504:280|496:240,1,96,8|8,0:0|0:0,0:0:0:0:
360,288,13552,1,0,0:0:0:0:
136,284,13771,6,0,L|32:300,1,96
248,220,14209,2,0,L|144:236,1,96,8|0,0:0|0:0,0:0:0:0:
360,156,14647,2,0,L|256:172,1,96
472,92,15085,2,0,L|368:108,1,96,8|0,0:0|0:0,0:0:0:0:
93,132,15523,5,4,0:0:0:0:
418,251,15742,1,4,0:0:0:0:
286,362,15961,1,8,0:0:0:0:
225,21,16180,1,0,0:0:0:0:
388,80,16399,1,0,0:0:0:0:
256,192,16509,1,0,0:0:0:0:
123,303,16618,1,0,0:0:0:0:
256,192,16837,1,8,0:0:0:0:
424,68,17275,6,0,L|276:92,1,144.000005493164,4|0,0:0|0:0,0:0:0:0:
408,128,17713,2,0,L|260:152,1,144.000005493164,0|0,0:0|0:0,0:0:0:0:
456,176,18151,2,0,L|308:200,1,144.000005493164
148,264,18589,2,0,B|108:291|119:326|92:356,1,108.000004119873
92,355,19027,6,0,L|235:313,1,144.000005493164
101,293,19465,2,0,L|244:251,1,144.000005493164
48,252,19903,2,0,L|191:210,3,144.000005493164
345,426,20779,6,0,L|344:276,1,144.000005493164
288,401,21217,2,0,L|287:250,1,144.000005493164
234,440,21655,2,0,L|233:291,1,144.000005493164
438,136,22093,2,0,B|462:94|436:68|447:30,1,108.000004119873
449,31,22531,6,0,L|307:81,1,144.000005493164
443,93,22969,2,0,L|301:143,1,144.000005493164,0|0,0:0|0:0,0:0:0:0:
498,131,23406,2,0,L|357:181,3,144.000005493164
93,384,24282,6,0,L|225:310,1,144.000005493164
54,257,24720,2,0,L|203:232,1,144.000005493164
15,123,25158,2,0,L|163:151,1,144.000005493164
420,380,25596,2,0,B|374:362|353:392|313:387,1,108.000004119873
418,384,26034,6,0,L|286:310,1,144.000005493164
457,257,26472,2,0,L|308:232,1,144.000005493164
496,123,26910,2,0,L|348:151,3,144.000005493164
162,0,27786,6,0,L|166:109,1,144.000005493164
293,0,28224,2,0,L|245:126,1,144.000005493164
428,12,28662,2,0,L|335:129,1,144.000005493164
160,424,29100,2,0,B|202:448|228:422|266:433,1,108.000004119873
162,425,29538,6,0,L|166:274,1,144.000005493164
293,400,29976,2,0,L|245:257,1,144.000005493164
428,371,30414,2,0,L|335:254,1,144.000005493164
136,168,30852,1,0,0:0:0:0:
256,192,30961,1,0,0:0:0:0:
376,168,31071,1,0,0:0:0:0:
256,192,31180,1,0,0:0:0:0:
304,128,31290,6,0,P|312:72|392:48,1,144.000005493164,4|0,0:0|0:0,0:0:0:0:
440,96,31728,1,2,0:0:0:0:
480,160,31947,1,2,0:0:0:0:
464,232,32166,1,0,0:0:0:0:
400,280,32385,1,0,0:0:0:0:
328,264,32604,1,2,0:0:0:0:
328,264,32713,1,0,0:0:0:0:
328,264,32823,1,0,0:0:0:0:
208,256,33042,6,0,P|200:312|120:336,1,144.000005493164,0|0,0:0|0:0,0:0:0:0:
72,288,33479,1,2,0:0:0:0:
32,224,33698,1,2,0:0:0:0:
48,152,33917,1,0,0:0:0:0:
112,104,34136,1,0,0:0:0:0:
184,120,34355,1,2,0:0:0:0:
184,120,34465,1,0,0:0:0:0:
184,120,34574,1,0,0:0:0:0:
344,88,34793,6,0,P|408:48|520:72,1,144.000005493164,0|2,0:0|0:0,0:0:0:0:
440,160,35231,1,2,0:0:0:0:
368,248,35450,1,2,0:0:0:0:
264,296,35669,1,0,0:0:0:0:
152,280,35888,1,0,0:0:0:0:
72,200,36107,1,2,0:0:0:0:
72,200,36217,1,0,0:0:0:0:
72,200,36326,1,0,0:0:0:0:
168,296,36545,6,0,P|104:336|-8:312,1,144.000005493164,0|2,0:0|0:0,0:0:0:0:
72,224,36983,1,2,0:0:0:0:
144,136,37202,1,2,0:0:0:0:
248,88,37421,1,0,0:0:0:0:
360,104,37640,1,0,0:0:0:0:
440,184,37859,1,2,0:0:0:0:
440,184,37969,1,0,0:0:0:0:
440,184,38078,1,0,0:0:0:0:
208,128,38297,6,0,P|200:72|120:48,1,144.000005493164,0|0,0:0|0:0,0:0:0:0:
72,96,38735,1,2,0:0:0:0:
32,160,38954,1,2,0:0:0:0:
296,400,39173,1,0,0:0:0:0:
168,336,39392,1,0,0:0:0:0:
328,264,39611,1,2,0:0:0:0:
328,264,39720,1,0,0:0:0:0:
328,264,39830,1,0,0:0:0:0:
304,256,40049,6,0,P|312:312|392:336,1,144.000005493164,0|0,0:0|0:0,0:0:0:0:
440,288,40487,1,2,0:0:0:0:
480,224,40706,1,2,0:0:0:0:
216,0,40925,1,0,0:0:0:0:
344,48,41144,1,0,0:0:0:0:
184,120,41363,1,2,0:0:0:0:
184,120,41472,1,0,0:0:0:0:
184,120,41582,1,0,0:0:0:0:
474,48,41801,6,0,P|403:49|344:88,1,144.000005493164,0|2,0:0|0:0,0:0:0:0:
72,160,42239,1,2,0:0:0:0:
368,248,42458,1,2,0:0:0:0:
248,296,42677,1,0,0:0:0:0:
152,104,42896,1,0,0:0:0:0:
264,8,43115,1,2,0:0:0:0:
264,8,43224,1,0,0:0:0:0:
264,8,43333,1,0,0:0:0:0:
37,335,43552,6,0,P|108:334|168:296,1,144.000005493164,0|2,0:0|0:0,0:0:0:0:
440,224,43990,1,2,0:0:0:0:
144,136,44209,1,2,0:0:0:0:
264,88,44428,1,0,0:0:0:0:
360,280,44647,1,0,0:0:0:0:
248,376,44866,1,2,0:0:0:0:
248,376,44976,1,0,0:0:0:0:
248,376,45085,1,0,0:0:0:0:
436,104,45304,5,4,0:0:0:0:
400,92,45414,1,0,0:0:0:0:
364,80,45523,1,0,0:0:0:0:
324,76,45633,1,0,0:0:0:0:
284,76,45742,1,4,0:0:0:0:
248,84,45852,1,0,0:0:0:0:
212,100,45961,1,0,0:0:0:0:
180,120,46071,1,0,0:0:0:0:
156,152,46180,2,0,L|192:192,1,48,4|0,0:0|0:0,0:0:0:0:
296,92,46399,2,0,L|256:128,1,48
356,232,46618,2,0,L|320:192,1,48,4|0,0:0|0:0,0:0:0:0:
216,292,46837,2,0,L|256:256,1,48
332,264,47056,5,4,0:0:0:0:
300,284,47166,1,0,0:0:0:0:
264,300,47275,1,0,0:0:0:0:
228,308,47385,1,0,0:0:0:0:
188,308,47494,1,4,0:0:0:0:
148,304,47604,1,0,0:0:0:0:
112,292,47713,1,0,0:0:0:0:
76,280,47823,1,0,0:0:0:0:
204,212,47932,2,0,B|192:216|192:216|176:248,1,48,4|0,0:0|0:0,0:0:0:0:
235,140,48151,2,0,B|231:128|231:128|200:112,1,48
307,171,48370,2,0,B|319:167|319:167|336:136,1,48,4|0,0:0|0:0,0:0:0:0:
276,243,48589,2,0,B|280:255|280:255|312:272,1,48,4|0,0:0|0:0,0:0:0:0:
384,288,48808,6,0,L|436:276,2,48,4|0|0,0:0|0:0|0:0,0:0:0:0:
464,224,49136,1,0,0:0:0:0:
368,224,49246,2,0,L|420:212,2,48,4|0|0,0:0|0:0|0:0,0:0:0:0:
448,160,49574,1,0,0:0:0:0:
352,160,49684,2,0,L|404:148,2,48,4|0|0,0:0|0:0|0:0,0:0:0:0:
432,96,50012,1,0,0:0:0:0:
336,96,50122,2,0,L|388:84,2,48,4|0|0,0:0|0:0|0:0,0:0:0:0:
256,192,50450,1,0,0:0:0:0:
128,288,50560,6,0,L|76:276,2,48,4|0|0,0:0|0:0|0:0,0:0:0:0:
48,224,50888,1,0,0:0:0:0:
144,224,50998,2,0,L|92:212,2,48,4|0|0,0:0|0:0|0:0,0:0:0:0:
64,160,51326,1,0,0:0:0:0:
160,160,51436,2,0,L|108:148,2,48,4|0|0,0:0|0:0|0:0,0:0:0:0:
80,96,51764,1,0,0:0:0:0:
176,96,51874,2,0,L|124:84,2,48,4|0|4,0:0|0:0|0:0,0:0:0:0:
256,192,52202,1,0,0:0:0:0:
432,64,52312,6,0,P|512:128|480:208,1,192,4|12,0:0|0:0,0:0:0:0:
184,320,52969,1,0,0:0:0:0:
184,320,53188,2,0,P|168:304|152:208,1,96,4|0,0:0|0:0,0:0:0:0:
328,64,53625,2,0,P|344:80|360:176,1,96,12|0,0:0|0:0,0:0:0:0:
152,304,54063,6,0,P|112:288|88:224,1,96,4|0,0:0|0:0,0:0:0:0:
352,80,54501,2,0,P|392:96|416:160,1,96,12|0,0:0|0:0,0:0:0:0:
176,272,54939,2,4,B|64:272|120:200|-24:200,2,192,4|12|4,0:0|0:0|0:0,0:0:0:0:
304,32,56253,5,12,0:0:0:0:
384,96,56472,1,0,0:0:0:0:
464,160,56691,1,4,0:0:0:0:
208,32,56910,1,0,0:0:0:0:
128,96,57129,1,4,0:0:0:0:
48,160,57348,1,0,0:0:0:0:
336,272,57567,6,4,B|448:272|392:200|536:200,1,192
256,192,58032,12,0,58635,0:0:0:0:
254,190,58662,6,0,P|238:247|257:190,2,192
80,88,59319,6,0,L|232:64,1,144.000005493164,4|0,0:0|0:0,0:0:0:0:
128,136,59647,2,0,L|276:148,1,144.000005493164
212,92,59976,1,0,0:0:0:0:
432,88,60195,2,0,L|280:64,1,144.000005493164
384,136,60523,2,0,L|236:148,1,144.000005493164
300,92,60852,1,0,0:0:0:0:
72,208,61071,6,0,B|16:276|100:276|8:360,1,144.000005493164
132,196,61399,2,0,B|119:283|191:239|155:359,1,144.000005493164
32,240,61728,1,0,0:0:0:0:
440,208,61947,2,0,B|496:276|412:276|504:360,1,144.000005493164
380,196,62275,2,0,B|393:283|321:239|357:359,1,144.000005493164
480,240,62604,1,0,0:0:0:0:
328,192,62823,6,0,P|376:144|465:156,1,144.000005493164
296,140,63151,2,0,P|309:73|388:32,1,144.000005493164
480,64,63479,1,0,0:0:0:0:
184,192,63698,2,0,P|136:144|47:156,1,144.000005493164
216,140,64027,2,0,P|203:73|124:32,1,144.000005493164
32,64,64355,1,0,0:0:0:0:
332,192,64574,6,0,P|372:256|472:280,1,144.000005493164
280,232,64903,2,0,P|312:312|396:352,1,144.000005493164
160,320,65231,1,0,0:0:0:0:
180,192,65450,2,0,P|140:256|40:280,1,144.000005493164
232,232,65779,2,0,P|200:312|116:352,1,144.000005493164
352,320,66107,1,0,0:0:0:0:
438,301,66326,6,0,L|412:136,1,144.000005493164
376,98,66655,2,0,L|256:20,1,144.000005493164
348,160,66983,1,0,0:0:0:0:
74,83,67202,2,0,L|99:247,1,144.000005493164
135,285,67531,2,0,L|256:364,1,144.000005493164
164,224,67859,1,0,0:0:0:0:
324,328,68078,6,0,L|348:176,1,144.000005493164
262,101,68406,2,0,L|120:124,1,144.000005493164
268,184,68735,1,0,0:0:0:0:
188,56,68954,2,0,L|164:208,1,144.000005493164
249,282,69282,2,0,L|392:260,1,144.000005493164
244,200,69611,1,0,0:0:0:0:
352,196,69830,6,0,B|364:108|364:108|424:80,1,144.000005493164
252,96,70158,2,0,B|340:84|340:84|368:24,1,144.000005493164
296,152,70487,1,0,0:0:0:0:
160,188,70706,2,0,B|148:276|148:276|88:304,1,144.000005493164
260,288,71034,2,0,B|172:300|172:300|144:360,1,144.000005493164
216,232,71363,1,0,0:0:0:0:
324,348,71582,6,0,L|344:204,1,144.000005493164
188,348,71910,2,0,L|168:204,1,144.000005493164
256,192,72239,1,0,0:0:0:0:
420,288,72458,1,0,0:0:0:0:
92,288,72677,1,0,0:0:0:0:
144,192,72896,2,0,L|216:192,1,72.0000027465821
296,192,73115,2,0,L|368:192,1,72.0000027465821
456,192,73333,6,0,P|472:120|428:48,1,144.000005493164,4|0,0:0|0:0,0:0:0:0:
328,64,73662,2,0,L|184:64,1,144.000005493164
70,59,73990,2,0,P|39:123|56:192,2,144.000005493164
184,64,74538,2,0,L|328:64,1,144.000005493164
441,59,74866,1,0,0:0:0:0:
56,192,75085,6,0,P|40:264|84:336,1,144.000005493164,0|0,0:0|0:0,0:0:0:0:
184,320,75414,2,0,L|328:320,1,144.000005493164
441,324,75742,2,0,P|472:260|456:192,2,144.000005493164
328,320,76290,2,0,L|184:320,1,144.000005493164
70,324,76618,1,0,0:0:0:0:
184,272,76837,6,0,L|328:272,1,144.000005493164
222,89,77166,2,0,L|150:214,1,144.000005493164
361,214,77494,2,0,L|289:89,1,144.000005493164
144,168,77932,1,0,0:0:0:0:
136,192,78042,1,0,0:0:0:0:
368,168,78260,1,0,0:0:0:0:
376,192,78370,1,0,0:0:0:0:
184,288,78589,6,0,L|328:288,1,144.000005493164
208,81,78917,2,0,L|136:206,1,144.000005493164
375,206,79246,2,0,L|303:81,1,144.000005493164
128,168,79684,1,0,0:0:0:0:
112,200,79793,1,0,0:0:0:0:
384,168,80012,1,0,0:0:0:0:
400,200,80122,1,0,0:0:0:0:
304,136,80341,6,0,P|336:216|265:266,1,144.000005493164
206,256,80669,2,0,P|173:195|208:136,1,144.000005493164
336,192,80998,2,0,L|480:192,2,144.000005493164
176,192,81545,2,0,L|32:192,1,144.000005493164
31,192,81874,1,0,0:0:0:0:
208,136,82093,6,0,P|176:216|246:266,1,144.000005493164
305,256,82421,2,0,P|338:195|304:136,1,144.000005493164
176,192,82750,2,0,L|32:192,2,144.000005493164
336,192,83297,2,0,L|480:192,1,144.000005493164
480,192,83625,1,0,0:0:0:0:
160,188,83844,6,0,B|148:276|148:276|88:304,1,144.000005493164
260,288,84173,2,0,B|172:300|172:300|144:360,1,144.000005493164
216,232,84501,1,0,0:0:0:0:
352,196,84720,2,0,B|364:108|364:108|424:80,1,144.000005493164
252,96,85049,2,0,B|340:84|340:84|368:24,1,144.000005493164
296,152,85377,1,0,0:0:0:0:
188,36,85596,6,0,L|168:180,1,144.000005493164
324,36,85925,2,0,L|344:180,1,144.000005493164
256,192,86253,1,0,0:0:0:0:
92,96,86472,1,0,0:0:0:0:
420,96,86691,1,0,0:0:0:0:
368,192,86910,2,0,L|296:192,1,72.0000027465821
216,192,87129,2,0,L|144:192,1,72.0000027465821
80,64,87348,6,0,P|0:128|32:208,1,192,4|12,0:0|0:0,0:0:0:0:
328,320,88005,1,0,0:0:0:0:
328,320,88224,2,0,P|344:304|360:208,1,96,4|0,0:0|0:0,0:0:0:0:
184,64,88662,2,0,P|168:80|152:176,1,96,12|0,0:0|0:0,0:0:0:0:
360,304,89100,6,0,P|400:288|424:224,1,96,4|0,0:0|0:0,0:0:0:0:
160,80,89538,2,0,P|120:96|96:160,1,96,12|0,0:0|0:0,0:0:0:0:
336,272,89976,2,4,B|448:272|392:200|536:200,2,192,4|12|4,0:0|0:0|0:0,0:0:0:0:
208,32,91290,5,12,0:0:0:0:
128,96,91509,1,0,0:0:0:0:
48,160,91728,1,4,0:0:0:0:
304,32,91947,1,0,0:0:0:0:
384,96,92166,1,12,0:0:0:0:
464,160,92385,1,0,0:0:0:0:
208,192,92604,6,0,L|104:216,1,96,4|0,0:0|0:0,0:0:0:0:
304,192,93042,2,0,L|408:216,1,96,12|0,0:0|0:0,0:0:0:0:
176,272,93479,2,4,B|64:272|120:200|-24:200,2,192,4|12|4,0:0|0:0|0:0,0:0:0:0:
432,296,94793,6,0,L|448:200,1,96,12|0,0:0|0:0,0:0:0:0:
256,248,95231,2,0,L|256:152,1,96,4|0,0:0|0:0,0:0:0:0:
80,296,95669,2,0,L|64:200,1,96,12|0,0:0|0:0,0:0:0:0:
96,56,96107,6,0,P|120:96|184:88,1,96,4|0,0:0|0:0,0:0:0:0:
416,56,96545,2,0,P|392:96|328:88,1,96,12|0,0:0|0:0,0:0:0:0:
160,192,96983,2,4,L|352:192,2,192,4|12|4,0:0|0:0|0:0,0:0:0:0:
48,320,98297,6,0,L|40:224,1,96,12|0,0:0|0:0,0:0:0:0:
256,248,98735,2,0,L|256:152,1,96,4|0,0:0|0:0,0:0:0:0:
464,320,99173,2,0,L|472:224,1,96,12|0,0:0|0:0,0:0:0:0:
424,56,99611,6,0,P|400:96|336:88,1,96,4|0,0:0|0:0,0:0:0:0:
88,56,100049,2,0,P|112:96|176:88,1,96,4|0,0:0|0:0,0:0:0:0:
368,160,100487,1,4,0:0:0:0:
144,224,100706,1,0,0:0:0:0:
304,224,100925,1,12,0:0:0:0:
208,160,101034,1,8,0:0:0:0:
304,224,101144,1,0,0:0:0:0:
208,160,101253,1,0,0:0:0:0:
256,64,101363,6,0,P|324:44|392:64,1,144.000005493164,4|0,0:0|0:0,0:0:0:0:
312,120,101691,2,0,P|380:100|448:120,1,144.000005493164,0|0,0:0|0:0,0:0:0:0:
368,176,102020,2,0,P|436:156|504:176,1,144.000005493164,0|0,0:0|0:0,0:0:0:0:
304,224,102458,2,0,L|368:256,1,72.0000027465821
144,256,102786,2,0,L|208:224,1,72.0000027465821
256,64,103115,6,0,P|188:44|120:64,1,144.000005493164,0|0,0:0|0:0,0:0:0:0:
200,120,103443,2,0,P|132:100|64:120,1,144.000005493164,0|0,0:0|0:0,0:0:0:0:
144,176,103771,2,0,P|76:156|8:176,1,144.000005493164,0|0,0:0|0:0,0:0:0:0:
208,224,104209,2,0,L|144:256,1,72.0000027465821
368,256,104538,2,0,L|304:224,1,72.0000027465821
144,256,104866,6,0,P|124:188|144:120,1,144.000005493164,4|0,0:0|0:0,0:0:0:0:
288,112,105195,2,0,P|220:92|152:112,1,144.000005493164,0|0,0:0|0:0,0:0:0:0:
256,192,105523,2,0,L|112:192,1,144.000005493164
344,192,105961,2,0,L|416:192,1,72.0000027465821
168,192,106290,2,0,L|96:192,1,72.0000027465821
368,128,106618,6,0,P|388:196|368:264,1,144.000005493164,0|0,0:0|0:0,0:0:0:0:
224,272,106947,2,0,P|292:292|360:272,1,144.000005493164,0|0,0:0|0:0,0:0:0:0:
256,192,107275,2,0,L|400:192,1,144.000005493164
304,96,107713,2,0,L|496:96,1,192,4|0,0:0|0:0,0:0:0:0:
208,96,108151,2,0,L|16:96,1,192,4|4,0:0|0:0,0:0:0:0:
360,160,108589,5,0,0:0:0:0:
464,240,108698,2,0,P|528:272|448:320,1,144.000005493164
400,144,109027,2,0,P|336:112|416:64,1,144.000005493164
504,224,109465,1,0,0:0:0:0:
408,304,109574,2,0,B|344:352|344:352|312:272,1,144.000005493164
191,292,109903,2,0,B|168:352|168:352|104:304,1,144.000005493164
152,160,110341,5,0,0:0:0:0:
48,240,110450,2,0,P|-16:272|64:320,1,144.000005493164
112,144,110779,2,0,P|176:112|96:64,1,144.000005493164
8,224,111217,1,0,0:0:0:0:
104,304,111326,2,0,B|168:352|168:352|200:272,1,144.000005493164
321,292,111655,2,0,B|344:352|344:352|408:304,1,144.000005493164,0|4,0:0|0:0,0:0:0:0:
176,272,112093,5,0,0:0:0:0:
288,192,112202,2,0,B|264:216|256:256|256:256|248:216|224:192|224:192,1,144.000005493164
336,272,112531,2,0,P|368:208|432:272,1,144.000005493164
168,192,112969,2,0,L|96:192,1,72.0000027465821
344,192,113297,2,0,L|416:192,1,72.0000027465821
256,64,113625,5,0,0:0:0:0:
336,272,113844,1,0,0:0:0:0:
224,192,113954,2,0,B|248:216|256:256|256:256|264:216|288:192|288:192,1,144.000005493164
176,272,114282,2,0,P|144:208|80:272,1,144.000005493164
344,192,114720,2,0,L|544:192,1,192,4|0,0:0|0:0,0:0:0:0:
168,192,115158,2,0,L|-32:192,1,192,4|4,0:0|0:0,0:0:0:0:
80,80,115596,5,0,0:0:0:0:
352,112,115706,1,0,0:0:0:0:
352,112,115925,1,0,0:0:0:0:
128,224,116034,1,0,0:0:0:0:
128,224,116253,1,0,0:0:0:0:
416,304,116472,1,0,0:0:0:0:
416,304,116582,1,0,0:0:0:0:
112,320,116801,1,0,0:0:0:0:
112,320,116910,1,0,0:0:0:0:
368,224,117129,5,0,0:0:0:0:
368,224,117348,1,0,0:0:0:0:
192,160,117458,1,0,0:0:0:0:
192,160,117677,1,0,0:0:0:0:
432,112,117786,1,0,0:0:0:0:
432,112,118005,1,0,0:0:0:0:
96,128,118224,1,0,0:0:0:0:
96,128,118333,1,0,0:0:0:0:
320,256,118552,1,0,0:0:0:0:
320,256,118662,1,0,0:0:0:0:
192,304,118881,5,4,0:0:0:0:
192,304,119100,1,0,0:0:0:0:
384,192,119209,1,0,0:0:0:0:
384,192,119428,1,0,0:0:0:0:
64,256,119538,1,0,0:0:0:0:
64,256,119757,1,0,0:0:0:0:
288,304,119976,1,0,0:0:0:0:
288,304,120085,1,0,0:0:0:0:
16,144,120304,1,0,0:0:0:0:
16,144,120414,1,0,0:0:0:0:
224,112,120633,5,0,0:0:0:0:
224,112,120852,1,0,0:0:0:0:
432,240,120961,1,0,0:0:0:0:
432,240,121180,1,0,0:0:0:0:
176,288,121290,1,0,0:0:0:0:
176,288,121509,1,0,0:0:0:0:
360,0,121728,2,0,P|488:112|360:224,1,384,4|0,0:0|0:0,0:0:0:0:
152,384,122165,2,0,P|24:272|152:160,1,384,4|4,0:0|0:0,0:0:0:0:
328,112,122602,5,0,0:0:0:0:
384,96,122712,1,0,0:0:0:0:
424,136,122821,1,0,0:0:0:0:
456,184,122931,1,0,0:0:0:0:
424,232,123040,1,0,0:0:0:0:
104,160,123259,1,0,0:0:0:0:
352,280,123478,1,0,0:0:0:0:
296,264,123588,1,0,0:0:0:0:
264,216,123697,1,0,0:0:0:0:
288,160,123807,1,0,0:0:0:0:
256,112,123916,1,0,0:0:0:0:
456,184,124135,5,0,0:0:0:0:
184,112,124354,1,0,0:0:0:0:
128,96,124464,1,0,0:0:0:0:
88,136,124573,1,0,0:0:0:0:
56,184,124683,1,0,0:0:0:0:
88,232,124792,1,0,0:0:0:0:
408,160,125011,1,0,0:0:0:0:
160,280,125230,1,0,0:0:0:0:
216,264,125340,1,0,0:0:0:0:
248,216,125449,1,0,0:0:0:0:
224,160,125559,1,0,0:0:0:0:
256,112,125668,1,0,0:0:0:0:
56,184,125887,5,4,0:0:0:0:
344,272,126106,1,0,0:0:0:0:
344,272,126216,1,0,0:0:0:0:
344,272,126325,1,0,0:0:0:0:
344,272,126435,1,0,0:0:0:0:
344,272,126544,1,0,0:0:0:0:
104,112,126763,1,0,0:0:0:0:
448,88,126982,1,0,0:0:0:0:
448,88,127092,1,0,0:0:0:0:
448,88,127201,1,0,0:0:0:0:
448,88,127311,1,0,0:0:0:0:
448,88,127420,1,0,0:0:0:0:
456,184,127639,5,0,0:0:0:0:
168,272,127858,1,0,0:0:0:0:
168,272,127967,1,0,0:0:0:0:
168,272,128077,1,0,0:0:0:0:
168,272,128186,1,0,0:0:0:0:
168,272,128296,1,0,0:0:0:0:
408,112,128515,1,0,0:0:0:0:
64,88,128734,1,0,0:0:0:0:
64,88,128843,1,0,0:0:0:0:
64,88,128953,1,0,0:0:0:0:
64,88,129062,1,0,0:0:0:0:
64,88,129172,1,0,0:0:0:0:
112,304,129391,5,4,0:0:0:0:
208,272,129610,1,0,0:0:0:0:
304,240,129829,1,0,0:0:0:0:
80,240,130048,5,0,0:0:0:0:
176,208,130267,1,0,0:0:0:0:
272,176,130486,1,0,0:0:0:0:
48,176,130705,5,0,0:0:0:0:
144,144,130924,1,0,0:0:0:0:
400,304,131143,5,0,0:0:0:0:
304,272,131362,1,0,0:0:0:0:
208,240,131581,1,0,0:0:0:0:
432,240,131800,5,0,0:0:0:0:
336,208,132019,1,0,0:0:0:0:
240,176,132238,1,0,0:0:0:0:
464,176,132456,5,0,0:0:0:0:
368,144,132566,1,0,0:0:0:0:
272,112,132675,1,0,0:0:0:0:
112,80,132894,5,0,0:0:0:0:
304,144,133113,1,0,0:0:0:0:
208,112,133332,1,0,0:0:0:0:
80,144,133551,5,0,0:0:0:0:
272,208,133770,1,0,0:0:0:0:
176,176,133989,1,0,0:0:0:0:
48,208,134208,5,0,0:0:0:0:
240,272,134427,1,0,0:0:0:0:
400,80,134646,5,0,0:0:0:0:
208,144,134865,1,0,0:0:0:0:
304,112,135084,1,0,0:0:0:0:
432,144,135303,5,0,0:0:0:0:
240,208,135522,1,0,0:0:0:0:
336,176,135741,1,0,0:0:0:0:
464,208,135960,5,0,0:0:0:0:
272,272,136070,1,0,0:0:0:0:
368,240,136179,1,0,0:0:0:0:
478,191,136398,5,4,0:0:0:0:
307,166,136617,1,0,0:0:0:0:
414,301,136836,1,0,0:0:0:0:
414,82,137055,1,0,0:0:0:0:
307,217,137274,1,0,0:0:0:0:
478,192,137493,1,0,0:0:0:0:
512,192,137712,1,0,0:0:0:0:
272,192,137931,1,0,0:0:0:0:
33,191,138150,5,0,0:0:0:0:
204,166,138369,1,0,0:0:0:0:
97,301,138588,1,0,0:0:0:0:
97,82,138807,1,0,0:0:0:0:
204,217,139026,1,0,0:0:0:0:
33,192,139245,1,0,0:0:0:0:
0,192,139464,1,0,0:0:0:0:
120,192,139573,1,0,0:0:0:0:
240,192,139683,1,0,0:0:0:0:
416,80,139902,6,0,L|320:80,2,96
96,192,140559,2,0,L|192:192,2,96
416,304,141216,2,0,L|320:304,1,96
48,80,141654,6,0,L|144:80,2,96
96,80,141763,1,0,0:0:0:0:
464,192,142311,2,0,L|368:192,2,96
48,304,142967,2,0,L|144:304,1,96
96,304,143077,1,0,0:0:0:0:
256,192,143405,5,4,0:0:0:0:
