osu file format v14

[General]
AudioFilename: FromUndertoUpper.mp3
AudioLeadIn: 0
PreviewTime: 45676
Countdown: 0
SampleSet: Soft
StackLeniency: 0.7
Mode: 2
LetterboxInBreaks: 1
WidescreenStoryboard: 0

[Editor]
DistanceSpacing: 0.8
BeatDivisor: 16
GridSize: 16
TimelineZoom: 3.169733

[Metadata]
Title:Various BGM
TitleUnicode:Various BGM
Artist:Wizet, Nexon
ArtistUnicode:Wizet, Nexon
Creator:ExGon
Version:From Under to Upper (Easier)
Source:Maplestory
Tags:CODA SOUND Studio EIM Takkyu Ishino Riena Strait Henesys Market Haze Temple of Time Road Oblivion Regrets Sharenian Guild Quest Taiwan World Tour El Nath Territory Dead Trees Grand Athenaeum Resistance Xenon Tutorial Beryl Ludibrium Castle Dimensional Schism Tenyo
BeatmapID:1204985
BeatmapSetID:217667

[Difficulty]
HPDrainRate:1
CircleSize:4.5
OverallDifficulty:0
ApproachRate:9.8
SliderMultiplier:2.56
SliderTickRate:1

[Events]
//Background and Video events
0,0,"under to pulse.jpg",0,0
//Break Periods
//Storyboard Layer 0 (Background)
//Storyboard Layer 1 (Fail)
//Storyboard Layer 2 (Pass)
//Storyboard Layer 3 (Foreground)
//Storyboard Sound Samples

[TimingPoints]
951,400,4,2,0,30,1,0
951,-66.6666666666667,4,2,0,30,0,0
7351,-100,4,1,0,35,0,1
7376,-100,4,1,0,25,0,0
12301,-100,4,2,99,5,0,0
12351,-100,4,1,0,25,0,0
12501,-100,4,2,99,5,0,0
12551,-100,4,1,0,25,0,0
12701,-100,4,2,99,5,0,0
12751,-100,4,1,0,25,0,0
12901,-100,4,2,99,5,0,0
12951,-66.6666666666667,4,1,0,25,0,0
13101,-66.6666666666667,4,2,99,5,0,0
13151,-66.6666666666667,4,1,0,25,0,0
13301,-66.6666666666667,4,2,99,5,0,0
13351,-66.6666666666667,4,1,0,25,0,0
13501,-66.6666666666667,4,2,99,5,0,0
13551,-66.6666666666667,4,1,0,25,0,0
13701,-66.6666666666667,4,2,99,5,0,0
13751,-100,4,1,0,25,0,0
14151,-100,4,1,0,30,0,0
14351,-100,4,1,0,25,0,0
14951,-100,4,1,0,30,0,0
15151,-100,4,1,0,25,0,0
15751,-100,4,1,0,30,0,0
15951,-100,4,1,0,25,0,0
16551,-100,4,1,0,30,0,0
16751,-100,4,1,0,25,0,0
17351,-100,4,1,0,30,0,0
17551,-100,4,1,0,25,0,0
18151,-100,4,1,0,30,0,0
18351,-100,4,1,0,25,0,0
18701,-100,4,2,99,5,0,0
18751,-100,4,1,0,25,0,0
18901,-100,4,2,99,5,0,0
18951,-100,4,1,0,30,0,0
19101,-100,4,2,99,5,0,0
19151,-100,4,1,0,25,0,0
19301,-100,4,2,99,5,0,0
19351,-100,4,1,0,25,0,0
19376,-100,4,1,0,21,0,0
19651,-100,4,1,0,23,0,0
19751,-100,4,1,0,27,0,0
19851,-100,4,1,0,29,0,0
19951,-100,4,1,0,31,0,0
20051,-100,4,2,99,5,0,0
20151,-66.6666666666667,4,1,0,35,0,1
20176,-66.6666666666667,4,1,0,30,0,0
26551,-50,4,1,0,30,0,0
32151,-50,4,1,0,20,0,0
32851,-50,4,2,99,5,0,0
32951,-100,4,2,0,40,0,0
33151,-100,4,2,0,35,0,0
33251,-100,4,2,0,40,0,0
33351,-100,4,2,0,35,0,0
33651,-100,4,2,0,30,0,0
34151,-100,4,2,0,35,0,0
34551,-100,4,2,0,30,0,0
34751,-100,4,2,0,35,0,0
34851,-100,4,2,0,40,0,0
34951,-100,4,2,0,35,0,0
35251,-100,4,2,0,30,0,0
35751,-100,4,2,0,35,0,0
36151,-100,4,2,0,30,0,0
36351,-100,4,2,0,40,0,0
36451,-100,4,2,0,35,0,0
36851,-100,4,2,0,30,0,0
37351,-100,4,2,0,35,0,0
37751,-100,4,2,0,30,0,0
37951,-100,4,2,0,40,0,0
38051,-100,4,2,0,35,0,0
38451,-100,4,2,0,30,0,0
38951,-100,4,2,0,35,0,0
39351,-100,4,2,0,40,0,0
39751,-100,4,2,0,35,0,0
39851,-100,4,2,0,40,0,0
40251,-100,4,2,0,35,0,0
40351,-100,4,2,0,40,0,0
40551,-100,4,2,0,35,0,0
40751,-100,4,2,0,40,0,0
41351,-100,4,2,0,35,0,0
41451,-100,4,2,0,40,0,0
41851,-100,4,2,0,35,0,0
41951,-100,4,2,0,40,0,0
42151,-100,4,2,0,35,0,0
42351,-100,4,2,0,40,0,0
42751,-100,4,2,99,40,0,0
42951,-100,4,2,99,35,0,0
43051,-100,4,2,99,40,0,0
43351,-100,4,2,0,20,0,0
43451,-100,4,2,99,35,0,0
43551,-100,4,2,99,40,0,0
43751,-100,4,2,99,35,0,0
44151,-100,4,2,0,40,0,0
44551,-100,4,2,0,35,0,0
45751,200,4,2,99,30,1,1
58551,-100,4,2,99,45,0,1
58951,-100,4,2,99,30,0,1
59151,-100,4,2,99,45,0,1
59751,-100,4,2,99,30,0,1
59951,-100,4,2,99,45,0,1
60551,-100,4,2,99,30,0,1
60751,-100,4,2,99,45,0,1
61351,-100,4,2,99,30,0,1
61551,-100,4,2,99,45,0,1
61751,-100,4,2,99,30,0,1
64951,-50,4,2,99,30,0,1
66551,-100,4,2,99,30,0,1
68151,-50,4,2,99,30,0,1
69751,-133.333333333333,4,2,99,30,0,1
71326,-133.333333333333,4,2,99,30,0,0
71351,400,4,1,0,35,1,1
71376,-100,4,1,0,25,0,0
72951,-100,4,1,0,25,0,0
77751,-100,4,1,0,25,0,0
78551,-100,4,1,0,35,0,0
78751,-100,4,1,0,25,0,0
80151,-100,4,1,0,35,0,0
80351,-100,4,1,0,25,0,0
81751,-100,4,1,0,35,0,0
81951,-100,4,1,0,25,0,0
82551,200,4,2,0,40,1,0
82951,-100,4,1,0,25,0,0
84051,-100,4,2,99,5,0,0
84151,400,4,2,0,40,1,0
84351,-100,4,2,0,35,0,0
84451,-100,4,2,0,40,0,0
84551,-100,4,2,0,35,0,0
84851,-100,4,2,0,30,0,0
85351,-100,4,2,0,35,0,0
85751,-100,4,2,0,30,0,0
85951,-100,4,2,0,40,0,0
86051,-100,4,2,0,35,0,0
86451,-100,4,2,0,30,0,0
86951,-100,4,2,0,35,0,0
87351,-100,4,2,0,30,0,0
87551,-100,4,2,0,35,0,0
87651,-100,4,2,0,40,0,0
87751,-100,4,2,0,35,0,0
88051,-100,4,2,0,30,0,0
88551,-100,4,2,0,35,0,0
88951,-100,4,2,0,30,0,0
89151,-100,4,2,0,40,0,0
89251,-100,4,2,0,35,0,0
89651,-100,4,2,0,30,0,0
90151,-100,4,2,0,35,0,0
90551,-50,4,2,0,40,0,0
90951,-50,4,2,0,35,0,0
91051,-50,4,2,0,40,0,0
91451,-50,4,2,0,35,0,0
91551,-50,4,2,0,40,0,0
91751,-50,4,2,0,35,0,0
91851,-50,4,2,0,40,0,0
92151,-50,4,2,0,40,0,0
92551,-50,4,2,0,35,0,0
92651,-50,4,2,0,40,0,0
93051,-50,4,2,0,35,0,0
93151,-50,4,2,0,40,0,0
93351,-50,4,2,0,35,0,0
93451,-50,4,2,0,40,0,0
93751,-50,4,2,0,40,0,0
94151,-50,4,2,0,35,0,0
94251,-50,4,2,0,40,0,0
94651,-50,4,2,0,35,0,0
94751,-50,4,2,0,40,0,0
94951,-50,4,2,0,35,0,0
95051,-50,4,2,0,40,0,0
95751,-50,4,2,0,35,0,0
96901,200,4,2,99,30,1,1
96951,200,4,2,99,30,1,1
112951,-133.333333333333,4,2,99,30,0,1
113551,-200,4,2,99,30,0,1
113751,-133.333333333333,4,2,99,30,0,1
114351,-200,4,2,99,30,0,1
114551,-100,4,2,99,30,0,1
122526,-100,4,2,99,30,0,0
122551,400,4,2,0,40,1,1
122576,-100,4,2,0,10,0,0

[HitObjects]
352,32,951,6,0,L|352:128,1,96.0000036621095
352,256,1251,2,0,L|352:352,1,96.0000036621095
160,32,1751,2,0,L|160:128,1,96.0000036621095
160,256,2051,2,0,L|160:352,1,96.0000036621095
352,32,2551,5,0,0:0:0:0:
352,96,2651,2,0,B|256:96|256:96|352:96,1,192.000007324219
352,160,2951,1,0,0:0:0:0:
352,224,3051,1,0,0:0:0:0:
160,160,3351,1,0,0:0:0:0:
160,224,3451,2,0,B|256:224|256:224|160:224,1,192.000007324219
160,288,3751,1,0,0:0:0:0:
160,352,3851,1,0,0:0:0:0:
448,32,4151,6,0,L|448:128,1,96.0000036621095
448,256,4451,2,0,L|448:352,1,96.0000036621095
64,32,4951,2,0,L|64:128,1,96.0000036621095
64,256,5251,2,0,L|64:352,1,96.0000036621095
448,32,5751,5,0,0:0:0:0:
448,128,5851,2,0,B|352:128|352:128|448:128,1,192.000007324219
448,224,6151,1,0,0:0:0:0:
448,320,6251,1,0,0:0:0:0:
64,64,6551,1,0,0:0:0:0:
64,160,6651,2,0,B|160:160|160:160|64:160,1,192.000007324219
64,256,6951,1,0,0:0:0:0:
64,352,7051,1,0,0:0:0:0:
318,253,7351,5,4,0:0:0:0:
168,212,7551,1,0,0:0:0:0:
278,102,7751,1,0,0:0:0:0:
304,274,7951,1,0,0:0:0:0:
155,188,8151,5,0,0:0:0:0:
304,102,8351,1,0,0:0:0:0:
282,293,8551,1,0,0:0:0:0:
150,160,8751,1,0,0:0:0:0:
331,112,8951,5,0,0:0:0:0:
255,309,9151,1,0,0:0:0:0:
151,129,9351,1,0,0:0:0:0:
358,129,9551,1,0,0:0:0:0:
220,316,9751,5,0,0:0:0:0:
162,94,9951,1,0,0:0:0:0:
382,155,10151,1,0,0:0:0:0:
184,315,10351,1,0,0:0:0:0:
183,63,10551,5,0,0:0:0:0:
400,189,10751,1,0,0:0:0:0:
143,302,10951,1,0,0:0:0:0:
213,36,11151,1,0,0:0:0:0:
409,230,11351,5,0,0:0:0:0:
104,277,11551,1,0,0:0:0:0:
253,22,11751,1,0,0:0:0:0:
407,277,11951,1,0,0:0:0:0:
256,192,12151,6,0,L|173:240,1,96
90,288,12351,2,0,L|173:240,1,96
256,192,12551,2,0,L|340:240,1,96
423,288,12751,2,0,L|340:240,1,96
256,192,12951,6,0,L|365:99,1,144.000005493164
402,68,13151,2,0,L|292:160,1,144.000005493164
256,192,13351,2,0,L|144:98,1,144.000005493164
108,68,13551,2,0,L|219:161,1,144.000005493164
256,256,13751,5,0,0:0:0:0:
0,288,13951,1,0,0:0:0:0:
192,320,14151,2,0,B|61:346|61:189|192:215,1,256,4|0,0:2|0:0,0:0:0:0:
512,288,14751,1,0,0:0:0:0:
320,320,14951,2,0,B|451:346|451:189|320:215,1,256,4|0,0:2|0:0,0:0:0:0:
128,192,15551,5,0,0:0:0:0:
384,32,15751,2,0,B|253:6|253:163|384:137,1,256,4|0,0:2|0:0,0:0:0:0:
384,192,16351,1,0,0:0:0:0:
128,32,16551,2,0,B|259:6|259:163|128:137,1,256,4|0,0:2|0:0,0:0:0:0:
288,256,17151,5,0,0:0:0:0:
96,192,17351,2,0,P|60:240|52:312,1,128,4|0,0:2|0:0,0:0:0:0:
383,137,17751,1,0,0:0:0:0:
224,256,17951,1,0,0:0:0:0:
416,192,18151,2,0,P|452:240|460:312,1,128,4|0,0:2|0:0,0:0:0:0:
256,192,18551,6,0,L|339:240,1,96
422,288,18751,2,0,L|339:240,1,96
256,192,18951,2,0,L|172:240,1,96,4|0,0:2|0:0,0:0:0:0:
89,288,19151,2,0,L|172:240,1,96
256,192,19351,5,0,0:0:0:0:
256,192,19376,12,0,20051,0:0:0:0:
80,96,20151,5,4,0:0:0:0:
448,224,20351,1,0,0:0:0:0:
439,256,20451,1,0,0:0:0:0:
425,287,20551,1,4,0:2:0:0:
406,315,20651,1,0,0:0:0:0:
382,339,20751,1,0,0:0:0:0:
64,224,20951,1,0,0:0:0:0:
73,256,21051,1,0,0:0:0:0:
87,287,21151,1,0,0:0:0:0:
106,315,21251,1,0,0:0:0:0:
130,339,21351,1,4,0:2:0:0:
432,96,21551,1,0,0:0:0:0:
256,80,21751,5,0,0:0:0:0:
176,80,21851,2,0,B|96:96|96:96|0:176|48:288,1,288.000010986329,0|4,0:0|0:2,0:0:0:0:
256,304,22351,1,0,0:0:0:0:
336,304,22451,2,0,B|416:288|416:288|512:208|464:96,1,288.000010986329
212,210,22951,2,0,L|298:171,1,96.0000036621095,4|0,0:2|0:0,0:0:0:0:
86,143,23351,5,0,0:0:0:0:
256,192,23551,1,0,0:0:0:0:
86,240,23751,1,4,0:2:0:0:
86,240,23851,1,0,0:0:0:0:
86,240,23951,1,0,0:0:0:0:
426,143,24151,1,0,0:0:0:0:
256,192,24351,1,0,0:0:0:0:
256,192,24451,1,0,0:0:0:0:
256,192,24551,1,4,0:2:0:0:
426,240,24751,1,0,0:0:0:0:
16,80,24951,5,0,0:0:0:0:
0,214,25051,2,0,P|101:147|0:80,1,288.000010986329,0|4,0:0|0:2,0:0:0:0:
496,304,25551,1,0,0:0:0:0:
512,170,25651,2,0,P|411:237|512:304,1,288.000010986329
426,128,26051,1,0,0:0:0:0:
341,128,26151,1,4,0:2:0:0:
256,128,26251,1,0,0:0:0:0:
171,128,26351,1,0,0:0:0:0:
85,128,26451,1,4,0:2:0:0:
0,128,26551,6,0,B|0:256|0:256|0:128,1,256,4|0,0:2|0:0,0:0:0:0:
288,64,26951,1,4,0:2:0:0:
192,64,27051,1,0,0:0:0:0:
256,192,27151,1,0,0:0:0:0:
96,192,27351,1,0,0:0:0:0:
224,320,27551,1,0,0:0:0:0:
320,320,27651,1,0,0:0:0:0:
512,256,27751,2,0,B|512:128|512:128|512:256,1,256,4|0,0:2|0:0,0:0:0:0:
256,256,28151,5,0,0:0:0:0:
256,0,28251,2,0,B|256:256|256:256|384:256,1,384,0|4,0:0|0:2,0:0:0:0:
256,128,28751,1,0,0:0:0:0:
256,384,28851,2,0,B|256:128|256:128|128:128,1,384
416,192,29351,1,4,0:2:0:0:
256,192,29451,1,0,0:0:0:0:
439,31,29751,6,0,L|236:188,2,256,0|0|4,0:0|0:0|0:2,0:0:0:0:
256,192,30251,1,0,0:0:0:0:
72,352,30351,2,0,L|274:194,2,256
160,192,30851,1,0,0:0:0:0:
72,32,30951,2,0,L|274:190,1,256,4|0,0:2|0:0,0:0:0:0:
256,192,31351,5,0,0:0:0:0:
73,378,31451,2,0,P|30:192|73:6,1,384,0|4,0:0|0:2,0:0:0:0:
256,192,31951,1,0,0:0:0:0:
432,192,32051,1,0,0:0:0:0:
256,192,32151,12,0,32851,0:0:0:0:
448,96,32951,5,4,1:0:0:0:
128,64,33151,1,0,0:0:0:0:
83,88,33251,1,2,0:0:0:0:
63,135,33351,1,8,0:0:0:0:
128,64,33451,1,0,0:0:0:0:
173,88,33551,1,0,0:0:0:0:
193,135,33651,1,4,3:0:0:0:
128,135,33851,1,4,3:0:0:0:
128,135,34151,1,8,0:0:0:0:
64,288,34551,5,4,3:0:0:0:
384,320,34751,1,0,0:0:0:0:
429,296,34851,1,2,0:0:0:0:
449,249,34951,1,8,0:0:0:0:
384,320,35051,1,0,0:0:0:0:
339,296,35151,1,0,0:0:0:0:
319,249,35251,1,4,3:0:0:0:
384,249,35451,1,4,3:0:0:0:
384,249,35751,1,8,0:0:0:0:
448,96,36151,5,4,3:0:0:0:
128,64,36351,1,2,0:0:0:0:
173,88,36451,1,0,0:0:0:0:
193,135,36551,1,8,0:0:0:0:
63,135,36651,1,0,0:0:0:0:
83,88,36751,1,0,0:0:0:0:
128,64,36851,1,4,3:0:0:0:
63,135,37051,1,4,3:0:0:0:
193,135,37351,1,8,0:0:0:0:
64,288,37751,5,4,3:0:0:0:
384,320,37951,1,2,0:0:0:0:
339,296,38051,1,0,0:0:0:0:
319,249,38151,1,8,0:0:0:0:
449,249,38251,1,0,0:0:0:0:
429,296,38351,1,0,0:0:0:0:
384,320,38451,1,4,3:0:0:0:
449,249,38651,1,4,3:0:0:0:
319,249,38951,1,8,0:0:0:0:
512,192,39351,5,4,0:0:0:0:
320,352,39551,1,2,0:0:0:0:
368,352,39651,1,0,0:0:0:0:
208,288,39751,2,0,L|272:288,1,64,0|0,1:0|0:0,0:0:0:0:
320,288,39951,1,0,0:0:0:0:
368,288,40051,1,0,0:0:0:0:
208,224,40151,1,0,3:0:0:0:
48,160,40251,2,0,L|112:160,1,64,0|0,1:0|0:0,0:0:0:0:
160,160,40451,1,0,0:0:0:0:
0,96,40551,2,0,B|128:96|128:96|0:96,1,256,0|4,1:0|3:0,0:0:0:0:
192,352,41151,5,2,0:0:0:0:
144,352,41251,1,0,0:0:0:0:
304,288,41351,2,0,L|240:288,1,64,0|0,1:0|0:0,0:0:0:0:
192,288,41551,1,0,0:0:0:0:
144,288,41651,1,0,0:0:0:0:
304,224,41751,1,0,3:0:0:0:
464,160,41851,2,0,L|400:160,1,64,0|0,1:0|0:0,0:0:0:0:
352,160,42051,1,0,0:0:0:0:
512,96,42151,2,0,B|384:96|384:96|512:96,1,256,0|4,1:0|3:0,0:0:0:0:
256,256,42751,6,0,L|256:192,1,64,2|0,3:2|3:0,0:0:0:0:
256,128,42951,2,0,L|256:192,1,64,0|0,0:0|3:0,0:0:0:0:
208,288,42951,1,0,1:0:0:0:
256,320,43151,2,0,L|256:256,1,64,0|0,3:0|3:0,0:0:0:0:
292,212,43351,1,0,3:0:0:0:
256,64,43351,2,0,L|256:128,1,64,0|0,3:0|0:0,0:0:0:0:
220,172,43451,1,0,1:0:0:0:
256,384,43551,2,0,L|256:320,1,64,0|0,3:0|3:0,0:0:0:0:
256,0,43751,1,0,0:0:0:0:
304,96,43751,1,0,1:0:0:0:
416,288,44151,5,4,0:0:0:0:
96,288,44551,1,0,1:0:0:0:
335,269,44951,1,0,3:0:0:0:
324,258,45051,2,0,L|186:124,1,192,0|0,1:0|1:0,0:0:0:0:
256,288,45551,1,0,1:0:0:0:
256,288,45651,1,0,1:0:0:0:
256,192,45751,6,0,L|160:288,1,128,0|0,1:0|1:0,1:0:0:0:
0,192,45951,2,0,L|96:288,1,128,0|0,1:0|1:0,1:0:0:0:
256,192,46151,6,0,L|160:96,1,128,4|0,1:2|1:0,1:0:0:0:
0,192,46351,2,0,L|96:96,1,128,0|0,1:0|1:0,1:0:0:0:
341,192,46551,6,0,L|245:288,1,128,0|0,1:0|1:0,1:0:0:0:
85,192,46751,2,0,L|181:288,1,128,0|0,1:0|1:0,1:0:0:0:
341,192,46951,6,0,L|245:96,1,128,4|0,1:2|1:0,1:0:0:0:
85,192,47151,2,0,L|181:96,1,128,0|0,1:0|1:0,1:0:0:0:
426,192,47351,6,0,L|330:288,1,128,0|0,1:0|1:0,1:0:0:0:
170,192,47551,2,0,L|266:288,1,128,0|0,1:0|1:0,1:0:0:0:
426,192,47751,6,0,L|330:96,1,128,4|0,1:2|1:0,1:0:0:0:
170,192,47951,2,0,L|266:96,1,128,0|0,1:0|1:0,1:0:0:0:
511,192,48151,6,0,L|415:288,1,128,0|0,1:0|1:0,1:0:0:0:
255,192,48351,2,0,L|351:288,1,128,0|0,1:0|1:0,1:0:0:0:
511,192,48551,6,0,L|415:96,1,128,4|0,1:2|1:0,1:0:0:0:
255,192,48751,2,0,L|351:96,1,128,0|0,1:0|1:0,1:0:0:0:
512,64,48951,6,0,L|512:192,1,128,0|0,1:0|1:0,1:0:0:0:
512,320,49151,2,0,L|512:192,1,128,0|0,1:0|1:0,1:0:0:0:
512,192,49351,2,0,L|384:192,1,128,4|0,1:2|1:0,1:0:0:0:
256,192,49551,2,0,L|128:192,1,128,0|0,1:0|1:0,1:0:0:0:
0,320,49751,6,0,L|0:192,1,128,0|0,1:0|1:0,1:0:0:0:
0,64,49951,2,0,L|0:192,1,128,0|0,1:0|1:0,1:0:0:0:
0,192,50151,2,0,L|128:192,1,128,4|0,1:2|1:0,1:0:0:0:
256,192,50351,2,0,L|384:192,1,128,0|0,1:0|1:0,1:0:0:0:
512,192,50551,5,0,1:0:0:0:
512,192,50751,2,0,B|512:256|512:256|512:128|512:128|512:192|512:192|256:192,1,512,2|2,1:2|1:2,1:0:0:0:
0,192,51351,5,0,1:0:0:0:
0,192,51551,2,0,B|0:256|0:256|0:128|0:128|0:192|0:192|256:192,1,512,2|2,1:2|1:2,1:0:0:0:
256,192,52151,6,0,L|352:288,1,128,4|0,1:2|1:0,1:0:0:0:
512,192,52351,2,0,L|416:288,1,128,0|0,1:0|1:0,1:0:0:0:
256,192,52551,6,0,L|352:96,1,128,4|0,1:2|1:0,1:0:0:0:
512,192,52751,2,0,L|416:96,1,128,0|0,1:0|1:0,1:0:0:0:
204,192,52951,6,0,L|300:288,1,128,0|0,1:0|1:0,1:0:0:0:
460,192,53151,2,0,L|364:288,1,128,0|0,1:0|1:0,1:0:0:0:
204,192,53351,6,0,L|300:96,1,128,4|0,1:2|1:0,1:0:0:0:
460,192,53551,2,0,L|364:96,1,128,0|0,1:0|1:0,1:0:0:0:
153,192,53751,6,0,L|249:288,1,128,0|0,1:0|1:0,1:0:0:0:
409,192,53951,2,0,L|313:288,1,128,0|0,1:0|1:0,1:0:0:0:
153,192,54151,6,0,L|249:96,1,128,4|0,1:2|1:0,1:0:0:0:
409,192,54351,2,0,L|313:96,1,128,0|0,1:0|1:0,1:0:0:0:
102,192,54551,6,0,L|198:288,1,128,0|0,1:0|1:0,1:0:0:0:
358,192,54751,2,0,L|262:288,1,128,0|0,1:0|1:0,1:0:0:0:
102,192,54951,6,0,L|198:96,1,128,4|0,1:2|1:0,1:0:0:0:
358,192,55151,2,0,L|262:96,1,128,0|0,1:0|1:0,1:0:0:0:
51,192,55351,6,0,L|147:288,1,128,0|0,1:0|1:0,1:0:0:0:
307,192,55551,2,0,L|211:288,1,128,0|0,1:0|1:0,1:0:0:0:
51,192,55751,6,0,L|147:96,1,128,4|0,1:2|1:0,1:0:0:0:
307,192,55951,2,0,L|211:96,1,128,0|0,1:0|1:0,1:0:0:0:
0,192,56151,6,0,L|96:288,1,128,0|0,1:0|1:0,1:0:0:0:
256,192,56351,2,0,L|160:288,1,128,0|0,1:0|1:0,1:0:0:0:
0,192,56551,6,0,L|96:96,1,128,4|0,1:2|1:0,1:0:0:0:
256,192,56751,2,0,L|160:96,1,128,0|0,1:0|1:0,1:0:0:0:
0,192,56951,5,0,1:0:0:0:
0,192,57151,2,0,B|0:256|0:256|0:128|0:128|0:192|0:192|256:192,1,512,2|2,1:2|1:2,1:0:0:0:
512,192,57751,5,0,1:0:0:0:
512,192,57951,2,0,B|512:256|512:256|512:128|512:128|512:192|512:192|256:192,1,512,2|2,1:2|1:2,1:0:0:0:
512,244,58551,6,2,B|512:97|512:73|384:97,2,256,2|2|6,0:0|0:0|0:0,0:0:0:0:
256,192,59151,1,0,3:0:0:0:
0,244,59351,2,2,B|0:97|0:73|127:97,2,256,2|2|6,0:0|0:0|0:0,0:0:0:0:
256,192,59951,1,0,3:0:0:0:
128,96,60151,6,2,B|128:243|127:267|1:242,2,256,2|2|6,0:0|0:0|0:0,0:0:0:0:
256,192,60751,1,0,3:0:0:0:
384,96,60951,2,2,B|384:243|384:267|510:242,2,256,2|2|6,0:0|0:0|0:0,0:0:0:0:
256,192,61551,1,0,3:0:0:0:
292,118,61751,5,0,1:0:0:0:
365,118,61851,1,0,1:0:0:0:
438,118,61951,1,0,1:0:0:0:
511,118,62051,1,0,1:0:0:0:
512,118,62151,1,4,1:2:0:0:
476,118,62251,1,0,1:0:0:0:
394,118,62351,1,0,1:0:0:0:
293,118,62451,1,0,1:0:0:0:
220,155,62551,1,0,1:0:0:0:
183,155,62651,1,0,1:0:0:0:
101,155,62751,1,0,1:0:0:0:
1,155,62851,1,0,1:0:0:0:
0,155,62951,1,4,1:2:0:0:
100,155,63051,1,0,1:0:0:0:
182,155,63151,1,0,1:0:0:0:
219,155,63251,1,0,1:0:0:0:
292,228,63351,5,0,1:0:0:0:
393,228,63451,1,0,1:0:0:0:
475,228,63551,1,0,1:0:0:0:
511,228,63651,1,0,1:0:0:0:
512,228,63751,1,4,1:2:0:0:
476,228,63851,1,0,1:0:0:0:
394,228,63951,1,0,1:0:0:0:
293,228,64051,1,0,1:0:0:0:
220,265,64151,1,0,1:0:0:0:
183,265,64251,1,0,1:0:0:0:
101,265,64351,1,0,1:0:0:0:
1,265,64451,1,0,1:0:0:0:
74,266,64551,1,4,1:2:0:0:
147,266,64651,1,0,1:0:0:0:
220,266,64751,1,0,1:0:0:0:
0,265,64851,1,4,1:2:0:0:
0,64,64951,6,0,L|160:272,1,256,4|0,1:2|1:0,1:0:0:0:
168,64,65151,2,0,L|328:272,1,256,0|0,1:0|1:0,1:0:0:0:
336,64,65351,2,0,L|496:272,1,256,4|0,1:2|1:0,1:0:0:0:
512,264,65551,1,0,1:0:0:0:
492,266,65651,1,0,1:0:0:0:
512,64,65751,6,0,L|352:272,1,256,0|0,1:0|1:0,1:0:0:0:
344,64,65951,2,0,L|184:272,1,256,0|0,1:0|1:0,1:0:0:0:
176,64,66151,2,0,L|16:272,1,256,4|0,1:2|1:0,1:0:0:0:
0,264,66351,1,0,1:0:0:0:
19,266,66451,1,0,1:0:0:0:
0,352,66551,6,0,L|110:288,1,128,0|0,1:0|1:0,1:0:0:0:
127,352,66751,2,0,L|238:288,1,128,0|0,1:0|1:0,1:0:0:0:
255,352,66951,2,0,L|366:288,1,128,4|0,1:2|1:0,1:0:0:0:
384,352,67151,2,0,L|494:288,1,128,0|0,1:0|1:0,1:0:0:0:
512,32,67351,6,0,L|402:96,1,128,0|0,1:0|1:0,1:0:0:0:
385,32,67551,2,0,L|274:96,1,128,0|0,1:0|1:0,1:0:0:0:
257,32,67751,2,0,L|146:96,1,128,4|0,1:2|1:0,1:0:0:0:
128,32,67951,2,0,L|18:96,1,128,0|0,1:0|1:0,1:0:0:0:
0,64,68151,6,0,L|160:272,1,256,0|0,1:0|1:0,1:0:0:0:
168,64,68351,2,0,L|328:272,1,256,0|0,1:0|1:0,1:0:0:0:
512,64,68551,2,0,L|352:272,1,256,4|0,1:2|1:0,1:0:0:0:
344,64,68751,2,0,L|184:272,1,256,0|0,1:0|1:0,1:0:0:0:
0,256,68951,6,0,L|256:336,1,256,0|0,1:0|1:0,1:0:0:0:
256,304,69151,2,0,L|512:384,1,256,0|0,1:0|1:0,1:0:0:0:
512,256,69351,2,0,L|256:336,1,256,4|0,1:2|1:0,1:0:0:0:
256,304,69551,2,0,L|0:384,1,256,0|0,1:0|1:0,1:0:0:0:
45,339,69751,6,0,L|123:284,1,96.0000036621095,0|0,1:0|1:0,1:0:0:0:
238,205,69951,2,0,L|159:260,1,96.0000036621095,0|0,1:0|1:0,1:0:0:0:
272,180,70151,2,0,L|350:125,1,96.0000036621095,4|0,1:2|1:0,1:0:0:0:
465,46,70351,2,0,L|386:101,1,96.0000036621095,0|0,1:0|1:0,1:0:0:0:
386,282,70551,2,0,L|465:337,1,96.0000036621095,0|0,1:0|1:0,1:0:0:0:
350,258,70751,2,0,L|272:203,1,96.0000036621095,0|0,1:0|1:0,1:0:0:0:
159,123,70951,2,0,L|238:178,1,96.0000036621095,4|0,1:2|1:0,1:0:0:0:
123,99,71151,2,0,L|45:44,1,96.0000036621095,0|0,1:0|1:0,1:0:0:0:
0,0,71351,5,4,0:0:0:0:
256,192,71751,1,0,0:0:0:0:
512,384,72151,1,0,0:0:0:0:
256,192,72551,1,0,0:0:0:0:
128,192,72951,6,0,L|384:192,3,256
216,224,74551,5,0,0:0:0:0:
296,160,74951,1,0,0:0:0:0:
166,241,75351,1,0,0:0:0:0:
345,142,75751,1,0,0:0:0:0:
57,258,76151,5,0,0:0:0:0:
453,124,76551,1,0,0:0:0:0:
0,232,76951,1,0,0:0:0:0:
512,151,77351,1,0,0:0:0:0:
212,64,77751,6,0,B|138:60|148:132|148:132|89:70|0:124,1,256,0|8,0:0|0:0,0:0:0:0:
300,319,78351,2,0,B|337:321|332:285|332:285|361:317|405:289,2,128,0|2|0,0:0|0:2|0:0,0:0:0:0:
256,160,78951,1,8,0:0:0:0:
464,192,79351,6,0,B|464:128|464:32|304:32,1,256,0|8,0:0|0:0,0:0:0:0:
48,192,79951,2,0,B|48:224|48:272|128:272,2,128,0|2|8,0:0|0:2|0:0,0:0:0:0:
256,192,80551,1,8,0:0:0:0:
96,64,80951,6,0,L|64:320,1,256,0|8,0:0|0:0,0:0:0:0:
416,320,81551,2,0,L|431:192,2,128,0|2|0,0:0|0:2|0:0,0:0:0:0:
256,224,82151,1,8,0:0:0:0:
0,128,82551,6,0,L|512:128,1,512,4|0,0:0|0:0,0:0:0:0:
256,192,83351,12,0,84051,0:0:0:0:
448,96,84151,5,4,1:0:0:0:
63,135,84351,1,0,0:0:0:0:
83,88,84451,1,2,0:0:0:0:
128,64,84551,1,8,0:0:0:0:
193,135,84651,1,0,0:0:0:0:
173,88,84751,1,0,0:0:0:0:
128,64,84851,1,4,3:0:0:0:
128,135,85051,1,4,3:0:0:0:
128,135,85351,1,8,0:0:0:0:
64,288,85751,5,4,3:0:0:0:
449,249,85951,1,2,0:0:0:0:
429,296,86051,1,0,0:0:0:0:
384,320,86151,1,8,0:0:0:0:
319,249,86251,1,0,0:0:0:0:
339,296,86351,1,0,0:0:0:0:
384,320,86451,1,4,3:0:0:0:
384,249,86651,1,4,3:0:0:0:
384,249,86951,1,8,0:0:0:0:
448,96,87351,5,4,3:0:0:0:
173,88,87551,1,0,0:0:0:0:
193,135,87651,1,2,0:0:0:0:
128,64,87751,1,8,0:0:0:0:
128,64,87851,1,0,0:0:0:0:
63,135,87951,1,0,0:0:0:0:
83,88,88051,1,4,3:0:0:0:
193,135,88251,1,4,3:0:0:0:
63,135,88551,1,8,0:0:0:0:
64,288,88951,5,4,3:0:0:0:
339,296,89151,1,2,0:0:0:0:
319,249,89251,1,0,0:0:0:0:
384,320,89351,1,8,0:0:0:0:
384,320,89451,1,0,0:0:0:0:
449,249,89551,1,0,0:0:0:0:
429,296,89651,1,4,3:0:0:0:
319,249,89851,1,4,3:0:0:0:
449,249,90151,1,8,0:0:0:0:
320,0,90551,6,0,L|192:0,1,128,4|0,0:0|0:0,0:0:0:0:
192,32,90751,1,2,0:0:0:0:
192,64,90851,1,0,0:0:0:0:
192,96,90951,2,0,L|320:96,1,128,0|0,1:0|0:0,0:0:0:0:
320,128,91151,1,0,0:0:0:0:
320,160,91251,1,0,0:0:0:0:
320,192,91351,1,0,3:0:0:0:
192,224,91451,2,0,L|320:224,1,128,0|0,1:0|0:0,0:0:0:0:
320,256,91651,1,0,0:0:0:0:
320,288,91751,2,0,L|192:288,1,128,0|0,1:0|0:0,0:0:0:0:
168,320,91951,1,0,0:0:0:0:
144,352,92051,1,0,0:0:0:0:
120,0,92151,6,0,L|252:0,1,128,4|0,3:0|0:0,0:0:0:0:
296,32,92351,1,2,0:0:0:0:
344,64,92451,1,0,0:0:0:0:
392,96,92551,2,0,L|260:96,1,128,0|0,1:0|0:0,0:0:0:0:
216,128,92751,1,0,0:0:0:0:
168,160,92851,1,0,0:0:0:0:
120,192,92951,1,0,3:0:0:0:
248,224,93051,2,0,L|120:224,1,128,0|0,1:0|0:0,0:0:0:0:
120,256,93251,1,0,0:0:0:0:
120,288,93351,2,0,L|252:288,1,128,0|0,1:0|0:0,0:0:0:0:
320,320,93551,1,0,0:0:0:0:
392,352,93651,1,0,0:0:0:0:
464,0,93751,6,0,L|332:0,1,128,4|0,3:0|0:0,0:0:0:0:
240,32,93951,1,2,0:0:0:0:
144,64,94051,1,0,0:0:0:0:
48,96,94151,2,0,L|180:96,1,128,0|0,1:0|0:0,0:0:0:0:
272,128,94351,1,0,0:0:0:0:
368,160,94451,1,0,0:0:0:0:
464,192,94551,1,0,3:0:0:0:
336,224,94651,2,0,L|464:224,1,128,0|0,1:0|0:0,0:0:0:0:
464,256,94851,1,0,0:0:0:0:
464,288,94951,2,0,L|332:288,1,128,0|0,1:0|0:0,0:0:0:0:
240,320,95151,1,0,0:0:0:0:
144,352,95251,1,0,0:0:0:0:
96,288,95351,5,4,0:0:0:0:
416,288,95751,1,0,1:0:0:0:
128,192,96151,1,0,3:0:0:0:
96,192,96251,1,0,1:0:0:0:
336,192,96551,1,0,1:0:0:0:
336,192,96751,1,0,1:0:0:0:
336,192,96851,1,0,1:0:0:0:
336,384,96938,6,0,L|320:384,2,16,0|0|0,0:0|1:0|0:0,0:0:0:0:
464,384,97038,2,0,L|480:384,2,16,0|0|0,0:0|1:0|0:0,0:0:0:0:
336,352,97138,6,0,L|320:352,2,16,0|0|0,0:0|1:0|0:0,0:0:0:0:
464,352,97238,2,0,L|480:352,2,16,0|0|0,0:0|1:0|0:0,0:0:0:0:
336,320,97338,6,0,L|320:320,2,16,0|4|0,0:0|1:2|0:0,0:0:0:0:
464,320,97438,2,0,L|480:320,2,16,0|0|0,0:0|1:0|0:0,0:0:0:0:
336,288,97538,6,0,L|320:288,2,16,0|0|0,0:0|1:0|0:0,0:0:0:0:
464,288,97638,2,0,L|480:288,2,16,0|0|0,0:0|1:0|0:0,0:0:0:0:
240,384,97738,6,0,L|224:384,2,16,0|0|0,0:0|1:0|0:0,0:0:0:0:
368,384,97838,2,0,L|384:384,2,16,0|0|0,0:0|1:0|0:0,0:0:0:0:
240,256,97938,6,0,L|224:256,2,16,0|0|0,0:0|1:0|0:0,0:0:0:0:
368,256,98038,2,0,L|384:256,2,16,0|0|0,0:0|1:0|0:0,0:0:0:0:
240,128,98138,6,0,L|224:128,2,16,0|4|0,0:0|1:2|0:0,0:0:0:0:
368,128,98238,2,0,L|384:128,2,16,0|0|0,0:0|1:0|0:0,0:0:0:0:
240,0,98338,6,0,L|224:0,2,16,0|0|0,0:0|1:0|0:0,0:0:0:0:
368,0,98438,2,0,L|384:0,2,16,0|0|0,0:0|1:0|0:0,0:0:0:0:
144,384,98538,6,0,L|128:384,2,16,0|0|0,0:0|1:0|0:0,0:0:0:0:
272,384,98638,2,0,L|288:384,2,16,0|0|0,0:0|1:0|0:0,0:0:0:0:
144,288,98738,6,0,L|128:288,2,16,0|0|0,0:0|1:0|0:0,0:0:0:0:
272,288,98838,2,0,L|288:288,2,16,0|0|0,0:0|1:0|0:0,0:0:0:0:
144,192,98938,6,0,L|128:192,2,16,0|4|0,0:0|1:2|0:0,0:0:0:0:
272,192,99038,2,0,L|288:192,2,16,0|0|0,0:0|1:0|0:0,0:0:0:0:
144,96,99138,6,0,L|128:96,2,16,0|0|0,0:0|1:0|0:0,0:0:0:0:
272,96,99238,2,0,L|288:96,2,16,0|0|0,0:0|1:0|0:0,0:0:0:0:
48,384,99338,6,0,L|32:384,2,16,0|0|0,0:0|1:0|0:0,0:0:0:0:
176,384,99438,2,0,L|192:384,2,16,0|0|0,0:0|1:0|0:0,0:0:0:0:
48,320,99538,6,0,L|32:320,2,16,0|0|0,0:0|1:0|0:0,0:0:0:0:
176,320,99638,2,0,L|192:320,2,16,0|0|0,0:0|1:0|0:0,0:0:0:0:
48,256,99738,6,0,L|32:256,2,16,0|4|0,0:0|1:2|0:0,0:0:0:0:
176,256,99838,2,0,L|192:256,2,16,0|0|0,0:0|1:0|0:0,0:0:0:0:
48,192,99938,6,0,L|32:192,2,16,0|0|0,0:0|1:0|0:0,0:0:0:0:
176,192,100038,2,0,L|192:192,2,16,0|0|0,0:0|1:0|0:0,0:0:0:0:
0,64,100151,6,0,L|0:192,1,128,0|0,1:0|1:0,1:0:0:0:
0,320,100351,2,0,L|0:192,1,128,0|0,1:0|1:0,1:0:0:0:
0,192,100551,2,0,L|128:192,1,128,4|0,1:2|1:0,1:0:0:0:
256,192,100751,2,0,L|384:192,1,128,0|0,1:0|1:0,1:0:0:0:
512,320,100951,6,0,L|512:192,1,128,0|0,1:0|1:0,1:0:0:0:
512,64,101151,2,0,L|512:192,1,128,0|0,1:0|1:0,1:0:0:0:
512,192,101351,2,0,L|384:192,1,128,4|0,1:2|1:0,1:0:0:0:
256,192,101551,2,0,L|128:192,1,128,0|0,1:0|1:0,1:0:0:0:
0,192,101751,5,0,1:0:0:0:
352,5,101951,2,0,B|522:5|454:191|522:378|352:378,1,512,2|2,1:2|1:2,1:0:0:0:
512,192,102551,5,0,1:0:0:0:
160,5,102751,2,0,B|-10:5|58:191|-10:378|160:378,1,512,2|2,1:2|1:2,1:0:0:0:
160,384,103338,6,0,L|176:384,2,16,0|4|0,0:0|1:2|0:0,0:0:0:0:
32,384,103438,2,0,L|16:384,2,16,0|0|0,0:0|1:0|0:0,0:0:0:0:
160,352,103538,6,0,L|176:352,2,16,0|0|0,0:0|1:0|0:0,0:0:0:0:
32,352,103638,2,0,L|16:352,2,16,0|0|0,0:0|1:0|0:0,0:0:0:0:
160,320,103738,6,0,L|176:320,2,16,0|4|0,0:0|1:2|0:0,0:0:0:0:
32,320,103838,2,0,L|16:320,2,16,0|0|0,0:0|1:0|0:0,0:0:0:0:
160,288,103938,6,0,L|176:288,2,16,0|0|0,0:0|1:0|0:0,0:0:0:0:
32,288,104038,2,0,L|16:288,2,16,0|0|0,0:0|1:0|0:0,0:0:0:0:
224,384,104138,6,0,L|240:384,2,16,0|0|0,0:0|1:0|0:0,0:0:0:0:
96,384,104238,2,0,L|80:384,2,16,0|0|0,0:0|1:0|0:0,0:0:0:0:
224,272,104338,6,0,L|240:272,2,16,0|0|0,0:0|1:0|0:0,0:0:0:0:
96,272,104438,2,0,L|80:272,2,16,0|0|0,0:0|1:0|0:0,0:0:0:0:
224,160,104538,6,0,L|240:160,2,16,0|4|0,0:0|1:2|0:0,0:0:0:0:
96,160,104638,2,0,L|80:160,2,16,0|0|0,0:0|1:0|0:0,0:0:0:0:
224,48,104738,6,0,L|240:48,2,16,0|0|0,0:0|1:0|0:0,0:0:0:0:
96,48,104838,2,0,L|80:48,2,16,0|0|0,0:0|1:0|0:0,0:0:0:0:
288,384,104938,6,0,L|304:384,2,16,0|0|0,0:0|1:0|0:0,0:0:0:0:
160,384,105038,2,0,L|144:384,2,16,0|0|0,0:0|1:0|0:0,0:0:0:0:
288,256,105138,6,0,L|304:256,2,16,0|0|0,0:0|1:0|0:0,0:0:0:0:
160,256,105238,2,0,L|144:256,2,16,0|0|0,0:0|1:0|0:0,0:0:0:0:
288,128,105338,6,0,L|304:128,2,16,0|4|0,0:0|1:2|0:0,0:0:0:0:
160,128,105438,2,0,L|144:128,2,16,0|0|0,0:0|1:0|0:0,0:0:0:0:
288,0,105538,6,0,L|304:0,2,16,0|0|0,0:0|1:0|0:0,0:0:0:0:
160,0,105638,2,0,L|144:0,2,16,0|0|0,0:0|1:0|0:0,0:0:0:0:
352,384,105738,6,0,L|368:384,2,16,0|0|0,0:0|1:0|0:0,0:0:0:0:
224,384,105838,2,0,L|208:384,2,16,0|0|0,0:0|1:0|0:0,0:0:0:0:
352,304,105938,6,0,L|368:304,2,16,0|0|0,0:0|1:0|0:0,0:0:0:0:
224,304,106038,2,0,L|208:304,2,16,0|0|0,0:0|1:0|0:0,0:0:0:0:
352,224,106138,6,0,L|368:224,2,16,0|4|0,0:0|1:2|0:0,0:0:0:0:
224,224,106238,2,0,L|208:224,2,16,0|0|0,0:0|1:0|0:0,0:0:0:0:
352,144,106338,6,0,L|368:144,2,16,0|0|0,0:0|1:0|0:0,0:0:0:0:
224,144,106438,2,0,L|208:144,2,16,0|0|0,0:0|1:0|0:0,0:0:0:0:
416,384,106538,6,0,L|432:384,2,16,0|0|0,0:0|1:0|0:0,0:0:0:0:
288,384,106638,2,0,L|272:384,2,16,0|0|0,0:0|1:0|0:0,0:0:0:0:
416,288,106738,6,0,L|432:288,2,16,0|0|0,0:0|1:0|0:0,0:0:0:0:
288,288,106838,2,0,L|272:288,2,16,0|0|0,0:0|1:0|0:0,0:0:0:0:
416,192,106938,6,0,L|432:192,2,16,0|4|0,0:0|1:2|0:0,0:0:0:0:
288,192,107038,2,0,L|272:192,2,16,0|0|0,0:0|1:0|0:0,0:0:0:0:
416,96,107138,6,0,L|432:96,2,16,0|0|0,0:0|1:0|0:0,0:0:0:0:
288,96,107238,2,0,L|272:96,2,16,0|0|0,0:0|1:0|0:0,0:0:0:0:
480,384,107338,6,0,L|496:384,2,16,0|0|0,0:0|1:0|0:0,0:0:0:0:
352,384,107438,2,0,L|336:384,2,16,0|0|0,0:0|1:0|0:0,0:0:0:0:
480,256,107538,6,0,L|496:256,2,16,0|0|0,0:0|1:0|0:0,0:0:0:0:
352,256,107638,2,0,L|336:256,2,16,0|0|0,0:0|1:0|0:0,0:0:0:0:
480,128,107738,6,0,L|496:128,2,16,0|4|0,0:0|1:2|0:0,0:0:0:0:
352,128,107838,2,0,L|336:128,2,16,0|0|0,0:0|1:0|0:0,0:0:0:0:
480,0,107938,6,0,L|496:0,2,16,0|0|0,0:0|1:0|0:0,0:0:0:0:
352,0,108038,2,0,L|336:0,2,16,0|0|0,0:0|1:0|0:0,0:0:0:0:
512,192,108151,5,0,1:0:0:0:
160,5,108351,2,0,B|-10:5|58:191|-10:378|160:378,1,512,2|2,1:2|1:2,1:0:0:0:
0,192,108951,5,0,1:0:0:0:
352,5,109151,2,0,B|522:5|454:191|522:378|352:378,1,512,2|2,1:2|1:2,1:0:0:0:
256,256,109751,6,0,L|156:336,1,128,0|0,1:0|1:0,1:0:0:0:
75,237,109951,2,0,L|174:156,1,128,0|0,1:0|1:0,1:0:0:0:
256,256,110151,2,0,L|132:289,1,128,4|0,1:2|1:0,1:0:0:0:
99,165,110351,2,0,L|222:131,1,128,0|0,1:0|1:0,1:0:0:0:
256,256,110551,2,0,L|129:235,1,128,0|0,1:0|1:0,1:0:0:0:
149,109,110751,2,0,L|275:129,1,128,0|0,1:0|1:0,1:0:0:0:
256,256,110951,2,0,L|148:186,1,128,4|0,1:2|1:0,1:0:0:0:
218,78,111151,2,0,L|325:147,1,128,0|0,1:0|1:0,1:0:0:0:
256,256,111351,6,0,L|186:148,1,128,0|0,1:0|1:0,1:0:0:0:
293,78,111551,2,0,L|362:185,1,128,0|0,1:0|1:0,1:0:0:0:
256,256,111751,2,0,L|235:129,1,128,4|0,1:2|1:0,1:0:0:0:
362,109,111951,2,0,L|382:235,1,128,0|0,1:0|1:0,1:0:0:0:
256,256,112151,2,0,L|289:132,1,128,0|0,1:0|1:0,1:0:0:0:
412,165,112351,2,0,L|378:288,1,128,0|0,1:0|1:0,1:0:0:0:
256,256,112551,2,0,L|336:156,1,128,4|0,1:2|1:0,1:0:0:0:
436,237,112751,2,0,L|355:336,1,128,0|0,1:0|1:0,1:0:0:0:
192,0,112951,6,0,L|96:0,1,96.0000036621095,0|0,1:0|1:0,1:0:0:0:
0,192,113151,2,0,L|96:192,1,96.0000036621095,0|0,1:0|1:0,1:0:0:0:
192,384,113351,2,0,L|96:384,1,96.0000036621095,4|0,1:2|1:0,1:0:0:0:
0,192,113551,2,0,L|64:192,1,64,0|0,1:0|1:0,1:0:0:0:
320,0,113751,2,0,L|416:0,1,96.0000036621095,0|0,1:0|1:0,1:0:0:0:
512,192,113951,2,0,L|416:192,1,96.0000036621095,0|0,1:0|1:0,1:0:0:0:
320,384,114151,2,0,L|416:384,1,96.0000036621095,4|0,1:2|1:0,1:0:0:0:
512,192,114351,2,0,L|448:192,1,64,0|0,1:0|1:0,1:0:0:0:
236,64,114551,6,0,L|108:64,1,128,0|0,1:0|1:0,1:0:0:0:
1,85,114751,2,0,L|106:159,1,128,0|0,1:0|1:0,1:0:0:0:
276,320,114951,2,0,L|404:320,1,128,4|0,1:2|1:0,1:0:0:0:
510,298,115151,2,0,L|406:225,1,128,0|0,1:0|1:0,1:0:0:0:
236,320,115351,2,0,L|108:320,1,128,0|0,1:0|1:0,1:0:0:0:
1,299,115551,2,0,L|106:225,1,128,0|0,1:0|1:0,1:0:0:0:
276,64,115751,2,0,L|404:64,1,128,4|0,1:2|1:0,1:0:0:0:
510,86,115951,2,0,L|406:159,1,128,0|4,1:0|1:2,1:0:0:0:
24,64,116151,6,0,L|12:192,1,128,4|0,1:2|1:0,1:0:0:0:
56,64,116351,2,0,L|44:192,1,128,0|0,1:0|1:0,1:0:0:0:
88,64,116551,2,0,L|76:192,1,128,4|0,1:2|1:0,1:0:0:0:
119,64,116751,2,0,L|108:192,1,128,0|0,1:0|1:0,1:0:0:0:
152,64,116951,6,0,L|129:191,1,128,0|0,1:0|1:0,1:0:0:0:
184,64,117151,2,0,L|161:191,1,128,0|0,1:0|1:0,1:0:0:0:
216,64,117351,2,0,L|193:191,1,128,4|0,1:2|1:0,1:0:0:0:
248,64,117551,2,0,L|225:191,1,128,0|0,1:0|1:0,1:0:0:0:
280,64,117751,6,0,L|246:188,1,128,0|0,1:0|1:0,1:0:0:0:
312,64,117951,2,0,L|278:188,1,128,0|0,1:0|1:0,1:0:0:0:
344,64,118151,2,0,L|310:188,1,128,4|0,1:2|1:0,1:0:0:0:
376,64,118351,2,0,L|342:188,1,128,0|0,1:0|1:0,1:0:0:0:
408,64,118551,6,0,L|385:191,1,128,0|0,1:0|1:0,1:0:0:0:
440,64,118751,2,0,L|417:191,1,128,0|0,1:0|1:0,1:0:0:0:
472,64,118951,2,0,L|449:191,1,128,4|0,1:2|1:0,1:0:0:0:
504,64,119151,2,0,L|481:191,1,128,0|0,1:0|1:0,1:0:0:0:
24,320,119351,6,0,L|1:193,1,128,0|0,1:0|1:0,1:0:0:0:
56,320,119551,2,0,L|20:196,1,128,0|0,1:0|1:0,1:0:0:0:
88,320,119751,2,0,L|39:200,1,128,4|0,1:2|1:0,1:0:0:0:
120,320,119951,2,0,L|59:206,1,128,0|0,1:0|1:0,1:0:0:0:
152,320,120151,6,0,L|80:213,1,128,0|0,1:0|1:0,1:0:0:0:
184,320,120351,2,0,L|123:206,1,128,0|0,1:0|1:0,1:0:0:0:
216,320,120551,2,0,L|167:200,1,128,4|0,1:2|1:0,1:0:0:0:
248,320,120751,2,0,L|212:196,1,128,0|0,1:0|1:0,1:0:0:0:
280,320,120951,6,0,L|257:193,1,128,0|0,1:0|1:0,1:0:0:0:
312,320,121151,2,0,L|278:195,1,128,0|0,1:0|1:0,1:0:0:0:
344,320,121351,2,0,L|299:198,1,128,4|0,1:2|1:0,1:0:0:0:
376,320,121551,2,0,L|320:203,1,128,0|0,1:0|1:0,1:0:0:0:
408,320,121751,2,0,L|342:208,1,128,0|0,1:0|1:0,1:0:0:0:
440,320,121951,2,0,L|365:214,1,128,0|0,1:0|1:0,1:0:0:0:
472,320,122151,2,0,L|388:221,1,128,4|0,1:2|1:0,1:0:0:0:
504,320,122351,2,0,L|412:229,1,128,0|0,1:0|1:0,1:0:0:0:
512,192,122551,5,4,0:0:0:0:
256,192,122576,12,2,128551,0:0:0:0:
