osu file format v14

[General]
AudioFilename: Fantasia.mp3
AudioLeadIn: 0
PreviewTime: 0
Countdown: 0
SampleSet: Soft
StackLeniency: 0.7
Mode: 2
LetterboxInBreaks: 1
WidescreenStoryboard: 0

[Editor]
DistanceSpacing: 0.3
BeatDivisor: 8
GridSize: 16
TimelineZoom: 0.4452964

[Metadata]
Title:Various BGM
TitleUnicode:Various BGM
Artist:Wizet, Nexon
ArtistUnicode:Wizet, Nexon
Creator:ExGon
Version:Fantasia
Source:Maplestory
Tags:CODA SOUND Studio EIM Takkyu Ishino Riena Strait Henesys Market Haze Temple of Time Road Oblivion Regrets Sharenian Guild Quest Taiwan World Tour El Nath Territory Dead Trees Grand Athenaeum Resistance Xenon Tutorial Beryl Ludibrium Castle Dimensional Schism Tenyo
BeatmapID:1146150
BeatmapSetID:217667

[Difficulty]
HPDrainRate:4
CircleSize:0
OverallDifficulty:0
ApproachRate:7
SliderMultiplier:2.56
SliderTickRate:8

[Events]
//Background and Video events
0,0,"fantasia.jpg",0,0
//Break Periods
//Storyboard Layer 0 (Background)
//Storyboard Layer 1 (Fail)
//Storyboard Layer 2 (Pass)
//Storyboard Layer 3 (Foreground)
//Storyboard Sound Samples

[TimingPoints]
2885,461.538461538462,6,2,10,25,1,0
8423,-100,6,2,10,15,0,0
8654,-100,6,2,10,25,0,0
10269,-100,6,2,99,5,0,0
11192,-100,6,2,99,20,0,1
11221,-100,6,2,99,20,0,0
23654,-100,6,2,10,6,0,0
23711,-100,6,2,10,5,0,0
24231,-100,6,2,10,7,0,0
25038,-100,6,2,10,25,0,1
25067,-100,6,2,10,35,0,0
25558,-100,6,2,10,25,0,0
25961,-100,6,2,10,35,0,0
27577,-100,6,2,10,25,0,0
28038,-100,6,2,10,35,0,0
28327,-100,6,2,10,25,0,0
28731,-100,6,2,10,35,0,0
30346,-133.333333333333,6,2,10,25,0,0
30635,-133.333333333333,6,2,99,25,0,0
31500,-100,6,2,10,35,0,0
31961,-100,6,2,10,35,0,0
33115,-133.333333333333,6,2,10,25,0,0
33404,-133.333333333333,6,2,99,25,0,0
34269,-100,6,2,10,35,0,0
34731,-100,6,2,10,35,0,0
46038,-100,6,2,10,8,0,0
46269,-100,6,2,10,12,0,0
46500,-100,6,2,10,16,0,0
46731,-100,6,2,10,20,0,0
46961,-100,6,2,10,24,0,0
47192,-100,6,2,10,35,0,1
49961,-100,6,2,10,25,0,1
50885,-100,6,2,10,35,0,1
52731,-100,6,2,10,25,0,1
52961,-100,6,2,10,35,0,1
55500,-100,6,2,10,25,0,1
56423,-100,6,2,10,35,0,1
58269,-50,6,2,10,25,0,0
65192,-33.3333333333333,6,2,99,25,0,0
66577,-50,6,2,10,25,0,0
76269,-33.3333333333333,6,2,99,25,0,0
80423,-100,6,2,10,25,0,0
81808,-100,6,2,10,35,0,0
82038,-100,6,2,10,25,0,0
84577,-100,6,2,10,35,0,0
84808,-100,6,2,10,25,0,0
87346,-100,6,2,10,35,0,0
87577,-100,6,2,10,25,0,0
90115,-100,6,2,10,35,0,0
90346,-100,6,2,10,25,0,0
91038,-100,6,2,10,35,0,0
91269,-100,6,2,10,25,0,0
92885,-100,6,2,10,35,0,0
93115,-100,6,2,10,25,0,0
95654,-100,6,2,10,35,0,0
95885,-100,6,2,10,25,0,0
98423,-100,6,2,10,35,0,0
98654,-100,6,2,10,25,0,0
99808,-100,6,2,10,30,0,0
101192,-100,6,2,10,40,0,0
102115,-100,6,2,10,35,0,0
102577,-133.333333333333,6,2,99,30,0,1
103500,-200,6,2,99,35,0,1
105346,-200,6,2,99,25,0,1
106269,-100,6,2,10,35,0,1
108115,-400,6,2,99,25,0,1
109038,-400,6,2,99,35,0,1
109961,-100,6,2,99,35,0,1
110423,-66.6666666666667,6,2,99,35,0,1
110885,-66.6666666666667,6,2,99,25,0,1
111808,-100,6,2,10,35,0,1
113625,-100,6,2,10,35,0,0
113654,-33.3333333333333,6,2,10,25,0,1
117346,-100,6,2,10,35,0,1
119192,-33.3333333333333,6,2,10,25,0,1
122885,-100,6,2,10,35,0,1
124702,-100,6,2,10,35,0,0
124731,-20,6,2,10,25,0,1
128423,-100,6,2,10,35,0,1
130269,-20,6,2,10,25,0,1
133961,-100,6,2,10,35,0,1
135779,-100,6,2,10,35,0,0
135808,-400,6,2,99,35,0,1
135836,-400,6,2,99,25,0,0
146885,-400,6,2,10,25,0,0

[HitObjects]
224,320,2885,5,0,0:0:0:0:
64,256,3115,1,0,0:0:0:0:
384,160,3346,5,0,0:0:0:0:
320,0,3577,1,0,0:0:0:0:
192,384,3808,1,0,0:0:0:0:
128,224,4038,1,0,0:0:0:0:
288,320,4269,5,0,0:0:0:0:
448,256,4500,1,0,0:0:0:0:
128,160,4731,5,0,0:0:0:0:
192,0,4961,1,0,0:0:0:0:
320,384,5192,1,0,0:0:0:0:
384,224,5423,1,0,0:0:0:0:
112,96,5654,5,0,0:0:0:0:
16,112,5885,1,0,0:0:0:0:
112,96,6115,1,0,0:0:0:0:
400,288,6346,1,0,0:0:0:0:
496,272,6577,1,0,0:0:0:0:
400,288,6808,1,0,0:0:0:0:
51,347,7038,5,0,0:0:0:0:
123,281,7269,1,0,0:0:0:0:
51,347,7500,1,0,0:0:0:0:
460,36,7731,1,0,0:0:0:0:
388,102,7961,1,0,0:0:0:0:
460,36,8192,1,0,0:0:0:0:
224,320,8423,5,0,1:0:0:0:
64,256,8654,1,0,0:0:0:0:
384,160,8885,5,0,0:0:0:0:
128,224,9115,1,0,0:0:0:0:
320,0,9346,1,0,0:0:0:0:
192,384,9577,1,0,0:0:0:0:
288,320,9808,5,0,0:0:0:0:
448,256,10038,1,0,0:0:0:0:
256,160,10269,5,0,0:0:0:0:
274,160,10327,5,0,0:0:0:0:
238,160,10327,5,0,0:0:0:0:
265,160,10385,5,0,0:0:0:0:
247,160,10385,5,0,0:0:0:0:
292,160,10442,5,0,0:0:0:0:
220,160,10442,5,0,0:0:0:0:
283,160,10500,5,0,0:0:0:0:
229,160,10500,5,0,0:0:0:0:
310,160,10558,5,0,0:0:0:0:
202,160,10558,5,0,0:0:0:0:
301,160,10615,5,0,0:0:0:0:
211,160,10615,5,0,0:0:0:0:
256,256,10615,6,0,B|256:288|256:288|256:256|256:256|256:288|256:288|256:256,1,128
211,160,10846,5,0,0:0:0:0:
301,160,10846,5,0,0:0:0:0:
202,160,10904,5,0,0:0:0:0:
310,160,10904,5,0,0:0:0:0:
229,160,10961,5,0,0:0:0:0:
283,160,10961,5,0,0:0:0:0:
220,160,11019,5,0,0:0:0:0:
292,160,11019,5,0,0:0:0:0:
265,160,11077,5,0,0:0:0:0:
247,160,11077,5,0,0:0:0:0:
238,160,11135,5,0,0:0:0:0:
274,160,11135,5,0,0:0:0:0:
256,68,11192,6,0,B|148:20|48:56|48:56|20:104|32:160|128:160|128:160|48:300|288:408|332:236,1,768,4|0,0:1|0:0,0:0:0:0:
241,144,12577,6,0,B|133:96|33:132|33:132|5:180|17:236|113:236|113:236|33:376|273:484|317:312,1,768,2|0,0:0|0:0,0:0:0:0:
408,220,13961,6,0,B|276:186|288:64|412:35|412:35|481:146|250:289|165:172|165:172|266:331|81:229,1,896,2|0,0:0|0:0,0:0:0:0:
176,140,15577,6,0,L|63:29,1,128,2|0,0:0|0:0,0:0:0:0:
176,244,15808,2,0,L|63:355,1,128,0|0,3:0|0:0,0:0:0:0:
176,140,16038,2,0,L|287:27,1,128,0|0,3:0|0:0,0:0:0:0:
176,244,16269,2,0,L|287:357,1,128,2|0,0:0|0:0,0:0:0:0:
356,244,16500,2,0,L|245:357,1,128,0|0,3:0|0:0,0:0:0:0:
356,244,16731,6,0,B|218:158|360:24|496:58|509:248|458:234|206:304|206:304|151:308|101:267|131:183,1,768,2|0,0:0|0:0,0:0:0:0:
219,98,18115,6,0,L|475:98,1,256,2|0,0:0|0:0,0:0:0:0:
384,189,18577,2,0,L|128:189,1,256,0|0,3:0|0:0,0:0:0:0:
37,279,19038,2,0,L|293:279,1,256,0|0,3:0|0:0,0:0:0:0:
383,369,19500,6,0,B|255:369|255:369|255:241|255:241|383:241|383:241|255:241|255:241|255:113|255:113|383:113,1,768,2|0,0:0|0:0,0:0:0:0:
292,22,20885,6,0,B|164:22|164:22|164:150|164:150|292:150|292:150|164:150|164:150|164:278|164:278|292:278,1,768,2|0,0:0|0:0,0:0:0:0:
201,187,22269,6,0,B|70:75|169:17|352:10|352:10|505:94|432:257|250:289,1,768,2|0,0:0|1:0,0:0:0:0:
300,192,23711,5,0,1:0:0:0:
212,192,23711,5,0,1:0:0:0:
281,192,23769,5,0,1:0:0:0:
231,192,23769,5,0,1:0:0:0:
300,192,23827,5,0,1:0:0:0:
212,192,23827,5,0,1:0:0:0:
231,192,23885,5,0,1:0:0:0:
281,192,23885,5,0,1:0:0:0:
300,192,23942,5,0,1:0:0:0:
212,192,23942,5,0,1:0:0:0:
281,192,24000,5,0,1:0:0:0:
231,192,24000,5,0,1:0:0:0:
212,192,24058,5,0,1:0:0:0:
300,192,24058,5,0,1:0:0:0:
231,192,24115,5,0,1:0:0:0:
281,192,24115,5,0,1:0:0:0:
212,192,24173,5,0,1:0:0:0:
300,192,24173,5,0,1:0:0:0:
231,192,24231,5,0,1:0:0:0:
281,192,24231,5,0,1:0:0:0:
300,192,24288,5,0,1:0:0:0:
212,192,24288,5,0,1:0:0:0:
281,192,24346,5,0,1:0:0:0:
231,192,24346,5,0,1:0:0:0:
300,192,24404,5,0,1:0:0:0:
212,192,24404,5,0,1:0:0:0:
281,192,24461,5,0,1:0:0:0:
231,192,24461,5,0,1:0:0:0:
212,192,24519,5,0,1:0:0:0:
300,192,24519,5,0,1:0:0:0:
231,192,24577,5,0,1:0:0:0:
281,192,24577,5,0,1:0:0:0:
32,320,25038,6,0,L|32:192,1,128,4|0,0:1|0:0,0:0:0:0:
256,192,25500,1,0,0:0:0:0:
480,137,25558,2,0,B|368:137|368:248|480:248|480:248|480:248,1,224,0|8,0:0|0:3,0:0:0:0:
480,192,25615,1,0,0:0:0:0:
480,192,25673,1,0,0:0:0:0:
480,192,25731,1,0,0:0:0:0:
480,192,25788,1,0,0:0:0:0:
480,192,25846,1,0,0:0:0:0:
480,192,25904,1,0,0:0:0:0:
32,64,26423,6,0,L|32:192,1,128
480,64,26885,1,8,0:3:0:0:
32,320,27346,1,8,0:3:0:0:
320,320,27577,1,2,0:0:0:0:
480,320,27808,6,0,L|480:192,1,128,0|0,1:0|0:0,0:0:0:0:
256,192,28269,1,0,0:0:0:0:
32,137,28327,2,0,B|144:137|144:248|32:248|32:248|32:248,1,224,0|8,0:0|0:3,0:0:0:0:
32,192,28384,1,0,0:0:0:0:
32,192,28442,1,0,0:0:0:0:
32,192,28500,1,0,0:0:0:0:
32,192,28557,1,0,0:0:0:0:
32,192,28615,1,0,0:0:0:0:
32,192,28673,1,0,0:0:0:0:
480,64,29192,6,0,L|480:192,1,128
32,64,29654,1,8,0:3:0:0:
480,320,30115,1,8,0:3:0:0:
320,320,30346,1,2,0:0:0:0:
94,9,30577,6,0,P|49:192|94:376,1,384.000014648438,0|8,1:0|0:3,0:0:0:0:
104,30,30634,1,0,0:0:0:0:
113,52,30692,1,0,0:0:0:0:
121,75,30750,1,0,0:0:0:0:
127,98,30807,1,0,0:0:0:0:
132,122,30865,1,0,0:0:0:0:
136,145,30923,1,0,0:0:0:0:
138,169,30980,1,0,0:0:0:0:
138,193,31038,1,0,0:0:0:0:
138,217,31096,1,0,0:0:0:0:
135,241,31153,1,0,0:0:0:0:
132,265,31211,1,0,0:0:0:0:
127,288,31269,1,0,0:0:0:0:
120,311,31327,1,0,0:0:0:0:
112,334,31384,1,0,0:0:0:0:
103,356,31442,1,0,0:0:0:0:
480,192,31961,6,0,B|416:192|416:192|480:192|480:192|416:192|416:192|480:192,1,256,0|8,0:0|0:3,0:0:0:0:
32,320,32885,1,8,0:3:0:0:
192,320,33115,1,2,0:0:0:0:
418,9,33346,6,0,P|463:192|418:376,1,384.000014648438,0|8,1:0|0:3,0:0:0:0:
408,30,33403,1,0,0:0:0:0:
399,52,33461,1,0,0:0:0:0:
391,75,33519,1,0,0:0:0:0:
385,98,33576,1,0,0:0:0:0:
380,122,33634,1,0,0:0:0:0:
376,145,33692,1,0,0:0:0:0:
374,169,33749,1,0,0:0:0:0:
374,193,33807,1,0,0:0:0:0:
374,217,33865,1,0,0:0:0:0:
377,241,33922,1,0,0:0:0:0:
380,265,33980,1,0,0:0:0:0:
385,288,34038,1,0,0:0:0:0:
392,311,34096,1,0,0:0:0:0:
400,334,34153,1,0,0:0:0:0:
409,356,34211,1,0,0:0:0:0:
32,192,34731,6,0,B|96:192|96:192|32:192|32:192|96:192|96:192|32:192,1,256,0|8,0:0|0:3,0:0:0:0:
480,320,35654,1,8,0:3:0:0:
192,320,35885,1,0,0:0:0:0:
384,288,36115,5,4,0:0:0:0:
480,192,36346,1,0,0:0:0:0:
320,68,36577,2,0,L|444:108,1,128,2|0,0:0|0:0,0:0:0:0:
132,256,37038,2,0,L|171:377,1,128,2|0,0:0|0:0,0:0:0:0:
380,128,37500,6,0,L|341:7,1,128
128,96,37961,1,2,0:0:0:0:
32,192,38192,1,0,0:0:0:0:
192,316,38423,2,0,L|68:276,1,128,2|0,0:0|0:0,0:0:0:0:
256,128,39115,5,0,0:0:0:0:
384,160,39346,1,0,0:0:0:0:
512,192,39577,1,2,0:0:0:0:
384,224,39808,1,0,0:0:0:0:
256,256,40038,1,0,0:0:0:0:
256,128,40500,5,0,0:0:0:0:
128,160,40731,1,0,0:0:0:0:
0,192,40961,1,2,0:0:0:0:
256,256,41192,1,0,0:0:0:0:
128,224,41423,1,0,0:0:0:0:
0,192,41654,5,2,0:0:0:0:
90,282,41885,1,0,0:0:0:0:
0,192,42115,1,2,0:0:0:0:
135,56,42346,1,0,0:0:0:0:
0,192,42577,1,2,0:0:0:0:
181,373,42808,1,0,0:0:0:0:
331,11,43038,5,0,0:0:0:0:
512,192,43269,1,0,0:0:0:0:
377,328,43500,1,2,0:0:0:0:
512,192,43731,1,0,0:0:0:0:
422,102,43961,1,2,0:0:0:0:
512,192,44192,1,0,0:0:0:0:
256,128,44654,5,0,0:0:0:0:
128,160,44885,1,0,0:0:0:0:
0,192,45115,1,2,0:0:0:0:
128,224,45346,1,0,0:0:0:0:
256,256,45577,1,0,0:0:0:0:
511,96,46038,5,0,1:0:0:0:
341,96,46269,1,0,1:0:0:0:
170,96,46500,1,0,1:0:0:0:
341,96,46731,1,0,1:0:0:0:
170,96,46961,1,0,1:0:0:0:
0,0,47192,6,0,B|-63:0|-63:0|-63:-384|-63:-384|0:-384,1,512,4|8,0:1|0:3,0:0:0:0:
64,96,47423,1,0,0:0:0:0:
96,192,47654,1,0,0:0:0:0:
64,288,47885,1,0,0:0:0:0:
256,192,48346,1,0,0:0:0:0:
512,0,48577,6,0,B|575:0|575:0|575:-384|575:-384|512:-384,1,512,0|8,0:0|0:3,0:0:0:0:
448,96,48808,1,0,0:0:0:0:
416,192,49038,1,8,0:3:0:0:
448,288,49269,1,0,0:0:0:0:
256,192,49731,1,0,0:0:0:0:
0,192,49961,1,0,1:0:0:0:
432,320,50885,5,8,0:3:0:0:
80,64,51115,1,0,0:0:0:0:
256,64,51346,2,0,B|256:320|256:320|256:64,1,512,0|8,0:0|0:3,0:0:0:0:
224,192,51577,1,0,0:0:0:0:
304,320,51808,1,8,0:3:0:0:
208,192,52038,1,0,0:0:0:0:
512,384,52731,6,0,B|575:384|575:384|575:768|575:768|512:768,1,512,0|8,1:0|0:3,0:0:0:0:
416,288,52961,1,0,0:0:0:0:
448,192,53192,1,0,0:0:0:0:
416,96,53423,1,0,0:0:0:0:
256,192,53885,1,0,0:0:0:0:
0,384,54115,6,0,B|-63:384|-63:384|-63:768|-63:768|0:768,1,512,0|8,0:0|0:3,0:0:0:0:
96,288,54346,1,0,0:0:0:0:
64,192,54577,1,8,0:3:0:0:
96,96,54808,1,0,0:0:0:0:
256,192,55269,1,0,0:0:0:0:
512,192,55500,1,0,1:0:0:0:
80,64,56423,5,8,0:3:0:0:
432,320,56654,1,0,0:0:0:0:
256,320,56885,2,0,B|256:64|256:64|256:320,1,512,0|8,0:0|0:3,0:0:0:0:
288,192,57115,1,0,0:0:0:0:
208,64,57346,1,8,0:3:0:0:
304,192,57577,1,0,0:0:0:0:
0,192,58269,5,4,0:0:0:0:
512,384,58731,1,2,0:0:0:0:
288,192,58961,1,2,0:0:0:0:
512,0,59192,1,2,0:0:0:0:
0,192,59654,2,0,B|64:192|64:192|0:192|0:192|64:192|64:192|0:192|0:192|64:192|64:192|0:192|0:192|64:192|64:192|0:192|0:192|64:192|64:192|0:192|0:192|64:192|64:192|0:192|0:192|64:192|64:192|0:192|0:192|64:192|64:192|0:192|0:192|64:192|64:192|0:192|0:192|64:192|64:192|0:192|0:192|64:192|64:192|0:192|0:192|64:192|64:192|0:192|0:192,1,1536,2|0,0:0|1:0,0:0:0:0:
108,68,62885,5,2,0:0:0:0:
436,126,63115,1,2,0:0:0:0:
222,381,63346,1,2,0:0:0:0:
512,192,63808,6,0,B|448:192|448:192|512:192|512:192|448:192|448:192|512:192|512:192|448:192|448:192|512:192|512:192|448:192|448:192|512:192|512:192|448:192|448:192|512:192|512:192|448:192|448:192|512:192|512:192|448:192|448:192|512:192|512:192|448:192|448:192|512:192|512:192|448:192|448:192|512:192|512:192|448:192|448:192|512:192|512:192|448:192|448:192|512:192|512:192|448:192|448:192|512:192|512:192,1,1536,2|0,0:0|0:0,0:0:0:0:
512,192,65192,2,0,B|416:192|416:192|512:192|512:192|416:192|416:192|512:192|512:192|416:192|416:192|512:192|512:192|416:192|416:192|512:192|512:192|416:192|416:192|512:192|512:192|416:192|416:192|512:192|512:192|416:192|416:192|512:192|512:192|416:192|416:192|512:192|512:192|416:192|416:192|512:192|512:192|416:192|416:192|512:192|512:192|416:192|416:192|512:192|512:192|416:192|416:192|512:192,1,2304.00008789063,4|0,3:1|0:0,0:0:0:0:
512,192,69346,5,0,1:0:0:0:
0,0,69808,1,2,0:0:0:0:
224,192,70038,1,2,0:0:0:0:
0,384,70269,1,2,0:0:0:0:
512,192,70731,2,0,B|445:192|445:192|512:192|512:192|445:192|445:192|512:192|512:192|445:192|445:192|512:192|512:192|445:192|445:192|512:192|512:192|445:192|445:192|512:192|512:192|445:192|445:192|512:192|512:192|445:192|445:192|512:192|512:192|445:192|445:192|512:192|512:192|445:192|445:192|512:192|512:192|445:192|445:192|512:192|512:192|445:192|445:192|512:192|512:192|445:192|445:192|512:192|512:192,1,1536,2|0,0:0|1:0,0:0:0:0:
172,2,73961,5,2,0:0:0:0:
134,359,74192,1,2,0:0:0:0:
461,212,74423,1,2,0:0:0:0:
0,192,74885,6,0,B|67:192|67:192|0:192|0:192|67:192|67:192|0:192|0:192|67:192|67:192|0:192|0:192|67:192|67:192|0:192|0:192|67:192|67:192|0:192|0:192|67:192|67:192|0:192|0:192|67:192|67:192|0:192|0:192|67:192|67:192|0:192|0:192|67:192|67:192|0:192|0:192|67:192|67:192|0:192|0:192|67:192|67:192|0:192|0:192|67:192|67:192|0:192|0:192,1,1536,2|0,0:0|0:0,0:0:0:0:
0,192,76269,2,0,B|100:192|100:192|0:192|0:192|100:192|100:192|0:192|0:192|100:192|100:192|0:192|0:192|100:192|100:192|0:192|0:192|100:192|100:192|0:192|0:192|100:192|100:192|0:192|0:192|100:192|100:192|0:192|0:192|100:192|100:192|0:192|0:192|100:192|100:192|0:192|0:192|100:192|100:192|0:192|0:192|100:192|100:192|0:192|0:192|100:192|100:192|0:192,1,2304.00008789063,4|0,3:1|3:0,0:0:0:0:
32,64,80423,5,0,1:0:0:0:
320,64,80654,2,0,B|320:192|320:192|320:64,1,256,2|2,0:0|0:0,0:0:0:0:
32,192,81346,1,0,0:0:0:0:
480,320,81808,5,8,0:3:0:0:
192,320,82038,2,0,B|192:192|192:192|192:320,1,256,2|2,0:0|0:0,0:0:0:0:
480,192,82731,1,0,0:0:0:0:
320,96,83192,5,0,1:0:0:0:
46,90,83423,2,0,L|24:216,1,128,2|0,0:0|0:0,0:0:0:0:
320,288,83885,1,2,0:0:0:0:
46,293,84115,2,0,L|24:167,1,128
192,224,84577,5,8,0:3:0:0:
488,216,84808,2,0,L|466:90,1,128,2|0,0:0|0:0,0:0:0:0:
192,160,85269,1,2,0:0:0:0:
488,167,85500,2,0,L|466:293,1,128,0|2,0:0|0:0,0:0:0:0:
480,64,85961,5,0,1:0:0:0:
192,64,86192,2,0,B|320:64|320:64|192:64,1,256,2|2,0:0|0:0,0:0:0:0:
480,192,86885,1,0,0:0:0:0:
32,320,87346,5,8,0:3:0:0:
320,320,87577,2,0,B|192:320|192:320|320:320,1,256,2|2,0:0|0:0,0:0:0:0:
32,192,88269,1,0,0:0:0:0:
192,96,88731,5,0,1:0:0:0:
488,216,88961,2,0,L|466:90,1,128,2|0,0:0|0:0,0:0:0:0:
192,288,89423,1,2,0:0:0:0:
466,293,89654,2,0,L|488:167,1,128
320,224,90115,5,8,0:3:0:0:
46,90,90346,2,0,L|24:216,1,128,2|0,0:0|0:0,0:0:0:0:
320,160,90808,1,2,0:0:0:0:
24,167,91038,2,0,L|46:293,1,128,8|2,0:3|0:0,0:0:0:0:
32,192,91500,5,0,1:0:0:0:
320,64,91731,2,0,B|448:64|448:64|320:64,1,256,2|2,0:0|0:0,0:0:0:0:
32,64,92423,1,0,0:0:0:0:
480,192,92885,5,8,0:3:0:0:
192,320,93115,2,0,B|64:320|64:320|192:320,1,256,2|2,0:0|0:0,0:0:0:0:
480,320,93808,1,0,0:0:0:0:
256,64,94269,5,0,1:0:0:0:
26,190,94500,2,0,L|48:64,1,128,2|0,0:0|0:0,0:0:0:0:
384,160,94961,1,2,0:0:0:0:
176,160,95192,2,0,L|154:286,1,128
256,320,95654,5,8,0:3:0:0:
464,320,95885,2,0,L|486:194,1,128,2|0,0:0|0:0,0:0:0:0:
128,224,96346,1,2,0:0:0:0:
358,98,96577,2,0,L|336:224,1,128,0|2,0:0|0:0,0:0:0:0:
448,320,97038,5,0,1:0:0:0:
64,192,97269,2,0,B|64:320|64:320|64:192,1,256,2|2,0:0|0:0,0:0:0:0:
448,192,97961,1,0,0:0:0:0:
64,64,98423,5,8,0:3:0:0:
448,192,98654,2,0,B|448:64|448:64|448:192,1,256,2|2,0:0|0:0,0:0:0:0:
64,192,99346,1,0,0:0:0:0:
384,64,99808,5,0,1:0:0:0:
128,320,100038,1,2,0:0:0:0:
400,320,100500,1,2,0:0:0:0:
112,64,100731,1,0,0:0:0:0:
70,162,101192,5,8,0:3:0:0:
440,220,101423,1,2,0:0:0:0:
22,135,101885,1,2,0:0:0:0:
489,248,102115,1,0,1:0:0:0:
384,16,102577,6,0,B|376:228|269:157|261:369,1,384.000014648438,0|0,3:0|0:0,0:0:0:0:
261,16,102577,6,0,B|269:228|376:157|384:369,1,384.000014648438,4|0,0:1|0:0,0:0:0:0:
261,370,103500,6,0,B|256:381|250:364|256:352|285:340|334:352|340:375|352:352|352:333|352:333|352:315|340:291|334:315|285:327|276:249,1,256,8|0,0:3|0:0,0:0:0:0:
383,370,103500,6,0,B|388:381|394:364|388:352|359:340|310:352|304:375|292:352|292:333|292:333|292:315|304:291|310:315|359:327|368:249,1,256,0|0,3:0|0:0,0:0:0:0:
369,247,104423,6,0,L|322:129,1,128,0|0,3:0|0:0,0:0:0:0:
275,247,104423,6,0,L|322:129,1,128,8|0,0:3|0:0,0:0:0:0:
322,128,104885,6,0,B|386:129|386:129|386:65,1,128,0|0,3:0|0:0,0:0:0:0:
323,128,104885,6,0,B|258:129|258:129|258:65,1,128,8|0,0:3|1:0,0:0:0:0:
380,280,106269,5,8,0:3:0:0:
132,104,106500,1,0,0:0:0:0:
416,160,106731,2,0,B|258:160|258:317|258:317|258:160|416:160,1,512,0|8,0:0|0:3,0:0:0:0:
152,320,107192,1,8,0:3:0:0:
254,66,108115,6,0,B|254:129|254:129|189:128,1,128,0|0,1:0|0:0,0:0:0:0:
126,65,108115,6,0,B|126:129|126:129|190:128,1,128
190,129,109038,6,0,L|143:247,1,128,0|0,3:0|0:0,0:0:0:0:
190,129,109038,6,0,L|237:247,1,128,8|0,0:3|0:0,0:0:0:0:
237,247,109961,6,0,B|227:327|178:315|172:291|160:315|160:333|160:333|160:352|172:375|178:352|227:340|256:352|262:364|256:381|251:370,1,256,8|0,0:3|0:0,0:0:0:0:
144,247,109961,6,0,B|153:327|202:315|208:291|220:315|220:333|220:333|220:352|208:375|202:352|153:340|124:352|118:364|124:381|129:370,1,256,0|0,3:0|0:0,0:0:0:0:
130,369,110423,6,0,B|138:156|245:227|253:15,1,384.000014648438,0|0,3:0|1:0,0:0:0:0:
252,370,110423,6,0,B|243:157|136:228|128:16,1,384.000014648438,8|0,0:3|0:0,0:0:0:0:
132,280,111808,5,8,0:3:0:0:
380,104,112039,1,0,0:0:0:0:
96,160,112269,2,0,B|254:160|254:317|254:317|254:160|96:160,1,512,0|8,0:0|0:3,0:0:0:0:
360,320,112731,1,8,0:3:0:0:
16,48,113654,6,0,B|112:48|112:48|112:336|112:336|208:336|208:336|208:48|208:48|304:48|304:48|304:336|304:336|400:336|400:336|400:48|400:48|496:48|496:48|496:336|496:336|400:336|400:336|400:48|400:48|496:48|496:48|496:336|496:336|400:336|400:336|400:48|400:48|304:48|304:48|304:336|304:336|208:336|208:336|208:48|208:48|112:48|112:48|112:336|112:336|16:336|16:336|16:48,1,4608.00017578126,4|0,0:0|1:0,0:0:0:0:
198,350,117346,5,8,0:3:0:0:
394,97,117577,1,0,0:0:0:0:
86,185,117808,1,0,0:0:0:0:
388,295,118269,1,8,0:3:0:0:
208,29,118731,1,8,0:3:0:0:
496,48,119192,6,0,B|400:48|400:48|400:336|400:336|304:336|304:336|304:48|304:48|208:48|208:48|208:336|208:336|112:336|112:336|112:48|112:48|16:48|16:48|16:336|16:336|112:336|112:336|112:48|112:48|16:48|16:48|16:336|16:336|112:336|112:336|112:48|112:48|208:48|208:48|208:336|208:336|304:336|304:336|304:48|304:48|400:48|400:48|400:336|400:336|496:336|496:336|496:48,1,4608.00017578126,0|0,1:0|1:0,0:0:0:0:
80,272,122885,5,8,0:3:0:0:
432,112,123115,1,0,0:0:0:0:
164,192,123346,2,0,B|164:100|347:100|347:192,2,256,0|8|8,0:0|0:3|0:3,0:0:0:0:
16,32,124731,6,0,B|176:32|176:32|176:192|176:192|176:32|176:32|176:192|176:192|336:192|336:192|336:352|336:352|336:192|336:192|336:352|336:352|496:352|496:352|496:156|496:156|496:236|496:236|496:32|496:32|336:32|336:32|336:192|336:192|336:32|336:32|336:192|336:192|176:192|176:192|176:352|176:352|176:192|176:192|176:352|176:352|16:352|16:352|16:156|16:156|16:236|16:236|16:32|16:32|176:32|176:32|176:192|176:192|176:32|176:32|176:192|176:192|336:192|336:192|336:352|336:352|336:192|336:192|336:352|336:352|496:352|496:352|496:156|496:156|496:236|496:236|496:32|496:32|336:32|336:32|336:192|336:192|336:32|336:32|336:192|336:192|176:192|176:192|176:352|176:352|176:192|176:192|176:352|176:352|16:352|16:352|16:156|16:156|16:236|16:236|16:32,1,7680,4|0,0:0|1:0,0:0:0:0:
277,25,128423,5,8,0:3:0:0:
334,340,128654,1,0,0:0:0:0:
102,118,128885,1,0,0:0:0:0:
420,162,129346,1,8,0:3:0:0:
137,313,129808,1,8,0:3:0:0:
496,32,130269,6,0,B|336:32|336:32|336:192|336:192|336:32|336:32|336:192|336:192|176:192|176:192|176:352|176:352|176:192|176:192|176:352|176:352|16:352|16:352|16:156|16:156|16:236|16:236|16:32|16:32|176:32|176:32|176:192|176:192|176:32|176:32|176:192|176:192|336:192|336:192|336:352|336:352|336:192|336:192|336:352|336:352|496:352|496:352|496:156|496:156|496:236|496:236|496:32|496:32|336:32|336:32|336:192|336:192|336:32|336:32|336:192|336:192|176:192|176:192|176:352|176:352|176:192|176:192|176:352|176:352|16:352|16:352|16:156|16:156|16:236|16:236|16:32|16:32|176:32|176:32|176:192|176:192|176:32|176:32|176:192|176:192|336:192|336:192|336:352|336:352|336:192|336:192|336:352|336:352|496:352|496:352|496:156|496:156|496:236|496:236|496:32,1,7680,0|0,1:0|1:0,0:0:0:0:
432,272,133961,5,8,0:3:0:0:
80,112,134192,1,0,0:0:0:0:
299,170,134423,2,0,B|288:137|256:126|256:126|223:137|212:170,1,128
384,240,134885,2,0,B|394:272|427:283|427:283|460:272|471:240,1,128,8|0,0:3|0:0,0:0:0:0:
128,240,135346,2,0,B|117:272|84:283|84:283|51:272|40:240,1,128,8|0,0:3|0:0,0:0:0:0:
256,0,135808,6,0,B|256:384|256:384|256:0,1,768,4|0,0:1|0:0,0:0:0:0:
256,256,137192,6,0,B|192:256|192:256|192:384|192:384|192:384|192:384|192:192,1,384
256,320,138577,6,0,B|320:320|320:320|320:128,1,256
192,192,139961,6,0,B|192:0|192:0|192:128,1,320
320,128,140423,6,0,L|320:64,1,64
320,64,140885,6,0,B|320:0|320:0|320:192,1,256
256,0,141346,6,0,L|256:64,1,64
256,64,141808,6,0,B|256:384|256:384|256:320,1,384
192,128,142269,6,0,L|192:384,1,256
320,192,142731,6,0,L|320:256,1,64
320,256,143192,6,0,L|320:320,1,64
320,320,143654,6,0,B|320:384|320:384|320:256,1,192
192,384,144115,6,0,L|192:192,1,192
256,320,144577,6,0,B|256:0|256:0|256:128,1,448
320,256,145038,6,0,B|320:64|320:64|256:64,1,256
192,192,145500,6,0,L|192:128,1,64
192,128,145961,6,0,L|192:64,1,64
192,64,146423,6,0,B|192:0|192:0|256:0,1,128
256,192,147115,5,0,0:0:0:0:
256,192,147577,5,0,0:0:0:0:
256,192,148038,5,0,0:0:0:0:
256,192,148269,5,0,0:0:0:0:
