osu file format v14

[General]
AudioFilename: Aquarium.mp3
AudioLeadIn: 0
PreviewTime: 23965
Countdown: 0
SampleSet: Soft
StackLeniency: 0.2
Mode: 0
LetterboxInBreaks: 1
WidescreenStoryboard: 0

[Editor]
DistanceSpacing: 0.8
BeatDivisor: 16
GridSize: 4
TimelineZoom: 0.7600001

[Metadata]
Title:Various BGM
TitleUnicode:Various BGM
Artist:Wizet, Nexon
ArtistUnicode:Wizet, Nexon
Creator:ExGon
Version:Aquarium Hard
Source:Maplestory
Tags:CODA SOUND Studio EIM Takkyu Ishino Riena Strait Henesys Market Haze Temple of Time Road Oblivion Regrets Sharenian Guild Quest Taiwan World Tour El Nath Territory Dead Trees Grand Athenaeum Resistance Xenon Tutorial Beryl Ludibrium Castle Dimensional Schism Tenyo
BeatmapID:537938
BeatmapSetID:217667

[Difficulty]
HPDrainRate:3
CircleSize:5
OverallDifficulty:6
ApproachRate:6
SliderMultiplier:1.4
SliderTickRate:1

[Events]
//Background and Video events
0,0,"aquarium.jpg",0,0
//Break Periods
2,39230,46813
2,79230,79980
//Storyboard Layer 0 (Background)
//Storyboard Layer 1 (Fail)
//Storyboard Layer 2 (Pass)
//Storyboard Layer 3 (Foreground)
//Storyboard Sound Samples

[TimingPoints]
30,500,4,2,0,100,1,0
24030,500,4,2,0,100,1,1
40030,-100,4,2,0,100,0,0
48030,-200,4,2,0,100,0,0
51196,-50,4,2,0,100,0,0
56030,-100,4,2,0,100,0,1
68030,1500,4,2,0,100,1,1
70030,500,4,2,0,100,1,1
71030,-100,4,2,0,100,0,0
106530,-100,4,2,0,80,0,0
106780,-100,4,2,0,70,0,0
107030,-100,4,2,0,60,0,0
107280,-100,4,2,0,50,0,0
107530,-100,4,2,0,40,0,0
107780,-100,4,2,0,30,0,0
108030,-100,4,2,0,20,0,0
108280,-100,4,2,0,10,0,0
108530,-100,4,2,0,0,0,0
109363,-100,4,2,0,100,0,0
117113,-100,4,2,0,80,0,0
117530,-100,4,2,0,100,0,0
122530,1500,4,2,0,100,1,0
124030,250,4,2,0,70,1,0
125030,500,4,2,0,100,1,0
126030,-100,4,1,0,60,0,1
126113,-100,4,2,0,100,0,1
130030,-100,4,1,0,60,0,1
130113,-100,4,2,0,100,0,1
134030,-100,4,1,0,60,0,1
134113,-100,4,2,0,100,0,1
135030,-100,4,1,0,60,0,1
135113,-100,4,2,0,100,0,1
136030,-100,4,1,0,60,0,1
136113,-100,4,2,0,100,0,1
141030,-100,4,2,0,0,0,1

[Colours]
Combo1 : 0,128,255
Combo2 : 128,128,255
Combo3 : 138,175,244
Combo4 : 128,128,192
Combo5 : 51,51,255

[HitObjects]
96,304,8030,6,0,C|224:304,1,93.3333333333333
224,272,8530,2,0,B|176:240|128:272,1,93.3333333333333,2|0,0:0|0:0,0:0:0:0:
112,240,9030,2,0,B|224:240,1,93.3333333333333
240,240,9530,2,0,B|304:240|304:128,1,140,2|0,0:0|0:0,0:0:0:0:
384,128,10363,1,0,0:0:0:0:
384,128,10530,1,2,0:0:0:0:
384,208,10863,1,0,0:0:0:0:
384,240,11030,1,2,0:0:0:0:
368,272,11196,1,0,0:0:0:0:
336,288,11363,1,2,0:0:0:0:
304,288,11530,1,0,0:0:0:0:
240,240,11863,1,2,0:0:0:0:
240,208,12030,6,0,C|128:208|160:160|112:144|160:96|96:96|128:48,1,420,0|0,0:0|0:0,0:0:0:0:
192,64,13863,2,0,C|192:112,1,46.6666666666667,2|0,0:0|0:0,0:0:0:0:
192,192,14363,2,0,C|192:256,1,46.6666666666667,0|2,0:0|0:0,0:0:0:0:
272,240,14863,1,2,0:0:0:0:
272,240,15030,1,0,0:0:0:0:
208,208,15363,1,0,0:0:0:0:
176,176,15530,2,2,C|176:112|176:80|176:80|208:80|256:80,1,140,2|0,0:0|0:0,0:0:0:0:
288,80,16363,6,2,C|288:224|464:224|464:64,1,466.666666666667,0|0,0:0|0:0,0:0:0:0:
256,224,18363,1,0,0:0:0:0:
288,224,18530,1,2,0:0:0:0:
240,320,19030,1,0,0:0:0:0:
240,320,19196,1,0,0:0:0:0:
240,320,19363,1,2,0:0:0:0:
208,288,19530,1,0,0:0:0:0:
176,208,19863,1,2,0:0:0:0:
176,208,20030,6,0,C|400:208,1,186.666666666667
400,208,20863,1,2,0:0:0:0:
400,176,21030,1,0,0:0:0:0:
96,208,21363,1,2,0:0:0:0:
96,176,21530,1,0,0:0:0:0:
400,176,21863,1,0,0:0:0:0:
400,144,22030,1,2,0:0:0:0:
64,176,22530,1,0,0:0:0:0:
176,176,23030,2,0,C|176:128,3,46.6666666666667,2|2|0|2,0:0|0:0|0:0|0:0,0:0:0:0:
176,129,23696,1,0,0:0:0:0:
176,129,23863,1,2,0:0:0:0:
176,129,24030,1,0,0:0:0:0:
272,64,24530,5,2,0:0:0:0:
240,64,24696,1,0,0:0:0:0:
208,64,24863,1,0,0:0:0:0:
160,64,25030,1,2,0:0:0:0:
272,64,25530,1,2,0:0:0:0:
304,64,25696,1,0,0:0:0:0:
336,64,25863,1,0,0:0:0:0:
384,64,26030,1,2,0:0:0:0:
384,176,26530,1,10,0:0:0:0:
384,208,26696,1,0,0:0:0:0:
384,256,26863,1,2,0:0:0:0:
384,256,27030,1,0,0:0:0:0:
272,256,27530,6,2,C|176:256|368:256|368:256,2,280,0|0|0,0:0|0:0|0:0,0:0:0:0:
192,256,29863,1,0,0:0:0:0:
192,256,30030,1,2,0:0:0:0:
192,176,30363,1,0,0:0:0:0:
192,176,30530,1,8,0:0:0:0:
304,176,30863,1,0,0:0:0:0:
304,176,31030,1,2,0:0:0:0:
416,176,31363,1,0,0:0:0:0:
448,176,31530,1,2,0:0:0:0:
304,176,31863,1,2,0:0:0:0:
304,176,32030,6,0,C|256:176|256:224|304:224,3,140,0|0|2|2,0:0|0:0|0:0|0:0,0:0:0:0:
336,224,33696,1,0,0:0:0:0:
368,224,33863,1,2,0:0:0:0:
368,192,34030,1,2,0:0:0:0:
368,112,34363,1,0,0:0:0:0:
368,80,34530,1,8,0:0:0:0:
256,96,34863,1,0,0:0:0:0:
288,96,35030,1,2,0:0:0:0:
320,176,35863,1,2,0:0:0:0:
320,208,36030,6,0,C|320:256,1,46.6666666666667
320,288,36363,2,0,C|272:288,1,46.6666666666667,2|0,0:0|0:0,0:0:0:0:
240,288,36696,2,0,C|176:288,1,46.6666666666667,2|0,0:0|0:0,0:0:0:0:
160,288,37030,2,0,C|112:288,2,46.6666666666667,2|0|2,0:0|0:0|0:0,0:0:0:0:
192,288,37530,2,0,C|240:288,2,46.6666666666667,8|2|0,0:0|0:0|0:0,0:0:0:0:
192,256,38030,1,0,0:0:0:0:
416,256,38530,1,2,0:0:0:0:
192,256,39030,1,4,0:0:0:0:
256,192,47863,5,0,0:0:0:0:
256,192,48030,2,0,C|336:192,1,70,0|2,0:0|0:0,0:0:0:0:
112,112,49030,2,0,C|32:112,1,70,0|2,0:0|0:0,0:0:0:0:
256,192,50030,12,4,51030,0:0:0:0:
128,304,51530,5,2,0:0:0:0:
128,224,51696,1,0,0:0:0:0:
128,144,51863,1,2,0:0:0:0:
128,64,52030,1,2,0:0:0:0:
272,64,52363,2,0,C|272:160,1,93.3333333333333,0|2,0:0|0:0,0:0:0:0:
272,304,52863,2,0,C|272:208,1,93.3333333333333,0|8,0:0|0:0,0:0:0:0:
416,192,53363,1,2,0:0:0:0:
416,192,53530,1,0,0:0:0:0:
416,336,53863,1,2,0:0:0:0:
256,192,54030,12,4,55030,0:0:0:0:
96,320,56030,5,2,0:0:0:0:
128,320,56196,1,0,0:0:0:0:
160,320,56363,1,2,0:0:0:0:
192,320,56530,1,0,0:0:0:0:
224,320,56696,1,2,0:0:0:0:
256,320,56863,1,0,0:0:0:0:
288,320,57030,1,2,0:0:0:0:
320,320,57196,1,0,0:0:0:0:
352,320,57363,1,2,0:0:0:0:
384,320,57530,1,0,0:0:0:0:
416,320,57696,1,2,0:0:0:0:
448,320,57863,1,0,0:0:0:0:
448,288,58030,1,2,0:0:0:0:
448,256,58196,1,0,0:0:0:0:
448,224,58363,2,0,C|448:176,4,46.6666666666667,2|8|2|0|4,0:0|0:0|0:0|0:0|0:0,0:0:0:0:
128,96,60030,5,2,0:0:0:0:
352,96,60530,1,0,0:0:0:0:
352,320,61030,1,2,0:0:0:0:
128,320,61530,1,0,0:0:0:0:
288,160,62030,1,2,0:0:0:0:
64,160,62530,1,8,0:0:0:0:
368,160,63030,1,2,0:0:0:0:
208,240,63363,1,0,0:0:0:0:
208,240,63530,1,2,0:0:0:0:
288,240,63863,1,2,0:0:0:0:
288,240,64030,5,2,0:0:0:0:
320,240,64196,2,0,C|384:240,1,46.6666666666667,0|2,0:0|0:0,0:0:0:0:
400,240,64530,1,0,0:0:0:0:
400,208,64696,1,2,0:0:0:0:
400,176,64863,2,0,C|400:128,1,46.6666666666667,0|2,0:0|0:0,0:0:0:0:
400,96,65196,1,0,0:0:0:0:
368,96,65363,1,2,0:0:0:0:
336,96,65530,2,0,C|288:96,1,46.6666666666667,0|2,0:0|0:0,0:0:0:0:
256,96,65863,1,0,0:0:0:0:
224,96,66030,1,2,0:0:0:0:
192,96,66196,2,0,C|144:96,1,46.6666666666667,0|2,0:0|0:0,0:0:0:0:
112,96,66530,2,0,C|64:96,1,46.6666666666667,8|2,0:0|0:0,0:0:0:0:
64,128,66863,1,0,0:0:0:0:
64,160,67030,1,4,0:0:0:0:
144,160,68030,6,2,C|256:160,1,93.3333333333333
256,192,70030,12,4,71030,0:0:0:0:
80,112,72030,6,0,C|176:112,1,93.3333333333333,2|0,0:0|0:0,0:0:0:0:
288,112,72863,2,0,C|352:112,1,46.6666666666667,0|8,0:0|0:0,0:0:0:0:
336,192,73363,2,0,C|336:384,1,186.666666666667,0|2,0:0|0:0,0:0:0:0:
278,309,74530,1,0,0:0:0:0:
278,309,74863,1,2,0:0:0:0:
278,309,75030,1,4,0:0:0:0:
272,192,75530,1,0,0:0:0:0:
304,192,75696,1,0,0:0:0:0:
272,192,75863,1,0,0:0:0:0:
240,192,76030,1,2,0:0:0:0:
64,48,77030,1,2,0:0:0:0:
256,192,78030,12,4,79030,0:0:0:0:
448,48,81030,5,8,0:0:0:0:
272,176,81530,1,0,0:0:0:0:
80,48,82030,1,2,0:0:0:0:
80,272,82530,2,0,C|224:272,1,140,0|4,0:0|0:0,0:0:0:0:
400,128,84030,6,0,C|400:80,2,46.6666666666667,0|0|2,0:0|0:0|0:0,0:0:0:0:
368,128,84530,2,0,C|352:80,2,46.6666666666667,2|0|2,0:0|0:0|0:0,0:0:0:0:
336,144,85030,2,0,C|288:80,2,46.6666666666667,0|2|0,0:0|0:0|0:0,0:0:0:0:
336,176,85530,2,0,B|480:176,7,140,0|2|0|2|0|2|0|2,0:0|0:0|0:0|0:0|0:0|0:0|0:0|0:0,0:0:0:0:
432,176,89196,1,0,0:0:0:0:
400,176,89363,1,2,0:0:0:0:
368,176,89530,1,0,0:0:0:0:
336,176,89696,1,2,0:0:0:0:
304,176,89863,1,2,0:0:0:0:
272,176,90030,6,0,B|201:147|121:211|41:179,1,233.333333333333,4|2,0:0|0:0,0:0:0:0:
80,184,91030,2,0,B|131:130|211:194,1,140,0|2,0:0|0:0,0:0:0:0:
320,192,92030,2,0,C|320:144,1,46.6666666666667,2|0,0:0|0:0,0:0:0:0:
320,112,92363,1,2,0:0:0:0:
288,112,92530,2,0,C|224:112,1,46.6666666666667,0|2,0:0|0:0,0:0:0:0:
208,112,92863,1,0,0:0:0:0:
176,112,93030,2,0,C|176:160,2,46.6666666666667,2|2|0,0:0|0:0|0:0,0:0:0:0:
176,112,93530,2,0,C|176:224,1,93.3333333333333,2|2,0:0|0:0,0:0:0:0:
208,208,94030,5,4,0:0:0:0:
208,208,94196,1,2,0:0:0:0:
208,208,94363,1,0,0:0:0:0:
240,208,94530,1,0,0:0:0:0:
240,208,94696,1,2,0:0:0:0:
240,208,94863,1,0,0:0:0:0:
272,208,95030,1,4,0:0:0:0:
272,208,95196,1,2,0:0:0:0:
272,208,95363,1,0,0:0:0:0:
304,208,95530,1,0,0:0:0:0:
304,208,95696,1,2,0:0:0:0:
304,208,95863,1,0,0:0:0:0:
336,208,96030,2,0,C|336:160,1,46.6666666666667,4|2,0:0|0:0,0:0:0:0:
336,128,96363,2,0,C|336:80,1,46.6666666666667,0|0,0:0|0:0,0:0:0:0:
304,80,96696,2,0,C|256:80,1,46.6666666666667,2|0,0:0|0:0,0:0:0:0:
224,80,97030,2,0,C|176:80,2,46.6666666666667,4|2|0,0:0|0:0|0:0,0:0:0:0:
256,80,97530,2,0,C|320:80,3,46.6666666666667,0|2|0|0,0:0|0:0|0:0|0:0,0:0:0:0:
256,144,98363,5,0,0:0:0:0:
256,144,98446,1,0,0:0:0:0:
256,144,98530,1,2,0:0:0:0:
328,144,98863,1,2,0:0:0:0:
344,144,98946,1,0,0:0:0:0:
360,144,99030,1,0,0:0:0:0:
432,144,99363,1,0,0:0:0:0:
432,128,99446,1,0,0:0:0:0:
432,112,99530,1,2,0:0:0:0:
360,112,99863,1,2,0:0:0:0:
320,112,100030,2,0,C|320:176,6,46.6666666666667,0|2|0|2|2|0|2,0:0|0:0|0:0|0:0|0:0|0:0|0:0,0:0:0:0:
112,192,102030,5,0,0:0:0:0:
144,192,102196,1,0,0:0:0:0:
176,192,102363,1,2,0:0:0:0:
208,192,102530,1,2,0:0:0:0:
432,192,103030,1,2,0:0:0:0:
400,192,103196,1,0,0:0:0:0:
368,192,103363,1,0,0:0:0:0:
336,192,103530,1,2,0:0:0:0:
336,80,104030,2,0,B|240:80,1,93.3333333333333,2|2,0:0|0:0,0:0:0:0:
240,112,104530,2,0,B|240:224,1,93.3333333333333,0|2,0:0|0:0,0:0:0:0:
240,208,105030,2,0,B|208:112|176:224|144:96|112:176|112:176|112:320,1,280,0|4,0:0|0:0,0:0:0:0:
256,192,106030,12,0,109030,0:0:0:0:
256,288,109863,5,0,0:0:0:0:
256,256,110030,1,6,0:0:0:0:
256,224,110196,2,0,C|256:176,1,46.6666666666667,0|2,0:0|0:0,0:0:0:0:
272,144,110530,2,0,C|288:96,2,46.6666666666667,0|0|2,0:0|0:0|0:0,0:0:0:0:
240,144,111030,2,0,C|224:96,2,46.6666666666667,0|0|2,0:0|0:0|0:0,0:0:0:0:
256,112,111530,1,0,0:0:0:0:
256,336,111863,1,2,0:0:0:0:
256,304,112030,1,0,0:0:0:0:
256,224,112363,1,2,0:0:0:0:
256,192,112530,1,0,0:0:0:0:
336,192,112863,1,0,0:0:0:0:
368,192,113030,1,2,0:0:0:0:
288,192,113363,1,0,0:0:0:0:
256,192,113530,1,2,0:0:0:0:
256,112,113863,1,2,0:0:0:0:
256,80,114030,5,0,0:0:0:0:
128,272,114530,1,0,0:0:0:0:
352,272,115030,1,2,0:0:0:0:
144,176,115530,1,0,0:0:0:0:
304,176,115863,1,0,0:0:0:0:
320,176,115946,1,0,0:0:0:0:
336,176,116030,1,2,0:0:0:0:
264,176,116363,1,2,0:0:0:0:
264,160,116446,1,0,0:0:0:0:
264,144,116530,1,0,0:0:0:0:
200,176,116863,1,0,0:0:0:0:
184,176,116946,1,0,0:0:0:0:
168,176,117030,2,0,C|128:176,6,23.3333333333333,2|0|0|0|0|0|4,0:0|0:0|0:0|0:0|0:0|0:0|0:0,0:0:0:0:
176,256,117863,5,0,0:0:0:0:
208,256,118030,1,6,0:0:0:0:
240,256,118196,1,0,0:0:0:0:
240,224,118363,2,0,C|192:224,1,46.6666666666667,2|0,0:0|0:0,0:0:0:0:
384,96,118863,1,2,0:0:0:0:
384,96,119030,1,0,0:0:0:0:
192,96,119363,1,2,0:0:0:0:
192,96,119530,1,0,0:0:0:0:
192,288,119863,1,0,0:0:0:0:
192,288,120030,1,2,0:0:0:0:
384,288,120363,1,0,0:0:0:0:
384,288,120530,1,2,0:0:0:0:
256,144,120863,2,0,C|208:96,1,46.6666666666667,0|2,0:0|0:0,0:0:0:0:
224,112,121530,1,2,0:0:0:0:
224,112,122030,1,4,0:0:0:0:
192,112,122530,6,0,C|192:160,2,46.6666666666667,0|2|0,0:0|0:0|0:0,0:0:0:0:
416,112,124030,2,0,C|416:64,3,46.6666666666667,2|0|0|0,0:0|0:0|0:0|0:0,0:0:0:0:
320,112,124530,2,0,C|320:64,3,46.6666666666667,0|0|0|0,0:0|0:0|0:0|0:0,0:0:0:0:
256,192,125030,12,0,125780,0:0:0:0:
144,192,126030,5,4,0:0:0:0:
224,192,126363,1,0,0:0:0:0:
256,192,126530,1,2,0:0:0:0:
288,192,126696,1,0,0:0:0:0:
320,192,126863,1,2,0:0:0:0:
320,160,127030,1,2,0:0:0:0:
320,48,127530,2,0,C|192:144,3,140,0|2|8|2,0:0|0:0|0:0|0:0,0:0:0:0:
320,128,129530,1,0,0:0:0:0:
288,128,129696,1,0,0:0:0:0:
256,128,129863,1,0,0:0:0:0:
256,192,130030,12,2,133030,0:0:0:0:
224,128,130030,5,4,0:0:0:0:
144,192,134030,5,4,0:0:0:0:
192,192,134280,1,0,0:0:0:0:
192,144,134530,1,2,0:0:0:0:
304,144,135030,1,4,0:0:0:0:
304,256,135280,1,0,0:0:0:0:
192,256,135530,1,2,0:0:0:0:
304,256,136030,1,4,0:0:0:0:
336,256,136196,1,2,0:0:0:0:
368,256,136363,2,0,C|368:208,2,46.6666666666667,0|8|0,0:0|0:0|0:0,0:0:0:0:
400,256,136863,1,2,0:0:0:0:
400,288,137030,1,4,0:0:0:0:
400,176,137530,1,0,0:0:0:0:
400,144,137696,1,0,0:0:0:0:
400,112,137863,1,0,0:0:0:0:
400,80,138030,5,4,0:0:0:0:
256,80,138363,1,2,0:0:0:0:
64,80,138863,1,2,0:0:0:0:
64,80,139030,2,4,C|64:192|224:144,1,280
256,192,140030,12,4,141030,0:0:0:0:
