osu file format v14

[General]
AudioFilename: Aquarium.mp3
AudioLeadIn: 0
PreviewTime: 23965
Countdown: 0
SampleSet: Soft
StackLeniency: 0.2
Mode: 0
LetterboxInBreaks: 1
WidescreenStoryboard: 0

[Editor]
DistanceSpacing: 0.8
BeatDivisor: 8
GridSize: 4
TimelineZoom: 1.02

[Metadata]
Title:Various BGM
TitleUnicode:Various BGM
Artist:Wizet, Nexon
ArtistUnicode:Wizet, Nexon
Creator:ExGon
Version:Aquarium Easy
Source:Maplestory
Tags:CODA SOUND Studio EIM Takkyu Ishino Riena Strait Henesys Market Haze Temple of Time Road Oblivion Regrets Sharenian Guild Quest Taiwan World Tour El Nath Territory Dead Trees Grand Athenaeum Resistance Xenon Tutorial Beryl Ludibrium Castle Dimensional Schism Tenyo
BeatmapID:537937
BeatmapSetID:217667

[Difficulty]
HPDrainRate:1
CircleSize:4
OverallDifficulty:3
ApproachRate:3
SliderMultiplier:1.4
SliderTickRate:1

[Events]
//Background and Video events
0,0,"aquarium.jpg",0,0
//Break Periods
2,39230,46423
//Storyboard Layer 0 (Background)
//Storyboard Layer 1 (Fail)
//Storyboard Layer 2 (Pass)
//Storyboard Layer 3 (Foreground)
//Storyboard Sound Samples

[TimingPoints]
30,500,4,2,0,100,1,0
24030,500,4,2,0,100,1,1
40030,-100,4,2,0,100,0,0
56030,-100,4,2,0,100,0,1
71030,-100,4,2,0,100,0,0
106530,-100,4,2,0,80,0,0
106780,-100,4,2,0,70,0,0
107030,-100,4,2,0,60,0,0
107280,-100,4,2,0,50,0,0
107530,-100,4,2,0,40,0,0
107780,-100,4,2,0,30,0,0
108030,-100,4,2,0,20,0,0
108280,-100,4,2,0,10,0,0
108530,-100,4,2,0,0,0,0
109363,-100,4,2,0,100,0,0
126030,-100,4,1,0,60,0,1
126113,-100,4,2,0,100,0,1
130030,-100,4,1,0,60,0,1
130113,-100,4,2,0,100,0,1
134030,-100,4,1,0,60,0,1
134113,-100,4,2,0,100,0,1
135030,-100,4,1,0,60,0,1
135113,-100,4,2,0,100,0,1
136030,-100,4,1,0,60,0,1
136113,-100,4,2,0,100,0,1
141030,-100,4,2,0,0,0,1

[Colours]
Combo1 : 0,128,255
Combo2 : 128,128,255
Combo3 : 138,175,244
Combo4 : 128,128,192
Combo5 : 51,51,255

[HitObjects]
112,112,8030,6,0,C|128:48|208:32,1,140,0|2,0:0|0:0,0:0:0:0:
304,32,9030,2,0,C|368:48|384:128,1,140,0|2,0:0|0:0,0:0:0:0:
400,224,10030,2,0,C|384:288|304:304,1,140,0|2,0:0|0:0,0:0:0:0:
208,304,11030,2,0,C|144:288|128:208,1,140,0|2,0:0|0:0,0:0:0:0:
128,144,11863,1,2,0:0:0:0:
128,144,12030,6,0,C|176:48|224:144|272:48|320:144,1,420,0|2,0:0|0:0,0:0:0:0:
320,208,13863,2,0,C|320:256,1,46.6666666666667,2|0,0:0|0:0,0:0:0:0:
224,208,14530,1,0,0:0:0:0:
144,208,14863,2,0,C|144:256,1,46.6666666666667,2|0,0:0|0:0,0:0:0:0:
144,144,15530,2,2,C|144:80|144:48|144:48|176:48|224:48,1,140,0|2,0:0|0:0,0:0:0:0:
256,48,16363,6,2,C|384:48|256:112|384:112|384:176,1,466.666666666667,0|2,0:0|0:0,0:0:0:0:
400,288,18530,1,0,0:0:0:0:
288,288,19030,1,2,0:0:0:0:
176,288,19530,1,0,0:0:0:0:
176,208,19863,1,2,0:0:0:0:
176,208,20030,6,0,C|432:208,1,233.333333333333,0|2,0:0|0:0,0:0:0:0:
409,208,21030,1,0,0:0:0:0:
416,128,21363,2,0,C|224:128,1,186.666666666667,2|0,0:0|0:0,0:0:0:0:
160,128,22363,2,0,C|160:176,1,46.6666666666667,2|0,0:0|0:0,0:0:0:0:
160,288,23030,2,0,C|304:288,2,140,0|2|0,0:0|0:0|0:0,0:0:0:0:
160,176,24530,5,0,0:0:0:0:
160,64,25030,1,2,0:0:0:0:
272,64,25530,1,0,0:0:0:0:
384,64,26030,1,2,0:0:0:0:
384,176,26530,1,8,0:0:0:0:
384,256,26863,1,0,0:0:0:0:
384,256,27030,1,0,0:0:0:0:
272,256,27530,6,2,C|272:96|144:112,2,280,0|0|0,0:0|0:0|0:0,0:0:0:0:
192,256,29863,2,0,C|128:256,1,46.6666666666667,0|2,0:0|0:0,0:0:0:0:
144,176,30363,2,0,C|144:128,1,46.6666666666667,0|8,0:0|0:0,0:0:0:0:
224,128,30863,2,0,C|272:128,1,46.6666666666667,0|2,0:0|0:0,0:0:0:0:
272,208,31363,2,0,C|272:256,1,46.6666666666667,0|2,0:0|0:0,0:0:0:0:
352,256,31863,1,2,0:0:0:0:
352,256,32030,6,0,C|400:256|400:160,3,140,0|0|2|0,0:0|0:0|0:0|0:0,0:0:0:0:
384,64,34030,1,2,0:0:0:0:
272,64,34530,1,8,0:0:0:0:
160,64,35030,1,2,0:0:0:0:
320,176,35863,1,2,0:0:0:0:
336,208,36030,6,0,B|208:192|592:80|320:48|320:48|32:48,1,560
64,160,38530,1,2,0:0:0:0:
64,272,39030,1,4,0:0:0:0:
256,192,47863,5,0,0:0:0:0:
256,192,48030,2,0,B|448:192|448:352,2,280,2|8|2,0:0|0:0|0:0,0:0:0:0:
176,192,50363,2,0,B|128:192,1,46.6666666666667
176,192,50863,2,0,B|224:192,1,46.6666666666667,0|4,0:0|0:0,0:0:0:0:
336,192,51530,2,0,B|336:144,2,46.6666666666667
336,192,52030,5,2,0:0:0:0:
112,192,53030,1,8,0:0:0:0:
256,192,54030,12,4,55030,0:0:0:0:
112,96,56030,6,0,B|224:96,1,93.3333333333333
96,96,56863,1,0,0:0:0:0:
96,128,57030,1,2,0:0:0:0:
96,240,57530,2,0,B|192:240,1,93.3333333333333
224,240,58030,2,0,B|224:96,2,140,2|8|2,0:0|0:0|0:0,0:0:0:0:
96,64,60030,5,2,0:0:0:0:
320,64,61030,1,2,0:0:0:0:
320,288,62030,1,2,0:0:0:0:
96,288,63030,1,2,0:0:0:0:
96,64,64030,5,2,0:0:0:0:
384,112,65029,1,2,0:0:0:0:
96,160,66030,1,2,0:0:0:0:
384,208,67030,1,2,0:0:0:0:
192,208,67863,1,0,0:0:0:0:
192,208,68030,5,2,0:0:0:0:
464,64,68863,1,0,0:0:0:0:
464,64,69030,1,2,0:0:0:0:
256,192,70030,12,4,71030,0:0:0:0:
80,240,72030,6,0,B|96:64|112:176|128:64|144:176|160:64|176:176|192:64|208:176|224:64|240:176|256:64|272:272,1,373.333333333333,2|8,0:0|0:0,0:0:0:0:
160,240,73863,1,0,0:0:0:0:
192,240,74030,2,0,B|208:160|192:80|208:0,1,233.333333333333,2|0,0:0|0:0,0:0:0:0:
206,7,75030,1,4,0:0:0:0:
256,224,76030,5,2,0:0:0:0:
368,224,76530,1,0,0:0:0:0:
368,112,77030,1,8,0:0:0:0:
256,112,77530,1,0,0:0:0:0:
112,112,78030,1,2,0:0:0:0:
112,256,78530,1,0,0:0:0:0:
256,256,79030,1,4,0:0:0:0:
336,256,79363,2,0,B|336:208,1,46.6666666666667
336,128,79863,2,0,B|336:80,1,46.6666666666667,0|2,0:0|0:0,0:0:0:0:
112,112,81030,5,8,0:0:0:0:
112,336,82030,1,2,0:0:0:0:
336,336,83030,1,4,0:0:0:0:
336,112,84030,6,0,B|224:112,1,93.3333333333333,2|0,0:0|0:0,0:0:0:0:
240,144,84530,2,0,B|240:240,1,93.3333333333333
272,240,85030,2,0,B|368:240,1,93.3333333333333,8|0,0:0|0:0,0:0:0:0:
368,208,85530,2,0,B|368:64,7,140,0|2|0|2|0|2|0|2,0:0|0:0|0:0|0:0|0:0|0:0|0:0|0:0,0:0:0:0:
288,64,89363,1,0,0:0:0:0:
288,64,89530,1,0,0:0:0:0:
368,64,89863,1,0,0:0:0:0:
368,96,90030,6,0,B|336:176|400:256|368:336,1,233.333333333333,4|2,0:0|0:0,0:0:0:0:
371,326,91030,2,0,B|320:272|240:336,1,140,0|2,0:0|0:0,0:0:0:0:
208,224,92030,2,0,B|208:80,3,140,0|2|0|2,0:0|0:0|0:0|0:0,0:0:0:0:
272,64,93863,1,2,0:0:0:0:
320,64,94030,6,0,B|368:64,24,46.6666666666667,4|2|0|0|2|0|4|2|0|0|2|0|4|2|0|0|2|0|4|2|0|0|2|0|0,0:0|0:0|0:0|0:0|0:0|0:0|0:0|0:0|0:0|0:0|0:0|0:0|0:0|0:0|0:0|0:0|0:0|0:0|0:0|0:0|0:0|0:0|0:0|0:0|0:0,0:0:0:0:
320,144,98363,5,0,0:0:0:0:
320,144,98530,1,2,0:0:0:0:
240,144,98863,1,2,0:0:0:0:
240,144,99030,1,0,0:0:0:0:
160,144,99363,1,0,0:0:0:0:
160,144,99530,1,2,0:0:0:0:
160,224,99863,1,2,0:0:0:0:
160,224,100030,2,0,B|400:224,1,233.333333333333
393,224,101030,1,2,0:0:0:0:
176,224,102030,5,0,0:0:0:0:
176,144,102363,1,2,0:0:0:0:
288,144,102863,1,2,0:0:0:0:
320,144,103030,1,2,0:0:0:0:
320,256,103530,1,0,0:0:0:0:
208,256,104030,2,0,B|112:256,1,93.3333333333333,2|2,0:0|0:0,0:0:0:0:
112,224,104530,2,0,B|224:224,1,93.3333333333333,0|2,0:0|0:0,0:0:0:0:
240,208,105030,2,0,B|272:112|304:224|336:96|368:176|368:176|368:320,1,280,0|4,0:0|0:0,0:0:0:0:
256,192,106030,12,0,109030,0:0:0:0:
96,80,109863,5,0,0:0:0:0:
128,80,110030,2,0,C|128:144,2,46.6666666666667,6|0|2,0:0|0:0|0:0,0:0:0:0:
160,80,110530,2,0,C|288:80,1,93.3333333333333,0|2,0:0|0:0,0:0:0:0:
288,80,111030,2,0,C|304:144|288:224,1,140,0|2,0:0|0:0,0:0:0:0:
192,288,112030,2,0,C|96:288|128:208,1,140,0|2,0:0|0:0,0:0:0:0:
128,144,113030,2,0,C|176:80|224:144,1,140,0|2,0:0|0:0,0:0:0:0:
211,124,113696,1,0,0:0:0:0:
211,124,113863,1,2,0:0:0:0:
211,124,114030,5,4,0:0:0:0:
320,128,114530,1,0,0:0:0:0:
432,128,115030,1,2,0:0:0:0:
352,128,115530,1,0,0:0:0:0:
272,128,116030,1,2,0:0:0:0:
240,128,116530,1,0,0:0:0:0:
208,128,117030,1,2,0:0:0:0:
400,128,117863,6,0,C|400:80,4,46.6666666666667,0|6|0|2|0,0:0|0:0|0:0|0:0|0:0,0:0:0:0:
320,128,118863,2,0,C|272:128,1,46.6666666666667,2|0,0:0|0:0,0:0:0:0:
192,128,119363,2,0,C|144:128,1,46.6666666666667,2|0,0:0|0:0,0:0:0:0:
144,208,119863,2,0,C|208:208,1,46.6666666666667,0|2,0:0|0:0,0:0:0:0:
272,208,120363,2,0,C|320:208,1,46.6666666666667,0|2,0:0|0:0,0:0:0:0:
400,208,120863,1,0,0:0:0:0:
400,208,121030,1,2,0:0:0:0:
400,208,121530,1,2,0:0:0:0:
400,208,122030,1,4,0:0:0:0:
64,208,123030,5,0,0:0:0:0:
368,80,124030,1,2,0:0:0:0:
368,192,125030,1,2,0:0:0:0:
144,192,126030,5,4,0:0:0:0:
224,192,126363,1,0,0:0:0:0:
336,192,126863,1,0,0:0:0:0:
336,160,127030,1,2,0:0:0:0:
336,48,127530,2,0,C|192:48,3,140,0|2|8|2,0:0|0:0|0:0|0:0,0:0:0:0:
176,160,129530,2,0,C|176:208,2,46.6666666666667
256,192,130030,12,2,133030,0:0:0:0:
176,128,130030,5,4,0:0:0:0:
160,192,134030,6,0,C|160:112,2,70,4|0|2,0:0|0:0|0:0,0:0:0:0:
272,192,135030,2,0,C|272:112,2,70,4|0|2,0:0|0:0|0:0,0:0:0:0:
384,192,136030,2,0,C|384:144,6,46.6666666666667,4|2|0|8|0|2|4,0:0|0:0|0:0|0:0|0:0|0:0|0:0,0:0:0:0:
160,192,138030,5,4,0:0:0:0:
240,192,138363,1,2,0:0:0:0:
352,192,138863,1,2,0:0:0:0:
352,160,139030,2,0,C|352:48|304:160|288:96,1,280,4|4,0:0|0:0,0:0:0:0:
256,192,140030,12,4,141030,0:0:0:0:
