osu file format v14

[General]
AudioFilename: audio.mp3
AudioLeadIn: 0
PreviewTime: -1
Countdown: 1
SampleSet: Normal
StackLeniency: 0.7
Mode: 0
LetterboxInBreaks: 0
WidescreenStoryboard: 0

[Editor]
DistanceSpacing: 0.7
BeatDivisor: 4
GridSize: 16
TimelineZoom: 0.4999999

[Metadata]
Title:Ancient Forest
TitleUnicode:Ancient Forest
Artist:Wizet, Nexon
ArtistUnicode:Wizet, Nexon
Creator:banter
Version:Normal
Source:
Tags:
BeatmapID:1489128
BeatmapSetID:703911

[Difficulty]
HPDrainRate:5
CircleSize:3.7
OverallDifficulty:5
ApproachRate:6
SliderMultiplier:1.4
SliderTickRate:1

[Events]
//Background and Video events
0,0,"maxresdefault.jpg",0,0
//Break Periods
//Storyboard Layer 0 (Background)
//Storyboard Layer 1 (Fail)
//Storyboard Layer 2 (Pass)
//Storyboard Layer 3 (Foreground)
//Storyboard Sound Samples

[TimingPoints]
75,500,4,1,0,100,1,0
16075,-95.2380952380952,4,1,0,100,0,0
18075,-95.2380952380952,4,1,0,100,0,0
26075,-90.9090909090909,4,1,0,100,0,0
28325,-97.0873786407767,4,1,0,100,0,0
32075,-93.4579439252336,4,1,0,100,0,0
34075,-90.0900900900901,4,1,0,100,0,0
36075,-86.9565217391304,4,1,0,100,0,0
38075,-84.0336134453781,4,1,0,100,0,0
40075,-83.3333333333333,4,1,0,100,0,1
40450,-83.3333333333333,4,1,0,100,0,0

[HitObjects]
36,125,75,6,0,B|101:160|176:138|168:128|239:91|348:148,1,280
388,180,1575,1,0,0:0:0:0:
307,222,2075,2,0,B|236:181|165:218|173:228|98:239|33:215,2,280
346,311,4575,2,0,P|402:240|395:184,1,140
307,222,5575,1,0,0:0:0:0:
250,301,6075,6,0,B|206:344|147:332|147:332|156:279|156:279|145:248|150:212|150:212|189:132,1,280
267,133,7575,1,0,0:0:0:0:
307,222,8075,2,0,B|377:243|438:210|438:210|444:261|444:261|459:283|462:310|462:310|447:351,1,280
347,311,9575,1,0,0:0:0:0:
307,222,10075,6,0,B|299:174|315:142|319:145|343:105|327:69|327:69|259:95|195:64,2,280
448,348,12575,1,0,0:0:0:0:
347,311,13075,2,0,P|271:301|176:323,1,140
107,347,14075,2,0,P|117:271|95:176,1,140
71,107,15075,2,0,B|106:116|148:109|144:103|186:90|234:109,1,140
319,209,16075,6,0,B|279:218|240:211|247:202|204:195|157:213,1,146.999995513916
162,256,16825,1,0,0:0:0:0:
201,283,17075,2,0,P|303:296|376:269,1,146.999995513916
389,86,18075,6,0,P|359:153|311:208,1,146.999995513916
120,84,19075,2,0,P|191:98|264:91,1,146.999995513916
458,97,20075,2,0,P|409:151|378:218,1,146.999995513916
345,255,20825,1,0,0:0:0:0:
309,220,21075,2,0,P|243:188|171:177,1,146.999995513916
0,224,22075,6,0,P|65:256|138:267,1,146.999995513916
164,209,22825,5,0,0:0:0:0:
167,193,22950,1,0,0:0:0:0:
170,177,23075,2,0,L|159:110,3,36.749998878479
129,141,23575,2,0,L|149:76,3,36.749998878479
185,97,24075,6,0,L|162:29,3,36.749998878479
232,116,24575,2,0,L|184:62,3,36.749998878479
282,115,25075,2,0,L|217:84,3,36.749998878479
328,95,25575,5,0,0:0:0:0:
289,244,26075,6,0,B|227:277|158:242|158:242|164:276|164:276|88:242|13:289,2,308.000009399414
321,174,28575,1,0,0:0:0:0:
289,244,28825,1,0,0:0:0:0:
325,312,29075,2,0,B|368:329|407:303|407:303|436:318|436:318|485:319,1,144.199998789825
462,225,30075,6,0,B|430:224|406:184|406:184|366:197|358:232,1,144.199998789825
408,304,30825,1,0,0:0:0:0:
370,384,31075,1,0,0:0:0:0:
282,372,31325,1,0,0:0:0:0:
266,284,31575,5,0,0:0:0:0:
254,286,31700,1,0,0:0:0:0:
244,288,31825,1,0,0:0:0:0:
233,292,31950,1,0,0:0:0:0:
223,295,32075,6,0,B|130:308|130:308|120:272|77:249,1,149.799995428467
4,243,32825,1,0,0:0:0:0:
36,335,33075,2,0,L|210:360,1,149.799995428467
76,174,34075,6,0,B|48:141|32:92|32:92|57:63|109:53,1,155.400003793945
201,212,35075,2,0,B|186:252|151:291|151:291|114:283|79:243,1,155.400003793945
172,85,36075,6,0,B|213:111|267:96|267:96|300:107|300:107|350:98,1,161.000003070831
307,21,36825,1,0,0:0:0:0:
228,8,37075,2,0,P|209:86|245:168,1,161.000003070831
341,180,37825,1,0,0:0:0:0:
308,79,38075,6,0,L|130:92,1,166.599996695252
