osu file format v14

[General]
AudioFilename: Stairway To The Skies.mp3
AudioLeadIn: 0
PreviewTime: 80221
Countdown: 0
SampleSet: Soft
StackLeniency: 0.4
Mode: 0
LetterboxInBreaks: 1
WidescreenStoryboard: 1

[Editor]
DistanceSpacing: 1.5
BeatDivisor: 8
GridSize: 32
TimelineZoom: 1

[Metadata]
Title:Stairway To The Skies
TitleUnicode:Stairway To The Skies
Artist:Within Temptation
ArtistUnicode:Within Temptation
Creator:pw384
Version:Hard
Source:
Tags:the unforgiving Sharon Robert Jeroen Martijn Ruud Stephen 384059043
BeatmapID:1621788
BeatmapSetID:228252

[Difficulty]
HPDrainRate:5
CircleSize:4
OverallDifficulty:6
ApproachRate:7.5
SliderMultiplier:2.99999990463257
SliderTickRate:2

[Events]
//Background and Video events
0,0,"bg.jpg",0,0
//Break Periods
//Storyboard Layer 0 (Background)
//Storyboard Layer 1 (Fail)
//Storyboard Layer 2 (Pass)
//Storyboard Layer 3 (Foreground)
//Storyboard Sound Samples

[TimingPoints]
592,740.740740740741,4,2,1,20,1,0
5777,-100,4,2,1,10,0,0
6517,-125,4,2,1,30,0,0
33184,-142.857142857143,4,2,1,30,0,0
45036,-133.333333333333,4,2,1,60,0,0
79666,-125,4,1,0,70,0,0
80221,-100,4,1,0,70,0,0
80592,-100,4,2,1,82,0,0
107258,-133.333333333333,4,2,1,60,0,0
136147,-100,4,2,1,70,0,0
136888,-100,4,2,1,82,0,0
163554,-100,4,2,1,85,0,1
187258,-133.333333333333,4,2,1,60,0,0
187629,-133.333333333333,4,2,1,55,0,0
187999,-133.333333333333,4,2,1,50,0,0
188369,-133.333333333333,4,2,1,45,0,0
188740,-133.333333333333,4,2,1,18,0,0
188925,-133.333333333333,4,2,1,40,0,0
189480,-133.333333333333,4,2,1,35,0,0
190221,-133.333333333333,4,2,1,18,0,0
190406,-133.333333333333,4,2,1,30,0,0
190962,-133.333333333333,4,2,1,25,0,0
191703,-200,4,2,1,25,0,0
202073,-200,4,2,1,35,0,0
205036,-166.666666666667,4,2,1,45,0,0
207999,-125,4,2,1,60,0,0
210962,-133.333333333333,4,2,1,82,0,0
222814,-100,4,2,1,82,0,0
234666,-100,4,2,1,87,0,0
258369,-100,4,2,1,87,0,1
270036,-100,4,2,1,87,0,0
270221,-100,4,2,1,87,0,1
281888,-100,4,2,1,87,0,0
282073,-100,4,2,1,87,0,1
293740,-100,4,2,1,87,0,0
293925,-100,4,2,1,87,0,1
305592,-100,4,2,1,87,0,0
305777,-100,4,2,1,87,0,1
306517,-100,4,2,1,82,0,0

[Colours]
Combo1 : 142,199,255
Combo2 : 0,180,232
Combo3 : 18,124,255
Combo4 : 210,230,255

[HitObjects]
256,192,592,12,0,5777,0:0:0:0:
131,276,6517,6,0,P|41:298|92:205,2,239.999992370606,0|0|2,0:0|0:0|0:0,0:0:0:0:
185,212,8369,1,0,0:0:0:0:
256,256,8740,1,2,0:0:0:0:
327,212,9110,1,0,0:0:0:0:
381,276,9480,6,0,P|471:298|420:205,2,239.999992370606,0|0|2,0:0|0:0|0:0,0:0:0:0:
327,212,11332,1,0,0:0:0:0:
256,256,11703,2,0,P|233:289|213:367,1,119.999996185303,2|0,0:0|0:0,0:0:0:0:
298,365,12443,6,0,B|296:318|277:276|256:256|256:256|233:228|217:201|213:146,2,239.999992370606,0|0|2,0:0|0:0|0:0,0:0:0:0:
213,365,14295,2,0,P|224:306|256:256,1,119.999996185303,0|2,0:0|0:0,0:0:0:0:
327,212,15036,1,0,0:0:0:0:
409,227,15406,6,0,P|396:162|253:170,1,239.999992370606,2|2,0:0|0:0,0:0:0:0:
50,276,16888,2,0,P|99:295|177:284,1,119.999996185303,2|2,0:0|0:0,0:0:0:0:
240,250,17629,2,0,L|226:189,1,59.9999980926514
186,180,17999,2,0,L|172:119,1,59.9999980926514,2|0,0:0|0:0,0:0:0:0:
131,108,18369,6,0,P|41:86|92:179,2,239.999992370606,0|0|2,0:0|0:0|0:0,0:0:0:0:
185,172,20221,1,0,0:0:0:0:
256,128,20592,1,2,0:0:0:0:
327,172,20962,1,0,0:0:0:0:
381,108,21332,6,0,P|471:86|420:179,2,239.999992370606,0|0|2,0:0|0:0|0:0,0:0:0:0:
327,172,23184,1,0,0:0:0:0:
256,128,23554,2,0,P|233:95|213:17,1,119.999996185303,2|0,0:0|0:0,0:0:0:0:
298,18,24295,6,0,B|296:66|277:108|256:128|256:128|233:156|217:183|213:238,2,239.999992370606,0|0|2,0:0|0:0|0:0,0:0:0:0:
213,18,26147,2,0,P|224:77|256:128,1,119.999996185303,0|2,0:0|0:0,0:0:0:0:
327,172,26888,1,0,0:0:0:0:
409,157,27258,6,0,P|396:222|253:214,1,239.999992370606,2|2,0:0|0:0,0:0:0:0:
50,108,28740,2,0,P|99:89|177:100,1,119.999996185303,2|0,0:0|0:0,0:0:0:0:
165,95,29851,2,0,P|210:121|251:188,1,119.999996185303,2|0,0:0|0:0,0:0:0:0:
256,192,30406,12,0,33184,0:0:0:0:
87,87,33925,6,0,P|136:120|191:129,1,104.999993457794,0|0,0:0|0:0,0:0:0:0:
256,93,34666,2,0,P|188:121|167:247,2,209.999986915589,2|2|0,0:0|0:0|0:0,0:0:0:0:
425,297,36888,6,0,P|376:264|321:255,1,104.999993457794,0|0,0:0|0:0,0:0:0:0:
256,291,37629,2,0,P|324:263|345:137,2,209.999986915589,2|2|0,0:0|0:0|0:0,0:0:0:0:
256,122,39851,6,0,L|256:14,1,104.999993457794,0|0,0:0|0:0,0:0:0:0:
176,45,40592,2,0,P|255:102|336:45,2,209.999986915589,2|2|0,0:0|0:0|0:0,0:0:0:0:
68,173,42814,6,0,P|119:196|160:231,1,104.999993457794,2|0,0:0|0:0,0:0:0:0:
214,287,43554,1,2,0:0:0:0:
298,287,43925,1,2,0:0:0:0:
355,227,44295,2,0,P|396:194|444:173,1,104.999993457794,2|0,0:0|0:0,0:0:0:0:
469,86,45036,6,0,P|443:173|435:309,2,225.000001430512,0|8|0,1:0|0:0|0:0,0:0:0:0:
382,60,46888,1,2,0:0:0:0:
332,135,47258,1,8,0:0:0:0:
244,112,47629,1,2,0:0:0:0:
233,22,47999,6,0,P|156:46|10:46,2,225.000001430512,0|8|0,1:0|0:0|0:0,0:0:0:0:
244,112,49851,1,2,0:0:0:0:
203,192,50221,2,0,P|145:195|82:208,1,112.500000715256,8|2,0:0|0:0,0:0:0:0:
43,298,50962,6,0,P|69:211|77:75,2,225.000001430512,0|8|0,1:0|0:0|0:0,0:0:0:0:
130,324,52814,1,2,0:0:0:0:
180,249,53184,1,8,0:0:0:0:
268,272,53554,1,2,0:0:0:0:
279,362,53925,6,0,P|356:338|502:338,2,225.000001430512,0|8|0,1:0|0:0|0:0,0:0:0:0:
268,272,55777,1,2,0:0:0:0:
309,192,56147,2,0,P|367:189|430:176,1,112.500000715256,8|0,0:0|3:0,0:0:0:0:
458,154,56703,2,0,P|470:100|473:68,1,56.2500003576279,0|4,3:0|0:0,0:0:0:0:
298,28,57629,6,0,B|285:68|304:108|304:108|326:149|306:197,1,168.750001072884,8|0,0:0|0:0,0:0:0:0:
232,229,58369,2,0,L|118:227,1,112.500000715256,2|0,0:0|0:0,0:0:0:0:
12,96,59110,2,0,L|126:98,1,112.500000715256,8|0,0:0|0:0,0:0:0:0:
194,146,59666,1,0,0:0:0:0:
194,146,59851,6,0,P|224:243|139:335,1,225.000001430512,0|8,1:0|0:0,0:0:0:0:
319,316,60962,2,0,L|378:312,1,56.2500003576279,0|0,0:0|0:0,0:0:0:0:
457,329,61332,6,0,P|443:267|440:218,1,112.500000715256,2|0,0:0|0:0,0:0:0:0:
336,84,62073,2,0,P|331:140|318:194,1,112.500000715256,8|0,0:0|0:0,0:0:0:0:
251,245,62629,1,0,0:0:0:0:
251,245,62814,6,0,B|192:254|162:241|139:206|81:210|30:241,1,225.000001430512,0|8,1:0|0:0,0:0:0:0:
146,364,63925,2,0,P|149:325|145:293,1,56.2500003576279,0|0,0:0|0:0,0:0:0:0:
133,224,64295,6,0,P|125:160|131:104,1,112.500000715256,2|0,0:0|0:0,0:0:0:0:
280,36,65036,2,0,P|288:100|282:156,1,112.500000715256,8|0,0:0|0:0,0:0:0:0:
211,192,65592,1,0,0:0:0:0:
211,192,65777,6,0,P|257:171|366:229,1,168.750001072884,0|0,1:0|0:0,0:0:0:0:
441,198,66517,2,0,L|422:315,1,112.500000715256,8|0,0:0|0:0,0:0:0:0:
275,264,67258,6,0,P|229:285|120:227,1,168.750001072884,2|0,0:0|0:0,0:0:0:0:
44,257,67999,2,0,L|63:140,1,112.500000715256,8|0,0:0|3:0,3:3:0:0:
79,62,68554,1,0,3:0:0:0:
79,62,68740,1,0,1:0:0:0:
214,28,69480,6,0,B|227:68|208:108|208:108|186:149|206:197,1,168.750001072884,8|0,0:0|0:0,0:0:0:0:
280,229,70221,2,0,L|394:227,1,112.500000715256,2|0,0:0|0:0,0:0:0:0:
500,96,70962,2,0,L|386:98,1,112.500000715256,8|0,0:0|0:0,0:0:0:0:
318,146,71517,1,0,0:0:0:0:
318,146,71703,6,0,P|288:243|373:335,1,225.000001430512,0|8,1:0|0:0,0:0:0:0:
193,316,72814,2,0,L|134:312,1,56.2500003576279,0|0,0:0|0:0,0:0:0:0:
55,329,73184,6,0,P|69:267|72:218,1,112.500000715256,2|0,0:0|0:0,0:0:0:0:
176,84,73925,2,0,P|180:140|193:194,1,112.500000715256,8|0,0:0|0:0,0:0:0:0:
261,245,74480,1,0,0:0:0:0:
261,245,74666,6,0,B|320:254|350:241|373:206|431:210|482:241,1,225.000001430512,0|8,1:0|0:0,0:0:0:0:
366,364,75777,2,0,P|363:325|367:293,1,56.2500003576279,0|0,0:0|0:0,0:0:0:0:
379,224,76147,6,0,P|387:160|381:104,1,112.500000715256,2|0,0:0|0:0,0:0:0:0:
232,36,76888,2,0,P|224:100|230:156,1,112.500000715256,8|0,0:0|0:0,0:0:0:0:
256,226,77443,1,0,0:0:0:0:
318,283,77629,6,0,P|373:287|429:279,1,112.500000715256,0|0,1:0|0:0,0:0:0:0:
194,283,78369,2,0,P|138:287|82:279,1,112.500000715256,8|0,0:0|0:0,0:0:0:0:
3,129,79110,1,2,0:0:0:0:
134,357,79666,5,0,0:0:0:0:
194,283,79851,1,0,0:0:0:0:
204,289,80221,2,0,P|210:252|205:215,1,74.9999976158142
97,169,80592,6,0,P|163:204|237:81,1,224.999992847443,4|0,1:1|0:0,0:0:0:0:
166,47,81332,2,0,P|159:83|164:120,1,74.9999976158142,2|0,1:2|0:0,0:0:0:0:
325,163,81703,2,0,P|331:126|326:89,1,74.9999976158142,0|0,0:0|0:0,0:0:0:0:
177,137,82073,6,0,L|17:133,2,149.999995231628,2|2|2,0:0|0:0|1:2,0:0:0:0:
255,78,82999,1,0,0:0:0:0:
219,219,83184,2,0,L|299:216,1,74.9999976158142,2|0,0:0|0:0,0:0:0:0:
393,151,83554,6,0,P|372:219|491:277,1,224.999992847443,2|0,0:0|0:0,0:0:0:0:
452,205,84295,1,2,1:2:0:0:
452,205,84666,2,0,L|372:208,1,74.9999976158142,2|0,0:0|0:0,0:0:0:0:
269,179,85036,6,0,P|289:221|290:268,1,74.9999976158143,2|0,0:0|0:0,0:0:0:0:
197,246,85406,2,0,P|181:289|148:323,1,74.9999976158143,2|0,0:0|0:0,0:0:0:0:
98,241,85777,2,0,P|64:258|28:265,1,74.9999976158143,2|0,1:2|0:0,0:0:0:0:
38,170,86147,6,0,P|15:100|57:35,1,149.999995231629,2|4,0:0|0:0,0:0:0:0:
251,99,86888,2,0,L|102:109,1,149.999995231629,0|2,0:0|1:2,0:0:0:0:
331,187,87629,2,0,L|181:196,1,149.999995231629,0|2,0:0|0:0,0:0:0:0:
410,275,88369,2,0,L|260:284,1,149.999995231629,2|2,0:0|1:2,0:0:0:0:
460,345,89110,6,0,P|497:282|474:214,1,149.999995231629,2|2,0:0|0:0,0:0:0:0:
413,136,89666,1,0,0:0:0:0:
331,187,89851,2,0,P|294:198|255:196,1,74.9999976158143,2|0,0:0|0:0,0:0:0:0:
186,263,90221,2,0,P|255:247|326:313,1,149.999995231629,2|2,1:2|0:0,0:0:0:0:
236,346,90777,1,0,0:0:0:0:
106,309,90962,6,0,P|68:303|31:303,1,74.9999976158143,2|0,0:0|1:0,0:0:0:0:
190,170,91332,2,0,P|195:207|195:244,1,74.9999976158143,0|0,0:0|0:0,0:0:0:0:
323,267,91703,2,0,P|328:188|348:118,1,149.999995231629,2|8,1:2|3:3,0:0:0:0:
426,51,92258,1,8,3:3:0:0:
415,169,92443,6,0,P|349:204|275:81,1,224.999992847443,4|0,0:0|0:0,0:0:0:0:
346,47,93184,2,0,P|353:83|348:120,1,74.9999976158142,2|0,1:2|0:0,0:0:0:0:
187,163,93554,2,0,P|181:126|186:89,1,74.9999976158142,0|0,0:0|0:0,0:0:0:0:
335,137,93925,6,0,L|495:133,2,149.999995231628,2|2|2,0:0|0:0|1:2,0:0:0:0:
257,78,94851,1,0,0:0:0:0:
293,219,95036,2,0,L|213:216,1,74.9999976158142,2|0,0:0|0:0,0:0:0:0:
119,151,95406,6,0,P|140:219|21:277,1,224.999992847443,2|0,0:0|0:0,0:0:0:0:
60,205,96147,1,2,1:2:0:0:
60,205,96517,2,0,L|140:208,1,74.9999976158142,2|0,0:0|0:0,0:0:0:0:
243,179,96888,6,0,P|223:221|222:268,1,74.9999976158143,2|0,0:0|0:0,0:0:0:0:
315,246,97258,2,0,P|331:289|364:323,1,74.9999976158143,2|0,0:0|0:0,0:0:0:0:
413,241,97629,2,0,P|447:258|484:265,1,74.9999976158143,2|0,1:2|0:0,0:0:0:0:
474,170,97999,6,0,P|497:100|455:35,1,149.999995231629,2|4,0:0|0:0,0:0:0:0:
260,99,98740,2,0,L|410:109,1,149.999995231629,0|2,0:0|1:2,0:0:0:0:
251,284,99480,2,0,L|102:275,1,149.999995231629,2|2,0:0|0:0,0:0:0:0:
251,284,100221,6,0,L|246:358,1,74.9999976158143,2|0,0:0|0:0,0:0:0:0:
348,197,100592,2,0,L|422:201,1,74.9999976158143,2|0,1:2|0:0,0:0:0:0:
261,100,100962,2,0,L|266:20,1,74.9999976158143,2|0,0:0|0:0,0:0:0:0:
164,187,101332,6,0,L|15:178,1,149.999995231629,4|2,0:0|0:0,0:0:0:0:
95,99,101888,1,0,0:0:0:0:
177,200,102073,2,0,P|186:239|181:281,1,74.9999976158143,2|0,1:2|0:0,0:0:0:0:
51,345,102443,2,0,P|42:306|47:264,1,74.9999976158143,2|0,0:0|0:0,0:0:0:0:
247,301,102814,6,0,L|172:296,1,74.9999976158143,2|0,0:0|1:0,0:0:0:0:
385,256,103184,2,0,P|394:295|389:337,1,74.9999976158143,0|0,0:0|0:0,0:0:0:0:
297,214,103554,2,0,B|288:155|288:155|296:123|296:123|287:65,1,149.999995231629,2|8,1:2|3:3,0:0:0:0:
203,119,104110,1,8,3:3:0:0:
382,160,104295,5,4,0:0:0:0:
256,192,104480,12,4,107258,0:0:0:0:
153,305,107999,6,0,P|255:263|358:304,1,225.000001430512,2|2,1:2|0:0,0:0:0:0:
346,192,109110,2,0,P|371:136|359:86,1,112.500000715256,0|2,0:0|1:2,0:0:0:0:
256,130,109851,1,0,0:0:0:0:
166,192,110221,6,0,B|134:159|134:118|152:87|152:87|42:111,2,225.000001430512,0|2|2,0:0|1:2|0:0,0:0:0:0:
256,130,112073,1,0,0:0:0:0:
346,192,112443,1,2,1:2:0:0:
283,286,112814,2,0,P|256:291|228:286,1,56.2500003576279,8|8,3:3|3:3,0:0:0:0:
159,324,113184,6,0,P|263:372|353:324,1,225.000001430512,4|0,0:0|1:0,0:0:0:0:
426,98,114480,1,0,0:0:0:0:
426,98,114666,6,0,L|309:95,1,112.500000715256,2|2,0:0|0:0,0:0:0:0:
241,235,115406,2,0,L|358:238,1,112.500000715256,0|2,1:0|0:0,0:0:0:0:
391,168,115962,1,0,0:0:0:0:
391,168,116147,6,0,P|353:237|429:346,1,225.000001430512,0|0,1:0|1:0,0:0:0:0:
241,235,117443,1,0,0:0:0:0:
241,235,117629,6,0,L|248:119,1,112.500000715256,2|2,0:0|0:0,0:0:0:0:
110,46,118369,2,0,L|103:162,1,112.500000715256,0|2,1:0|0:0,0:0:0:0:
73,231,118925,1,0,0:0:0:0:
73,231,119110,6,0,B|102:243|144:245|164:205|218:187|271:211|301:230,1,225.000001430512,0|0,1:0|1:0,0:0:0:0:
486,300,120221,2,0,L|425:306,1,56.2500003576279,0|0,0:0|0:0,0:0:0:0:
361,266,120592,6,0,P|337:209|353:155,1,112.500000715256,2|2,0:0|0:0,0:0:0:0:
400,13,121332,2,0,P|424:70|408:124,1,112.500000715256,0|2,1:0|0:0,0:0:0:0:
348,161,121888,1,0,0:0:0:0:
348,161,122073,6,0,B|306:146|265:159|265:159|226:175|184:156,1,168.750001072884,0|0,1:0|0:0,0:0:0:0:
145,86,122814,2,0,L|32:96,1,112.500000715256,0|0,1:0|0:0,0:0:0:0:
232,222,123554,6,0,L|345:212,1,112.500000715256,2|2,0:0|0:0,0:0:0:0:
443,89,124295,1,0,1:0:0:0:
423,245,124666,2,0,P|423:279|427:308,1,56.2500003576279,2|2,0:0|0:0,0:0:0:0:
353,324,125036,6,0,P|249:372|159:324,1,225.000001430512,4|0,0:0|1:0,0:0:0:0:
86,98,126332,1,0,0:0:0:0:
86,98,126517,6,0,L|203:95,1,112.500000715256,2|2,0:0|0:0,0:0:0:0:
271,235,127258,2,0,L|154:238,1,112.500000715256,0|2,1:0|0:0,0:0:0:0:
121,168,127814,1,0,0:0:0:0:
121,168,127999,6,0,P|159:237|83:346,1,225.000001430512,0|0,1:0|1:0,0:0:0:0:
271,235,129295,1,0,0:0:0:0:
271,235,129480,6,0,L|264:119,1,112.500000715256,0|0,0:0|0:0,0:0:0:0:
402,46,130221,2,0,L|409:162,1,112.500000715256,0|2,1:0|0:0,0:0:0:0:
439,231,130777,1,2,0:0:0:0:
439,231,130962,6,0,B|410:243|368:245|348:205|294:187|241:211|211:230,1,225.000001430512,2|0,0:0|1:0,0:0:0:0:
26,300,132073,2,0,L|87:306,1,56.2500003576279,2|0,0:0|0:0,0:0:0:0:
151,266,132443,6,0,P|175:209|159:155,1,112.500000715256,2|0,0:0|0:0,0:0:0:0:
112,13,133184,2,0,P|88:70|104:124,1,112.500000715256,0|2,1:0|0:0,0:0:0:0:
164,161,133740,1,0,0:0:0:0:
164,161,133925,6,0,B|206:146|247:159|247:159|286:175|328:156,1,168.750001072884,2|0,0:0|0:0,0:0:0:0:
367,86,134666,2,0,L|480:96,1,112.500000715256,0|2,1:0|0:0,0:0:0:0:
506,169,135221,1,0,0:0:0:0:
506,169,135406,6,0,P|509:221|501:246,1,56.2500003576279,0|0,0:0|1:0,0:0:0:0:
364,339,135777,2,0,P|359:311|362:284,1,56.2500003576279,2|0,0:0|0:0,0:0:0:0:
434,252,136147,6,0,P|364:275|297:244,1,149.999995231629,0|0,1:0|1:0,0:0:0:0:
215,177,136703,1,0,1:0:0:0:
199,280,136888,6,0,P|103:323|26:250,1,224.999992847443,4|0,1:1|0:0,0:0:0:0:
115,159,137629,2,0,P|124:202|116:244,1,74.9999976158143,2|0,1:2|0:0,0:0:0:0:
16,162,137999,2,0,L|20:84,1,74.9999976158143,0|0,0:0|0:0,0:0:0:0:
122,52,138369,6,0,P|197:59|272:59,1,149.999995231629,2|2,0:0|0:0,0:0:0:0:
458,157,139110,2,0,P|383:156|308:164,1,149.999995231629,2|2,1:2|0:0,0:0:0:0:
234,215,139666,1,0,0:0:0:0:
264,349,139851,6,0,P|366:314|306:254,1,224.999992847443,2|0,0:0|0:0,0:0:0:0:
234,215,140592,1,2,1:2:0:0:
234,215,140962,2,0,P|191:219|156:220,1,74.9999976158143,2|0,0:0|0:0,0:0:0:0:
93,158,141332,6,0,P|89:115|88:80,1,74.9999976158143,2|0,0:0|0:0,0:0:0:0:
150,17,141703,2,0,P|193:13|228:12,1,74.9999976158143,2|0,0:0|0:0,0:0:0:0:
291,74,142073,2,0,P|295:117|296:152,1,74.9999976158143,2|0,1:2|0:0,0:0:0:0:
362,209,142443,6,0,P|336:274|371:351,1,149.999995231629,2|4,0:0|0:0,0:0:0:0:
364,344,143184,2,0,L|212:334,1,149.999995231629,0|2,0:0|1:2,0:0:0:0:
86,206,143925,2,0,L|95:355,1,149.999995231629,2|2,0:0|0:0,0:0:0:0:
86,206,144666,2,0,P|151:232|228:197,1,149.999995231629,2|2,0:0|1:2,0:0:0:0:
278,133,145221,1,0,0:0:0:0:
187,49,145406,6,0,P|182:86|187:123,1,74.9999976158143,2|0,0:0|0:0,0:0:0:0:
222,203,145777,2,0,P|289:174|357:200,1,149.999995231629,2|2,0:0|0:0,0:0:0:0:
432,250,146332,1,0,0:0:0:0:
358,362,146517,2,0,L|350:287,1,74.9999976158143,2|0,1:2|0:0,0:0:0:0:
442,177,146888,2,0,P|443:214|432:249,1,74.9999976158143,2|0,0:0|0:0,0:0:0:0:
312,280,147258,6,0,L|232:270,1,74.9999976158143,2|0,0:0|1:0,0:0:0:0:
73,336,147629,2,0,L|153:346,1,74.9999976158143,0|0,0:0|0:0,0:0:0:0:
356,201,147999,6,0,P|296:158|224:170,1,149.999995231629,2|2,1:2|0:0,0:0:0:0:
312,280,148554,1,2,0:0:0:0:
312,280,148740,6,0,P|408:323|485:250,1,224.999992847443,4|0,0:0|0:0,0:0:0:0:
397,159,149480,2,0,P|388:202|396:244,1,74.9999976158143,2|0,1:2|0:0,0:0:0:0:
496,162,149851,2,0,L|492:84,1,74.9999976158143,0|0,0:0|0:0,0:0:0:0:
389,52,150221,6,0,P|314:59|239:59,1,149.999995231629,2|2,0:0|0:0,0:0:0:0:
54,157,150962,2,0,P|128:156|203:164,1,149.999995231629,2|2,1:2|0:0,0:0:0:0:
278,215,151517,1,0,0:0:0:0:
248,349,151703,6,0,P|146:314|206:254,1,224.999992847443,2|0,0:0|0:0,0:0:0:0:
278,215,152443,1,2,1:2:0:0:
278,215,152814,2,0,P|321:219|356:220,1,74.9999976158143,2|0,0:0|0:0,0:0:0:0:
419,158,153184,6,0,P|423:115|424:80,1,74.9999976158143,2|0,0:0|0:0,0:0:0:0:
362,17,153554,2,0,P|319:13|284:12,1,74.9999976158143,2|0,0:0|0:0,0:0:0:0:
221,74,153925,2,0,P|217:117|216:152,1,74.9999976158143,2|0,1:2|0:0,0:0:0:0:
150,209,154295,6,0,P|74:200|-13:199,1,149.999995231629,2|4,0:0|0:0,0:0:0:0:
211,319,155036,2,0,P|287:310|374:309,1,149.999995231629,0|2,0:0|1:2,0:0:0:0:
511,185,155777,2,0,P|436:183|362:175,1,149.999995231629,2|2,0:0|0:0,0:0:0:0:
299,110,156332,1,0,0:0:0:0:
228,165,156517,6,0,P|179:169|134:159,1,74.9999976158143,2|0,0:0|0:0,0:0:0:0:
100,20,156888,2,0,P|104:69|94:114,1,74.9999976158143,2|0,1:2|0:0,0:0:0:0:
15,128,157258,2,0,P|11:79|21:34,1,74.9999976158143,2|0,0:0|0:0,0:0:0:0:
70,190,157629,6,0,P|77:261|64:352,1,149.999995231629,4|2,0:0|0:0,0:0:0:0:
154,315,158184,1,0,0:0:0:0:
241,294,158369,2,0,P|280:297|318:305,1,74.9999976158143,2|0,1:2|0:0,0:0:0:0:
392,351,158740,2,0,P|429:348|466:340,1,74.9999976158143,2|0,0:0|0:0,0:0:0:0:
358,140,159110,6,0,P|344:177|346:217,1,74.9999976158143,2|0,0:0|1:0,0:0:0:0:
481,238,159480,2,0,P|495:201|493:161,1,74.9999976158143,0|0,0:0|0:0,0:0:0:0:
420,189,159851,1,2,1:2:0:0:
420,189,160221,5,2,0:0:0:0:
269,158,160406,1,2,0:0:0:0:
177,275,160592,6,0,P|261:266|381:333,1,224.999992847443,4|0,0:0|0:0,0:0:0:0:
344,211,161332,2,0,P|344:174|358:140,1,74.9999976158143,0|0,1:0|0:0,0:0:0:0:
494,166,161703,2,0,P|494:203|481:238,1,74.9999976158143,2|0,0:0|0:0,0:0:0:0:
371,121,162073,6,0,L|292:115,1,74.9999976158143,4|0,0:0|0:0,0:0:0:0:
136,99,162443,1,0,1:0:0:0:
209,151,162629,1,0,1:0:0:0:
127,261,162814,2,0,P|121:224|126:187,1,74.9999976158143,4|0,0:0|0:0,0:0:0:0:
221,62,163184,1,8,3:3:0:0:
221,62,163554,6,0,B|281:83|333:62|333:62|391:43|443:65,1,224.999992847443,4|0,0:0|0:0,0:0:0:0:
499,152,164295,2,0,L|500:232,1,74.9999976158143,2|0,1:2|0:0,0:0:0:0:
405,274,164666,2,0,L|405:348,1,74.9999976158143,0|0,0:0|0:0,0:0:0:0:
245,322,165036,6,0,L|320:322,1,74.9999976158143,4|0,0:0|0:0,0:0:0:0:
431,188,165406,2,0,L|357:189,1,74.9999976158143,0|0,0:0|0:0,0:0:0:0:
272,237,165777,2,0,L|271:162,1,74.9999976158143,2|0,1:2|0:0,0:0:0:0:
405,274,166147,6,0,L|405:348,2,74.9999976158143,0|0|4,0:0|0:0|0:0,0:0:0:0:
405,274,166888,2,0,L|405:120,1,149.999995231629,0|2,0:0|1:2,0:0:0:0:
242,295,167629,2,0,L|167:296,1,74.9999976158143
26,252,167999,6,0,P|8:282|-1:328,1,74.9999976158143,4|0,0:0|0:0,0:0:0:0:
113,212,168369,2,0,L|108:134,1,74.9999976158143,0|0,0:0|0:0,0:0:0:0:
0,38,168740,2,0,B|36:54|73:41|73:41|110:26|146:42,1,149.999995231629,2|0,1:2|0:0,0:0:0:0:
213,122,169295,1,0,0:0:0:0:
256,217,169480,6,0,P|334:236|390:116,1,224.999992847443,4|0,0:0|0:0,0:0:0:0:
484,178,170221,2,0,L|460:339,1,149.999995231629,2|0,1:2|0:0,0:0:0:0:
256,369,170962,6,0,P|142:349|18:348,1,224.999992847443,4|0,0:0|0:0,0:0:0:0:
100,266,171703,2,0,P|109:197|47:131,1,149.999995231629,2|0,1:2|0:0,0:0:0:0:
20,220,172258,1,0,0:0:0:0:
197,236,172443,6,0,B|236:239|269:226|269:226|304:212|344:216,1,149.999995231629,4|0,0:0|0:0,0:0:0:0:
404,283,172999,1,0,0:0:0:0:
331,375,173184,2,0,P|318:340|318:299,1,74.9999976158143,2|0,1:2|0:0,0:0:0:0:
435,196,173554,2,0,P|448:161|449:124,1,74.9999976158143,0|0,0:0|0:0,0:0:0:0:
335,100,173925,6,0,P|322:135|322:176,1,74.9999976158143,4|0,0:0|1:0,0:0:0:0:
439,278,174295,2,0,P|451:312|452:350,1,74.9999976158143,0|0,0:0|0:0,0:0:0:0:
317,302,174666,2,0,L|231:297,1,74.9999976158143,2|0,1:2|0:0,0:0:0:0:
87,370,175036,2,0,P|139:367|169:349,1,74.9999976158143,8|8,3:3|3:3,0:0:0:0:
103,258,175406,5,4,0:0:0:0:
91,244,176147,5,2,1:2:0:0:
81,230,176517,2,0,L|6:233,1,74.9999976158143,0|0,0:0|0:0,0:0:0:0:
177,284,176888,6,0,P|190:249|190:208,1,74.9999976158143,4|0,0:0|0:0,0:0:0:0:
73,106,177258,2,0,P|60:71|59:33,1,74.9999976158143,0|0,0:0|0:0,0:0:0:0:
195,82,177629,2,0,L|281:87,1,74.9999976158143,2|0,1:2|0:0,0:0:0:0:
425,14,177999,2,0,P|373:17|343:35,1,74.9999976158143,0|0,0:0|0:0,0:0:0:0:
409,126,178369,5,4,0:0:0:0:
421,140,179110,5,2,1:2:0:0:
431,154,179480,2,0,L|506:151,1,74.9999976158143,0|0,0:0|0:0,0:0:0:0:
415,262,179851,6,0,L|340:265,1,74.9999976158143,4|0,0:0|0:0,0:0:0:0:
235,162,180221,2,0,L|310:159,1,74.9999976158143,0|0,0:0|0:0,0:0:0:0:
219,270,180592,2,0,L|144:273,1,74.9999976158143,2|0,1:2|0:0,0:0:0:0:
39,170,180962,2,0,L|114:167,1,74.9999976158143,0|0,0:0|0:0,0:0:0:0:
235,162,181332,6,0,P|261:99|220:21,1,149.999995231629,4|0,0:0|0:0,0:0:0:0:
39,170,182073,2,0,P|13:233|54:311,1,149.999995231629,2|0,1:2|0:0,0:0:0:0:
143,339,182629,1,0,0:0:0:0:
231,281,182814,6,0,P|301:277|384:294,1,149.999995231629,4|0,0:0|0:0,0:0:0:0:
394,83,183554,2,0,P|324:87|241:70,1,149.999995231629,2|0,1:2|0:0,0:0:0:0:
152,22,184110,1,0,0:0:0:0:
55,62,184295,6,0,L|44:289,1,224.999992847443,4|0,0:2|0:0,0:0:0:0:
141,246,185036,2,0,L|152:19,1,224.999992847443,0|0,1:0|0:0,0:0:0:0:
245,71,185777,6,0,P|282:81|319:86,1,74.9999976158143,4|0,0:0|1:0,0:0:0:0:
423,74,186147,1,0,0:0:0:0:
358,273,186517,2,0,P|255:233|153:273,1,224.999992847443,2|0,1:2|0:0,0:0:0:0:
125,348,187258,6,0,B|126:286|177:242|231:236|231:236|256:185|256:185|281:236|281:236|335:242|386:286|387:348,3,450.000002861023,4|2|2|0,0:0|0:0|0:0|0:0,0:0:0:0:
331,42,193184,6,0,L|181:42,1,149.999995231629,0|0,0:0|0:0,0:0:0:0:
13,169,194666,2,0,L|91:156,1,74.9999976158143,0|0,0:0|0:0,0:0:0:0:
154,189,195406,2,0,L|232:176,1,74.9999976158143,0|0,0:0|0:0,0:0:0:0:
295,209,196147,2,0,B|370:196|370:196|425:192|502:178|462:29|302:75|370:196|370:196|412:277,1,449.999985694885,0|0,0:0|0:0,0:0:0:0:
280,347,199110,6,0,B|233:325|176:331|114:455|-53:335|20:153|162:199,1,449.999985694885,2|0,0:0|0:0,0:0:0:0:
65,77,202073,6,0,B|214:88|214:88|357:43|357:43|329:191,1,449.999985694885,2|0,0:0|0:0,0:0:0:0:
372,316,205036,6,0,P|411:95|199:168,1,539.999966354371,2|0,0:0|0:0,0:0:0:0:
27,36,207999,5,4,0:0:0:0:
103,50,208369,1,0,0:0:0:0:
179,65,208740,1,4,0:0:0:0:
255,80,209110,1,0,0:0:0:0:
332,95,209480,1,4,0:0:0:0:
408,111,209851,1,0,0:0:0:0:
255,80,210221,5,4,0:0:0:0:
255,80,210406,1,0,0:0:0:0:
332,95,210592,1,4,0:0:0:0:
332,95,210777,1,0,0:0:0:0:
408,111,210962,6,0,L|389:339,1,225.000001430512,4|0,0:0|1:0,0:0:0:0:
174,267,212258,1,0,0:0:0:0:
174,267,212443,2,0,P|248:270|293:279,2,112.500000715256,0|0|0,0:0|0:0|1:0,0:0:0:0:
174,267,213925,6,0,P|203:194|89:211,1,225.000001430512,0|0,0:0|1:0,0:0:0:0:
321,312,215221,1,0,0:0:0:0:
321,312,215406,2,0,L|314:198,2,112.500000715256,0|0|0,0:0|0:0|1:0,0:0:0:0:
367,91,216888,6,0,B|307:70|256:89|256:89|206:110|144:86,2,225.000001430512,0|0|0,0:0|1:0|0:0,0:0:0:0:
448,192,218740,1,0,0:0:0:0:
367,293,219110,1,0,1:0:0:0:
367,293,219851,6,0,B|307:314|256:295|256:295|206:274|144:298,2,225.000001430512,0|0|0,0:0|1:0|0:0,0:0:0:0:
412,231,221517,1,2,1:2:0:0:
412,153,221703,1,0,0:0:0:0:
182,119,222073,2,0,L|187:236,1,112.500000715256,0|8,1:0|3:3,0:0:0:0:
158,305,222629,1,8,3:3:0:0:
131,382,222814,6,0,B|371:362|371:362|497:371|497:371|449:294|449:294|383:288,1,524.9999833107,4|0,0:0|0:0,0:0:0:0:
383,288,224295,6,0,B|142:268|142:268|16:277|16:277|64:200|64:200|131:194,1,524.9999833107,4|0,0:0|0:0,0:0:0:0:
129,194,225777,6,0,B|369:174|369:174|495:183|495:183|447:106|447:106|381:100,1,524.9999833107,4|0,0:0|0:0,0:0:0:0:
381,100,227258,6,0,B|140:80|140:80|14:89|14:89|62:12|62:12|129:6,1,524.9999833107,4|0,0:0|0:0,0:0:0:0:
128,6,228740,6,0,B|455:30|455:30|273:301|273:301|161:81,1,899.999971389771,4|0,0:0|1:0,0:0:0:0:
39,192,231332,1,2,0:0:0:0:
68,354,231703,6,0,L|222:366,1,149.999995231629,4|2,0:0|0:0,0:0:0:0:
318,235,232443,2,0,L|164:223,1,149.999995231629,0|0,1:0|3:0,0:0:0:0:
229,358,233184,6,0,L|303:363,1,74.9999976158143,0|0,3:0|1:0,0:0:0:0:
384,251,233554,2,0,L|309:245,1,74.9999976158143,0|0,3:0|3:0,0:0:0:0:
315,357,233925,6,0,L|389:362,1,74.9999976158143,0|0,1:0|3:0,0:0:0:0:
470,250,234295,2,0,L|395:244,1,74.9999976158143,8|8,3:3|3:3,0:0:0:0:
298,253,234666,5,4,1:1:0:0:
298,253,235406,2,0,L|66:268,1,224.999992847443,2|0,1:2|0:0,0:0:0:0:
178,279,236147,6,0,P|190:320|183:365,1,74.9999976158143,2|0,0:0|0:0,0:0:0:0:
61,257,236517,2,0,P|58:219|70:184,1,74.9999976158143,2|0,0:0|0:0,0:0:0:0:
161,130,236888,2,0,L|320:138,1,149.999995231629,2|0,1:2|0:0,0:0:0:0:
400,82,237443,1,0,0:0:0:0:
400,82,237629,6,0,P|330:140|377:260,1,224.999992847443,2|0,0:0|0:0,0:0:0:0:
420,175,238369,1,2,1:2:0:0:
420,175,238740,2,0,L|339:168,1,74.9999976158143
254,239,239110,6,0,P|268:281|264:328,1,74.9999976158143,2|0,0:0|0:0,0:0:0:0:
151,211,239480,2,0,P|151:173|164:138,1,74.9999976158143,2|0,0:0|0:0,0:0:0:0:
256,86,239851,1,2,1:2:0:0:
256,86,240221,6,0,L|409:96,1,149.999995231629,0|4,0:0|0:0,0:0:0:0:
503,282,240962,2,0,L|350:292,1,149.999995231629,0|2,0:0|1:2,0:0:0:0:
256,86,241703,6,0,L|103:96,1,149.999995231629,2|2,0:0|0:0,0:0:0:0:
9,282,242443,2,0,L|162:292,1,149.999995231629,2|2,0:0|1:2,0:0:0:0:
330,82,243184,6,0,L|253:86,1,74.9999976158143,2|0,0:0|0:0,0:0:0:0:
158,44,243554,2,0,P|182:108|155:191,1,149.999995231629,2|2,0:0|0:0,0:0:0:0:
49,203,244110,1,0,0:0:0:0:
154,197,244295,2,0,L|235:192,1,74.9999976158143,2|0,1:2|0:0,0:0:0:0:
366,317,244666,2,0,L|285:312,1,74.9999976158143,0|0,1:0|0:0,0:0:0:0:
229,193,245036,6,0,L|233:112,1,74.9999976158143,2|0,0:0|1:0,0:0:0:0:
59,140,245406,2,0,L|54:221,1,74.9999976158143,0|0,0:0|0:0,0:0:0:0:
126,384,245777,2,0,L|134:234,1,149.999995231629,0|8,1:0|3:3,0:0:0:0:
78,297,246332,1,8,3:3:0:0:
214,253,246517,6,0,P|279:189|189:171,1,224.999992847443,4|0,0:0|0:0,0:0:0:0:
214,253,247258,2,0,L|446:268,1,224.999992847443,2|0,1:2|0:0,0:0:0:0:
334,279,247999,6,0,P|322:320|329:365,1,74.9999976158143,2|0,0:0|0:0,0:0:0:0:
451,257,248369,2,0,P|454:219|442:184,1,74.9999976158143,2|0,0:0|0:0,0:0:0:0:
351,130,248740,2,0,L|192:138,1,149.999995231629,2|0,1:2|0:0,0:0:0:0:
112,82,249295,1,0,0:0:0:0:
112,82,249480,6,0,P|182:140|135:260,1,224.999992847443,2|0,0:0|0:0,0:0:0:0:
92,175,250221,1,2,1:2:0:0:
92,175,250592,2,0,L|173:168,1,74.9999976158143,2|0,0:0|0:0,0:0:0:0:
258,239,250962,6,0,P|244:281|248:328,1,74.9999976158143,2|0,0:0|1:0,0:0:0:0:
361,211,251332,2,0,P|361:173|348:138,1,74.9999976158143,0|0,1:0|0:0,0:0:0:0:
256,86,251703,1,2,1:2:0:0:
256,86,252073,6,0,L|103:96,1,149.999995231629,0|4,0:0|0:0,0:0:0:0:
9,282,252814,2,0,L|162:292,1,149.999995231629,0|2,0:0|1:2,0:0:0:0:
256,86,253554,2,0,L|409:96,1,149.999995231629,2|2,0:0|0:0,0:0:0:0:
503,282,254295,6,0,L|426:286,1,74.9999976158143,0|0,0:0|0:0,0:0:0:0:
294,203,254666,2,0,P|339:205|374:219,1,74.9999976158143,2|0,1:2|0:0,0:0:0:0:
380,360,255036,2,0,P|332:368|235:333,1,149.999995231629,2|2,0:0|0:0,0:0:0:0:
132,155,255777,6,0,P|147:190|148:237,1,74.9999976158143,2|0,0:0|0:0,0:0:0:0:
17,257,256147,2,0,P|2:222|1:175,1,74.9999976158143,2|0,1:2|0:0,0:0:0:0:
45,91,256517,1,2,1:2:0:0:
45,91,256703,1,0,0:0:0:0:
132,155,256888,6,0,L|206:160,1,74.9999976158143,0|0,1:0|0:0,0:0:0:0:
351,102,257258,2,0,L|276:96,1,74.9999976158143,2|0,0:0|0:0,0:0:0:0:
213,167,257629,6,0,L|287:172,1,74.9999976158143,0|0,1:0|0:0,0:0:0:0:
432,114,257999,2,0,L|357:108,1,74.9999976158143,8|8,3:0|3:0,0:0:0:0:
377,211,258369,6,0,P|388:260|385:310,1,74.9999976158143,4|0,0:0|0:0,0:0:0:0:
229,361,258740,2,0,P|230:323|240:287,1,74.9999976158143,2|0,0:0|0:0,0:0:0:0:
244,291,259110,2,0,L|82:297,1,149.999995231629,0|2,1:0|0:0,0:0:0:0:
9,233,259666,1,0,0:0:0:0:
94,296,259851,6,0,P|114:254|115:215,1,74.9999976158143,4|0,0:0|0:0,0:0:0:0:
58,138,260221,2,0,P|62:100|80:68,1,74.9999976158143,2|0,0:0|0:0,0:0:0:0:
178,28,260592,2,0,P|236:43|300:105,1,149.999995231629,0|2,1:0|0:0,0:0:0:0:
336,202,261147,1,0,0:0:0:0:
336,202,261332,6,0,L|327:291,1,74.9999976158143,4|0,0:0|0:0,0:0:0:0:
192,293,261703,2,0,L|201:204,1,74.9999976158143,2|0,0:0|0:0,0:0:0:0:
203,222,262073,2,0,B|163:235|129:223|129:223|95:209|56:224,1,149.999995231629,0|2,1:0|0:0,0:0:0:0:
90,324,262629,1,0,0:0:0:0:
168,130,262814,6,0,L|160:52,1,74.9999976158143,4|0,0:0|0:0,0:0:0:0:
50,151,263184,2,0,P|46:193|58:229,1,74.9999976158143,2|0,0:0|0:0,0:0:0:0:
233,314,263554,2,0,P|159:301|87:325,2,149.999995231629,0|2|4,1:0|0:0|0:0,0:0:0:0:
279,70,264666,6,0,P|353:83|425:59,2,149.999995231629,2|0|2,0:0|1:0|0:0,0:0:0:0:
177,42,265592,1,0,0:0:0:0:
199,144,265777,2,0,P|204:193|194:240,1,74.9999976158143,4|0,0:0|0:0,0:0:0:0:
70,300,266147,6,0,L|150:297,1,74.9999976158143,2|0,0:0|0:0,0:0:0:0:
275,215,266517,2,0,L|195:218,1,74.9999976158143,0|0,1:0|0:0,0:0:0:0:
207,371,266888,2,0,L|287:368,1,74.9999976158143,2|0,0:0|0:0,0:0:0:0:
412,286,267258,6,0,L|252:292,1,149.999995231629,4|2,0:0|0:0,0:0:0:0:
488,335,267814,1,0,0:0:0:0:
488,335,267999,2,0,P|500:282|491:253,1,74.9999976158143,0|0,1:0|0:0,0:0:0:0:
385,132,268369,2,0,P|380:168|392:204,1,74.9999976158143,2|0,0:0|0:0,0:0:0:0:
442,71,268740,5,4,0:0:0:0:
442,71,268925,1,0,1:1:0:0:
314,101,269110,1,2,0:0:0:0:
314,101,269295,1,0,0:0:0:0:
197,52,269480,6,0,L|120:46,1,74.9999976158143,0|0,1:0|1:0,0:0:0:0:
0,145,269851,2,0,L|77:139,1,74.9999976158143,2|0,1:2|1:0,0:0:0:0:
135,211,270221,6,0,P|124:260|127:310,1,74.9999976158143,4|0,0:0|0:0,0:0:0:0:
275,361,270592,2,0,P|274:323|264:287,1,74.9999976158143,2|0,0:0|0:0,0:0:0:0:
268,291,270962,2,0,L|430:297,1,149.999995231629,0|2,1:0|0:0,0:0:0:0:
503,233,271517,1,0,0:0:0:0:
418,296,271703,6,0,P|398:254|397:215,1,74.9999976158143,4|0,0:0|0:0,0:0:0:0:
454,138,272073,2,0,P|450:100|432:68,1,74.9999976158143,2|0,0:0|0:0,0:0:0:0:
334,28,272443,2,0,P|276:43|212:105,1,149.999995231629,0|2,1:0|0:0,0:0:0:0:
176,202,272999,1,0,0:0:0:0:
176,202,273184,6,0,L|185:291,1,74.9999976158143,4|0,0:0|0:0,0:0:0:0:
312,293,273554,2,0,L|303:204,1,74.9999976158143,2|0,0:0|0:0,0:0:0:0:
309,222,273925,2,0,B|348:235|382:223|382:223|416:209|455:224,1,149.999995231629,0|2,1:0|0:0,0:0:0:0:
422,324,274480,1,0,0:0:0:0:
344,130,274666,6,0,L|352:52,1,74.9999976158143,4|0,0:0|0:0,0:0:0:0:
462,151,275036,2,0,P|465:193|454:229,1,74.9999976158143,2|0,0:0|0:0,0:0:0:0:
279,314,275406,2,0,P|353:301|425:325,2,149.999995231629,0|2|4,1:0|0:0|0:0,0:0:0:0:
233,70,276517,6,0,P|159:83|87:59,2,149.999995231629,2|0|2,0:0|1:0|0:0,0:0:0:0:
335,42,277443,1,0,0:0:0:0:
313,144,277629,2,0,P|308:193|318:240,1,74.9999976158143,4|0,0:0|0:0,0:0:0:0:
442,300,277999,6,0,L|362:297,1,74.9999976158143,2|0,0:0|0:0,0:0:0:0:
237,215,278369,2,0,L|317:218,1,74.9999976158143,0|0,1:0|0:0,0:0:0:0:
305,371,278740,2,0,L|225:368,1,74.9999976158143,2|0,0:0|0:0,0:0:0:0:
100,286,279110,6,0,L|260:292,1,149.999995231629,4|2,0:0|0:0,0:0:0:0:
24,335,279666,1,0,0:0:0:0:
24,335,279851,2,0,P|12:282|21:253,1,74.9999976158143,0|0,1:0|0:0,0:0:0:0:
68,130,280221,2,0,L|78:204,1,74.9999976158143,2|0,1:2|0:0,0:0:0:0:
199,78,280592,6,0,P|164:61|104:68,2,74.9999976158143,4|8|8,0:0|3:0|3:0,0:0:0:0:
199,78,281332,6,0,L|261:66,5,49.9999984105428,8|0|0|0|0|0,3:0|3:0|3:0|3:0|3:0|3:0,0:0:0:0:
291,96,282073,6,0,B|339:138|445:166|538:119|517:9|373:-20|392:119|392:119|438:192|406:264,1,524.9999833107,4|0,0:0|0:0,0:0:0:0:
320,322,283554,6,0,L|245:322,1,74.9999976158143,4|0,0:0|0:0,0:0:0:0:
91,231,283925,2,0,L|165:230,1,74.9999976158143,2|0,0:0|0:0,0:0:0:0:
291,170,284295,2,0,L|290:95,1,74.9999976158143,0|0,1:0|0:0,0:0:0:0:
410,252,284666,2,0,L|410:326,2,74.9999976158143,2|0|4,0:0|0:0|0:0,0:0:0:0:
410,252,285406,6,0,L|412:100,1,149.999995231629,2|0,0:0|1:0,0:0:0:0:
262,246,286147,2,0,L|187:247,1,74.9999976158143,2|0,0:0|0:0,0:0:0:0:
74,362,286517,6,0,P|110:354|142:335,1,74.9999976158143,4|0,0:0|1:0,0:0:0:0:
84,176,286888,2,0,L|88:250,1,74.9999976158143,2|0,0:0|0:0,0:0:0:0:
240,339,287258,2,0,B|276:355|313:342|313:342|350:327|386:343,1,149.999995231629,0|2,1:0|1:2,0:0:0:0:
476,290,287814,1,0,0:0:0:0:
385,342,287999,6,0,P|372:269|411:207,1,149.999995231629,4|2,0:0|0:0,0:0:0:0:
508,168,288554,1,0,0:0:0:0:
426,100,288740,2,0,L|270:92,1,149.999995231629,0|2,1:0|0:0,0:0:0:0:
100,266,289480,6,0,L|256:274,1,149.999995231629,4|2,0:0|0:0,0:0:0:0:
341,327,290036,1,0,0:0:0:0:
341,327,290221,2,0,P|353:254|314:192,1,149.999995231629,0|2,1:0|0:0,0:0:0:0:
250,274,290777,1,0,0:0:0:0:
314,192,290962,6,0,L|470:200,2,149.999995231629,4|2|0,0:0|0:0|1:0,0:0:0:0:
169,39,292073,2,0,P|158:76|160:123,1,74.9999976158143,2|0,0:0|0:0,0:0:0:0:
207,206,292443,6,0,P|122:211|70:173,2,149.999995231629,4|2|0,0:0|0:0|1:0,0:0:0:0:
352,331,293554,2,0,L|353:256,1,74.9999976158143,2|0,1:2|1:0,0:0:0:0:
356,260,293925,6,0,P|473:236|466:80,1,299.999990463257,4|0,0:0|1:0,0:0:0:0:
222,95,295036,2,0,L|221:170,1,74.9999976158143,2|0,0:0|0:0,0:0:0:0:
192,322,295406,6,0,L|267:322,1,74.9999976158143,4|0,0:0|0:0,0:0:0:0:
421,231,295777,2,0,L|347:230,1,74.9999976158143,2|0,0:0|0:0,0:0:0:0:
221,170,296147,2,0,L|222:95,1,74.9999976158143,0|0,1:0|0:0,0:0:0:0:
102,252,296517,2,0,L|102:326,2,74.9999976158143,2|0|4,0:0|0:0|0:0,0:0:0:0:
102,252,297258,6,0,L|100:100,1,149.999995231629,2|0,0:0|1:0,0:0:0:0:
250,246,297999,2,0,L|325:247,1,74.9999976158143,2|0,0:0|0:0,0:0:0:0:
438,362,298369,6,0,P|401:354|369:335,1,74.9999976158143,4|0,0:0|0:0,0:0:0:0:
428,176,298740,2,0,L|423:250,1,74.9999976158143,2|0,0:0|0:0,0:0:0:0:
272,339,299110,2,0,B|236:355|199:342|199:342|162:327|126:343,1,149.999995231629,0|2,1:0|0:0,0:0:0:0:
36,290,299666,1,0,0:0:0:0:
126,342,299851,6,0,P|139:269|100:207,1,149.999995231629,4|2,0:0|0:0,0:0:0:0:
4,168,300406,1,0,0:0:0:0:
86,100,300592,2,0,L|242:92,1,149.999995231629,0|2,1:0|0:0,0:0:0:0:
412,266,301332,6,0,L|256:274,1,149.999995231629,4|2,0:0|0:0,0:0:0:0:
171,327,301888,1,0,0:0:0:0:
171,327,302073,2,0,P|158:254|197:192,1,149.999995231629,0|2,1:0|0:0,0:0:0:0:
262,274,302629,1,0,0:0:0:0:
197,192,302814,6,0,L|41:200,1,149.999995231629,4|2,0:0|0:0,0:0:0:0:
169,28,303554,2,0,L|325:36,1,149.999995231629,0|2,1:0|1:2,0:0:0:0:
417,221,304295,6,0,L|426:284,2,49.9999984105428,4|0|0,0:0|1:0|1:0,0:0:0:0:
347,232,304666,2,0,L|356:295,2,49.9999984105428,0|0|0,1:0|1:0|1:0,0:0:0:0:
277,243,305036,2,0,L|286:306,2,49.9999984105428,8|0|0,3:0|3:0|3:0,0:0:0:0:
207,254,305406,2,0,L|216:317,2,49.9999984105428,0|0|0,3:0|3:0|3:0,0:0:0:0:
137,265,305777,6,0,B|56:277|56:277|-29:248|21:130|131:175|100:231,1,299.999990463257,4|0,0:0|1:0,0:0:0:0:
