osu file format v14

[General]
AudioFilename: audio.mp3
AudioLeadIn: 0
PreviewTime: 55194
Countdown: 0
SampleSet: Soft
StackLeniency: 0.7
Mode: 0
LetterboxInBreaks: 0
WidescreenStoryboard: 1

[Editor]
Bookmarks: 11057,22091,33125,55194,66229,77263
DistanceSpacing: 1
BeatDivisor: 4
GridSize: 32
TimelineZoom: 1.8

[Metadata]
Title:Wander
TitleUnicode:Wander
Artist:Wisp X
ArtistUnicode:Wisp X
Creator:Zer0-
Version:Normal
Source:
Tags:electronic chill drum & bass edm house ost New York instrumental mpg mapper's guild mappers' featured artist
BeatmapID:1384688
BeatmapSetID:652886

[Difficulty]
HPDrainRate:3
CircleSize:3.2
OverallDifficulty:3
ApproachRate:4.5
SliderMultiplier:1
SliderTickRate:1

[Events]
//Background and Video events
0,0,"wander.png",0,0
//Break Periods
//Storyboard Layer 0 (Background)
//Storyboard Layer 1 (Fail)
//Storyboard Layer 2 (Pass)
//Storyboard Layer 3 (Foreground)
//Storyboard Layer 4 (Overlay)
//Storyboard Sound Samples

[TimingPoints]
11057,344.827586206897,4,2,1,30,1,0
11057,-133.333333333333,4,2,1,30,0,0
11143,-133.333333333333,4,2,1,20,0,0
22091,-133.333333333333,4,2,2,40,0,0
22177,-133.333333333333,4,2,2,30,0,0
32436,-133.333333333333,4,2,1,30,0,0
33125,-133.333333333333,4,2,1,60,0,0
66229,-133.333333333333,4,2,1,40,0,0
68988,-133.333333333333,4,2,1,60,0,0
77263,-133.333333333333,4,2,1,60,0,1
99332,-133.333333333333,4,2,1,60,0,0

[Colours]
Combo1 : 95,154,187
Combo2 : 34,121,199

[HitObjects]
310,270,11057,6,0,P|347:274|384:271,1,75.0000028610231,6|2,1:2|0:2,0:0:0:0:
428,262,11574,1,2,0:2:0:0:
351,151,12091,2,0,B|338:115|353:79|353:79|369:37|357:4,1,150.000005722046,2|2,0:2|0:2,0:0:0:0:
181,40,13470,1,2,0:2:0:0:
136,118,13815,6,0,P|59:142|-11:104,1,150.000005722046,2|2,0:2|0:2,0:0:0:0:
57,236,15022,2,0,L|54:348,1,112.500004291535,2|0,0:2|0:2,0:0:0:0:
143,359,15884,1,2,0:2:0:0:
230,335,16229,1,2,0:2:0:0:
296,274,16574,6,0,P|370:275|422:326,1,150.000005722046,2|2,0:2|0:2,0:0:0:0:
497,213,17781,2,0,P|513:140|500:66,1,150.000005722046,2|0,0:2|0:2,0:0:0:0:
464,39,18643,2,0,L|470:2,2,37.5000014305115,2|2|2,0:2|0:2|0:2,0:0:0:0:
376,59,19332,6,0,L|263:56,1,112.500004291535,2|2,0:2|0:2,0:0:0:0:
179,162,20367,2,0,L|297:157,1,112.500004291535,2|0,0:2|0:0,0:0:0:0:
360,273,21401,2,0,L|247:270,1,112.500004291535,2|0,0:2|0:2,0:0:0:0:
203,264,22091,6,0,P|215:302|208:340,1,75.0000028610231,6|10,0:2|0:2,0:0:0:0:
123,308,22781,1,2,0:2:0:0:
32,207,23298,2,0,P|28:151|54:102,1,112.500004291535,2|8,0:2|0:2,0:0:0:0:
133,61,24160,1,2,0:2:0:0:
221,44,24505,1,2,0:2:0:0:
306,71,24850,6,0,P|339:98|355:140,1,75.0000028610231,2|10,0:2|0:2,0:0:0:0:
266,153,25539,1,2,0:2:0:0:
133,178,26057,2,0,P|127:233|147:285,1,112.500004291535,2|8,0:2|0:2,0:0:0:0:
218,340,26919,2,0,L|216:377,2,37.5000014305115,2|10|2,0:2|0:2|0:2,0:0:0:0:
293,286,27608,5,2,0:2:0:0:
402,206,28125,1,2,0:2:0:0:
274,161,28643,2,0,B|239:149|200:163|200:163|159:180|125:168,1,150.000005722046,2|8,0:2|0:2,0:0:0:0:
72,97,29677,2,0,P|106:81|145:80,1,75.0000028610231,2|2,0:2|0:2,0:0:0:0:
232,68,30367,5,2,0:2:0:0:
364,43,30884,1,2,0:2:0:0:
425,162,31402,2,0,P|416:237|426:311,1,150.000005722046,2|0,0:2|0:0,0:0:0:0:
494,369,32436,1,0,0:2:0:0:
314,353,33125,6,0,L|220:351,1,75.0000028610231,4|8,1:2|0:2,0:0:0:0:
193,351,33643,1,0,1:2:0:0:
279,247,34160,2,0,P|294:174|266:106,1,150.000005722046,0|8,0:2|0:2,0:0:0:0:
102,182,35539,1,0,0:2:0:0:
102,182,35884,6,0,L|97:267,1,75.0000028610231,0|8,1:2|0:2,0:0:0:0:
53,335,36574,2,0,P|87:348|124:343,1,75.0000028610231,0|0,0:2|0:2,0:0:0:0:
164,321,37091,2,0,P|218:309|272:321,1,112.500004291535,0|8,0:2|0:2,0:0:0:0:
352,363,37953,1,0,0:2:0:0:
350,272,38298,1,0,1:2:0:0:
348,181,38643,6,0,P|372:151|407:138,1,75.0000028610231,0|8,1:2|0:2,0:0:0:0:
484,95,39332,2,0,P|460:65|424:52,1,75.0000028610231,0|0,0:2|0:2,0:0:0:0:
381,46,39850,2,0,P|328:60|273:51,1,112.500004291535,0|8,0:2|0:2,0:0:0:0:
183,35,40712,2,0,L|197:-2,2,37.5000014305115,0|8|0,0:2|0:2|0:2,0:0:0:0:
196,124,41401,6,0,L|203:205,1,75.0000028610231,0|8,1:2|0:2,0:0:0:0:
211,243,41919,2,0,L|204:324,1,75.0000028610231,0|8,1:0|0:0,0:0:0:0:
203,362,42436,2,0,P|273:338|341:367,1,150.000005722046,0|8,0:2|0:2,0:0:0:0:
397,297,43470,2,0,P|407:250|397:186,1,112.500004291535,0|8,0:2|1:2,0:0:0:0:
379,145,44160,5,4,1:2:0:0:
296,109,44505,1,8,0:2:0:0:
234,174,44850,2,0,L|131:171,1,75.0000028610231,0|0,0:2|0:2,0:0:0:0:
113,173,45367,2,0,P|99:227|105:282,1,112.500004291535,0|8,0:2|0:2,0:0:0:0:
179,333,46229,1,0,0:2:0:0:
236,263,46574,1,0,0:2:0:0:
324,282,46919,6,0,P|360:274|396:282,1,75.0000028610231,0|8,1:2|0:2,0:0:0:0:
472,331,47608,2,0,P|487:296|484:259,1,75.0000028610231,0|0,0:2|0:2,0:0:0:0:
462,220,48125,2,0,P|448:165|453:109,1,112.500004291535,0|8,0:2|0:2,0:0:0:0:
478,23,48988,2,0,L|516:41,2,37.5000014305115,0|8|0,0:0|0:2|1:2,0:0:0:0:
390,44,49677,6,0,P|353:40|316:46,1,75.0000028610231,0|8,1:2|0:2,0:0:0:0:
278,71,50194,2,0,P|240:76|203:72,1,75.0000028610231,0|8,1:2|0:2,0:0:0:0:
166,46,50712,2,0,B|125:35|90:45|90:45|49:58|11:45,1,150.000005722046,0|8,0:2|0:2,0:0:0:0:
17,137,51746,1,0,0:2:0:0:
41,223,52091,1,0,0:2:0:0:
109,281,52436,6,0,P|146:285|183:281,1,75.0000028610231,0|8,1:2|0:2,0:0:0:0:
211,245,52953,2,0,P|248:240|285:245,1,75.0000028610231,0|8,1:2|0:2,0:0:0:0:
325,264,53470,2,0,P|307:191|319:118,1,150.000005722046,0|8,0:2|0:2,0:0:0:0:
355,35,54505,2,0,P|315:25|280:34,1,75.0000028610231,0|0,0:2|1:2,0:0:0:0:
219,96,55194,6,0,L|122:93,1,75.0000028610231,4|8,1:2|0:2,0:0:0:0:
98,92,55712,1,0,1:2:0:0:
123,178,56057,2,0,P|127:219|117:252,1,75.0000028610231,8|0,0:2|0:2,0:0:0:0:
99,292,56574,1,0,1:2:0:0:
189,289,56919,1,8,0:2:0:0:
279,286,57263,1,0,0:2:0:0:
369,283,57608,2,0,L|374:320,1,37.5000014305115,0|0,0:2|1:2,0:0:0:0:
380,364,57953,6,0,L|463:363,1,75.0000028610231,0|8,1:2|0:2,0:0:0:0:
494,341,58470,2,0,P|487:305|492:268,1,75.0000028610231,0|8,1:2|0:2,0:0:0:0:
498,132,59332,2,0,P|442:121|385:127,1,112.500004291535,0|0,1:2|1:2,0:0:0:0:
347,148,60022,2,0,P|328:148|310:143,1,37.5000014305115,0|8,0:2|0:2,0:0:0:0:
268,124,60367,2,0,P|249:119|231:119,1,37.5000014305115,0|8,1:2|1:2,0:0:0:0:
188,132,60712,6,0,L|187:217,1,75.0000028610231,0|8,1:2|0:2,0:0:0:0:
186,252,61229,1,0,1:2:0:0:
121,314,61574,2,0,P|85:320|48:313,1,75.0000028610231,8|0,0:2|0:2,0:0:0:0:
4,300,62091,1,0,1:2:0:0:
38,216,62436,1,8,0:2:0:0:
4,132,62781,1,0,0:2:0:0:
38,48,63125,2,0,P|55:47|75:51,1,37.5000014305115,0|0,0:2|1:2,0:0:0:0:
114,72,63470,6,0,P|149:76|188:71,1,75.0000028610231,0|8,1:2|0:2,0:0:0:0:
232,62,63988,2,0,L|231:13,2,37.5000014305115,0|0|8,1:2|0:2|0:2,0:0:0:0:
247,104,64505,1,0,0:2:0:0:
267,191,64850,2,0,P|269:228|261:264,1,75.0000028610231,0|8,1:2|0:2,0:0:0:0:
333,317,65539,2,0,P|364:296|399:284,1,75.0000028610231,0|0,0:2|1:2,0:0:0:0:
473,232,66229,6,0,P|477:194|472:157,1,75.0000028610231,4|8,0:2|0:2,0:0:0:0:
451,117,66746,1,0,0:2:0:0:
365,87,67091,2,0,L|290:87,1,75.0000028610231,8|0,0:2|0:2,0:0:0:0:
244,87,67608,1,0,0:2:0:0:
273,171,67953,1,8,0:2:0:0:
244,255,68298,1,0,0:2:0:0:
273,339,68643,2,0,P|246:342|222:339,1,37.5000014305115,0|0,1:2|1:2,0:0:0:0:
191,332,68988,6,0,P|154:325|117:330,1,75.0000028610231,4|8,1:2|0:2,0:0:0:0:
72,333,69505,2,0,L|75:258,1,75.0000028610231,0|8,1:2|0:2,0:0:0:0:
21,133,70367,2,0,P|75:119|129:131,1,112.500004291535,0|0,1:2|1:2,0:0:0:0:
169,152,71057,2,0,L|224:150,1,37.5000014305115,0|8,0:2|0:2,0:0:0:0:
249,164,71401,2,0,L|304:162,1,37.5000014305115,0|8,1:2|1:2,0:0:0:0:
329,177,71746,6,0,P|337:214|335:251,1,75.0000028610231,0|8,1:2|0:2,0:0:0:0:
329,295,72263,1,0,1:2:0:0:
255,347,72608,2,0,P|218:356|181:354,1,75.0000028610231,8|0,0:2|0:2,0:0:0:0:
137,341,73125,1,0,1:2:0:0:
80,270,73470,1,8,0:2:0:0:
99,182,73815,1,0,0:2:0:0:
177,137,74160,2,0,P|199:136|226:143,1,37.5000014305115,0|0,0:2|1:2,0:0:0:0:
251,164,74505,6,0,P|286:168|330:160,1,75.0000028610231,0|8,1:2|0:2,0:0:0:0:
357,130,75022,2,0,L|348:93,2,37.5000014305115,0|0|8,0:2|1:2|0:2,0:0:0:0:
397,150,75539,1,0,0:2:0:0:
416,237,75884,2,0,P|441:236|483:231,2,56.2500021457673,4|4|8,1:2|1:2|1:2,0:0:0:0:
374,253,76574,2,0,P|359:306|373:360,1,112.500004291535,4|8,1:2|0:2,0:0:0:0:
327,367,77263,6,0,P|290:369|253:364,1,75.0000028610231,4|8,1:2|0:2,0:0:0:0:
211,346,77781,2,0,P|173:343|136:348,1,75.0000028610231,0|8,1:2|0:2,0:0:0:0:
91,353,78298,2,0,P|72:301|90:207,1,150.000005722046,0|8,0:2|0:2,0:0:0:0:
187,86,79677,2,0,P|206:83|225:85,1,37.5000014305115,0|0,0:2|1:2,0:0:0:0:
262,108,80022,6,0,P|280:109|299:107,1,37.5000014305115,0|0,1:2|0:2,0:0:0:0:
383,76,80539,1,0,1:2:0:0:
365,164,80884,1,8,0:2:0:0:
383,252,81229,1,0,0:2:0:0:
365,340,81574,1,0,0:2:0:0:
279,368,81919,2,0,L|221:367,1,37.5000014305115,0|0,1:2|0:2,0:0:0:0:
201,346,82263,2,0,L|143:345,2,37.5000014305115,8|0|8,0:2|1:2|1:2,0:0:0:0:
226,308,82781,6,0,P|231:271|231:234,1,75.0000028610231,0|8,1:2|0:2,0:0:0:0:
206,195,83298,2,0,P|221:159|239:127,1,75.0000028610231,0|8,1:2|0:2,0:0:0:0:
282,116,83815,1,0,0:2:0:0:
198,275,84505,1,8,0:2:0:0:
154,283,84677,1,0,1:2:0:0:
124,316,84850,2,0,P|88:310|50:314,1,75.0000028610231,0|0,0:2|0:2,0:0:0:0:
12,232,85539,6,0,P|6:194|7:157,1,75.0000028610231,0|8,1:2|0:2,0:0:0:0:
42,128,86057,2,0,P|47:90|46:53,1,75.0000028610231,0|8,1:2|0:2,0:0:0:0:
88,36,86574,2,0,P|143:29|198:39,1,112.500004291535,0|0,0:2|0:0,0:0:0:0:
323,90,87608,2,0,P|378:100|433:93,1,112.500004291535,0|8,0:2|1:2,0:0:0:0:
476,79,88298,6,0,P|469:116|477:153,1,75.0000028610231,4|8,1:2|0:2,0:0:0:0:
501,190,88815,2,0,P|508:226|500:263,1,75.0000028610231,0|8,1:2|0:2,0:0:0:0:
467,294,89332,2,0,P|398:266|325:279,1,150.000005722046,0|8,0:2|0:2,0:0:0:0:
157,345,90712,2,0,P|155:321|158:291,1,37.5000014305115,0|0,0:2|1:2,0:0:0:0:
129,271,91057,6,0,P|131:247|128:217,1,37.5000014305115,0|0,1:2|0:2,0:0:0:0:
125,143,91574,1,0,1:2:0:0:
199,92,91919,1,8,0:2:0:0:
280,130,92263,1,0,0:2:0:0:
287,219,92608,1,0,0:2:0:0:
213,269,92953,2,0,L|216:313,1,37.5000014305115,0|0,1:2|0:2,0:0:0:0:
252,332,93298,2,0,L|255:376,2,37.5000014305115,8|0|8,0:2|1:2|1:2,0:0:0:0:
293,313,93815,6,0,P|329:305|366:310,1,75.0000028610231,0|8,1:2|0:2,0:0:0:0:
407,327,94332,2,0,P|434:302|468:287,1,75.0000028610231,0|8,1:2|0:2,0:0:0:0:
485,245,94850,2,0,L|483:88,1,150.000005722046,0|8,0:2|0:2,0:0:0:0:
439,107,95712,1,0,1:2:0:0:
397,123,95884,2,0,P|360:124|321:116,1,75.0000028610231,0|0,0:2|0:2,0:0:0:0:
243,158,96574,6,0,P|254:193|255:231,1,75.0000028610231,0|8,1:2|0:2,0:0:0:0:
232,269,97091,2,0,P|220:304|219:342,1,75.0000028610231,0|8,1:2|0:2,0:0:0:0:
175,352,97608,2,0,P|139:339|102:340,1,75.0000028610231,0|0,0:2|0:2,0:0:0:0:
14,182,98643,2,0,L|27:62,1,112.500004291535,0|8,0:2|0:2,0:0:0:0:
35,26,99332,5,4,0:2:0:0:
