osu file format v14

[General]
AudioFilename: audio.mp3
AudioLeadIn: 0
PreviewTime: 55194
Countdown: 0
SampleSet: Soft
StackLeniency: 0.7
Mode: 0
LetterboxInBreaks: 0
WidescreenStoryboard: 1

[Editor]
Bookmarks: 11057,22091,33125,55194,66229,77263
DistanceSpacing: 1
BeatDivisor: 4
GridSize: 32
TimelineZoom: 1.8

[Metadata]
Title:Wander
TitleUnicode:Wander
Artist:Wisp X
ArtistUnicode:Wisp X
Creator:Zer0-
Version:Insane
Source:
Tags:electronic chill drum & bass edm house ost New York instrumental mpg mapper's guild mappers' featured artist
BeatmapID:1384727
BeatmapSetID:652886

[Difficulty]
HPDrainRate:6
CircleSize:3.8
OverallDifficulty:7.5
ApproachRate:8.5
SliderMultiplier:1.4
SliderTickRate:1

[Events]
//Background and Video events
0,0,"wander.png",0,0
//Break Periods
//Storyboard Layer 0 (Background)
//Storyboard Layer 1 (Fail)
//Storyboard Layer 2 (Pass)
//Storyboard Layer 3 (Foreground)
//Storyboard Layer 4 (Overlay)
//Storyboard Sound Samples

[TimingPoints]
11057,344.827586206897,4,2,1,30,1,0
11057,-133.333333333333,4,2,1,30,0,0
11143,-133.333333333333,4,2,1,20,0,0
22091,-117.647058823529,4,2,2,40,0,0
22177,-117.647058823529,4,2,2,30,0,0
32436,-200,4,2,1,30,0,0
33125,-100,4,2,1,60,0,0
66229,-111.111111111111,4,2,1,40,0,0
68988,-111.111111111111,4,2,1,60,0,0
77263,-100,4,2,1,60,0,1
99332,-100,4,2,1,60,0,0

[Colours]
Combo1 : 95,154,187
Combo2 : 34,121,199

[HitObjects]
205,81,11057,6,0,L|208:135,1,52.5000020027161,6|0,1:2|0:2,0:0:0:0:
285,239,11401,1,2,0:2:0:0:
285,239,11574,2,0,L|290:134,1,105.000004005432,2|0,0:2|0:2,0:0:0:0:
302,50,12091,6,0,P|364:95|365:171,1,157.500006008148,2|0,0:2|0:2,0:0:0:0:
285,239,12781,2,0,L|117:229,1,157.500006008148,2|0,0:2|0:2,0:0:0:0:
98,317,13470,2,0,L|150:314,1,52.5000020027161,2|0,0:2|0:2,0:0:0:0:
275,225,13815,6,0,L|107:215,1,157.500006008148,2|0,0:2|0:2,0:0:0:0:
43,139,14505,2,0,L|147:133,1,105.000004005432,2|0,0:2|0:2,0:0:0:0:
237,88,15022,6,0,B|259:137|233:189|233:189|202:242|224:289,1,210.000008010865,2|0,0:2|0:2,0:0:0:0:
307,297,15884,2,0,P|305:271|296:247,1,52.5000020027161,2|0,0:2|0:2,0:0:0:0:
142,282,16229,2,0,P|143:308|152:332,1,52.5000020027161,2|0,0:2|0:2,0:0:0:0:
223,289,16574,6,0,P|194:218|120:201,1,157.500006008148,2|0,0:2|0:2,0:0:0:0:
224,149,17263,2,0,P|273:142|331:96,1,105.000004005432,2|0,0:2|0:2,0:0:0:0:
178,89,17781,6,0,B|117:85|87:44|87:44|91:94|58:146,1,210.000008010865,2|0,0:2|0:2,0:0:0:0:
4,210,18643,1,2,0:2:0:0:
21,221,18815,1,2,0:2:0:0:
37,231,18988,2,0,P|62:235|88:233,1,52.5000020027161,2|0,0:2|0:2,0:0:0:0:
263,178,19332,6,0,P|211:168|159:172,1,105.000004005432,2|0,0:2|0:2,0:0:0:0:
297,250,19850,2,0,P|348:259|400:255,1,105.000004005432,2|0,0:2|0:2,0:0:0:0:
272,164,20367,6,0,B|212:138|140:159|140:159|71:182|13:155,1,262.500010013581,2|0,0:2|0:2,0:0:0:0:
7,59,21401,2,0,P|76:91|146:61,1,157.500006008148,2|0,0:2|0:2,0:0:0:0:
220,25,22091,6,0,P|228:53|226:82,1,59.5000011348725,6|0,0:2|0:2,0:0:0:0:
271,163,22436,2,0,P|329:177|387:166,1,119.000002269745,10|2,0:2|0:2,0:0:0:0:
451,79,22953,6,0,P|393:65|335:76,2,119.000002269745,8|2|0,0:2|0:2|0:2,0:0:0:0:
496,158,23815,2,0,L|491:276,1,119.000002269745,8|2,0:2|0:2,0:0:0:0:
397,328,24332,2,0,L|402:210,1,119.000002269745,8|0,0:2|0:2,0:0:0:0:
345,139,24850,6,0,P|324:163|313:195,1,59.5000011348725,2|0,0:2|0:2,0:0:0:0:
311,278,25194,2,0,L|189:276,1,119.000002269745,10|2,0:2|0:2,0:0:0:0:
118,182,25712,2,0,L|236:183,1,119.000002269745,8|2,0:2|0:2,0:0:0:0:
265,94,26229,6,0,L|205:93,1,59.5000011348725,0|0,0:0|0:2,0:0:0:0:
47,132,26574,2,0,P|32:188|54:242,1,119.000002269745,8|2,0:2|0:2,0:0:0:0:
217,230,27091,2,0,P|198:206|117:181,1,119.000002269745,10|8,0:2|0:2,0:0:0:0:
142,342,27608,6,0,P|162:320|187:305,1,59.5000011348725,2|0,0:2|0:0,0:0:0:0:
267,306,27953,2,0,L|386:307,1,119.000002269745,8|0,0:0|0:0,0:0:0:0:
420,223,28470,2,0,L|301:222,1,119.000002269745,8|0,0:0|0:0,0:0:0:0:
253,157,28988,6,0,P|246:128|249:98,1,59.5000011348725,8|0,0:2|0:0,0:0:0:0:
432,66,29332,2,0,P|391:108|334:118,1,119.000002269745,8|2,0:2|0:2,0:0:0:0:
166,62,29850,2,0,P|206:19|264:9,1,119.000002269745,8|0,0:2|0:2,0:0:0:0:
253,157,30367,6,0,P|246:128|249:98,1,59.5000011348725,2|0,0:2|0:0,0:0:0:0:
318,224,30712,2,0,L|309:352,1,119.000002269745,8|0,0:0|0:0,0:0:0:0:
400,318,31229,2,0,L|407:199,1,119.000002269745,8|0,0:0|0:0,0:0:0:0:
413,118,31746,1,0,0:2:0:0:
413,118,32436,6,0,P|353:129|297:107,1,122.5,0|0,0:2|0:2,0:0:0:0:
284,100,33125,6,0,P|262:128|252:161,1,70,4|0,1:2|0:2,0:0:0:0:
253,252,33470,1,8,0:2:0:0:
405,153,33643,2,0,P|370:153|338:167,2,70,0|0|8,1:2|0:2|0:2,0:0:0:0:
378,374,34160,6,0,L|387:227,1,140,0|0,0:2|1:2,0:0:0:0:
176,341,34850,2,0,P|169:306|171:271,1,70,8|0,0:2|1:2,0:0:0:0:
235,209,35194,1,0,0:2:0:0:
256,299,35367,1,8,0:2:0:0:
145,187,35539,2,0,P|110:187|78:201,1,70,0|0,0:2|1:2,0:0:0:0:
31,275,35884,6,0,P|42:207|26:139,1,140,0|8,1:2|0:2,0:0:0:0:
121,79,36401,1,0,1:2:0:0:
137,84,36487,1,0,0:2:0:0:
154,86,36573,1,0,0:2:0:0:
252,64,36746,1,8,0:2:0:0:
187,0,36919,1,0,0:2:0:0:
220,153,37091,6,0,P|185:177|145:181,1,70,0|0,0:2|1:2,0:0:0:0:
154,86,37436,1,0,0:0:0:0:
252,64,37608,1,8,0:2:0:0:
316,137,37781,1,0,1:2:0:0:
332,141,37867,1,0,0:2:0:0:
350,143,37953,2,0,L|436:146,1,70,0|8,0:2|0:2,0:0:0:0:
446,260,38298,1,0,1:2:0:0:
365,335,38470,1,8,1:2:0:0:
259,302,38643,6,0,P|189:304|125:339,1,140,0|8,1:2|0:2,0:0:0:0:
139,218,39160,1,0,1:2:0:0:
142,200,39246,1,0,0:2:0:0:
144,183,39332,1,0,0:2:0:0:
104,84,39505,2,0,P|71:67|34:65,1,70,8|0,0:2|0:2,0:0:0:0:
208,105,39850,6,0,P|241:88|278:86,1,70,0|0,0:2|1:2,0:0:0:0:
358,104,40194,1,0,0:0:0:0:
270,192,40367,1,8,0:2:0:0:
164,202,40539,1,0,1:2:0:0:
147,196,40625,1,0,0:0:0:0:
130,190,40712,1,0,0:2:0:0:
222,288,40884,1,8,0:2:0:0:
208,105,41057,2,0,L|203:6,1,70,0|0,0:2|1:2,0:0:0:0:
124,84,41401,6,0,P|89:90|-2:41,1,140,0|8,1:2|0:2,0:0:0:0:
39,167,41919,1,0,1:0:0:0:
48,200,42005,1,0,0:0:0:0:
50,235,42091,1,0,0:0:0:0:
46,270,42177,1,0,0:0:0:0:
35,303,42263,1,8,0:0:0:0:
135,240,42436,2,0,P|185:227|236:236,1,105,0|0,0:2|0:2,0:0:0:0:
249,243,42781,5,0,1:2:0:0:
308,174,42953,1,0,0:0:0:0:
277,88,43125,1,8,0:2:0:0:
339,260,43298,1,0,1:2:0:0:
356,263,43384,1,0,0:2:0:0:
373,265,43470,2,0,P|406:265|449:254,1,70,0|8,0:2|0:2,0:0:0:0:
462,153,43815,1,0,1:2:0:0:
382,84,43988,1,8,1:2:0:0:
282,118,44160,6,0,P|235:112|203:97,1,70,4|0,1:2|0:0,0:0:0:0:
83,55,44505,2,0,P|115:43|150:40,1,70,8|0,0:2|1:2,0:0:0:0:
231,20,44850,1,0,0:2:0:0:
157,166,45022,1,8,0:2:0:0:
214,103,45194,1,0,0:2:0:0:
302,204,45367,6,0,P|267:202|238:182,1,70,0|0,0:2|1:2,0:0:0:0:
298,123,45712,1,0,0:2:0:0:
459,67,45884,1,8,0:2:0:0:
427,235,46057,1,0,1:2:0:0:
425,252,46143,1,0,0:0:0:0:
427,269,46229,2,0,P|432:304|452:347,1,70,0|8,0:2|0:2,0:0:0:0:
335,316,46574,2,0,P|302:302|254:298,1,70,0|0,0:2|1:2,0:0:0:0:
161,335,46919,6,0,P|172:301|173:267,1,70,0|0,1:2|0:0,0:0:0:0:
91,124,47263,1,8,0:2:0:0:
219,188,47436,1,0,1:2:0:0:
234,180,47522,1,0,0:0:0:0:
250,173,47608,2,0,P|282:168|335:172,1,70,0|8,0:2|0:2,0:0:0:0:
372,262,47953,1,0,0:2:0:0:
356,269,48039,1,0,0:2:0:0:
339,275,48125,1,0,0:2:0:0:
429,65,48298,6,0,P|420:116|428:168,1,105,0|0,1:2|0:2,0:0:0:0:
432,180,48643,1,8,0:2:0:0:
319,170,48815,1,0,1:2:0:0:
301,168,48901,1,0,0:2:0:0:
284,166,48988,2,0,L|209:164,1,70,0|8,0:0|0:2,0:0:0:0:
166,257,49332,1,0,1:2:0:0:
221,344,49505,1,8,1:2:0:0:
323,338,49677,6,0,P|330:270|369:213,1,140,0|8,1:2|0:2,0:0:0:0:
255,241,50194,1,0,1:2:0:0:
220,243,50280,1,0,0:0:0:0:
186,235,50366,1,0,0:2:0:0:
155,219,50452,1,0,0:0:0:0:
129,195,50538,1,8,0:2:0:0:
236,0,50712,6,0,P|243:65|223:142,1,140,0|0,0:2|1:2,0:0:0:0:
129,195,51229,1,0,0:0:0:0:
67,109,51402,1,8,0:2:0:0:
225,136,51574,1,0,1:2:0:0:
242,139,51660,1,0,0:2:0:0:
259,141,51746,2,0,L|261:226,1,70,0|8,0:2|0:2,0:0:0:0:
332,288,52091,1,0,0:2:0:0:
433,264,52263,1,0,1:2:0:0:
462,164,52436,6,0,P|461:110|498:28,1,140,0|8,1:2|0:2,0:0:0:0:
355,98,52953,1,0,1:2:0:0:
325,117,53039,1,0,0:2:0:0:
293,129,53125,1,0,0:2:0:0:
258,135,53211,1,0,0:2:0:0:
223,134,53297,1,8,0:2:0:0:
352,224,53470,2,0,P|397:249|434:286,1,105,0|0,0:2|0:0,0:0:0:0:
442,297,53815,5,0,1:2:0:0:
346,340,53988,1,0,0:0:0:0:
250,297,54160,1,8,0:2:0:0:
154,340,54332,1,0,1:2:0:0:
136,339,54418,1,0,0:2:0:0:
119,338,54505,2,0,L|122:269,1,70,0|8,0:2|0:2,0:0:0:0:
155,153,54850,1,0,1:2:0:0:
274,148,55022,1,8,1:2:0:0:
315,258,55194,6,0,P|311:310|284:355,1,105,4|0,1:2|0:2,0:0:0:0:
273,363,55539,1,8,0:2:0:0:
398,297,55712,2,0,P|432:295|463:279,1,70,0|0,1:2|0:2,0:0:0:0:
504,203,55970,1,0,0:0:0:0:
504,203,56057,2,0,L|505:133,1,70,8|0,0:2|0:2,0:0:0:0:
411,214,56401,1,0,0:2:0:0:
283,114,56574,6,0,P|248:114|216:129,1,70,0|0,1:2|0:2,0:0:0:0:
367,68,56919,2,0,P|383:37|387:2,1,70,8|0,0:2|1:2,0:0:0:0:
364,163,57263,2,0,P|382:192|410:213,1,70,0|8,0:2|0:2,0:0:0:0:
303,15,57608,1,0,0:2:0:0:
199,33,57781,1,0,1:2:0:0:
95,50,57953,6,0,P|43:46|-3:19,1,105,0|0,1:2|0:2,0:0:0:0:
0,13,58298,1,8,0:2:0:0:
47,127,58470,2,0,P|53:151|55:198,1,70,0|0,1:2|0:2,0:0:0:0:
55,289,58729,1,0,0:0:0:0:
55,289,58815,2,0,B|92:304|134:288|134:288|180:273|233:289,1,175,8|0,0:2|0:2,0:0:0:0:
239,292,59332,6,0,L|243:203,1,70,0|0,1:2|0:2,0:0:0:0:
254,107,59677,1,8,0:2:0:0:
331,170,59850,1,0,1:2:0:0:
159,151,60022,1,0,0:2:0:0:
135,146,60108,1,0,0:2:0:0:
116,131,60194,1,8,0:2:0:0:
108,108,60280,1,0,0:2:0:0:
112,84,60366,1,0,1:2:0:0:
127,65,60453,1,0,0:2:0:0:
150,57,60539,1,8,1:2:0:0:
173,61,60625,1,0,0:2:0:0:
192,75,60712,6,0,P|142:91|90:85,1,105,0|0,1:2|0:2,0:0:0:0:
77,80,61057,1,8,0:2:0:0:
138,181,61229,2,0,P|145:216|141:251,1,70,0|0,1:2|0:2,0:0:0:0:
230,200,61488,1,0,0:0:0:0:
230,200,61574,2,0,P|256:177|288:163,1,70,8|0,0:2|0:2,0:0:0:0:
200,112,61919,1,0,0:2:0:0:
301,250,62091,6,0,L|279:342,1,70,0|0,1:2|0:2,0:0:0:0:
230,200,62436,2,0,L|179:151,1,70,8|0,0:2|1:2,0:0:0:0:
308,163,62781,2,0,L|375:143,1,70,0|8,0:2|0:2,0:0:0:0:
480,84,63125,1,0,0:2:0:0:
478,101,63211,1,0,0:0:0:0:
476,118,63297,1,0,1:2:0:0:
416,246,63470,6,0,P|428:314|478:361,1,140,0|8,1:2|0:2,0:0:0:0:
337,293,63988,1,0,1:2:0:0:
302,289,64074,1,0,0:2:0:0:
267,293,64160,1,0,0:2:0:0:
181,353,64332,1,8,0:2:0:0:
337,293,64505,1,0,0:2:0:0:
335,187,64677,1,0,0:2:0:0:
333,80,64850,6,0,B|297:67|260:78|260:78|222:91|176:76,1,140,0|8,1:2|0:2,0:0:0:0:
100,64,65367,1,0,1:2:0:0:
103,81,65453,1,0,0:2:0:0:
104,98,65539,2,0,P|102:136|97:179,1,70,0|8,0:2|0:2,0:0:0:0:
25,88,65884,1,0,1:2:0:0:
194,170,66057,1,8,1:2:0:0:
22,248,66229,6,0,P|85:248|144:271,1,125.999996154785,4|8,0:2|0:2,0:0:0:0:
206,335,66746,2,0,P|247:338|277:336,1,62.9999980773926,0|0,0:2|0:2,0:0:0:0:
355,309,67091,2,0,P|345:268|359:210,1,94.499997116089,8|0,0:2|0:0,0:0:0:0:
360,205,67436,1,0,0:2:0:0:
263,234,67608,6,0,P|218:235|188:227,1,62.9999980773926,0|0,0:2|0:0,0:0:0:0:
360,205,67953,2,0,P|405:204|435:212,1,62.9999980773926,8|0,0:2|0:2,0:0:0:0:
263,247,68298,2,0,P|218:248|150:224,1,94.499997116089,0|0,0:2|0:0,0:0:0:0:
158,229,68643,5,0,1:2:0:0:
160,254,68815,1,0,1:2:0:0:
162,278,68988,6,0,P|176:234|172:187,1,94.499997116089,4|0,1:2|0:2,0:0:0:0:
168,175,69332,1,8,0:2:0:0:
263,247,69505,2,0,P|293:252|325:248,1,62.9999980773926,0|0,1:2|0:2,0:0:0:0:
406,229,69763,1,0,0:0:0:0:
406,229,69850,2,0,B|418:192|405:147|405:147|391:105|404:64,1,157.499995193482,8|0,0:2|0:2,0:0:0:0:
403,61,70367,6,0,L|321:56,1,62.9999980773926,0|0,1:2|0:0,0:0:0:0:
244,94,70712,1,8,0:2:0:0:
267,4,70884,1,0,1:2:0:0:
318,172,71057,1,0,0:2:0:0:
321,196,71143,1,0,0:2:0:0:
313,219,71229,1,8,0:2:0:0:
295,234,71315,1,0,0:2:0:0:
271,239,71401,1,0,1:2:0:0:
248,231,71488,1,0,0:2:0:0:
232,212,71574,1,8,1:2:0:0:
228,189,71660,1,0,0:2:0:0:
235,166,71747,6,0,P|255:136|316:100,1,94.499997116089,0|0,1:2|0:2,0:0:0:0:
314,98,72091,1,8,0:2:0:0:
192,82,72263,2,0,P|169:79|133:57,1,62.9999980773926,0|0,1:2|0:2,0:0:0:0:
200,0,72522,1,0,0:0:0:0:
200,0,72608,2,0,L|279:0,1,62.9999980773926,8|0,0:2|0:2,0:0:0:0:
314,98,72953,1,0,0:2:0:0:
235,166,73125,6,0,P|199:168|153:154,1,62.9999980773926,0|0,1:2|0:0,0:0:0:0:
314,98,73470,2,0,P|330:65|365:32,1,62.9999980773926,8|0,0:2|1:2,0:0:0:0:
333,200,73815,2,0,P|352:230|363:277,1,62.9999980773926,0|8,0:2|0:2,0:0:0:0:
207,325,74160,1,0,0:2:0:0:
275,270,74333,1,0,1:2:0:0:
361,255,74505,6,0,P|406:252|479:289,1,125.999996154785,0|8,1:2|0:2,0:0:0:0:
433,170,75022,1,0,0:2:0:0:
427,138,75108,1,0,0:2:0:0:
429,107,75194,1,0,1:2:0:0:
476,25,75367,1,8,0:2:0:0:
345,98,75539,1,0,0:2:0:0:
251,112,75712,1,0,0:2:0:0:
111,108,75884,6,0,L|112:45,1,62.9999980773926,4|8,1:2|0:2,0:0:0:0:
90,69,76143,2,0,L|89:132,1,62.9999980773926,4|0,1:2|0:2,0:0:0:0:
70,153,76401,1,8,1:2:0:0:
178,169,76574,2,0,P|128:246|37:257,1,188.999994232178,4|8,1:2|0:2,0:0:0:0:
245,259,77263,6,0,P|275:274|310:277,1,70,4|0,1:2|0:2,0:0:0:0:
387,229,77608,1,8,0:2:0:0:
274,125,77781,2,0,P|281:158|301:186,2,70,0|0|8,1:2|0:2|0:2,0:0:0:0:
484,68,78298,6,0,P|429:111|361:119,1,140,0|0,0:2|1:2,0:0:0:0:
387,229,78988,2,0,P|403:259|405:294,1,70,8|0,0:2|1:2,0:0:0:0:
360,359,79332,1,0,0:2:0:0:
321,283,79505,1,8,0:2:0:0:
445,363,79677,1,0,0:2:0:0:
367,211,79850,1,0,1:2:0:0:
360,359,80022,5,0,1:2:0:0:
452,214,80194,1,0,0:2:0:0:
445,363,80367,1,8,0:2:0:0:
321,283,80539,2,0,L|251:275,1,70,0|0,1:2|0:2,0:0:0:0:
148,202,80884,2,0,L|217:194,1,70,8|0,0:2|0:2,0:0:0:0:
321,300,81229,6,0,L|251:292,1,70,0|0,0:2|1:2,0:0:0:0:
154,384,81574,2,0,L|224:376,1,70,0|8,0:2|0:2,0:0:0:0:
321,300,81919,1,0,1:2:0:0:
304,178,82091,1,0,0:2:0:0:
189,131,82263,1,8,0:2:0:0:
319,184,82436,2,0,P|352:188|397:183,1,70,0|8,1:2|1:2,0:0:0:0:
177,124,82781,6,0,P|144:121|42:157,1,140,0|8,1:2|0:2,0:0:0:0:
134,27,83298,1,0,1:2:0:0:
168,20,83384,1,0,0:0:0:0:
202,23,83470,1,0,0:2:0:0:
234,37,83556,1,0,0:0:0:0:
261,60,83642,1,8,0:2:0:0:
177,256,83815,6,0,P|157:189|177:123,1,140,0|0,0:2|1:2,0:0:0:0:
401,106,84505,1,8,0:2:0:0:
333,186,84677,1,0,1:2:0:0:
411,93,84850,2,0,P|446:90|481:92,1,70,0|8,0:2|0:2,0:0:0:0:
326,199,85194,2,0,P|291:201|256:199,1,70,0|0,0:2|1:2,0:0:0:0:
446,196,85539,6,0,B|454:236|444:271|444:271|433:307|442:351,1,140,0|8,1:2|0:2,0:0:0:0:
501,128,86057,1,0,1:2:0:0:
470,111,86143,1,0,0:2:0:0:
436,107,86229,1,0,0:2:0:0:
402,117,86315,1,0,0:2:0:0:
376,140,86401,1,8,0:2:0:0:
304,226,86574,6,0,P|267:240|158:228,1,140,0|0,0:2|1:2,0:0:0:0:
346,92,87263,1,8,0:2:0:0:
400,181,87436,1,0,1:2:0:0:
417,179,87522,1,0,0:2:0:0:
434,178,87608,2,0,L|506:171,1,70,0|8,0:2|0:2,0:0:0:0:
505,276,87953,1,0,1:2:0:0:
435,354,88125,1,8,1:2:0:0:
288,274,88298,6,0,P|218:275|154:301,1,140,4|8,1:2|0:2,0:0:0:0:
215,183,88815,1,0,1:2:0:0:
234,154,88901,1,0,0:0:0:0:
248,122,88987,1,0,0:2:0:0:
256,88,89073,1,0,0:0:0:0:
257,53,89159,1,8,0:2:0:0:
330,165,89332,6,0,P|365:224|420:267,1,140,0|0,0:2|1:2,0:0:0:0:
215,183,90022,2,0,P|180:176|145:180,1,70,8|0,0:2|1:2,0:0:0:0:
86,253,90367,1,0,0:2:0:0:
180,268,90539,1,8,0:2:0:0:
51,164,90712,1,0,0:2:0:0:
215,183,90884,1,0,1:2:0:0:
86,253,91057,5,0,1:2:0:0:
224,109,91229,1,0,0:2:0:0:
51,164,91401,1,8,0:2:0:0:
180,268,91574,2,0,L|172:347,1,70,0|0,1:2|0:2,0:0:0:0:
286,373,91919,2,0,L|278:294,1,70,8|0,0:2|0:2,0:0:0:0:
166,273,92263,6,0,L|158:352,1,70,0|0,0:2|1:2,0:0:0:0:
51,383,92608,2,0,L|43:304,1,70,0|8,0:2|0:2,0:0:0:0:
166,273,92953,1,0,1:2:0:0:
191,146,93125,1,0,0:2:0:0:
93,60,93298,1,8,0:2:0:0:
199,155,93470,2,0,P|234:159|269:156,1,70,0|8,1:2|1:2,0:0:0:0:
81,53,93815,6,0,P|67:97|78:196,1,140,0|8,1:2|0:2,0:0:0:0:
193,291,94332,1,0,1:2:0:0:
205,258,94418,1,0,0:0:0:0:
210,224,94504,1,0,0:2:0:0:
208,189,94590,1,0,0:0:0:0:
199,155,94676,1,8,0:2:0:0:
318,267,94850,6,0,P|381:294|450:288,1,140,0|0,0:2|1:2,0:0:0:0:
210,224,95539,1,8,0:2:0:0:
278,144,95711,1,0,1:2:0:0:
200,237,95884,2,0,P|165:240|130:238,1,70,0|8,0:2|0:2,0:0:0:0:
285,131,96228,2,0,P|320:129|355:131,1,70,0|0,0:2|1:2,0:0:0:0:
158,151,96574,6,0,P|161:82|200:26,1,140,0|8,1:2|0:2,0:0:0:0:
245,249,97091,1,0,1:2:0:0:
216,269,97177,1,0,0:2:0:0:
184,281,97263,1,0,0:2:0:0:
149,283,97349,1,0,0:2:0:0:
115,275,97435,1,8,0:2:0:0:
286,126,97608,1,0,0:2:0:0:
302,131,97694,1,0,0:2:0:0:
317,140,97780,1,0,0:2:0:0:
332,150,97866,1,0,0:2:0:0:
344,162,97953,6,0,P|356:229|335:303,1,140,0|8,0:2|0:2,0:0:0:0:
444,253,98470,1,0,0:2:0:0:
461,251,98556,1,0,0:2:0:0:
478,249,98642,1,0,0:2:0:0:
450,166,98815,1,8,0:2:0:0:
436,336,98988,1,0,0:2:0:0:
417,137,99160,1,8,0:2:0:0:
401,349,99332,5,4,0:2:0:0:
