osu file format v14

[General]
AudioFilename: audio.mp3
AudioLeadIn: 0
PreviewTime: 55194
Countdown: 0
SampleSet: Soft
StackLeniency: 0.7
Mode: 0
LetterboxInBreaks: 0
WidescreenStoryboard: 1

[Editor]
Bookmarks: 11057,22091,33125,55194,66229,77263
DistanceSpacing: 1.6
BeatDivisor: 2
GridSize: 32
TimelineZoom: 1.8

[Metadata]
Title:Wander
TitleUnicode:Wander
Artist:Wisp X
ArtistUnicode:Wisp X
Creator:Zer0-
Version:Hard
Source:
Tags:electronic chill drum & bass edm house ost New York instrumental mpg mapper's guild mappers' featured artist
BeatmapID:1385904
BeatmapSetID:652886

[Difficulty]
HPDrainRate:5
CircleSize:3.8
OverallDifficulty:6.5
ApproachRate:8
SliderMultiplier:1.4
SliderTickRate:1

[Events]
//Background and Video events
0,0,"wander.png",0,0
//Break Periods
//Storyboard Layer 0 (Background)
//Storyboard Layer 1 (Fail)
//Storyboard Layer 2 (Pass)
//Storyboard Layer 3 (Foreground)
//Storyboard Layer 4 (Overlay)
//Storyboard Sound Samples

[TimingPoints]
11057,344.827586206897,4,2,1,30,1,0
11057,-133.333333333333,4,2,1,30,0,0
11143,-133.333333333333,4,2,1,20,0,0
22091,-117.647058823529,4,2,2,40,0,0
22177,-117.647058823529,4,2,2,30,0,0
32436,-200,4,2,1,30,0,0
33125,-100,4,2,1,60,0,0
66229,-111.111111111111,4,2,1,40,0,0
68988,-111.111111111111,4,2,1,60,0,0
77263,-100,4,2,1,60,0,1
99332,-100,4,2,1,60,0,0

[Colours]
Combo1 : 95,154,187
Combo2 : 34,121,199

[HitObjects]
195,352,11057,5,6,1:2:0:0:
282,224,11401,1,2,0:2:0:0:
282,224,11574,2,0,P|332:210|384:215,1,105.000004005432,2|0,0:2|0:2,0:0:0:0:
442,270,12091,6,0,P|463:197|412:140,1,157.500006008148,2|0,0:2|0:2,0:0:0:0:
335,125,12781,2,0,P|254:135|179:177,1,157.500006008148,2|0,0:2|0:2,0:0:0:0:
191,248,13470,2,0,P|218:241|241:226,1,52.5000020027161,2|0,0:2|0:2,0:0:0:0:
187,170,13815,6,0,P|152:129|50:145,1,157.500006008148,2|0,0:2|0:2,0:0:0:0:
110,196,14505,2,0,P|120:246|90:299,1,105.000004005432,2|0,0:2|0:2,0:0:0:0:
42,236,15022,6,0,B|97:218|147:236|147:236|199:255|262:236,1,210.000008010865,2|0,0:2|0:2,0:0:0:0:
324,217,15884,1,2,0:2:0:0:
329,225,16229,1,2,0:2:0:0:
333,233,16574,6,0,P|341:157|270:110,1,157.500006008148,2|0,0:2|0:2,0:0:0:0:
270,188,17263,2,0,P|215:202|153:187,1,105.000004005432,2|0,0:2|0:2,0:0:0:0:
107,143,17781,6,0,B|79:189|105:248|105:248|130:300|104:357,1,210.000008010865,2|0,0:2|0:2,0:0:0:0:
31,330,18643,2,0,P|42:299|31:271,2,52.5000020027161,2|2|2,0:2|0:2|0:2,0:0:0:0:
187,349,19332,2,0,P|238:358|290:353,1,105.000004005432,2|0,0:2|0:2,0:0:0:0:
356,309,19850,2,0,P|408:304|459:313,1,105.000004005432,2|0,0:2|0:2,0:0:0:0:
509,373,20367,2,0,B|491:323|511:270|511:270|529:218|513:161,1,210.000008010865,2|0,0:2|0:0,0:0:0:0:
361,208,21401,2,0,P|309:213|258:207,1,105.000004005432,2|0,0:2|0:0,0:0:0:0:
55,135,22091,6,0,P|39:191|53:248,1,119.000002269745,6|10,0:2|0:2,0:0:0:0:
199,351,22781,2,0,P|255:366|312:352,1,119.000002269745,2|0,0:2|0:2,0:0:0:0:
362,277,23298,6,0,B|379:236|361:191|361:191|342:147|361:83,1,178.500003404617,2|8,0:2|0:2,0:0:0:0:
185,154,24160,2,0,P|129:161|55:131,1,119.000002269745,2|2,0:2|0:2,0:0:0:0:
237,76,24850,5,2,0:2:0:0:
237,76,25194,1,10,0:2:0:0:
162,238,25539,2,0,P|172:300|227:341,1,119.000002269745,2|0,0:2|0:2,0:0:0:0:
252,255,26057,6,0,B|292:238|341:253|341:253|397:273|439:259,1,178.500003404617,2|8,0:2|0:2,0:0:0:0:
443,84,26919,2,0,L|438:150,1,59.5000011348725,2|10,0:2|0:2,0:0:0:0:
357,105,27263,2,0,L|352:45,1,59.5000011348725,2|8,0:2|0:2,0:0:0:0:
272,85,27608,6,0,P|215:98|153:82,1,119.000002269745,2|8,0:2|0:0,0:0:0:0:
116,163,28125,2,0,P|156:205|172:267,1,119.000002269745,2|8,0:2|0:0,0:0:0:0:
262,259,28643,2,0,P|278:202|324:157,1,119.000002269745,2|8,0:2|0:2,0:0:0:0:
319,160,29677,6,0,P|379:167|436:144,1,119.000002269745,2|2,0:2|0:2,0:0:0:0:
261,97,30367,6,0,L|136:116,1,119.000002269745,2|8,0:2|0:0,0:0:0:0:
120,201,30884,2,0,L|237:183,1,119.000002269745,2|8,0:2|0:0,0:0:0:0:
214,269,31401,2,0,L|96:286,1,119.000002269745,2|0,0:2|0:2,0:0:0:0:
43,357,32436,6,0,P|10:303|20:247,1,122.5,0|0,0:2|0:2,0:0:0:0:
19,247,33125,6,0,L|88:246,1,70,4|0,1:2|0:2,0:0:0:0:
176,304,33470,1,8,0:2:0:0:
236,219,33643,2,0,P|243:150|206:92,1,140,0|8,1:2|0:2,0:0:0:0:
311,99,34160,6,0,P|370:106|446:75,1,140,0|0,0:2|1:2,0:0:0:0:
444,77,34850,2,0,P|443:42|450:7,2,70,8|0|0,0:2|1:2|0:2,0:0:0:0:
360,147,35367,1,8,0:2:0:0:
360,147,35539,2,0,P|332:125|310:97,1,70,0|0,0:2|1:2,0:0:0:0:
464,129,35884,6,0,B|475:182|462:229|462:229|441:284|461:362,1,210,0|0,1:2|1:2,0:0:0:0:
375,268,36574,2,0,P|310:248|244:285,1,140,0|0,0:2|0:2,0:0:0:0:
315,361,37091,6,0,B|329:308|308:253|308:253|295:206|306:153,1,210,0|8,0:2|0:2,0:0:0:0:
207,189,37781,1,0,1:2:0:0:
207,189,37867,1,0,0:2:0:0:
207,189,37953,2,0,L|131:184,1,70,0|8,0:2|0:2,0:0:0:0:
73,100,38298,2,0,L|149:95,1,70,0|8,1:2|1:2,0:0:0:0:
71,18,38643,6,0,P|8:44|-10:109,1,140,0|8,1:2|0:2,0:0:0:0:
45,198,39160,1,0,1:2:0:0:
45,198,39246,1,0,0:2:0:0:
45,198,39332,2,0,P|41:250|-5:331,1,140,0|0,0:2|0:2,0:0:0:0:
105,318,39850,6,0,B|152:293|206:318|206:318|265:348|320:318,1,210,0|8,0:2|0:2,0:0:0:0:
408,296,40539,1,0,1:2:0:0:
408,296,40625,1,0,0:0:0:0:
408,296,40712,2,0,L|491:301,2,70,0|8|0,0:2|0:2|0:2,0:0:0:0:
340,224,41229,1,0,1:2:0:0:
340,224,41401,6,0,L|184:233,1,140,0|8,1:2|0:2,0:0:0:0:
94,243,41919,2,0,P|123:304|185:337,1,140,0|8,1:0|0:0,0:0:0:0:
200,232,42436,2,0,P|170:170|108:137,1,140,0|0,0:2|1:2,0:0:0:0:
109,137,43125,5,8,0:2:0:0:
109,137,43298,1,0,1:2:0:0:
19,185,43470,2,0,L|24:282,1,70,0|8,0:2|0:2,0:0:0:0:
48,357,43815,1,0,1:2:0:0:
125,285,43988,1,8,1:2:0:0:
89,189,44160,6,0,L|19:185,1,70,4|0,1:2|0:0,0:0:0:0:
78,97,44505,2,0,L|147:93,1,70,8|0,0:2|1:2,0:0:0:0:
253,93,44850,2,0,P|239:163|252:230,1,140,0|0,0:2|0:2,0:0:0:0:
309,317,45367,6,0,B|250:343|197:318|197:318|152:296|105:315,1,210,0|8,0:2|0:2,0:0:0:0:
133,213,46057,1,0,1:2:0:0:
133,213,46143,1,0,0:0:0:0:
133,213,46229,2,0,P|147:181|151:146,1,70,0|8,0:2|0:2,0:0:0:0:
174,43,46574,2,0,P|194:71|222:91,1,70,0|0,0:2|1:2,0:0:0:0:
318,136,46919,6,0,L|387:141,1,70,0|0,1:2|0:0,0:0:0:0:
447,227,47263,2,0,L|377:232,1,70,8|0,0:2|1:2,0:0:0:0:
274,256,47608,2,0,P|311:314|375:338,1,140,0|0,0:2|0:2,0:0:0:0:
377,232,48125,6,0,B|325:209|268:232|268:232|215:257|163:234,1,210,0|8,0:2|0:2,0:0:0:0:
209,139,48815,1,0,1:2:0:0:
209,139,48901,1,0,0:2:0:0:
209,139,48988,2,0,P|241:123|286:113,2,70,0|8|0,0:0|0:2|1:2,0:0:0:0:
104,155,49505,1,8,1:2:0:0:
104,155,49677,6,0,P|112:202|82:304,1,140,0|8,1:2|0:2,0:0:0:0:
194,275,50194,2,0,P|230:244|334:219,1,140,0|8,1:2|0:2,0:0:0:0:
253,137,50712,2,0,P|208:120|134:43,1,140,0|0,0:2|1:2,0:0:0:0:
142,57,51401,5,8,0:2:0:0:
142,57,51574,1,0,1:2:0:0:
79,140,51746,2,0,P|41:148|1:143,1,70,0|8,0:2|0:2,0:0:0:0:
4,40,52091,2,0,P|42:32|82:37,1,70,0|0,0:2|1:2,0:0:0:0:
162,109,52436,6,0,B|171:146|160:179|160:179|150:214|158:248,1,140,0|8,1:2|0:2,0:0:0:0:
258,216,52953,2,0,P|323:218|382:266,1,140,0|8,1:2|0:2,0:0:0:0:
287,312,53470,6,0,B|217:335|146:309|146:309|73:278|1:309,1,280,0|8,0:2|0:2,0:0:0:0:
72,217,54332,1,0,1:2:0:0:
72,217,54419,1,0,0:2:0:0:
72,217,54505,2,0,P|107:218|142:225,1,70,0|8,0:2|0:2,0:0:0:0:
244,245,54850,2,0,P|227:214|216:180,1,70,0|8,1:2|1:2,0:0:0:0:
182,82,55194,6,0,P|163:111|140:138,1,70,4|0,1:2|0:0,0:0:0:0:
123,33,55539,1,8,0:2:0:0:
226,13,55712,2,0,P|260:14|295:21,1,70,0|0,1:2|0:2,0:0:0:0:
390,66,56057,2,0,P|424:64|459:57,1,70,8|0,0:2|0:2,0:0:0:0:
442,161,56401,1,0,0:2:0:0:
376,241,56574,6,0,L|384:322,1,70,0|0,1:2|0:2,0:0:0:0:
292,362,56919,2,0,L|300:281,1,70,8|0,0:2|1:2,0:0:0:0:
208,241,57263,2,0,L|216:322,1,70,0|8,0:2|0:2,0:0:0:0:
124,362,57609,1,0,0:2:0:0:
133,257,57781,1,0,1:2:0:0:
141,151,57953,6,0,P|127:102|44:54,1,140,0|8,1:2|0:2,0:0:0:0:
186,47,58470,2,0,L|304:46,1,105,0|0,1:2|0:0,0:0:0:0:
290,46,58815,2,0,B|301:81|288:116|288:116|275:151|287:183,1,140,8|0,0:2|0:0,0:0:0:0:
327,280,59332,6,0,P|286:230|207:239,1,140,0|8,1:2|0:2,0:0:0:0:
122,283,59850,1,0,1:2:0:0:
63,196,60022,1,0,0:2:0:0:
62,179,60108,1,0,0:2:0:0:
61,161,60194,2,0,L|72:88,1,70,8|0,0:2|1:2,0:0:0:0:
151,23,60539,1,8,1:2:0:0:
174,125,60712,6,0,P|225:130|309:79,1,140,0|8,1:2|0:2,0:0:0:0:
242,215,61229,2,0,P|236:249|240:284,1,70,0|0,1:2|0:2,0:0:0:0:
326,344,61574,2,0,P|331:309|327:274,1,70,8|0,0:2|0:2,0:0:0:0:
406,205,61919,1,0,0:2:0:0:
374,105,62091,6,0,L|383:35,1,70,0|0,1:2|0:2,0:0:0:0:
288,82,62436,2,0,L|297:151,1,70,8|0,0:2|1:2,0:0:0:0:
202,105,62781,2,0,L|211:35,1,70,0|8,0:2|0:2,0:0:0:0:
106,26,63125,1,0,0:2:0:0:
26,95,63298,1,0,1:2:0:0:
11,198,63470,6,0,P|72:214|90:153,1,140,0|8,1:2|0:2,0:0:0:0:
191,210,63988,1,0,1:2:0:0:
191,210,64074,1,0,0:2:0:0:
191,210,64160,2,0,P|179:244|182:279,1,70,0|8,0:2|0:2,0:0:0:0:
256,351,64505,1,0,0:2:0:0:
360,354,64677,1,0,0:2:0:0:
335,252,64850,6,0,L|316:106,1,140,0|8,1:2|0:2,0:0:0:0:
415,146,65367,1,0,1:2:0:0:
415,146,65453,1,0,0:2:0:0:
415,146,65539,2,0,P|449:156|483:151,1,70,0|8,0:2|0:2,0:0:0:0:
456,48,65884,1,0,1:2:0:0:
316,113,66057,1,8,1:2:0:0:
175,47,66229,6,0,P|176:109|139:158,1,125.999996154785,4|8,0:2|0:2,0:0:0:0:
58,208,66746,2,0,P|49:239|52:270,1,62.9999980773926,0|0,0:2|0:2,0:0:0:0:
144,247,67091,2,0,P|162:273|188:290,1,62.9999980773926,8|0,0:2|0:2,0:0:0:0:
232,207,67436,1,0,0:2:0:0:
188,290,67608,6,0,L|178:357,1,62.9999980773926,0|0,0:2|0:0,0:0:0:0:
273,350,67953,2,0,L|263:283,1,62.9999980773926,8|0,0:2|0:2,0:0:0:0:
358,291,68298,2,0,L|348:358,1,62.9999980773926,0|0,0:2|0:2,0:0:0:0:
443,350,68643,1,0,1:2:0:0:
429,256,68815,1,0,1:2:0:0:
415,163,68988,6,0,P|408:116|436:37,1,125.999996154785,4|8,1:2|0:2,0:0:0:0:
327,99,69505,2,0,P|289:127|244:139,1,94.499997116089,0|0,1:2|0:0,0:0:0:0:
248,143,69850,2,0,B|237:175|247:207|247:207|260:243|249:281,1,125.999996154785,8|0,0:2|0:0,0:0:0:0:
208,352,70367,6,0,P|251:309|312:310,1,125.999996154785,0|8,1:2|0:2,0:0:0:0:
399,348,70884,1,0,1:2:0:0:
449,267,71057,1,0,0:2:0:0:
451,251,71143,1,0,0:2:0:0:
453,235,71229,2,0,L|446:173,1,62.9999980773926,8|0,0:2|1:2,0:0:0:0:
401,89,71574,1,8,1:2:0:0:
350,167,71746,6,0,P|305:182|230:149,1,125.999996154785,0|8,1:2|0:2,0:0:0:0:
296,261,72263,2,0,L|288:337,1,62.9999980773926,0|0,1:2|0:2,0:0:0:0:
194,323,72608,2,0,L|186:247,1,62.9999980773926,8|0,0:2|0:2,0:0:0:0:
175,166,72953,1,0,0:2:0:0:
106,231,73125,6,0,L|27:219,1,62.9999980773926,0|0,1:2|0:0,0:0:0:0:
1,136,73470,2,0,L|80:124,1,62.9999980773926,8|0,0:2|1:2,0:0:0:0:
106,41,73815,2,0,L|27:29,1,62.9999980773926,0|8,0:2|0:2,0:0:0:0:
130,69,74160,1,0,0:2:0:0:
223,61,74332,1,0,1:2:0:0:
309,22,74505,6,0,L|305:147,1,125.999996154785,0|8,1:2|0:2,0:0:0:0:
396,113,75022,1,0,0:2:0:0:
396,113,75108,1,0,0:2:0:0:
396,113,75194,2,0,P|428:111|459:115,1,62.9999980773926,0|8,1:2|0:2,0:0:0:0:
499,200,75539,1,0,0:2:0:0:
479,314,75712,1,0,0:2:0:0:
363,308,75884,6,0,P|324:329|271:324,2,94.499997116089,4|4|8,1:2|1:2|1:2,0:0:0:0:
299,234,76574,2,0,B|254:217|207:237|207:237|153:263|111:246,1,188.999994232178,4|8,1:2|0:2,0:0:0:0:
148,148,77263,6,0,P|167:99|149:15,1,140,4|8,1:2|0:2,0:0:0:0:
250,107,77781,2,0,P|301:98|365:41,1,140,0|8,1:2|0:2,0:0:0:0:
336,174,78298,6,0,P|368:214|450:241,1,140,0|0,0:2|1:2,0:0:0:0:
450,240,78988,2,0,B|396:220|344:238|344:238|291:259|233:238,1,210,8|8,0:2|0:2,0:0:0:0:
165,171,79677,1,0,0:2:0:0:
141,273,79850,1,0,1:2:0:0:
87,363,80022,5,0,1:2:0:0:
64,202,80194,2,0,P|43:239|39:275,1,70,0|8,0:2|0:2,0:0:0:0:
183,327,80539,2,0,P|161:290|132:268,1,70,0|0,1:2|0:2,0:0:0:0:
243,242,80884,2,0,P|264:205|293:183,1,70,8|0,0:2|0:2,0:0:0:0:
183,158,81229,6,0,P|161:121|132:99,1,70,0|0,0:2|1:2,0:0:0:0:
239,67,81574,2,0,P|260:30|289:8,1,70,0|8,0:2|0:2,0:0:0:0:
352,90,81919,1,0,1:2:0:0:
446,124,82091,1,0,0:2:0:0:
428,26,82263,1,8,0:2:0:0:
446,124,82435,1,0,1:2:0:0:
413,219,82608,1,8,1:2:0:0:
428,315,82781,6,0,P|363:296|298:320,1,140,0|8,1:2|0:2,0:0:0:0:
275,208,83298,2,0,P|214:240|186:303,1,140,0|8,1:2|0:2,0:0:0:0:
89,240,83815,2,0,P|69:305|93:370,1,140,0|0,0:2|1:2,0:0:0:0:
93,370,84505,5,8,0:2:0:0:
54,277,84677,1,0,1:2:0:0:
113,195,84850,2,0,P|118:158|112:119,1,70,0|8,0:2|0:2,0:0:0:0:
17,91,85194,2,0,P|11:127|18:167,1,70,0|0,0:2|1:2,0:0:0:0:
114,126,85539,6,0,P|183:102|243:127,1,140,0|8,1:2|0:2,0:0:0:0:
278,33,86057,2,0,P|332:79|341:144,1,140,0|8,1:2|0:2,0:0:0:0:
440,127,86574,2,0,P|426:197|375:237,1,140,0|0,0:2|1:2,0:0:0:0:
375,237,87263,5,8,0:2:0:0:
286,294,87436,1,0,1:2:0:0:
269,289,87522,1,0,0:2:0:0:
252,283,87608,2,0,L|176:283,1,70,0|8,0:2|0:2,0:0:0:0:
84,243,87953,1,0,1:2:0:0:
105,345,88125,1,8,1:2:0:0:
252,284,88298,6,0,P|320:291|384:263,1,140,4|8,1:2|0:2,0:0:0:0:
323,177,88815,2,0,P|254:169|190:197,1,140,0|8,1:2|0:2,0:0:0:0:
252,284,89332,2,0,P|320:291|384:263,1,140,0|0,0:2|1:2,0:0:0:0:
384,263,90022,6,0,B|404:209|386:157|386:157|365:104|386:46,1,210,8|8,0:2|0:2,0:0:0:0:
287,102,90712,1,0,0:2:0:0:
185,77,90884,1,0,1:2:0:0:
261,5,91057,5,0,1:2:0:0:
382,57,91229,2,0,P|392:90|386:127,1,70,0|8,0:2|0:2,0:0:0:0:
370,228,91574,2,0,P|336:220|308:195,1,70,0|0,1:2|0:2,0:0:0:0:
302,302,91919,2,0,P|268:309|240:334,1,70,8|0,0:2|0:2,0:0:0:0:
234,228,92263,6,0,P|200:220|172:195,1,70,0|0,0:2|1:2,0:0:0:0:
166,302,92608,2,0,P|132:309|104:334,1,70,0|8,0:2|0:2,0:0:0:0:
1,347,92953,1,0,1:2:0:0:
30,249,93125,1,0,0:2:0:0:
6,149,93298,1,8,0:2:0:0:
30,249,93470,1,0,1:2:0:0:
128,278,93643,1,8,1:2:0:0:
202,206,93815,6,0,P|187:139|222:74,1,140,0|8,1:2|0:2,0:0:0:0:
291,153,94332,2,0,P|341:106|415:104,1,140,0|8,1:2|0:2,0:0:0:0:
381,202,94850,2,0,P|446:222|485:285,1,140,0|0,0:2|1:2,0:0:0:0:
484,280,95539,5,8,0:2:0:0:
399,343,95712,1,0,1:2:0:0:
313,279,95884,2,0,P|274:269|236:277,1,70,0|8,0:2|0:2,0:0:0:0:
204,372,96229,2,0,P|242:381|280:373,1,70,0|0,0:2|1:2,0:0:0:0:
245,273,96574,6,0,L|245:124,1,140,0|8,1:2|0:2,0:0:0:0:
165,204,97091,2,0,P|124:235|31:238,1,140,0|8,1:2|0:2,0:0:0:0:
12,138,97608,2,0,P|53:107|146:104,1,140,0|0,0:2|0:2,0:0:0:0:
139,101,98298,5,8,0:2:0:0:
230,50,98470,1,0,0:2:0:0:
247,45,98556,1,0,0:2:0:0:
264,42,98643,2,0,P|298:37|332:44,1,70,0|8,0:2|0:2,0:0:0:0:
412,112,98988,1,0,0:2:0:0:
316,189,99160,1,8,0:2:0:0:
439,262,99332,5,4,0:2:0:0:
