osu file format v14

[General]
AudioFilename: audio.mp3
AudioLeadIn: 0
PreviewTime: 55194
Countdown: 0
SampleSet: Soft
StackLeniency: 0.7
Mode: 0
LetterboxInBreaks: 0
WidescreenStoryboard: 0

[Editor]
Bookmarks: 11057,22091,33125,55194,66229,77263
DistanceSpacing: 1
BeatDivisor: 4
GridSize: 32
TimelineZoom: 1.8

[Metadata]
Title:Wander
TitleUnicode:Wander
Artist:Wisp X
ArtistUnicode:Wisp X
Creator:Zer0-
Version:Endlessly
Source:
Tags:electronic chill drum & bass edm house ost New York instrumental mpg mapper's guild mappers' featured artist
BeatmapID:1384249
BeatmapSetID:652886

[Difficulty]
HPDrainRate:7
CircleSize:4
OverallDifficulty:8.5
ApproachRate:9
SliderMultiplier:1.4
SliderTickRate:1

[Events]
//Background and Video events
0,0,"wander.png",0,0
//Break Periods
//Storyboard Layer 0 (Background)
//Storyboard Layer 1 (Fail)
//Storyboard Layer 2 (Pass)
//Storyboard Layer 3 (Foreground)
//Storyboard Layer 4 (Overlay)
//Storyboard Sound Samples

[TimingPoints]
11057,344.827586206897,4,2,1,30,1,0
11057,-133.333333333333,4,2,1,30,0,0
11143,-133.333333333333,4,2,1,20,0,0
22091,-117.647058823529,4,2,2,40,0,0
22177,-117.647058823529,4,2,2,30,0,0
32436,-200,4,2,1,30,0,0
33125,-100,4,2,1,60,0,0
66229,-111.111111111111,4,2,1,40,0,0
68988,-111.111111111111,4,2,1,60,0,0
77263,-100,4,2,1,60,0,1
99332,-100,4,2,1,60,0,0

[Colours]
Combo1 : 95,154,187
Combo2 : 34,121,199

[HitObjects]
232,165,11057,6,0,P|262:162|296:165,1,52.5000020027161,6|0,1:2|0:2,0:2:0:0:
176,259,11401,1,2,0:2:0:0:
176,259,11574,2,0,P|125:270|72:262,1,105.000004005432,2|0,0:2|0:2,0:2:0:0:
14,90,12091,6,0,P|73:78|171:119,1,157.500006008148,2|0,0:2|0:2,0:2:0:0:
232,165,12781,2,0,L|389:168,1,157.500006008148,2|0,0:2|0:2,0:2:0:0:
474,253,13470,2,0,L|421:254,1,52.5000020027161,2|0,0:2|0:2,0:2:0:0:
240,181,13815,6,0,L|397:184,1,157.500006008148,2|0,0:2|0:2,0:2:0:0:
482,269,14505,2,0,L|377:271,1,105.000004005432,2|0,0:2|0:2,0:2:0:0:
257,355,15022,6,0,P|227:311|222:260,1,105.000004005432,2|0,0:2|0:2,0:2:0:0:
240,181,15539,1,0,0:2:0:0:
245,169,15712,1,0,0:2:0:0:
250,157,15884,2,0,P|224:154|198:158,1,52.5000020027161,2|0,0:2|0:2,0:2:0:0:
334,154,16229,2,0,P|328:128|316:105,1,52.5000020027161,2|0,0:2|0:2,0:2:0:0:
417,150,16574,6,0,P|402:199|361:231,1,105.000004005432,2|0,0:2|0:2,0:2:0:0:
294,276,17091,1,0,0:2:0:0:
291,287,17263,2,0,P|273:239|283:189,1,105.000004005432,2|0,0:2|0:2,0:2:0:0:
417,150,17781,6,0,B|364:130|309:152|309:152|254:171|200:151,1,210.000008010865,2|0,0:2|0:2,0:2:0:0:
143,104,18643,1,2,0:2:0:0:
134,189,18815,1,2,0:2:0:0:
203,239,18988,2,0,P|207:264|204:290,1,52.5000020027161,2|0,0:2|0:2,0:2:0:0:
22,264,19332,6,0,P|73:276|125:268,1,105.000004005432,2|0,0:2|0:2,0:2:0:0:
307,294,19850,2,0,P|256:282|204:290,1,105.000004005432,2|0,0:2|0:2,0:2:0:0:
132,353,20367,6,0,B|159:284|133:217|133:217|108:152|134:88,1,262.500010013581,2|0,0:2|0:2,0:2:0:0:
222,110,21401,2,0,P|210:182|276:215,1,157.500006008148,2|0,0:2|0:2,0:2:0:0:
331,148,22091,6,0,P|349:171|359:199,1,59.5000011348725,6|0,0:2|0:2,0:2:0:0:
316,63,22436,2,0,P|345:64|373:73,1,59.5000011348725,10|0,0:2|0:2,0:2:0:0:
276,215,22781,2,0,P|269:243|255:269,2,59.5000011348725,2|8|0,0:2|0:2|0:2,0:2:0:0:
82,179,23298,6,0,P|129:214|188:213,1,119.000002269745,2|0,0:2|0:2,0:2:0:0:
161,118,23815,1,8,0:2:0:0:
158,134,24160,2,0,P|165:103|159:63,1,59.5000011348725,2|8,0:2|0:2,0:2:0:0:
188,213,24505,2,0,P|216:198|243:168,1,59.5000011348725,2|0,0:2|0:2,0:2:0:0:
202,300,24850,6,0,P|173:297|145:285,1,59.5000011348725,2|0,0:2|0:2,0:2:0:0:
289,327,25194,2,0,P|276:354|257:376,1,59.5000011348725,10|0,0:2|0:2,0:2:0:0:
340,253,25539,2,0,P|362:272|377:298,2,59.5000011348725,2|8|0,0:2|0:2|0:2,0:2:0:0:
289,327,26057,6,0,L|432:325,1,119.000002269745,2|0,0:2|0:2,0:2:0:0:
492,325,26574,1,8,0:2:0:0:
494,310,26919,1,2,0:2:0:0:
460,216,27091,1,10,0:2:0:0:
426,122,27263,2,0,P|420:92|423:63,1,59.5000011348725,2|8,0:2|0:2,0:2:0:0:
360,197,27608,6,0,P|325:223|282:232,1,89.2500017023087,2|0,0:2|0:2,0:2:0:0:
253,227,27953,1,8,0:0:0:0:
210,60,28125,2,0,P|250:77|280:110,1,89.2500017023087,2|0,0:2|0:2,0:2:0:0:
289,138,28470,1,8,0:0:0:0:
164,262,28643,2,0,P|160:203|191:153,1,119.000002269745,2|8,0:2|0:2,0:2:0:0:
253,227,29332,5,8,0:2:0:0:
361,196,29677,2,0,P|370:167|367:136,1,59.5000011348725,2|8,0:2|0:2,0:2:0:0:
381,272,30022,2,0,P|408:260|430:238,1,59.5000011348725,2|0,0:2|0:2,0:2:0:0:
300,254,30367,6,0,L|302:343,1,89.2500017023087,2|0,0:2|0:2,0:2:0:0:
303,373,30712,1,8,0:0:0:0:
380,271,30884,2,0,L|382:181,1,89.2500017023087,2|0,0:2|0:2,0:2:0:0:
383,152,31229,1,8,0:0:0:0:
217,153,31401,2,0,L|219:271,1,119.000002269745,2|0,0:2|0:2,0:2:0:0:
297,90,32436,6,0,P|249:53|189:52,1,122.5,0|0,0:2|0:2,0:2:0:0:
177,59,33125,6,0,L|178:146,1,70,4|0,1:2|0:2,0:2:0:0:
180,257,33470,1,8,0:2:0:0:
313,188,33643,2,0,L|226:189,1,70,0|0,1:2|0:2,0:2:0:0:
115,191,33988,1,8,0:2:0:0:
369,120,34160,2,0,P|397:163|398:215,1,105,0|0,0:2|0:2,0:2:0:0:
393,228,34505,5,0,1:2:0:0:
313,188,34677,1,0,0:2:0:0:
398,317,34850,1,8,0:2:0:0:
467,178,35022,1,0,1:2:0:0:
297,294,35194,1,0,0:2:0:0:
286,302,35280,1,0,0:2:0:0:
275,310,35367,1,8,0:2:0:0:
393,228,35539,1,0,0:2:0:0:
262,167,35712,1,0,1:2:0:0:
380,85,35884,6,0,P|415:81|450:82,1,70,0|0,1:2|0:2,0:2:0:0:
393,228,36229,1,8,0:2:0:0:
262,167,36401,1,0,1:2:0:0:
254,156,36487,1,0,0:2:0:0:
245,145,36574,1,0,0:2:0:0:
380,85,36746,2,0,P|384:119|383:154,1,70,8|0,0:2|0:2,0:2:0:0:
345,306,37091,1,0,0:2:0:0:
392,228,37263,6,0,P|444:219|495:230,1,105,0|0,1:2|0:2,0:2:0:0:
506,239,37608,1,8,0:2:0:0:
345,306,37781,5,0,1:2:0:0:
312,318,37867,1,0,0:2:0:0:
277,322,37953,1,0,0:2:0:0:
243,318,38039,1,0,0:2:0:0:
210,306,38125,1,8,0:2:0:0:
392,228,38298,1,0,1:2:0:0:
368,384,38470,1,8,1:2:0:0:
262,167,38643,6,0,P|264:113|291:64,1,105,0|0,1:2|0:2,0:2:0:0:
297,59,38988,1,8,0:2:0:0:
163,133,39160,1,0,1:2:0:0:
130,144,39246,1,0,0:2:0:0:
95,147,39332,1,0,0:2:0:0:
61,140,39418,1,0,0:2:0:0:
30,125,39504,1,8,0:2:0:0:
73,258,39677,1,0,0:2:0:0:
73,258,39763,1,0,0:2:0:0:
73,258,39850,1,0,0:2:0:0:
163,133,40022,6,0,P|172:94|166:20,1,105,0|0,1:2|0:2,0:2:0:0:
164,16,40367,1,8,0:2:0:0:
61,140,40539,1,0,1:2:0:0:
118,228,40712,1,0,0:2:0:0:
40,111,40884,1,8,0:2:0:0:
180,101,41057,1,0,0:2:0:0:
119,243,41229,1,0,1:2:0:0:
40,111,41401,6,0,P|44:59|76:18,1,105,0|0,1:2|0:2,0:2:0:0:
88,12,41746,1,8,0:2:0:0:
118,209,41919,1,0,1:0:0:0:
119,243,42005,1,0,0:0:0:0:
108,276,42091,1,0,0:0:0:0:
86,304,42177,1,0,0:0:0:0:
56,321,42263,1,8,0:0:0:0:
224,229,42436,2,0,P|275:243|340:225,1,105,0|0,0:2|0:2,0:2:0:0:
338,228,42781,6,0,L|336:354,1,105,0|0,1:2|0:2,0:2:0:0:
337,346,43125,1,8,0:2:0:0:
433,245,43298,1,0,1:2:0:0:
433,210,43384,1,0,0:2:0:0:
420,177,43470,1,0,0:2:0:0:
397,151,43556,1,0,0:2:0:0:
366,136,43642,1,8,0:2:0:0:
337,346,43815,1,0,1:2:0:0:
508,299,43988,1,8,1:2:0:0:
269,189,44160,6,0,P|216:181|161:193,1,105,4|0,1:2|0:2,0:2:0:0:
152,197,44505,2,0,P|150:233|155:282,1,70,8|0,0:2|1:2,0:2:0:0:
171,349,44850,1,0,0:2:0:0:
269,189,45022,2,0,P|271:153|265:103,1,70,8|0,0:2|0:2,0:2:0:0:
243,27,45367,1,0,0:2:0:0:
75,139,45539,5,0,1:2:0:0:
153,195,45712,1,0,0:2:0:0:
162,99,45884,1,8,0:2:0:0:
65,234,46057,1,0,1:2:0:0:
177,276,46230,1,0,0:2:0:0:
157,157,46402,1,8,0:2:0:0:
93,328,46574,1,0,0:2:0:0:
153,195,46746,1,0,1:2:0:0:
239,368,46919,6,0,P|318:371|348:360,1,105,0|0,1:2|0:2,0:2:0:0:
353,355,47263,1,8,0:2:0:0:
224,284,47436,1,0,1:2:0:0:
379,224,47608,1,0,0:2:0:0:
390,217,47694,1,0,0:2:0:0:
401,210,47781,1,8,0:2:0:0:
203,175,47953,1,0,0:2:0:0:
192,168,48039,1,0,0:2:0:0:
181,161,48126,1,0,0:2:0:0:
396,124,48298,6,0,P|406:73|395:22,1,105,0|0,1:2|0:2,0:2:0:0:
384,13,48643,1,8,0:2:0:0:
246,164,48815,1,0,1:2:0:0:
246,164,48901,1,0,0:2:0:0:
246,164,48988,2,0,L|279:175,1,35
435,220,49159,1,8,0:2:0:0:
299,75,49332,1,0,1:2:0:0:
248,272,49505,1,8,1:2:0:0:
121,29,49677,6,0,P|130:80|119:131,1,105,0|0,1:2|0:2,0:2:0:0:
110,142,50022,1,8,0:2:0:0:
226,64,50194,2,0,L|317:64,1,70,0|0,1:2|0:2,0:2:0:0:
422,66,50539,1,8,0:2:0:0:
338,222,50712,2,0,L|338:131,1,70,0|0,0:2|0:2,0:2:0:0:
422,66,51057,6,0,L|422:171,1,105,0|0,1:2|0:2,0:2:0:0:
422,184,51401,1,8,0:2:0:0:
423,337,51574,1,0,1:2:0:0:
390,349,51660,1,0,0:2:0:0:
355,351,51746,1,0,0:2:0:0:
321,343,51832,1,0,0:2:0:0:
291,325,51918,1,8,0:2:0:0:
274,186,52091,1,0,0:2:0:0:
386,100,52263,1,0,1:2:0:0:
221,263,52436,6,0,P|170:271|118:265,1,105,0|0,1:2|0:2,0:2:0:0:
104,263,52781,1,8,0:2:0:0:
274,186,52953,1,0,1:2:0:0:
286,153,53039,1,0,0:2:0:0:
289,118,53125,1,0,0:2:0:0:
282,84,53211,1,0,0:2:0:0:
266,53,53298,1,8,0:2:0:0:
163,79,53471,1,0,0:2:0:0:
133,180,53644,1,0,0:2:0:0:
316,259,53815,6,0,L|422:256,1,105,0|0,1:2|0:2,0:2:0:0:
435,256,54160,1,8,0:2:0:0:
397,342,54332,1,0,1:2:0:0:
362,343,54418,1,0,0:2:0:0:
327,344,54504,1,0,0:2:0:0:
292,345,54590,1,0,0:2:0:0:
258,346,54676,1,8,0:2:0:0:
215,230,54850,1,0,1:2:0:0:
178,384,55022,1,8,1:2:0:0:
338,221,55194,6,0,P|343:169|337:117,1,105,4|0,1:2|0:2,0:2:0:0:
334,103,55539,1,8,0:2:0:0:
215,230,55712,2,0,P|180:234|145:230,1,70,0|0,1:2|0:2,0:2:0:0:
334,103,56057,2,0,P|368:98|403:102,1,70,8|0,0:2|0:2,0:2:0:0:
215,230,56401,1,0,0:2:0:0:
119,131,56574,6,0,P|114:96|118:61,1,70,0|0,1:2|0:2,0:2:0:0:
215,230,56919,2,0,P|219:264|215:299,1,70,8|0,0:2|1:2,0:2:0:0:
206,96,57263,1,0,0:2:0:0:
219,93,57349,1,0,0:2:0:0:
232,93,57435,1,8,0:2:0:0:
215,230,57608,1,0,0:2:0:0:
118,61,57781,1,0,1:2:0:0:
353,210,57953,6,0,L|348:341,1,105,0|0,1:2|0:2,0:2:0:0:
348,329,58298,1,8,0:2:0:0:
438,125,58470,2,0,P|472:120|507:124,1,70,0|0,1:2|0:2,0:2:0:0:
353,210,58815,2,0,P|318:214|191:154,1,175,8|0,0:2|0:2,0:2:0:0:
185,147,59332,6,0,L|185:231,1,70,0|0,1:2|0:2,0:2:0:0:
183,307,59677,1,8,0:2:0:0:
96,151,59850,1,0,1:2:0:0:
83,164,59936,1,0,0:2:0:0:
71,177,60022,1,0,0:2:0:0:
105,174,60108,1,0,0:2:0:0:
135,156,60194,1,8,0:2:0:0:
153,126,60280,1,0,0:2:0:0:
155,92,60366,1,0,1:2:0:0:
142,60,60453,1,0,0:2:0:0:
115,38,60539,1,8,1:2:0:0:
81,30,60625,1,0,0:2:0:0:
48,39,60712,6,0,P|94:61|145:53,1,105,0|0,1:2|0:2,0:2:0:0:
158,48,61057,1,8,0:2:0:0:
135,156,61229,2,0,P|130:190|134:225,1,70,0|0,1:2|0:2,0:2:0:0:
253,82,61574,2,0,P|257:47|253:12,1,70,8|0,0:2|0:2,0:2:0:0:
135,156,61919,1,0,0:2:0:0:
265,247,62091,6,0,P|299:251|334:247,1,70,0|0,1:2|0:2,0:2:0:0:
135,156,62436,2,0,P|100:151|65:155,1,70,8|0,0:2|1:2,0:2:0:0:
303,165,62781,1,0,0:2:0:0:
305,151,62867,1,0,0:2:0:0:
306,137,62953,1,8,0:2:0:0:
155,250,63125,1,0,0:2:0:0:
215,137,63298,1,0,1:2:0:0:
220,333,63470,6,0,P|169:344|118:335,1,105,0|0,1:2|0:2,0:2:0:0:
105,328,63815,1,8,0:2:0:0:
242,226,63988,1,0,1:2:0:0:
256,194,64074,1,0,0:2:0:0:
261,160,64160,1,0,0:2:0:0:
256,125,64246,1,0,0:2:0:0:
241,94,64332,1,8,0:2:0:0:
155,250,64505,1,0,0:2:0:0:
333,209,64677,1,0,0:2:0:0:
63,156,64850,6,0,P|80:204|69:255,1,105,0|0,1:2|0:2,0:2:0:0:
62,267,65194,1,8,0:2:0:0:
122,87,65367,1,0,1:2:0:0:
156,87,65453,1,0,0:2:0:0:
191,88,65539,1,0,0:2:0:0:
226,89,65625,1,0,0:2:0:0:
261,89,65711,1,8,0:2:0:0:
157,174,65884,1,0,1:2:0:0:
250,0,66057,1,8,1:2:0:0:
312,216,66229,6,0,P|358:222|426:207,1,94.499997116089,4|0,0:2|0:2,0:2:0:0:
417,212,66574,1,8,0:2:0:0:
283,141,66746,2,0,P|255:161|234:199,1,62.9999980773926,0|0,0:2|0:2,0:2:0:0:
320,71,67091,2,0,P|286:62|244:70,1,62.9999980773926,8|0,0:2|0:2,0:2:0:0:
397,54,67436,1,0,0:2:0:0:
239,184,67608,6,0,P|186:190|134:182,1,94.499997116089,0|0,0:2|0:2,0:2:0:0:
133,179,67953,2,0,P|119:208|114:239,1,62.9999980773926,8|0,0:2|0:2,0:2:0:0:
128,93,68298,1,0,0:2:0:0:
58,142,68470,1,0,0:2:0:0:
239,184,68643,1,0,1:2:0:0:
188,16,68815,1,0,1:2:0:0:
245,198,68988,6,0,P|289:211|336:204,1,94.499997116089,4|0,1:2|0:2,0:2:0:0:
348,203,69332,1,8,0:2:0:0:
225,281,69505,2,0,L|152:283,1,62.9999980773926,0|0,1:2|0:2,0:2:0:0:
299,334,69850,2,0,L|465:338,1,157.499995193482,8|0,0:2|0:2,0:2:0:0:
468,338,70367,6,0,P|478:291|469:245,1,94.499997116089,0|0,1:2|0:2,0:2:0:0:
462,235,70712,1,8,0:2:0:0:
376,165,70884,1,0,1:2:0:0:
364,176,70970,1,0,0:2:0:0:
353,188,71057,1,0,0:2:0:0:
339,159,71143,1,0,0:2:0:0:
314,141,71229,1,8,0:2:0:0:
284,136,71315,1,0,0:2:0:0:
254,147,71401,1,0,1:2:0:0:
234,170,71488,1,0,0:2:0:0:
226,200,71574,1,8,1:2:0:0:
235,230,71660,1,0,0:2:0:0:
256,253,71746,6,0,P|214:232|168:235,1,94.499997116089,0|0,1:2|0:2,0:2:0:0:
156,241,72091,1,8,0:2:0:0:
230,326,72263,2,0,P|261:332|292:324,1,62.9999980773926,0|0,1:2|0:2,0:2:0:0:
293,204,72608,2,0,P|279:232|256:253,1,62.9999980773926,8|0,0:2|0:2,0:2:0:0:
214,185,72953,1,0,0:2:0:0:
338,137,73125,6,0,P|369:173|374:219,1,94.499997116089,0|0,1:2|0:2,0:2:0:0:
372,232,73470,1,8,0:2:0:0:
454,147,73643,1,0,1:2:0:0:
458,135,73729,1,0,0:2:0:0:
461,123,73815,1,0,0:2:0:0:
374,42,73988,1,8,0:2:0:0:
347,155,74160,1,0,0:2:0:0:
485,8,74332,1,0,1:2:0:0:
262,74,74505,6,0,P|234:113|226:159,1,94.499997116089,0|0,1:2|0:2,0:2:0:0:
228,172,74850,1,8,0:2:0:0:
347,155,75022,1,0,0:2:0:0:
362,144,75108,1,0,0:2:0:0:
377,133,75194,1,0,1:2:0:0:
243,273,75367,1,8,0:2:0:0:
325,319,75539,1,0,0:2:0:0:
405,271,75712,1,0,0:2:0:0:
244,367,75884,6,0,L|212:365,1,31.4999990386963,4|0,1:2|0:2,0:2:0:0:
76,300,76057,1,8,0:2:0:0:
81,311,76143,2,0,L|143:307,1,62.9999980773926,4|0,1:2|0:2,0:2:0:0:
155,311,76401,1,8,1:2:0:0:
90,75,76574,2,0,P|139:132|123:206,1,157.499995193482,4|0,1:2|0:2,0:2:0:0:
117,217,77091,1,8,0:2:0:0:
214,101,77263,6,0,L|297:101,1,70,4|0,1:2|0:2,0:2:0:0:
397,101,77608,1,8,0:2:0:0:
341,228,77781,2,0,L|341:145,1,70,0|0,1:2|0:2,0:2:0:0:
340,45,78126,1,8,0:2:0:0:
408,280,78298,2,0,P|366:310|311:308,1,105,0|0,0:2|0:2,0:2:0:0:
301,305,78643,5,0,1:2:0:0:
341,228,78815,1,0,0:2:0:0:
214,308,78988,1,8,0:2:0:0:
363,212,79160,1,0,1:2:0:0:
208,157,79333,1,0,0:2:0:0:
197,165,79419,1,0,0:2:0:0:
186,173,79506,1,8,0:2:0:0:
83,264,79677,1,0,0:2:0:0:
214,308,79850,1,0,1:2:0:0:
55,128,80022,5,0,1:2:0:0:
186,173,80194,1,0,0:2:0:0:
83,264,80367,1,8,0:2:0:0:
158,38,80539,1,0,1:2:0:0:
192,45,80625,1,0,0:2:0:0:
226,43,80711,1,0,0:2:0:0:
259,31,80797,1,0,0:2:0:0:
288,10,80884,2,0,L|329:22,1,35,8|0,0:2|0:2,0:2:0:0:
416,108,81057,1,0,0:2:0:0:
416,108,81143,1,0,0:2:0:0:
416,108,81230,2,0,L|375:120,1,35,0|0,0:2|0:2,0:2:0:0:
231,186,81401,5,0,1:2:0:0:
140,132,81574,1,0,0:2:0:0:
141,26,81746,1,8,0:2:0:0:
231,186,81919,1,0,1:2:0:0:
234,199,82005,1,0,0:2:0:0:
237,212,82091,1,0,0:2:0:0:
60,270,82264,1,8,0:2:0:0:
170,119,82436,1,0,1:2:0:0:
170,306,82608,1,8,1:2:0:0:
60,154,82781,6,0,P|53:101|66:48,1,105,0|0,1:2|0:2,0:2:0:0:
71,39,83125,1,8,0:2:0:0:
170,119,83298,2,0,P|230:113|253:101,1,70,0|0,1:2|0:2,0:2:0:0:
188,27,83643,1,8,0:2:0:0:
59,154,83815,1,0,0:2:0:0:
48,187,83901,1,0,0:2:0:0:
45,221,83987,1,0,0:2:0:0:
51,256,84073,1,0,0:2:0:0:
64,288,84160,6,0,P|113:303|167:289,1,105,0|0,1:2|0:2,0:2:0:0:
177,285,84505,1,8,0:2:0:0:
244,157,84677,1,0,1:2:0:0:
99,162,84850,1,0,0:2:0:0:
258,148,85022,1,8,0:2:0:0:
177,301,85194,1,0,0:2:0:0:
84,154,85367,1,0,1:2:0:0:
351,293,85539,6,0,L|469:281,1,105,0|0,1:2|0:2,0:2:0:0:
469,282,85884,1,8,0:2:0:0:
282,213,86057,1,0,1:2:0:0:
265,182,86143,1,0,0:2:0:0:
258,148,86229,1,0,0:2:0:0:
261,113,86315,1,0,0:2:0:0:
275,81,86401,1,8,0:2:0:0:
174,187,86574,2,0,L|56:175,1,105,0|0,0:2|0:2,0:2:0:0:
55,176,86919,6,0,P|60:227|45:277,1,105,0|0,1:2|0:2,0:2:0:0:
39,290,87263,1,8,0:2:0:0:
152,269,87436,1,0,1:2:0:0:
186,266,87522,1,0,0:2:0:0:
220,277,87608,1,0,0:2:0:0:
247,298,87694,1,0,0:2:0:0:
266,327,87780,1,8,0:2:0:0:
108,361,87953,1,0,1:2:0:0:
174,187,88125,1,8,1:2:0:0:
49,72,88298,6,0,P|60:123|54:175,1,105,4|0,1:2|0:2,0:2:0:0:
51,189,88643,1,8,0:2:0:0:
149,85,88815,2,0,L|218:84,1,70,0|0,1:2|0:2,0:2:0:0:
334,84,89160,1,8,0:2:0:0:
246,237,89332,2,0,L|245:167,1,70,0|0,0:2|0:2,0:2:0:0:
334,84,89677,6,0,L|335:209,1,105,0|0,1:2|0:2,0:2:0:0:
334,203,90022,1,8,0:2:0:0:
400,279,90194,1,0,1:2:0:0:
246,237,90367,1,0,0:2:0:0:
232,237,90453,1,0,0:2:0:0:
218,237,90539,1,8,0:2:0:0:
309,336,90712,1,0,0:2:0:0:
433,184,90884,1,0,1:2:0:0:
240,153,91057,5,0,1:2:0:0:
334,203,91229,1,0,0:2:0:0:
236,46,91401,1,8,0:2:0:0:
150,210,91574,1,0,1:2:0:0:
152,244,91660,1,0,0:2:0:0:
155,279,91746,1,0,0:2:0:0:
157,314,91832,1,0,0:2:0:0:
160,349,91919,2,0,L|216:336,1,35,8|0,0:2|0:2,0:2:0:0:
336,285,92091,1,0,0:2:0:0:
336,285,92177,1,0,0:2:0:0:
336,285,92263,2,0,L|280:271,1,35,0|0,0:2|0:2,0:2:0:0:
109,224,92436,5,0,1:2:0:0:
198,169,92608,1,0,0:2:0:0:
194,64,92781,1,8,0:2:0:0:
109,224,92953,1,0,1:2:0:0:
114,237,93039,1,0,0:2:0:0:
119,250,93125,1,0,0:2:0:0:
229,99,93298,1,8,0:2:0:0:
229,286,93470,1,0,1:2:0:0:
119,134,93643,1,8,1:2:0:0:
296,192,93815,6,0,P|348:194|398:180,1,105,0|0,1:2|0:2,0:2:0:0:
411,174,94160,1,8,0:2:0:0:
367,276,94332,2,0,P|361:310|368:344,1,70,0|0,1:2|0:2,0:2:0:0:
453,311,94677,1,8,0:2:0:0:
296,192,94850,1,0,0:2:0:0:
262,181,94936,1,0,0:2:0:0:
227,181,95022,1,0,0:2:0:0:
194,192,95108,1,0,0:2:0:0:
166,213,95194,6,0,P|178:162|167:112,1,105,0|0,1:2|0:2,0:2:0:0:
156,101,95539,1,8,0:2:0:0:
19,68,95712,1,0,1:2:0:0:
59,204,95884,1,0,0:2:0:0:
10,59,96056,1,8,0:2:0:0:
167,97,96229,1,0,0:2:0:0:
56,215,96402,1,0,1:2:0:0:
137,0,96574,6,0,L|256:6,1,105,0|0,1:2|0:2,0:2:0:0:
255,7,96919,1,8,0:2:0:0:
167,97,97091,1,0,1:2:0:0:
148,126,97177,1,0,0:2:0:0:
141,160,97263,1,0,0:2:0:0:
144,195,97349,1,0,0:2:0:0:
159,226,97435,1,8,0:2:0:0:
305,204,97608,1,0,0:2:0:0:
296,188,97694,1,0,0:2:0:0:
283,176,97780,1,0,0:2:0:0:
267,169,97866,1,0,0:2:0:0:
250,167,97953,6,0,L|255:290,1,105,0|0,0:2|0:2,0:2:0:0:
256,285,98298,1,8,0:2:0:0:
369,237,98470,1,0,0:2:0:0:
382,233,98556,1,0,0:2:0:0:
395,229,98642,1,0,0:2:0:0:
250,167,98815,1,8,0:2:0:0:
395,111,98988,1,0,0:2:0:0:
219,48,99160,1,8,0:2:0:0:
423,0,99332,5,4,0:2:0:0:
