osu file format v14

[General]
AudioFilename: audio.mp3
AudioLeadIn: 0
PreviewTime: 37490
Countdown: 0
SampleSet: Soft
StackLeniency: 0.3
Mode: 0
LetterboxInBreaks: 0
EpilepsyWarning: 1
WidescreenStoryboard: 1

[Editor]
Bookmarks: 34990,35302,35615,35927,36240,36552,36865,37177,37490,37802,38115,38427,38740,39052,39990,59990,79990,99990,119990,139990,159990,160302,160615,160927,161240,161552,161865,162177,162490,162802,163115,163427,163740,164052,164365,164677,164990,165302,165615
DistanceSpacing: 1
BeatDivisor: 4
GridSize: 16
TimelineZoom: 0.6999999

[Metadata]
Title:Mint
TitleUnicode:Mint
Artist:Wisp X
ArtistUnicode:Wisp X
Creator:Sinnoh
Version:Easy
Source:osu!
Tags:featured artist wispx chill chillstep piano electronic dnb
BeatmapID:1589710
BeatmapSetID:755188

[Difficulty]
HPDrainRate:3
CircleSize:3
OverallDifficulty:2
ApproachRate:3
SliderMultiplier:1.6
SliderTickRate:2

[Events]
//Background and Video events
0,0,"mint blue.jpg",0,0
//Break Periods
//Storyboard Layer 0 (Background)
Sprite,Background,Centre,"sb/Ring.png",240,248 C,0,39990,,173,192,210 F,1,39990,41990,1,0 S,1,39990,41990,0.6,3 P,0,39990,42615,A
Sprite,Background,Centre,"sb/Ring.png",240,88 C,0,59990,,173,192,210 F,1,59990,61990,1,0 S,1,59990,61990,0.6,3 P,0,59990,62615,A
Sprite,Background,Centre,"sb/Ring.png",320,328 C,0,79990,,173,192,210 F,1,79990,81990,1,0 S,1,79990,81990,0.6,3 P,0,79990,82615,A
Sprite,Background,Centre,"sb/Ring.png",480,88 C,0,99990,,173,192,210 F,1,99990,101990,1,0 S,1,99990,101990,0.6,3 P,0,99990,101990,A
Sprite,Background,Centre,"sb/Ring.png",560,248 C,0,139990,,173,192,210 F,1,139990,141990,1,0 S,1,139990,141990,0.6,3 P,0,139990,142615,A
Sprite,Background,Centre,"sb/Glow2.png",240,88 C,0,39365,,98,200,174 F,2,39365,39565,0.8,0 S,2,39365,39565,5,1.5 P,0,39365,39565,A
Sprite,Background,Centre,"sb/Glow2.png",0,0 C,0,39990,,173,192,210 M,0,39990,40068,240,248,260,248 F,2,39990,40815,0.8,0 S,2,39990,40815,5,1.5 P,0,39990,40815,A M,0,40068,40146,260,248,280,248 M,0,40146,40224,280,248,300,248 M,0,40224,40302,300,248,320,248 M,0,40302,40380,320,248,340,248 M,0,40380,40458,340,248,360,248 M,0,40458,40536,360,248,380,248 M,0,40536,40615,380,248,400,248
Sprite,Background,Centre,"sb/Glow2.png",0,0 C,0,41240,,173,192,210 M,0,41240,41318,560,248,560,228 F,2,41240,42065,0.8,0 S,2,41240,42065,5,1.5 P,0,41240,42065,A M,0,41318,41396,560,228,560,208 M,0,41396,41474,560,208,560,188 M,0,41474,41552,560,188,560,168 M,0,41552,41630,560,168,560,188 M,0,41630,41708,560,188,560,208 M,0,41708,41786,560,208,560,228 M,0,41786,41865,560,228,560,248
Sprite,Background,Centre,"sb/Glow2.png",0,0 C,0,42489,,173,192,210 M,0,42489,42567,560,408,540,408 F,2,42489,43314,0.8,0 S,2,42489,43314,5,1.5 P,0,42489,43314,A M,0,42567,42645,540,408,520,408 M,0,42645,42723,520,408,500,408 M,0,42723,42801,500,408,480,408 M,0,42801,42879,480,408,460,408 M,0,42879,42957,460,408,440,408 M,0,42957,43035,440,408,420,408 M,0,43035,43114,420,408,400,408
Sprite,Background,Centre,"sb/Glow2.png",0,0 C,0,43739,,173,192,210 M,0,43739,43817,240,408,240,388 F,2,43739,44251,0.8,0 S,2,43739,44251,5,1.5 P,0,43739,44251,A M,0,43817,43895,240,388,240,368 M,0,43895,43973,240,368,240,348 M,0,43973,44051,240,348,240,328
Sprite,Background,Centre,"sb/Glow2.png",240,248 C,0,44365,,173,192,210 F,2,44365,44565,0.8,0 S,2,44365,44565,5,1.5 P,0,44365,44565,A
Sprite,Background,Centre,"sb/Glow2.png",0,0 C,0,44990,,204,149,197 M,0,44990,45068,240,88,220,88 F,2,44990,46440,0.8,0 S,2,44990,46440,5,1.5 P,0,44990,46440,A M,0,45068,45146,220,88,200,88 M,0,45146,45224,200,88,180,88 M,0,45224,45302,180,88,160,88 M,0,45302,45380,160,88,140,88 M,0,45380,45458,140,88,120,88 M,0,45458,45536,120,88,100,88 M,0,45536,45615,100,88,80,88 M,0,45615,45693,80,88,100,88 M,0,45693,45771,100,88,120,88 M,0,45771,45849,120,88,140,88 M,0,45849,45927,140,88,160,88 M,0,45927,46005,160,88,180,88 M,0,46005,46083,180,88,200,88 M,0,46083,46161,200,88,220,88 M,0,46161,46240,220,88,240,88
Sprite,Background,Centre,"sb/Glow2.png",400,88 C,0,46865,,204,149,197 F,2,46865,47065,0.8,0 S,2,46865,47065,5,1.5 P,0,46865,47065,A
Sprite,Background,Centre,"sb/Glow2.png",0,0 C,0,47490,,204,149,197 M,0,47490,47568,400,248,400,268 F,2,47490,48315,0.8,0 S,2,47490,48315,5,1.5 P,0,47490,48315,A M,0,47568,47646,400,268,400,288 M,0,47646,47724,400,288,400,308 M,0,47724,47802,400,308,400,328 M,0,47802,47880,400,328,400,348 M,0,47880,47958,400,348,400,368 M,0,47958,48036,400,368,400,388 M,0,48036,48115,400,388,400,408
Sprite,Background,Centre,"sb/Glow2.png",0,0 C,0,48740,,204,149,197 M,0,48740,48818,240,408,240,388 F,2,48740,49252,0.8,0 S,2,48740,49252,5,1.5 P,0,48740,49252,A M,0,48818,48896,240,388,240,368 M,0,48896,48974,240,368,240,348 M,0,48974,49052,240,348,240,328
Sprite,Background,Centre,"sb/Glow2.png",240,248 C,0,49365,,204,149,197 F,2,49365,49565,0.8,0 S,2,49365,49565,5,1.5 P,0,49365,49565,A
Sprite,Background,Centre,"sb/Glow2.png",0,0 C,0,49990,,87,171,255 M,0,49990,50068,80,248,80,268 F,2,49990,50815,0.8,0 S,2,49990,50815,5,1.5 P,0,49990,50815,A M,0,50068,50146,80,268,80,288 M,0,50146,50224,80,288,80,308 M,0,50224,50302,80,308,80,328 M,0,50302,50380,80,328,80,348 M,0,50380,50458,80,348,80,368 M,0,50458,50536,80,368,80,388 M,0,50536,50615,80,388,80,408
Sprite,Background,Centre,"sb/Glow2.png",240,408 C,0,51240,,87,171,255 F,2,51240,51440,0.8,0 S,2,51240,51440,5,1.5 P,0,51240,51440,A
Sprite,Background,Centre,"sb/Glow2.png",400,408 C,0,51864,,87,171,255 F,2,51864,52064,0.8,0 S,2,51864,52064,5,1.5 P,0,51864,52064,A
Sprite,Background,Centre,"sb/Glow2.png",0,0 C,0,52490,,87,171,255 M,0,52490,52568,400,248,400,228 F,2,52490,53940,0.8,0 S,2,52490,53940,5,1.5 P,0,52490,53940,A M,0,52568,52646,400,228,400,208 M,0,52646,52724,400,208,400,188 M,0,52724,52802,400,188,400,168 M,0,52802,52880,400,168,400,148 M,0,52880,52958,400,148,400,128 M,0,52958,53036,400,128,400,108 M,0,53036,53115,400,108,400,88 M,0,53115,53193,400,88,400,108 M,0,53193,53271,400,108,400,128 M,0,53271,53349,400,128,400,148 M,0,53349,53427,400,148,400,168 M,0,53427,53505,400,168,400,188 M,0,53505,53583,400,188,400,208 M,0,53583,53661,400,208,400,228 M,0,53661,53740,400,228,400,248
Sprite,Background,Centre,"sb/Glow2.png",560,248 C,0,54365,,87,171,255 F,2,54365,54565,0.8,0 S,2,54365,54565,5,1.5 P,0,54365,54565,A
Sprite,Background,Centre,"sb/Glow2.png",0,0 C,0,54990,,98,200,174 M,0,54990,55068,560,408,540,408 F,2,54990,55815,0.8,0 S,2,54990,55815,5,1.5 P,0,54990,55815,A M,0,55068,55146,540,408,520,408 M,0,55146,55224,520,408,500,408 M,0,55224,55302,500,408,480,408 M,0,55302,55380,480,408,460,408 M,0,55380,55458,460,408,440,408 M,0,55458,55536,440,408,420,408 M,0,55536,55615,420,408,400,408
Sprite,Background,Centre,"sb/Glow2.png",0,0 C,0,56239,,98,200,174 M,0,56239,56317,400,248,380,248 F,2,56239,56751,0.8,0 S,2,56239,56751,5,1.5 P,0,56239,56751,A M,0,56317,56395,380,248,360,248 M,0,56395,56473,360,248,340,248 M,0,56473,56551,340,248,320,248
Sprite,Background,Centre,"sb/Glow2.png",320,328 C,0,56865,,98,200,174 F,2,56865,57065,0.8,0 S,2,56865,57065,5,1.5 P,0,56865,57065,A
Sprite,Background,Centre,"sb/Glow2.png",0,0 C,0,57490,,98,200,174 M,0,57490,57568,160,328,160,308 F,2,57490,58315,0.8,0 S,2,57490,58315,5,1.5 P,0,57490,58315,A M,0,57568,57646,160,308,160,288 M,0,57646,57724,160,288,160,268 M,0,57724,57802,160,268,160,248 M,0,57802,57880,160,248,160,228 M,0,57880,57958,160,228,160,208 M,0,57958,58036,160,208,160,188 M,0,58036,58115,160,188,160,168
Sprite,Background,Centre,"sb/Glow2.png",0,0 C,0,58740,,98,200,174 M,0,58740,58818,320,168,340,168 F,2,58740,59252,0.8,0 S,2,58740,59252,5,1.5 P,0,58740,59252,A M,0,58818,58896,340,168,360,168 M,0,58896,58974,360,168,380,168 M,0,58974,59052,380,168,400,168
Sprite,Background,Centre,"sb/Glow2.png",400,88 C,0,59365,,98,200,174 F,2,59365,59565,0.8,0 S,2,59365,59565,5,1.5 P,0,59365,59565,A
Sprite,Background,Centre,"sb/Glow2.png",0,0 C,0,59990,,173,192,210 M,0,59990,60068,240,88,240,108 F,2,59990,60815,0.8,0 S,2,59990,60815,5,1.5 P,0,59990,60815,A M,0,60068,60146,240,108,240,128 M,0,60146,60224,240,128,240,148 M,0,60224,60302,240,148,240,168 M,0,60302,60380,240,168,240,188 M,0,60380,60458,240,188,240,208 M,0,60458,60536,240,208,240,228 M,0,60536,60615,240,228,240,248
Sprite,Background,Centre,"sb/Glow2.png",0,0 C,0,61240,,173,192,210 M,0,61240,61318,400,248,400,268 F,2,61240,61752,0.8,0 S,2,61240,61752,5,1.5 P,0,61240,61752,A M,0,61318,61396,400,268,400,288 M,0,61396,61474,400,288,400,308 M,0,61474,61552,400,308,400,328
Sprite,Background,Centre,"sb/Glow2.png",400,408 C,0,61865,,173,192,210 F,2,61865,62065,0.8,0 S,2,61865,62065,5,1.5 P,0,61865,62065,A
Sprite,Background,Centre,"sb/Glow2.png",0,0 C,0,62490,,173,192,210 M,0,62490,62568,240,408,220,408 F,2,62490,63940,0.8,0 S,2,62490,63940,5,1.5 P,0,62490,63940,A M,0,62568,62646,220,408,200,408 M,0,62646,62724,200,408,180,408 M,0,62724,62802,180,408,160,408 M,0,62802,62880,160,408,140,408 M,0,62880,62958,140,408,120,408 M,0,62958,63036,120,408,100,408 M,0,63036,63115,100,408,80,408 M,0,63115,63193,80,408,100,408 M,0,63193,63271,100,408,120,408 M,0,63271,63349,120,408,140,408 M,0,63349,63427,140,408,160,408 M,0,63427,63505,160,408,180,408 M,0,63505,63583,180,408,200,408 M,0,63583,63661,200,408,220,408 M,0,63661,63740,220,408,240,408
Sprite,Background,Centre,"sb/Glow2.png",0,0 C,0,64052,,173,192,210 M,0,64052,64130,240,328,260,328 F,2,64052,64564,0.8,0 S,2,64052,64564,5,1.5 P,0,64052,64564,A M,0,64130,64208,260,328,280,328 M,0,64208,64286,280,328,300,328 M,0,64286,64364,300,328,320,328
Sprite,Background,Centre,"sb/Glow2.png",0,0 C,0,64990,,204,149,197 M,0,64990,65068,480,328,480,308 F,2,64990,65815,0.8,0 S,2,64990,65815,5,1.5 P,0,64990,65815,A M,0,65068,65146,480,308,480,288 M,0,65146,65224,480,288,480,268 M,0,65224,65302,480,268,480,248 M,0,65302,65380,480,248,480,228 M,0,65380,65458,480,228,480,208 M,0,65458,65536,480,208,480,188 M,0,65536,65615,480,188,480,168
Sprite,Background,Centre,"sb/Glow2.png",0,0 C,0,66240,,204,149,197 M,0,66240,66318,320,168,320,148 F,2,66240,67065,0.8,0 S,2,66240,67065,5,1.5 P,0,66240,67065,A M,0,66318,66396,320,148,320,128 M,0,66396,66474,320,128,320,108 M,0,66474,66552,320,108,320,88 M,0,66552,66630,320,88,320,108 M,0,66630,66708,320,108,320,128 M,0,66708,66786,320,128,320,148 M,0,66786,66865,320,148,320,168
Sprite,Background,Centre,"sb/Glow2.png",0,0 C,0,67490,,204,149,197 M,0,67490,67568,160,168,160,188 F,2,67490,68940,0.8,0 S,2,67490,68940,5,1.5 P,0,67490,68940,A M,0,67568,67646,160,188,160,208 M,0,67646,67724,160,208,160,228 M,0,67724,67802,160,228,160,248 M,0,67802,67880,160,248,160,268 M,0,67880,67958,160,268,160,288 M,0,67958,68036,160,288,160,308 M,0,68036,68115,160,308,160,328 M,0,68115,68193,160,328,160,308 M,0,68193,68271,160,308,160,288 M,0,68271,68349,160,288,160,268 M,0,68349,68427,160,268,160,248 M,0,68427,68505,160,248,160,228 M,0,68505,68583,160,228,160,208 M,0,68583,68661,160,208,160,188 M,0,68661,68740,160,188,160,168
Sprite,Background,Centre,"sb/Glow2.png",0,0 C,0,69052,,204,149,197 M,0,69052,69130,240,168,260,168 F,2,69052,69564,0.8,0 S,2,69052,69564,5,1.5 P,0,69052,69564,A M,0,69130,69208,260,168,280,168 M,0,69208,69286,280,168,300,168 M,0,69286,69364,300,168,320,168
Sprite,Background,Centre,"sb/Glow2.png",0,0 C,0,69990,,87,171,255 M,0,69990,70068,320,328,320,348 F,2,69990,70815,0.8,0 S,2,69990,70815,5,1.5 P,0,69990,70815,A M,0,70068,70146,320,348,320,368 M,0,70146,70224,320,368,320,388 M,0,70224,70302,320,388,320,408 M,0,70302,70380,320,408,340,408 M,0,70380,70458,340,408,360,408 M,0,70458,70536,360,408,380,408 M,0,70536,70615,380,408,400,408
Sprite,Background,Centre,"sb/Glow2.png",0,0 C,0,71240,,87,171,255 M,0,71240,71318,560,408,560,388 F,2,71240,71752,0.8,0 S,2,71240,71752,5,1.5 P,0,71240,71752,A M,0,71318,71396,560,388,560,368 M,0,71396,71474,560,368,560,348 M,0,71474,71552,560,348,560,328
Sprite,Background,Centre,"sb/Glow2.png",560,248 C,0,71865,,87,171,255 F,2,71865,72065,0.8,0 S,2,71865,72065,5,1.5 P,0,71865,72065,A
Sprite,Background,Centre,"sb/Glow2.png",0,0 C,0,72490,,87,171,255 M,0,72490,72568,400,248,380,248 F,2,72490,73940,0.8,0 S,2,72490,73940,5,1.5 P,0,72490,73940,A M,0,72568,72646,380,248,360,248 M,0,72646,72724,360,248,340,248 M,0,72724,72802,340,248,320,248 M,0,72802,72880,320,248,300,248 M,0,72880,72958,300,248,280,248 M,0,72958,73036,280,248,260,248 M,0,73036,73115,260,248,240,248 M,0,73115,73193,240,248,260,248 M,0,73193,73271,260,248,280,248 M,0,73271,73349,280,248,300,248 M,0,73349,73427,300,248,320,248 M,0,73427,73505,320,248,340,248 M,0,73505,73583,340,248,360,248 M,0,73583,73661,360,248,380,248 M,0,73661,73740,380,248,400,248
Sprite,Background,Centre,"sb/Glow2.png",0,0 C,0,74052,,87,171,255 M,0,74052,74130,400,168,400,148 F,2,74052,74564,0.8,0 S,2,74052,74564,5,1.5 P,0,74052,74564,A M,0,74130,74208,400,148,400,128 M,0,74208,74286,400,128,400,108 M,0,74286,74364,400,108,400,88
Sprite,Background,Centre,"sb/Glow2.png",0,0 C,0,74990,,98,200,174 M,0,74990,75068,560,88,560,108 F,2,74990,75815,0.8,0 S,2,74990,75815,5,1.5 P,0,74990,75815,A M,0,75068,75146,560,108,560,128 M,0,75146,75224,560,128,560,148 M,0,75224,75302,560,148,560,168 M,0,75302,75380,560,168,560,188 M,0,75380,75458,560,188,560,208 M,0,75458,75536,560,208,560,228 M,0,75536,75615,560,228,560,248
Sprite,Background,Centre,"sb/Glow2.png",0,0 C,0,76239,,98,200,174 M,0,76239,76317,400,248,400,268 F,2,76239,77064,0.8,0 S,2,76239,77064,5,1.5 P,0,76239,77064,A M,0,76317,76395,400,268,400,288 M,0,76395,76473,400,288,400,308 M,0,76473,76551,400,308,400,328 M,0,76551,76629,400,328,400,308 M,0,76629,76707,400,308,400,288 M,0,76707,76785,400,288,400,268 M,0,76785,76864,400,268,400,248
Sprite,Background,Centre,"sb/Glow2.png",0,0 C,0,77490,,98,200,174 M,0,77490,77568,240,248,240,228 F,2,77490,78940,0.8,0 S,2,77490,78940,5,1.5 P,0,77490,78940,A M,0,77568,77646,240,228,240,208 M,0,77646,77724,240,208,240,188 M,0,77724,77802,240,188,240,168 M,0,77802,77880,240,168,240,148 M,0,77880,77958,240,148,240,128 M,0,77958,78036,240,128,240,108 M,0,78036,78115,240,108,240,88 M,0,78115,78193,240,88,240,108 M,0,78193,78271,240,108,240,128 M,0,78271,78349,240,128,240,148 M,0,78349,78427,240,148,240,168 M,0,78427,78505,240,168,240,188 M,0,78505,78583,240,188,240,208 M,0,78583,78661,240,208,240,228 M,0,78661,78740,240,228,240,248
Sprite,Background,Centre,"sb/Glow2.png",0,0 C,0,79052,,98,200,174 M,0,79052,79130,160,248,160,268 F,2,79052,79564,0.8,0 S,2,79052,79564,5,1.5 P,0,79052,79564,A M,0,79130,79208,160,268,160,288 M,0,79208,79286,160,288,160,308 M,0,79286,79364,160,308,160,328
Sprite,Background,Centre,"sb/Glow2.png",0,0 C,0,79990,,173,192,210 M,0,79990,80068,320,328,340,328 F,2,79990,80815,0.8,0 S,2,79990,80815,5,1.5 P,0,79990,80815,A M,0,80068,80146,340,328,360,328 M,0,80146,80224,360,328,380,328 M,0,80224,80302,380,328,400,328 M,0,80302,80380,400,328,400,348 M,0,80380,80458,400,348,400,368 M,0,80458,80536,400,368,400,388 M,0,80536,80615,400,388,400,408
Sprite,Background,Centre,"sb/Glow2.png",0,0 C,0,80927,,173,192,210 M,0,80927,81005,480,408,500,408 F,2,80927,81752,0.8,0 S,2,80927,81752,5,1.5 P,0,80927,81752,A M,0,81005,81083,500,408,520,408 M,0,81083,81161,520,408,540,408 M,0,81161,81239,540,408,560,408 M,0,81239,81317,560,408,560,388 M,0,81317,81395,560,388,560,368 M,0,81395,81473,560,368,560,348 M,0,81473,81552,560,348,560,328
Sprite,Background,Centre,"sb/Glow2.png",560,248 C,0,81864,,173,192,210 F,2,81864,82064,0.8,0 S,2,81864,82064,5,1.5 P,0,81864,82064,A
Sprite,Background,Centre,"sb/Glow2.png",0,0 C,0,82490,,173,192,210 M,0,82490,82568,560,88,540,88 F,2,82490,83315,0.8,0 S,2,82490,83315,5,1.5 P,0,82490,83315,A M,0,82568,82646,540,88,520,88 M,0,82646,82724,520,88,500,88 M,0,82724,82802,500,88,480,88 M,0,82802,82880,480,88,460,88 M,0,82880,82958,460,88,440,88 M,0,82958,83036,440,88,420,88 M,0,83036,83115,420,88,400,88
Sprite,Background,Centre,"sb/Glow2.png",0,0 C,0,83427,,173,192,210 M,0,83427,83505,320,88,320,108 F,2,83427,84252,0.8,0 S,2,83427,84252,5,1.5 P,0,83427,84252,A M,0,83505,83583,320,108,320,128 M,0,83583,83661,320,128,320,148 M,0,83661,83739,320,148,320,168 M,0,83739,83817,320,168,320,188 M,0,83817,83895,320,188,320,208 M,0,83895,83973,320,208,320,228 M,0,83973,84052,320,228,320,248
Sprite,Background,Centre,"sb/Glow2.png",240,248 C,0,84365,,173,192,210 F,2,84365,84565,0.8,0 S,2,84365,84565,5,1.5 P,0,84365,84565,A
Sprite,Background,Centre,"sb/Glow2.png",0,0 C,0,84990,,204,149,197 M,0,84990,85068,80,248,80,268 F,2,84990,85815,0.8,0 S,2,84990,85815,5,1.5 P,0,84990,85815,A M,0,85068,85146,80,268,80,288 M,0,85146,85224,80,288,80,308 M,0,85224,85302,80,308,80,328 M,0,85302,85380,80,328,80,348 M,0,85380,85458,80,348,80,368 M,0,85458,85536,80,368,80,388 M,0,85536,85615,80,388,80,408
Sprite,Background,Centre,"sb/Glow2.png",0,0 C,0,85927,,204,149,197 M,0,85927,86005,160,408,180,408 F,2,85927,86439,0.8,0 S,2,85927,86439,5,1.5 P,0,85927,86439,A M,0,86005,86083,180,408,200,408 M,0,86083,86161,200,408,220,408 M,0,86161,86239,220,408,240,408
Sprite,Background,Centre,"sb/Glow2.png",400,408 C,0,86865,,204,149,197 F,2,86865,87065,0.8,0 S,2,86865,87065,5,1.5 P,0,86865,87065,A
Sprite,Background,Centre,"sb/Glow2.png",0,0 C,0,87490,,204,149,197 M,0,87490,87568,400,248,420,248 F,2,87490,88315,0.8,0 S,2,87490,88315,5,1.5 P,0,87490,88315,A M,0,87568,87646,420,248,440,248 M,0,87646,87724,440,248,460,248 M,0,87724,87802,460,248,480,248 M,0,87802,87880,480,248,500,248 M,0,87880,87958,500,248,520,248 M,0,87958,88036,520,248,540,248 M,0,88036,88115,540,248,560,248
Sprite,Background,Centre,"sb/Glow2.png",0,0 C,0,88427,,204,149,197 M,0,88427,88505,560,168,560,148 F,2,88427,88939,0.8,0 S,2,88427,88939,5,1.5 P,0,88427,88939,A M,0,88505,88583,560,148,560,128 M,0,88583,88661,560,128,560,108 M,0,88661,88739,560,108,560,88
Sprite,Background,Centre,"sb/Glow2.png",400,88 C,0,89365,,204,149,197 F,2,89365,89565,0.8,0 S,2,89365,89565,5,1.5 P,0,89365,89565,A
Sprite,Background,Centre,"sb/Glow2.png",0,0 C,0,89990,,87,171,255 M,0,89990,90068,240,88,240,108 F,2,89990,90815,0.8,0 S,2,89990,90815,5,1.5 P,0,89990,90815,A M,0,90068,90146,240,108,240,128 M,0,90146,90224,240,128,240,148 M,0,90224,90302,240,148,240,168 M,0,90302,90380,240,168,240,188 M,0,90380,90458,240,188,240,208 M,0,90458,90536,240,208,240,228 M,0,90536,90615,240,228,240,248
Sprite,Background,Centre,"sb/Glow2.png",0,0 C,0,90927,,87,171,255 M,0,90927,91005,320,248,320,268 F,2,90927,91752,0.8,0 S,2,90927,91752,5,1.5 P,0,90927,91752,A M,0,91005,91083,320,268,320,288 M,0,91083,91161,320,288,320,308 M,0,91161,91239,320,308,320,328 M,0,91239,91317,320,328,320,348 M,0,91317,91395,320,348,320,368 M,0,91395,91473,320,368,320,388 M,0,91473,91552,320,388,320,408
Sprite,Background,Centre,"sb/Glow2.png",240,408 C,0,91865,,87,171,255 F,2,91865,92065,0.8,0 S,2,91865,92065,5,1.5 P,0,91865,92065,A
Sprite,Background,Centre,"sb/Glow2.png",0,0 C,0,92489,,87,171,255 M,0,92489,92567,80,408,80,388 F,2,92489,93314,0.8,0 S,2,92489,93314,5,1.5 P,0,92489,93314,A M,0,92567,92645,80,388,80,368 M,0,92645,92723,80,368,80,348 M,0,92723,92801,80,348,80,328 M,0,92801,92879,80,328,80,308 M,0,92879,92957,80,308,80,288 M,0,92957,93035,80,288,80,268 M,0,93035,93114,80,268,80,248
Sprite,Background,Centre,"sb/Glow2.png",0,0 C,0,93427,,87,171,255 M,0,93427,93505,160,248,180,248 F,2,93427,94877,0.8,0 S,2,93427,94877,5,1.5 P,0,93427,94877,A M,0,93505,93583,180,248,200,248 M,0,93583,93661,200,248,220,248 M,0,93661,93739,220,248,240,248 M,0,93739,93817,240,248,240,268 M,0,93817,93895,240,268,240,288 M,0,93895,93973,240,288,240,308 M,0,93973,94052,240,308,240,328 M,0,94052,94130,240,328,240,308 M,0,94130,94208,240,308,240,288 M,0,94208,94286,240,288,240,268 M,0,94286,94364,240,268,240,248 M,0,94364,94442,240,248,220,248 M,0,94442,94520,220,248,200,248 M,0,94520,94598,200,248,180,248 M,0,94598,94677,180,248,160,248
Sprite,Background,Centre,"sb/Glow2.png",160,168 C,0,94989,,98,200,174 F,2,94989,95189,0.8,0 S,2,94989,95189,5,1.5 P,0,94989,95189,A
Sprite,Background,Centre,"sb/Glow2.png",320,168 C,0,95615,,98,200,174 F,2,95615,95815,0.8,0 S,2,95615,95815,5,1.5 P,0,95615,95815,A
Sprite,Background,Centre,"sb/Glow2.png",0,0 C,0,96240,,98,200,174 M,0,96240,96318,320,328,320,348 F,2,96240,97065,0.8,0 S,2,96240,97065,5,1.5 P,0,96240,97065,A M,0,96318,96396,320,348,320,368 M,0,96396,96474,320,368,320,388 M,0,96474,96552,320,388,320,408 M,0,96552,96630,320,408,320,388 M,0,96630,96708,320,388,320,368 M,0,96708,96786,320,368,320,348 M,0,96786,96865,320,348,320,328
Sprite,Background,Centre,"sb/Glow2.png",0,0 C,0,97490,,98,200,174 M,0,97490,97568,480,328,480,308 F,2,97490,98627,0.8,0 S,2,97490,98627,5,1.5 P,0,97490,98627,A M,0,97568,97646,480,308,480,288 M,0,97646,97724,480,288,480,268 M,0,97724,97802,480,268,480,248 M,0,97802,97880,480,248,480,228 M,0,97880,97958,480,228,480,208 M,0,97958,98036,480,208,460,208 M,0,98036,98115,460,208,440,208 M,0,98115,98193,440,208,420,208 M,0,98193,98271,420,208,400,208 M,0,98271,98349,400,208,380,208 M,0,98349,98427,380,208,360,208
Sprite,Background,Centre,"sb/Glow2.png",0,0 C,0,98740,,98,200,174 M,0,98740,98818,280,208,280,188 F,2,98740,99877,0.8,0 S,2,98740,99877,5,1.5 P,0,98740,99877,A M,0,98818,98896,280,188,280,168 M,0,98896,98974,280,168,280,148 M,0,98974,99052,280,148,280,128 M,0,99052,99130,280,128,280,108 M,0,99130,99208,280,108,280,88 M,0,99208,99286,280,88,300,88 M,0,99286,99365,300,88,320,88 M,0,99365,99443,320,88,340,88 M,0,99443,99521,340,88,360,88 M,0,99521,99599,360,88,380,88 M,0,99599,99677,380,88,400,88
Sprite,Background,Centre,"sb/Glow2.png",480,88 C,0,99990,,173,192,210 F,2,99990,100190,0.8,0 S,2,99990,100190,5,1.5 P,0,99990,100190,A
Sprite,Background,Centre,"sb/Glow2.png",0,0 C,0,100927,,173,192,210 M,0,100927,101005,480,328,460,328 F,2,100927,101752,0.8,0 S,2,100927,101752,5,1.5 P,0,100927,101752,A M,0,101005,101083,460,328,440,328 M,0,101083,101161,440,328,420,328 M,0,101161,101239,420,328,400,328 M,0,101239,101317,400,328,380,328 M,0,101317,101395,380,328,360,328 M,0,101395,101473,360,328,340,328 M,0,101473,101552,340,328,320,328
Sprite,Background,Centre,"sb/Glow2.png",240,328 C,0,101865,,173,192,210 F,2,101865,102065,0.8,0 S,2,101865,102065,5,1.5 P,0,101865,102065,A
Sprite,Background,Centre,"sb/Glow2.png",0,0 C,0,102490,,173,192,210 M,0,102490,102568,240,168,220,168 F,2,102490,103315,0.8,0 S,2,102490,103315,5,1.5 P,0,102490,103315,A M,0,102568,102646,220,168,200,168 M,0,102646,102724,200,168,180,168 M,0,102724,102802,180,168,160,168 M,0,102802,102880,160,168,140,168 M,0,102880,102958,140,168,120,168 M,0,102958,103036,120,168,100,168 M,0,103036,103115,100,168,80,168
Sprite,Background,Centre,"sb/Glow2.png",80,248 C,0,103427,,173,192,210 F,2,103427,103627,0.8,0 S,2,103427,103627,5,1.5 P,0,103427,103627,A
Sprite,Background,Centre,"sb/Glow2.png",0,0 C,0,104052,,173,192,210 M,0,104052,104130,80,408,100,408 F,2,104052,104564,0.8,0 S,2,104052,104564,5,1.5 P,0,104052,104564,A M,0,104130,104208,100,408,120,408 M,0,104208,104286,120,408,140,408 M,0,104286,104364,140,408,160,408
Sprite,Background,Centre,"sb/Glow2.png",320,408 C,0,104990,,204,149,197 F,2,104990,105190,0.8,0 S,2,104990,105190,5,1.5 P,0,104990,105190,A
Sprite,Background,Centre,"sb/Glow2.png",0,0 C,0,105615,,204,149,197 M,0,105615,105693,320,248,300,248 F,2,105615,106440,0.8,0 S,2,105615,106440,5,1.5 P,0,105615,106440,A M,0,105693,105771,300,248,280,248 M,0,105771,105849,280,248,260,248 M,0,105849,105927,260,248,240,248 M,0,105927,106005,240,248,260,248 M,0,106005,106083,260,248,280,248 M,0,106083,106161,280,248,300,248 M,0,106161,106240,300,248,320,248
Sprite,Background,Centre,"sb/Glow2.png",480,248 C,0,106865,,204,149,197 F,2,106865,107065,0.8,0 S,2,106865,107065,5,1.5 P,0,106865,107065,A
Sprite,Background,Centre,"sb/Glow2.png",0,0 C,0,107490,,204,149,197 M,0,107490,107568,480,408,460,408 F,2,107490,108315,0.8,0 S,2,107490,108315,5,1.5 P,0,107490,108315,A M,0,107568,107646,460,408,440,408 M,0,107646,107724,440,408,420,408 M,0,107724,107802,420,408,400,408 M,0,107802,107880,400,408,380,408 M,0,107880,107958,380,408,360,408 M,0,107958,108036,360,408,340,408 M,0,108036,108115,340,408,320,408
Sprite,Background,Centre,"sb/Glow2.png",0,0 C,0,108427,,204,149,197 M,0,108427,108505,320,328,300,328 F,2,108427,109877,0.8,0 S,2,108427,109877,5,1.5 P,0,108427,109877,A M,0,108505,108583,300,328,280,328 M,0,108583,108661,280,328,260,328 M,0,108661,108739,260,328,240,328 M,0,108739,108817,240,328,220,328 M,0,108817,108895,220,328,200,328 M,0,108895,108973,200,328,180,328 M,0,108973,109052,180,328,160,328 M,0,109052,109130,160,328,180,328 M,0,109130,109208,180,328,200,328 M,0,109208,109286,200,328,220,328 M,0,109286,109364,220,328,240,328 M,0,109364,109442,240,328,260,328 M,0,109442,109520,260,328,280,328 M,0,109520,109598,280,328,300,328 M,0,109598,109677,300,328,320,328
Sprite,Background,Centre,"sb/Glow2.png",400,328 C,0,109989,,87,171,255 F,2,109989,110189,0.8,0 S,2,109989,110189,5,1.5 P,0,109989,110189,A
Sprite,Background,Centre,"sb/Glow2.png",0,0 C,0,110615,,87,171,255 M,0,110615,110693,560,328,560,308 F,2,110615,111127,0.8,0 S,2,110615,111127,5,1.5 P,0,110615,111127,A M,0,110693,110771,560,308,560,288 M,0,110771,110849,560,288,560,268 M,0,110849,110927,560,268,560,248
Sprite,Background,Centre,"sb/Glow2.png",560,88 C,0,111552,,87,171,255 F,2,111552,111752,0.8,0 S,2,111552,111752,5,1.5 P,0,111552,111752,A
Sprite,Background,Centre,"sb/Glow2.png",0,0 C,0,111865,,87,171,255 M,0,111865,111943,480,88,460,88 F,2,111865,112377,0.8,0 S,2,111865,112377,5,1.5 P,0,111865,112377,A M,0,111943,112021,460,88,440,88 M,0,112021,112099,440,88,420,88 M,0,112099,112177,420,88,400,88
Sprite,Background,Centre,"sb/Glow2.png",0,0 C,0,112490,,87,171,255 M,0,112490,112568,320,88,320,108 F,2,112490,113315,0.8,0 S,2,112490,113315,5,1.5 P,0,112490,113315,A M,0,112568,112646,320,108,320,128 M,0,112646,112724,320,128,320,148 M,0,112724,112802,320,148,320,168 M,0,112802,112880,320,168,320,188 M,0,112880,112958,320,188,320,208 M,0,112958,113036,320,208,320,228 M,0,113036,113115,320,228,320,248
Sprite,Background,Centre,"sb/Glow2.png",0,0 C,0,113427,,87,171,255 M,0,113427,113505,240,248,220,248 F,2,113427,114252,0.8,0 S,2,113427,114252,5,1.5 P,0,113427,114252,A M,0,113505,113583,220,248,200,248 M,0,113583,113661,200,248,180,248 M,0,113661,113739,180,248,160,248 M,0,113739,113817,160,248,160,268 M,0,113817,113895,160,268,160,288 M,0,113895,113973,160,288,160,308 M,0,113973,114052,160,308,160,328
Sprite,Background,Centre,"sb/Glow2.png",160,408 C,0,114365,,87,171,255 F,2,114365,114565,0.8,0 S,2,114365,114565,5,1.5 P,0,114365,114565,A
Sprite,Background,Centre,"sb/Glow2.png",0,0 C,0,114990,,98,200,174 M,0,114990,115068,320,408,320,388 F,2,114990,115815,0.8,0 S,2,114990,115815,5,1.5 P,0,114990,115815,A M,0,115068,115146,320,388,320,368 M,0,115146,115224,320,368,320,348 M,0,115224,115302,320,348,320,328 M,0,115302,115380,320,328,320,308 M,0,115380,115458,320,308,320,288 M,0,115458,115536,320,288,320,268 M,0,115536,115615,320,268,320,248
Sprite,Background,Centre,"sb/Glow2.png",0,0 C,0,116240,,98,200,174 M,0,116240,116318,320,88,300,88 F,2,116240,116752,0.8,0 S,2,116240,116752,5,1.5 P,0,116240,116752,A M,0,116318,116396,300,88,280,88 M,0,116396,116474,280,88,260,88 M,0,116474,116552,260,88,240,88
Sprite,Background,Centre,"sb/Glow2.png",160,88 C,0,116865,,98,200,174 F,2,116865,117065,0.8,0 S,2,116865,117065,5,1.5 P,0,116865,117065,A
Sprite,Background,Centre,"sb/Glow2.png",320,248 C,0,117489,,98,200,174 F,2,117489,120189,0.8,0 S,2,117489,120189,5,1.5 P,0,117489,120189,A
Sprite,Background,Centre,"sb/Glow2.png",0,0 C,0,121240,,173,192,210 M,0,121240,121318,480,168,500,168 F,2,121240,121752,0.8,0 S,2,121240,121752,5,1.5 P,0,121240,121752,A M,0,121318,121396,500,168,520,168 M,0,121396,121474,520,168,540,168 M,0,121474,121552,540,168,560,168
Sprite,Background,Centre,"sb/Glow2.png",560,248 C,0,121865,,173,192,210 F,2,121865,122065,0.8,0 S,2,121865,122065,5,1.5 P,0,121865,122065,A
Sprite,Background,Centre,"sb/Glow2.png",0,0 C,0,122490,,173,192,210 M,0,122490,122568,560,408,540,408 F,2,122490,123940,0.8,0 S,2,122490,123940,5,1.5 P,0,122490,123940,A M,0,122568,122646,540,408,520,408 M,0,122646,122724,520,408,500,408 M,0,122724,122802,500,408,480,408 M,0,122802,122880,480,408,460,408 M,0,122880,122958,460,408,440,408 M,0,122958,123036,440,408,420,408 M,0,123036,123115,420,408,400,408 M,0,123115,123193,400,408,420,408 M,0,123193,123271,420,408,440,408 M,0,123271,123349,440,408,460,408 M,0,123349,123427,460,408,480,408 M,0,123427,123505,480,408,500,408 M,0,123505,123583,500,408,520,408 M,0,123583,123661,520,408,540,408 M,0,123661,123740,540,408,560,408
Sprite,Background,Centre,"sb/Glow2.png",0,0 C,0,124052,,173,192,210 M,0,124052,124130,560,328,540,328 F,2,124052,124564,0.8,0 S,2,124052,124564,5,1.5 P,0,124052,124564,A M,0,124130,124208,540,328,520,328 M,0,124208,124286,520,328,500,328 M,0,124286,124364,500,328,480,328
Sprite,Background,Centre,"sb/Glow2.png",0,0 C,0,124990,,204,149,197 M,0,124990,125068,320,328,320,308 F,2,124990,125815,0.8,0 S,2,124990,125815,5,1.5 P,0,124990,125815,A M,0,125068,125146,320,308,320,288 M,0,125146,125224,320,288,320,268 M,0,125224,125302,320,268,320,248 M,0,125302,125380,320,248,320,228 M,0,125380,125458,320,228,320,208 M,0,125458,125536,320,208,320,188 M,0,125536,125615,320,188,320,168
Sprite,Background,Centre,"sb/Glow2.png",0,0 C,0,126240,,204,149,197 M,0,126240,126318,160,168,140,168 F,2,126240,127065,0.8,0 S,2,126240,127065,5,1.5 P,0,126240,127065,A M,0,126318,126396,140,168,120,168 M,0,126396,126474,120,168,100,168 M,0,126474,126552,100,168,80,168 M,0,126552,126630,80,168,100,168 M,0,126630,126708,100,168,120,168 M,0,126708,126786,120,168,140,168 M,0,126786,126865,140,168,160,168
Sprite,Background,Centre,"sb/Glow2.png",0,0 C,0,127490,,204,149,197 M,0,127490,127568,320,168,340,168 F,2,127490,128940,0.8,0 S,2,127490,128940,5,1.5 P,0,127490,128940,A M,0,127568,127646,340,168,360,168 M,0,127646,127724,360,168,380,168 M,0,127724,127802,380,168,400,168 M,0,127802,127880,400,168,420,168 M,0,127880,127958,420,168,440,168 M,0,127958,128036,440,168,460,168 M,0,128036,128115,460,168,480,168 M,0,128115,128193,480,168,460,168 M,0,128193,128271,460,168,440,168 M,0,128271,128349,440,168,420,168 M,0,128349,128427,420,168,400,168 M,0,128427,128505,400,168,380,168 M,0,128505,128583,380,168,360,168 M,0,128583,128661,360,168,340,168 M,0,128661,128740,340,168,320,168
Sprite,Background,Centre,"sb/Glow2.png",320,328 C,0,129365,,204,149,197 F,2,129365,129565,0.8,0 S,2,129365,129565,5,1.5 P,0,129365,129565,A
Sprite,Background,Centre,"sb/Glow2.png",0,0 C,0,129990,,87,171,255 M,0,129990,130068,160,328,160,308 F,2,129990,130815,0.8,0 S,2,129990,130815,5,1.5 P,0,129990,130815,A M,0,130068,130146,160,308,160,288 M,0,130146,130224,160,288,160,268 M,0,130224,130302,160,268,160,248 M,0,130302,130380,160,248,160,228 M,0,130380,130458,160,228,160,208 M,0,130458,130536,160,208,160,188 M,0,130536,130615,160,188,160,168
Sprite,Background,Centre,"sb/Glow2.png",320,168 C,0,131240,,87,171,255 F,2,131240,131440,0.8,0 S,2,131240,131440,5,1.5 P,0,131240,131440,A
Sprite,Background,Centre,"sb/Glow2.png",480,168 C,0,131865,,87,171,255 F,2,131865,132065,0.8,0 S,2,131865,132065,5,1.5 P,0,131865,132065,A
Sprite,Background,Centre,"sb/Glow2.png",0,0 C,0,132490,,87,171,255 M,0,132490,132568,480,328,460,328 F,2,132490,133315,0.8,0 S,2,132490,133315,5,1.5 P,0,132490,133315,A M,0,132568,132646,460,328,440,328 M,0,132646,132724,440,328,420,328 M,0,132724,132802,420,328,400,328 M,0,132802,132880,400,328,380,328 M,0,132880,132958,380,328,360,328 M,0,132958,133036,360,328,340,328 M,0,133036,133115,340,328,320,328
Sprite,Background,Centre,"sb/Glow2.png",0,0 C,0,133740,,87,171,255 M,0,133740,133818,160,328,140,328 F,2,133740,134252,0.8,0 S,2,133740,134252,5,1.5 P,0,133740,134252,A M,0,133818,133896,140,328,120,328 M,0,133896,133974,120,328,100,328 M,0,133974,134052,100,328,80,328
Sprite,Background,Centre,"sb/Glow2.png",80,248 C,0,134365,,87,171,255 F,2,134365,134565,0.8,0 S,2,134365,134565,5,1.5 P,0,134365,134565,A
Sprite,Background,Centre,"sb/Glow2.png",0,0 C,0,134990,,98,200,174 M,0,134990,135068,240,248,240,228 F,2,134990,135815,0.8,0 S,2,134990,135815,5,1.5 P,0,134990,135815,A M,0,135068,135146,240,228,240,208 M,0,135146,135224,240,208,240,188 M,0,135224,135302,240,188,240,168 M,0,135302,135380,240,168,240,148 M,0,135380,135458,240,148,240,128 M,0,135458,135536,240,128,240,108 M,0,135536,135615,240,108,240,88
Sprite,Background,Centre,"sb/Glow2.png",0,0 C,0,136240,,98,200,174 M,0,136240,136318,400,88,400,108 F,2,136240,137065,0.8,0 S,2,136240,137065,5,1.5 P,0,136240,137065,A M,0,136318,136396,400,108,400,128 M,0,136396,136474,400,128,400,148 M,0,136474,136552,400,148,400,168 M,0,136552,136630,400,168,400,188 M,0,136630,136708,400,188,400,208 M,0,136708,136786,400,208,400,228 M,0,136786,136865,400,228,400,248
Sprite,Background,Centre,"sb/Glow2.png",0,0 C,0,137490,,98,200,174 M,0,137490,137568,400,408,380,408 F,2,137490,138940,0.8,0 S,2,137490,138940,5,1.5 P,0,137490,138940,A M,0,137568,137646,380,408,360,408 M,0,137646,137724,360,408,340,408 M,0,137724,137802,340,408,320,408 M,0,137802,137880,320,408,300,408 M,0,137880,137958,300,408,280,408 M,0,137958,138036,280,408,260,408 M,0,138036,138115,260,408,240,408 M,0,138115,138193,240,408,260,408 M,0,138193,138271,260,408,280,408 M,0,138271,138349,280,408,300,408 M,0,138349,138427,300,408,320,408 M,0,138427,138505,320,408,340,408 M,0,138505,138583,340,408,360,408 M,0,138583,138661,360,408,380,408 M,0,138661,138740,380,408,400,408
Sprite,Background,Centre,"sb/Glow2.png",0,0 C,0,139365,,98,200,174 M,0,139365,139443,560,408,560,388 F,2,139365,139877,0.8,0 S,2,139365,139877,5,1.5 P,0,139365,139877,A M,0,139443,139521,560,388,560,368 M,0,139521,139599,560,368,560,348 M,0,139599,139677,560,348,560,328
Sprite,Background,Centre,"sb/Glow2.png",0,0 C,0,139990,,173,192,210 M,0,139990,140068,560,248,540,248 F,2,139990,140815,0.8,0 S,2,139990,140815,5,1.5 P,0,139990,140815,A M,0,140068,140146,540,248,520,248 M,0,140146,140224,520,248,500,248 M,0,140224,140302,500,248,480,248 M,0,140302,140380,480,248,460,248 M,0,140380,140458,460,248,440,248 M,0,140458,140536,440,248,420,248 M,0,140536,140615,420,248,400,248
Sprite,Background,Centre,"sb/Glow2.png",0,0 C,0,140927,,173,192,210 M,0,140927,141005,320,248,320,228 F,2,140927,141752,0.8,0 S,2,140927,141752,5,1.5 P,0,140927,141752,A M,0,141005,141083,320,228,320,208 M,0,141083,141161,320,208,320,188 M,0,141161,141239,320,188,320,168 M,0,141239,141317,320,168,320,188 M,0,141317,141395,320,188,320,208 M,0,141395,141473,320,208,320,228 M,0,141473,141552,320,228,320,248
Sprite,Background,Centre,"sb/Glow2.png",320,328 C,0,141865,,173,192,210 F,2,141865,142065,0.8,0 S,2,141865,142065,5,1.5 P,0,141865,142065,A
Sprite,Background,Centre,"sb/Glow2.png",0,0 C,0,142490,,173,192,210 M,0,142490,142568,160,328,160,308 F,2,142490,144565,0.8,0 S,2,142490,144565,5,1.5 P,0,142490,144565,A M,0,142568,142646,160,308,160,288 M,0,142646,142724,160,288,160,268 M,0,142724,142802,160,268,160,248 M,0,142802,142880,160,248,160,228 M,0,142880,142958,160,228,160,208 M,0,142958,143036,160,208,160,188 M,0,143036,143115,160,188,160,168 M,0,143115,143193,160,168,160,188 M,0,143193,143271,160,188,160,208 M,0,143271,143349,160,208,160,228 M,0,143349,143427,160,228,160,248 M,0,143427,143505,160,248,160,268 M,0,143505,143583,160,268,160,288 M,0,143583,143661,160,288,160,308 M,0,143661,143740,160,308,160,328 M,0,143740,143818,160,328,160,308 M,0,143818,143896,160,308,160,288 M,0,143896,143974,160,288,160,268 M,0,143974,144052,160,268,160,248 M,0,144052,144130,160,248,160,228 M,0,144130,144208,160,228,160,208 M,0,144208,144286,160,208,160,188 M,0,144286,144365,160,188,160,168
Sprite,Background,Centre,"sb/Glow2.png",0,0 C,0,144990,,204,149,197 M,0,144990,145068,320,168,320,188 F,2,144990,145815,0.8,0 S,2,144990,145815,5,1.5 P,0,144990,145815,A M,0,145068,145146,320,188,320,208 M,0,145146,145224,320,208,320,228 M,0,145224,145302,320,228,320,248 M,0,145302,145380,320,248,320,268 M,0,145380,145458,320,268,320,288 M,0,145458,145536,320,288,320,308 M,0,145536,145615,320,308,320,328
Sprite,Background,Centre,"sb/Glow2.png",0,0 C,0,145927,,204,149,197 M,0,145927,146005,400,328,420,328 F,2,145927,146752,0.8,0 S,2,145927,146752,5,1.5 P,0,145927,146752,A M,0,146005,146083,420,328,440,328 M,0,146083,146161,440,328,460,328 M,0,146161,146239,460,328,480,328 M,0,146239,146317,480,328,480,308 M,0,146317,146395,480,308,480,288 M,0,146395,146473,480,288,480,268 M,0,146473,146552,480,268,480,248
Sprite,Background,Centre,"sb/Glow2.png",480,168 C,0,146865,,204,149,197 F,2,146865,147065,0.8,0 S,2,146865,147065,5,1.5 P,0,146865,147065,A
Sprite,Background,Centre,"sb/Glow2.png",0,0 C,0,147490,,204,149,197 M,0,147490,147568,320,168,300,168 F,2,147490,149565,0.8,0 S,2,147490,149565,5,1.5 P,0,147490,149565,A M,0,147568,147646,300,168,280,168 M,0,147646,147724,280,168,260,168 M,0,147724,147802,260,168,240,168 M,0,147802,147880,240,168,220,168 M,0,147880,147958,220,168,200,168 M,0,147958,148036,200,168,180,168 M,0,148036,148115,180,168,160,168 M,0,148115,148193,160,168,180,168 M,0,148193,148271,180,168,200,168 M,0,148271,148349,200,168,220,168 M,0,148349,148427,220,168,240,168 M,0,148427,148505,240,168,260,168 M,0,148505,148583,260,168,280,168 M,0,148583,148661,280,168,300,168 M,0,148661,148740,300,168,320,168 M,0,148740,148818,320,168,300,168 M,0,148818,148896,300,168,280,168 M,0,148896,148974,280,168,260,168 M,0,148974,149052,260,168,240,168 M,0,149052,149130,240,168,220,168 M,0,149130,149208,220,168,200,168 M,0,149208,149286,200,168,180,168 M,0,149286,149365,180,168,160,168
Sprite,Background,Centre,"sb/Glow2.png",160,328 C,0,149990,,87,171,255 F,2,149990,150190,0.8,0 S,2,149990,150190,5,1.5 P,0,149990,150190,A
Sprite,Background,Centre,"sb/Glow2.png",0,0 C,0,150615,,87,171,255 M,0,150615,150693,320,328,320,348 F,2,150615,151127,0.8,0 S,2,150615,151127,5,1.5 P,0,150615,151127,A M,0,150693,150771,320,348,320,368 M,0,150771,150849,320,368,320,388 M,0,150849,150927,320,388,320,408
Sprite,Background,Centre,"sb/Glow2.png",0,0 C,0,151552,,87,171,255 M,0,151552,151630,480,408,480,388 F,2,151552,152064,0.8,0 S,2,151552,152064,5,1.5 P,0,151552,152064,A M,0,151630,151708,480,388,480,368 M,0,151708,151786,480,368,480,348 M,0,151786,151864,480,348,480,328
Sprite,Background,Centre,"sb/Glow2.png",0,0 C,0,152490,,87,171,255 M,0,152490,152568,480,168,460,168 F,2,152490,154565,0.8,0 S,2,152490,154565,5,1.5 P,0,152490,154565,A M,0,152568,152646,460,168,440,168 M,0,152646,152724,440,168,420,168 M,0,152724,152802,420,168,400,168 M,0,152802,152880,400,168,380,168 M,0,152880,152958,380,168,360,168 M,0,152958,153036,360,168,340,168 M,0,153036,153115,340,168,320,168 M,0,153115,153193,320,168,340,168 M,0,153193,153271,340,168,360,168 M,0,153271,153349,360,168,380,168 M,0,153349,153427,380,168,400,168 M,0,153427,153505,400,168,420,168 M,0,153505,153583,420,168,440,168 M,0,153583,153661,440,168,460,168 M,0,153661,153740,460,168,480,168 M,0,153740,153818,480,168,460,168 M,0,153818,153896,460,168,440,168 M,0,153896,153974,440,168,420,168 M,0,153974,154052,420,168,400,168 M,0,154052,154130,400,168,380,168 M,0,154130,154208,380,168,360,168 M,0,154208,154286,360,168,340,168 M,0,154286,154365,340,168,320,168
Sprite,Background,Centre,"sb/Glow2.png",0,0 C,0,154990,,98,200,174 M,0,154990,155068,160,168,160,188 F,2,154990,155815,0.8,0 S,2,154990,155815,5,1.5 P,0,154990,155815,A M,0,155068,155146,160,188,160,208 M,0,155146,155224,160,208,160,228 M,0,155224,155302,160,228,160,248 M,0,155302,155380,160,248,160,268 M,0,155380,155458,160,268,160,288 M,0,155458,155536,160,288,160,308 M,0,155536,155615,160,308,160,328
Sprite,Background,Centre,"sb/Glow2.png",0,0 C,0,155927,,98,200,174 M,0,155927,156005,240,328,240,348 F,2,155927,156752,0.8,0 S,2,155927,156752,5,1.5 P,0,155927,156752,A M,0,156005,156083,240,348,240,368 M,0,156083,156161,240,368,240,388 M,0,156161,156239,240,388,240,408 M,0,156239,156317,240,408,240,388 M,0,156317,156395,240,388,240,368 M,0,156395,156473,240,368,240,348 M,0,156473,156552,240,348,240,328
Sprite,Background,Centre,"sb/Glow2.png",320,328 C,0,156865,,98,200,174 F,2,156865,157065,0.8,0 S,2,156865,157065,5,1.5 P,0,156865,157065,A
Sprite,Background,Centre,"sb/Glow2.png",320,248 C,0,157490,,98,200,174 F,2,157490,160190,0.8,0 S,2,157490,160190,5,1.5 P,0,157490,160190,A
//Storyboard Layer 1 (Fail)
//Storyboard Layer 2 (Pass)
//Storyboard Layer 3 (Foreground)
//Storyboard Sound Samples

[TimingPoints]
-10,625,4,2,1,70,1,0
118740,-100,4,2,1,50,0,0
119365,-100,4,2,1,60,0,0
139990,-100,4,2,1,80,0,1
157490,-100,4,2,1,65,0,1
158740,-100,4,2,1,50,0,1
159990,-100,4,2,1,40,0,0

[Colours]
Combo1 : 87,171,255
Combo2 : 98,200,174
Combo3 : 173,192,210
Combo4 : 204,149,197
SliderTrackOverride : 70,70,70
SliderBorder : 150,230,200

[HitObjects]
176,32,39365,5,8,0:0:0:0:
176,192,39990,6,0,L|336:192,1,160,6|8,0:0|0:0,0:0:0:0:
496,192,41240,2,0,L|496:96,2,80,2|2|8,0:0|0:0|0:0,0:0:0:0:
496,352,42489,2,0,L|336:352,1,160,2|8,0:0|0:0,0:0:0:0:
176,352,43739,2,0,L|176:256,1,80,2|2,0:0|0:0,0:0:0:0:
176,192,44365,1,8,0:0:0:0:
176,32,44990,6,0,L|0:32,2,160,2|8|2,0:0|0:0|0:0,0:0:0:0:
336,32,46865,1,8,0:0:0:0:
336,192,47490,2,0,L|336:368,1,160,2|8,0:0|0:0,0:0:0:0:
176,352,48740,2,0,L|176:272,1,80,2|2,0:0|0:0,0:0:0:0:
176,192,49365,1,8,0:0:0:0:
16,192,49990,6,0,L|16:368,1,160,2|8,0:0|0:0,0:0:0:0:
176,352,51240,1,2,0:0:0:0:
336,352,51864,1,8,0:0:0:0:
336,192,52490,2,0,L|336:16,2,160,2|8|2,0:0|0:0|0:0,0:0:0:0:
496,192,54365,1,8,0:0:0:0:
496,352,54990,6,0,L|304:352,1,160,2|8,0:0|0:0,0:0:0:0:
336,192,56239,2,0,L|240:192,1,80,2|2,0:0|0:0,0:0:0:0:
256,272,56865,1,8,0:0:0:0:
96,272,57490,2,0,L|96:112,1,160,2|8,0:0|0:0,0:0:0:0:
256,112,58740,2,0,L|368:112,1,80,2|2,0:0|0:0,0:0:0:0:
336,32,59365,1,8,0:0:0:0:
176,32,59990,6,0,L|176:208,1,160,6|8,0:0|0:0,0:0:0:0:
336,192,61240,2,0,L|336:272,1,80,2|2,0:0|0:0,0:0:0:0:
336,352,61865,1,8,0:0:0:0:
176,352,62490,2,0,L|16:352,2,160,2|8|2,0:0|0:0|0:0,0:0:0:0:
176,272,64052,2,0,L|256:272,1,80,2|8,0:0|0:0,0:0:0:0:
416,272,64990,6,0,L|416:112,1,160,2|8,0:0|0:0,0:0:0:0:
256,112,66240,2,0,L|256:0,2,80,2|2|8,0:0|0:0|0:0,0:0:0:0:
96,112,67490,2,0,L|96:272,2,160,2|8|2,0:0|0:0|0:0,0:0:0:0:
176,112,69052,2,0,L|272:112,1,80,2|8,0:0|0:0,0:0:0:0:
256,272,69990,6,0,B|256:352|256:352|336:352,1,160,2|8,0:0|0:0,0:0:0:0:
496,352,71240,2,0,L|496:272,1,80,2|2,0:0|0:0,0:0:0:0:
496,192,71865,1,8,0:0:0:0:
336,192,72490,2,0,L|176:192,2,160,2|8|2,0:0|0:0|0:0,0:0:0:0:
336,112,74052,2,0,L|336:32,1,80,2|8,0:0|0:0,0:0:0:0:
496,32,74990,6,0,L|496:192,1,160,2|8,0:0|0:0,0:0:0:0:
336,192,76239,2,0,L|336:288,2,80,2|2|8,0:0|0:0|0:0,0:0:0:0:
176,192,77490,2,0,L|176:32,2,160,2|8|2,0:0|0:0|0:0,0:0:0:0:
96,192,79052,2,0,L|96:272,1,80,2|8,0:0|0:0,0:0:0:0:
256,272,79990,6,0,B|336:272|336:272|336:352,1,160,6|8,0:1|0:0,0:0:0:0:
416,352,80927,2,0,B|496:352|496:352|496:272,1,160,0|2,0:0|0:0,0:0:0:0:
496,192,81864,1,8,0:0:0:0:
496,32,82490,2,0,L|304:32,1,160,2|8,0:0|0:0,0:0:0:0:
256,32,83427,2,0,L|256:192,1,160,0|2,0:0|0:0,0:0:0:0:
176,192,84365,1,8,0:0:0:0:
16,192,84990,6,0,L|16:352,1,160,2|8,0:0|0:0,0:0:0:0:
96,352,85927,2,0,L|192:352,1,80,0|2,0:0|0:0,0:0:0:0:
336,352,86865,1,8,0:0:0:0:
336,192,87490,2,0,L|512:192,1,160,2|8,0:0|0:0,0:0:0:0:
496,112,88427,2,0,L|496:32,1,80,0|2,0:0|0:0,0:0:0:0:
336,32,89365,1,8,0:0:0:0:
176,32,89990,6,0,L|176:192,1,160,2|8,0:0|0:0,0:0:0:0:
256,192,90927,2,0,L|256:368,1,160,0|2,0:0|0:0,0:0:0:0:
176,352,91865,1,8,0:0:0:0:
16,352,92489,2,0,L|16:192,1,160,2|8,0:0|0:0,0:0:0:0:
96,192,93427,2,0,B|176:192|176:192|176:272,2,160,0|2|0,0:0|0:0|0:0,0:0:0:0:
96,112,94989,5,2,0:0:0:0:
256,112,95615,1,8,0:0:0:0:
256,272,96240,2,0,L|256:352,2,80,2|2|8,0:0|0:0|0:0,0:0:0:0:
416,272,97490,2,0,B|416:152|416:152|296:152,1,240,2|0,0:0|0:0,0:0:0:0:
216,152,98740,2,0,B|216:32|216:32|336:32,1,240,2|0,0:0|0:0,0:0:0:0:
416,32,99990,5,6,0:0:0:0:
416,272,100927,2,0,L|256:272,1,160,0|2,0:0|0:0,0:0:0:0:
176,272,101865,1,8,0:0:0:0:
176,112,102490,2,0,L|16:112,1,160,2|8,0:0|0:0,0:0:0:0:
16,192,103427,1,0,0:0:0:0:
16,352,104052,2,0,L|128:352,1,80,2|8,0:0|0:0,0:0:0:0:
256,352,104990,5,2,0:0:0:0:
256,192,105615,2,0,L|176:192,2,80,8|0|2,0:0|0:0|0:0,0:0:0:0:
416,192,106865,1,8,0:0:0:0:
416,352,107490,2,0,L|256:352,1,160,2|8,0:0|0:0,0:0:0:0:
256,272,108427,2,0,L|96:272,2,160,0|2|0,0:0|0:0|0:0,0:0:0:0:
336,272,109989,5,2,0:0:0:0:
496,272,110615,2,0,L|496:192,1,80,8|0,0:0|0:0,0:0:0:0:
496,32,111552,1,2,0:0:0:0:
416,32,111865,2,0,L|320:32,1,80,8|0,0:0|0:0,0:0:0:0:
256,32,112490,2,0,L|256:192,1,160,2|8,0:0|0:0,0:0:0:0:
176,192,113427,2,0,B|96:192|96:192|96:272,1,160,0|2,0:0|0:0,0:0:0:0:
96,352,114365,1,8,0:0:0:0:
256,352,114990,6,0,L|256:176,1,160,2|8,0:0|0:0,0:0:0:0:
256,32,116240,2,0,L|160:32,1,80,2|2,0:0|0:0,0:0:0:0:
96,32,116865,1,8,0:0:0:0:
256,192,117489,12,6,119989,0:1:0:0:
416,112,121240,6,0,L|528:112,1,80,2|2,0:0|0:0,0:0:0:0:
496,192,121865,1,8,0:0:0:0:
496,352,122490,2,0,L|336:352,2,160,2|8|2,0:0|0:0|0:0,0:0:0:0:
496,272,124052,2,0,L|400:272,1,80,2|8,0:0|0:0,0:0:0:0:
256,272,124990,6,0,L|256:112,1,160,2|8,0:0|0:0,0:0:0:0:
96,112,126240,2,0,L|16:112,2,80,2|2|8,0:0|0:0|0:0,0:0:0:0:
256,112,127490,2,0,L|416:112,2,160,2|8|2,0:0|0:0|0:0,0:0:0:0:
256,272,129365,1,8,0:0:0:0:
96,272,129990,6,0,L|96:112,1,160,2|8,0:0|0:0,0:0:0:0:
256,112,131240,1,2,0:0:0:0:
416,112,131865,1,8,0:0:0:0:
416,272,132490,2,0,L|256:272,1,160,2|8,0:0|0:0,0:0:0:0:
96,272,133740,2,0,L|16:272,1,80,2|2,0:0|0:0,0:0:0:0:
16,192,134365,1,8,0:0:0:0:
176,192,134990,6,0,L|176:32,1,160,2|8,0:0|0:0,0:0:0:0:
336,32,136240,2,0,L|336:192,1,160,2|8,0:0|0:0,0:0:0:0:
336,352,137490,2,0,L|160:352,2,160,2|8|2,0:0|0:0|0:0,0:0:0:0:
496,352,139365,2,0,L|496:272,1,80,8|0,0:0|0:0,0:0:0:0:
496,192,139990,6,0,L|320:192,1,160,6|8,0:1|0:0,0:0:0:0:
256,192,140927,2,0,L|256:112,2,80,0|2|2,0:0|0:0|0:0,0:0:0:0:
256,272,141865,1,8,0:0:0:0:
96,272,142490,2,0,L|96:112,3,160,2|8|2|8,0:0|0:0|0:0|0:0,0:0:0:0:
256,112,144990,6,0,L|256:288,1,160,2|8,0:0|0:0,0:0:0:0:
336,272,145927,2,0,B|416:272|416:272|416:192,1,160,0|2,0:0|0:0,0:0:0:0:
416,112,146865,1,8,0:0:0:0:
256,112,147490,2,0,L|96:112,3,160,2|8|2|8,0:0|0:0|0:0|0:0,0:0:0:0:
96,272,149990,5,2,0:0:0:0:
256,272,150615,2,0,L|256:352,1,80,8|0,0:0|0:0,0:0:0:0:
416,352,151552,2,0,L|416:240,1,80,2|8,0:0|0:0,0:0:0:0:
416,112,152490,2,0,L|256:112,3,160,2|8|2|8,0:0|0:0|0:0|0:0,0:0:0:0:
96,112,154990,6,0,L|96:288,1,160,2|8,0:0|0:0,0:0:0:0:
176,272,155927,2,0,L|176:352,2,80,0|2|2,0:0|0:0|0:0,0:0:0:0:
256,272,156865,1,8,0:0:0:0:
256,192,157490,12,4,159990,0:0:0:0:
