osu file format v14

[General]
AudioFilename: audio.mp3
AudioLeadIn: 0
PreviewTime: 37362
Countdown: 1
SampleSet: Soft
StackLeniency: 0.7
Mode: 0
LetterboxInBreaks: 0
WidescreenStoryboard: 1

[Editor]
Bookmarks: 3210,20353,28925,37496,46068,54639,63211,71782,88925,106068,123211,140353,157496,174639
DistanceSpacing: 0.9
BeatDivisor: 4
GridSize: 32
TimelineZoom: 1

[Metadata]
Title:Melon Soda
TitleUnicode:Melon Soda
Artist:Wisp X
ArtistUnicode:Wisp X
Creator:Free Hong Kong
Version:Normal
Source:osu!
Tags:defiance bor xootynator featured artist electronic mpg mappers' guild
BeatmapID:2168924
BeatmapSetID:1033247

[Difficulty]
HPDrainRate:3
CircleSize:3.5
OverallDifficulty:3
ApproachRate:4
SliderMultiplier:1.3
SliderTickRate:1

[Events]
//Background and Video events
0,0,"melon soda.png",0,0
//Break Periods
2,71981,87604
//Storyboard Layer 0 (Background)
//Storyboard Layer 1 (Fail)
//Storyboard Layer 2 (Pass)
//Storyboard Layer 3 (Foreground)
//Storyboard Layer 4 (Overlay)
//Storyboard Sound Samples

[TimingPoints]
3210,535.714285714286,4,2,1,40,1,0
3210,-111.111111111111,4,2,1,40,0,0
15532,-111.111111111111,4,2,1,40,0,0
19281,-100,4,2,1,40,0,0
20352,-90.9090909090909,4,2,1,100,0,0
28924,-90.9090909090909,4,2,1,80,0,0
28925,-90.9090909090909,4,2,1,80,0,0
37495,-76.9230769230769,4,2,1,90,0,0
52495,-76.9230769230769,4,2,1,75,0,0
52497,-76.9230769230769,4,2,1,75,0,0
54638,-76.9230769230769,4,2,1,100,0,0
54639,-76.9230769230769,4,2,1,100,0,0
69638,-76.9230769230769,4,2,1,85,0,0
69906,-76.9230769230769,4,2,1,100,0,0
70039,-76.9230769230769,4,2,1,85,0,0
71245,-76.9230769230769,4,2,1,100,0,0
71246,-76.9230769230769,4,2,1,100,0,0
88924,-76.9230769230769,4,2,1,65,0,0
88925,-90.9090909090909,4,2,1,65,0,0
106067,-90.9090909090909,4,2,1,85,0,0
114638,-90.9090909090909,4,2,1,100,0,0
114639,-90.9090909090909,4,2,1,100,0,0
121067,-90.9090909090909,4,2,1,60,0,0
121068,-90.9090909090909,4,2,1,60,0,0
123210,-76.9230769230769,4,2,1,100,0,0

[Colours]
Combo1 : 132,220,122
Combo2 : 243,95,95
Combo3 : 102,200,221

[HitObjects]
177,181,3210,6,0,P|198:95|80:83,1,233.999992858887,4|0,0:0|0:0,0:0:0:0:
4,182,4818,1,0,0:0:0:0:
82,283,5353,2,0,P|202:300|268:387,1,233.999992858887,2|0,0:0|0:0,0:0:0:0:
421,358,6960,2,0,P|437:326|445:292,1,58.4999982147217,2|0,0:0|0:0,0:0:0:0:
428,268,7495,6,0,L|433:141,3,116.999996429443,2|0|0|0,0:0|0:0|0:0|0:0,0:0:0:0:
502,67,9638,2,0,P|428:107|345:7,1,233.999992858887,2|0,0:0|0:0,0:0:0:0:
200,51,11245,1,2,0:0:0:0:
84,89,11781,6,0,P|41:61|6:6,2,116.999996429443,0|0|0,3:0|3:0|1:0,0:0:0:0:
118,176,13388,1,2,0:0:0:0:
104,216,13656,1,2,0:0:0:0:
66,239,13924,2,0,P|29:273|24:343,1,116.999996429443,0|0,3:0|3:0,0:0:0:0:
159,384,14995,2,0,P|196:350|201:280,1,116.999996429443,0|2,1:0|0:0,0:0:0:0:
171,249,15799,1,2,0:0:0:0:
154,207,16067,6,0,P|178:153|233:107,1,116.999996429443,4|0,0:0|1:0,0:0:0:0:
373,100,17138,2,0,P|433:62|447:13,1,116.999996429443,8|2,0:0|0:0,0:0:0:0:
293,38,18210,2,0,L|260:29,2,29.2499991073609,0|2|0,1:0|0:0|0:0,0:0:0:0:
243,106,18745,2,0,L|205:121,2,29.2499991073609,0|0|0,1:0|0:0|0:0,0:0:0:0:
275,181,19281,2,0,L|323:190,2,32.5,0|0|2,3:0|0:0|0:0,0:0:0:0:
267,262,19817,2,0,L|295:299,2,32.5,2|0|2,1:0|0:0|0:0,0:0:0:0:
186,240,20352,6,0,P|150:272|150:336,1,107.25000327301,4|0,1:0|0:0,0:0:0:0:
138,344,20888,2,0,L|45:355,1,71.5000021820069,0|0,1:0|3:0,0:0:0:0:
1,234,21558,2,0,L|17:135,1,71.5000021820069,2|2,0:0|0:0,0:0:0:0:
34,149,21960,2,0,L|32:73,1,71.5000021820069,8|4,0:0|3:0,0:0:0:0:
80,12,22495,6,0,P|123:50|183:64,1,107.25000327301,4|0,1:0|0:0,0:0:0:0:
188,54,23031,2,0,L|267:43,1,71.5000021820069,8|0,0:0|3:0,0:0:0:0:
400,10,23701,2,0,P|420:58|399:90,1,71.5000021820069,2|2,0:0|0:0,0:0:0:0:
396,88,24102,2,0,P|376:136|397:168,1,71.5000021820069,8|0,0:0|3:0,0:0:0:0:
492,239,24638,6,0,L|361:241,1,107.25000327301,4|0,1:2|0:0,0:0:0:0:
365,246,25174,2,0,P|345:290|353:341,1,71.5000021820069,8|0,0:0|3:0,0:0:0:0:
501,370,25843,2,0,L|508:284,1,71.5000021820069,2|2,0:0|0:0,0:0:0:0:
496,286,26245,2,0,L|484:210,1,71.5000021820069,8|0,0:0|3:0,0:0:0:0:
436,92,26781,6,0,P|398:54|317:61,1,107.25000327301,4|0,0:0|0:0,0:0:0:0:
334,58,27317,2,0,L|235:55,1,71.5000021820069,8|0,0:0|3:0,0:0:0:0:
121,110,28120,1,0,0:0:0:0:
45,97,28388,2,0,P|26:66|27:26,1,71.5000021820069,10|0,0:0|3:0,0:0:0:0:
104,0,28924,5,4,1:0:0:0:
61,133,29460,1,8,0:0:0:0:
211,91,29995,1,0,0:0:0:0:
195,228,30531,1,8,0:0:0:0:
102,353,31067,5,4,0:0:0:0:
7,235,31602,1,8,0:0:0:0:
175,279,32138,1,0,0:0:0:0:
139,122,32674,1,8,0:0:0:0:
294,269,33210,6,0,L|373:290,1,71.5000021820069,4|0,0:0|0:0,0:0:0:0:
389,321,33745,2,0,L|468:342,1,71.5000021820069,8|2,0:0|0:0,0:0:0:0:
497,316,34281,6,0,L|476:237,1,71.5000021820069
445,221,34817,2,0,L|424:142,1,71.5000021820069,8|0,0:0|3:0,0:0:0:0:
446,109,35352,5,4,0:0:0:0:
446,109,35888,1,8,0:0:0:0:
446,109,36424,1,2,0:0:0:0:
340,19,37495,6,0,P|284:43|281:118,1,126.749994197846,4|4,1:0|3:0,0:0:0:0:
286,117,38031,2,0,L|274:209,1,84.4999961318971,8|2,0:0|1:0,0:0:0:0:
274,284,38567,2,0,P|219:325|136:328,1,126.749994197846,2|2,3:2|0:0,0:0:0:0:
142,315,39102,1,8,0:0:0:0:
80,272,39370,1,2,3:2:0:0:
6,288,39638,6,0,P|-13:232|35:168,1,126.749994197846,4|4,1:0|3:0,0:0:0:0:
44,169,40174,2,0,L|63:85,1,84.4999961318971,8|2,0:0|1:0,0:0:0:0:
79,9,40710,2,0,P|115:65|183:91,1,126.749994197846,2|2,3:2|0:0,0:0:0:0:
191,82,41245,1,8,0:0:0:0:
267,73,41513,1,2,3:2:0:0:
330,121,41781,6,0,P|386:90|417:27,1,126.749994197846,4|4,1:0|3:0,0:0:0:0:
404,17,42317,2,0,L|495:6,1,84.4999961318971,8|2,0:0|1:0,0:0:0:0:
511,83,42852,2,0,P|468:137|461:205,1,126.749994197846,2|2,3:2|0:0,0:0:0:0:
471,211,43388,1,8,0:0:0:0:
470,291,43656,1,2,3:2:0:0:
405,339,43924,6,0,L|271:348,1,126.749994197846,4|4,1:0|3:0,0:0:0:0:
255,358,44460,2,0,P|232:327|236:266,1,84.4999961318971,8|2,0:0|1:0,0:0:0:0:
288,227,44995,1,2,3:2:0:0:
254,157,45263,1,2,0:0:0:0:
176,161,45531,1,10,1:2:0:0:
22,130,46067,6,0,P|64:78|71:14,1,126.749994197846,4|4,1:0|3:0,0:0:0:0:
60,6,46602,2,0,L|161:-2,1,84.4999961318971,8|2,0:0|1:0,0:0:0:0:
237,45,47138,2,0,P|261:118|309:153,1,126.749994197846,2|2,3:2|0:0,0:0:0:0:
325,148,47674,1,8,0:0:0:0:
407,155,47942,1,2,3:2:0:0:
476,222,48210,6,0,P|474:283|425:339,1,126.749994197846,4|4,1:0|3:0,0:0:0:0:
412,333,48745,2,0,L|346:253,1,84.4999961318971,8|2,0:0|1:0,0:0:0:0:
274,237,49281,2,0,P|227:284|144:298,1,126.749994197846,2|2,3:2|0:0,0:0:0:0:
150,292,49817,1,8,0:0:0:0:
73,310,50085,1,2,3:2:0:0:
40,384,50352,6,0,L|59:249,1,126.749994197846,4|4,1:0|3:0,0:0:0:0:
47,244,50888,2,0,P|64:203|101:176,1,84.4999961318971,8|2,0:0|1:0,0:0:0:0:
182,205,51424,2,0,L|322:223,1,126.749994197846,2|2,3:2|0:0,0:0:0:0:
332,216,51960,1,8,0:0:0:0:
381,153,52227,1,2,3:2:0:0:
374,73,52495,6,0,P|412:44|496:43,2,126.749994197846,4|4|2,1:0|3:0|1:0,0:0:0:0:
283,114,53567,1,2,3:2:0:0:
235,80,53835,1,2,0:0:0:0:
217,27,54102,1,10,1:2:0:0:
217,27,54638,6,0,P|178:103|113:116,1,126.749994197846,4|0,1:0|0:0,0:0:0:0:
116,113,55174,2,0,P|38:153|139:245,1,253.499988395691,10|0,0:0|0:0,0:0:0:0:
199,259,56245,1,10,0:0:0:0:
262,306,56513,1,2,0:0:0:0:
309,376,56781,6,0,P|385:370|430:328,2,126.749994197846,4|2|0,3:0|0:0|3:0,0:0:0:0:
253,312,57852,1,2,1:0:0:0:
389,176,58388,2,0,L|481:183,1,84.4999961318971,8|2,0:0|0:0,0:0:0:0:
512,114,58924,6,0,P|449:90|394:43,1,126.749994197846,4|0,1:0|0:0,0:0:0:0:
395,32,59460,2,0,P|324:28|260:185,1,253.499988395691,10|0,0:0|0:0,0:0:0:0:
216,244,60531,1,10,0:0:0:0:
148,287,60799,1,2,0:0:0:0:
70,263,61067,6,0,P|26:210|19:143,2,126.749994197846,4|2|0,3:0|0:0|3:0,0:0:0:0:
152,294,62138,1,2,1:0:0:0:
337,359,62674,2,0,L|424:337,1,84.4999961318971,8|2,0:0|0:0,0:0:0:0:
501,343,63210,6,0,P|403:327|367:297,1,126.749994197846,4|0,1:0|0:0,0:0:0:0:
365,285,63745,2,0,B|336:279|282:283|258:318|252:323|246:328|225:366|174:369|109:363,1,253.499988395691,10|0,0:0|0:0,0:0:0:0:
65,323,64817,1,10,0:0:0:0:
25,252,65085,1,2,0:0:0:0:
51,177,65352,6,0,P|77:123|78:52,2,126.749994197846,4|2|0,3:0|0:0|3:0,0:0:0:0:
4,246,66424,1,2,1:0:0:0:
187,384,66960,2,0,P|247:360|279:318,1,84.4999961318971,8|2,0:0|0:0,0:0:0:0:
269,269,67495,6,0,P|314:212|379:191,1,126.749994197846,4|0,1:0|0:0,0:0:0:0:
390,200,68031,2,0,P|458:148|378:36,1,253.499988395691,10|0,0:0|0:0,0:0:0:0:
306,74,69102,1,10,0:0:0:0:
228,58,69370,1,2,0:0:0:0:
165,2,69638,6,0,P|118:43|86:118,2,126.749994197846,4|0|2,0:1|3:0|0:0,0:0:0:0:
235,44,70710,1,0,0:0:0:0:
152,195,71245,1,8,0:0:0:0:
117,233,71513,1,8,0:0:0:0:
64,253,71781,5,0,1:0:0:0:
341,295,88924,5,2,0:0:0:0:
504,251,89460,1,0,0:0:0:0:
415,112,89995,2,0,P|423:53|442:32,2,71.5000021820069,2|2|8,0:0|0:0|0:0,0:0:0:0:
298,137,91067,5,2,0:0:0:0:
162,46,91602,1,0,0:0:0:0:
82,181,92138,2,0,P|29:207|-1:212,2,71.5000021820069,2|2|8,0:0|0:0|0:0,0:0:0:0:
107,231,92942,1,2,0:0:0:0:
92,284,93210,5,2,0:0:0:0:
253,370,93745,1,0,0:0:0:0:
221,223,94281,2,0,P|226:171|253:130,2,71.5000021820069,2|2|8,0:0|0:0|0:0,0:0:0:0:
326,228,95352,5,2,0:0:0:0:
503,207,95888,1,0,0:0:0:0:
381,377,96424,2,0,P|320:336|306:317,1,71.5000021820069,2|2,0:0|0:0,0:0:0:0:
250,306,96960,2,0,P|214:346|172:370,1,71.5000021820069,8|2,0:0|0:0,0:0:0:0:
120,380,97495,5,2,0:0:0:0:
4,205,98031,1,0,0:0:0:0:
176,216,98567,2,0,P|222:190|247:151,2,71.5000021820069,2|2|8,0:0|0:0|0:0,0:0:0:0:
21,169,99638,5,2,0:0:0:0:
150,21,100174,1,0,0:0:0:0:
213,185,100710,2,0,P|268:197|294:198,2,71.5000021820069,2|2|8,0:0|0:0|0:0,0:0:0:0:
176,228,101513,1,2,0:0:0:0:
174,284,101781,5,0,3:0:0:0:
320,384,102317,1,0,0:0:0:0:
462,286,102852,2,0,P|476:231|483:216,2,71.5000021820069,8|2|8,0:0|0:0|0:0,0:0:0:0:
505,325,103656,1,0,0:0:0:0:
494,376,103924,5,0,0:0:0:0:
329,364,104460,1,0,0:0:0:0:
422,205,104995,2,0,P|446:149|449:121,1,71.5000021820069,8|2,0:0|0:0,0:0:0:0:
377,88,105531,2,0,P|370:35|385:3,1,71.5000021820069,8|10,0:0|0:0,0:0:0:0:
491,22,106067,6,0,P|438:127|346:115,1,214.500006546021,4|2,1:0|0:0,0:0:0:0:
245,15,107272,1,2,0:0:0:0:
93,27,107674,2,0,P|64:50|32:104,1,71.5000021820069,2|8,1:0|0:0,0:0:0:0:
87,149,108210,6,0,L|88:273,1,107.25000327301,4|0,1:0|1:0,0:0:0:0:
221,226,109013,2,0,L|222:350,1,107.25000327301,0|0,1:0|1:0,0:0:0:0:
57,374,109817,2,0,P|22:339|4:305,1,71.5000021820069,8|4,0:0|3:0,0:0:0:0:
12,237,110352,6,0,P|93:189|134:184,1,107.25000327301,4|0,1:0|1:0,0:0:0:0:
248,259,111156,2,0,P|294:323|340:347,1,107.25000327301,0|0,1:0|1:0,0:0:0:0:
478,300,111960,2,0,P|492:255|488:216,1,71.5000021820069,8|4,0:0|3:0,0:0:0:0:
440,168,112495,5,4,1:0:0:0:
256,132,112897,2,0,P|216:82|209:41,2,107.25000327301,0|10|0,1:0|0:0|1:0,0:0:0:0:
407,93,114102,2,0,P|428:44|432:18,1,71.5000021820069,8|4,0:0|3:0,0:0:0:0:
353,3,114638,5,4,1:0:0:0:
276,144,115040,1,2,0:0:0:0:
130,46,115442,2,0,L|3:15,2,107.25000327301,0|2|10,1:0|0:0|0:0,0:0:0:0:
143,93,116513,1,4,3:0:0:0:
117,135,116781,6,0,P|54:168|23:212,1,107.25000327301,4|0,1:0|1:0,0:0:0:0:
124,318,117585,2,0,P|187:285|218:241,2,107.25000327301,0|0|8,1:0|1:0|0:0,0:0:0:0:
89,354,118656,1,0,1:0:0:0:
35,364,118924,6,0,P|10:299|14:238,1,107.25000327301,4|2,0:0|0:0,0:0:0:0:
169,224,119727,2,0,P|194:289|190:350,2,107.25000327301,0|0|2,1:0|1:0|0:0,0:0:0:0:
132,189,120799,1,2,0:0:0:0:
125,137,121067,6,0,P|156:101|227:83,1,107.25000327301,8|8,0:0|0:0,0:0:0:0:
359,131,121870,1,10,0:0:0:0:
491,27,123210,6,0,P|479:89|423:146,1,126.749994197846,4|4,1:0|3:0,0:0:0:0:
416,142,123745,2,0,P|394:193|387:230,1,84.4999961318971,8|2,0:0|1:0,0:0:0:0:
413,299,124281,2,0,P|371:348|306:350,1,126.749994197846,2|2,3:2|0:0,0:0:0:0:
288,337,124817,1,8,0:0:0:0:
214,306,125085,1,2,3:2:0:0:
154,359,125352,6,0,P|75:372|28:329,1,126.749994197846,4|4,1:0|3:0,0:0:0:0:
45,331,125888,2,0,L|27:240,1,84.4999961318971,8|2,0:0|1:0,0:0:0:0:
82,172,126424,2,0,P|119:136|132:62,1,126.749994197846,2|2,3:2|0:0,0:0:0:0:
118,50,126960,1,8,0:0:0:0:
180,0,127227,1,2,3:2:0:0:
254,34,127495,6,0,P|313:50|397:56,1,126.749994197846,4|4,1:0|3:0,0:0:0:0:
400,46,128031,2,0,P|432:84|426:135,1,84.4999961318971,8|2,0:0|1:0,0:0:0:0:
383,192,128567,2,0,L|248:217,1,126.749994197846,2|2,3:2|0:0,0:0:0:0:
241,232,129102,1,8,0:0:0:0:
223,308,129370,1,2,3:2:0:0:
283,363,129638,6,0,P|346:356|401:319,1,126.749994197846,4|4,1:0|3:0,0:0:0:0:
405,303,130174,2,0,L|405:209,1,84.4999961318971,8|2,0:0|1:0,0:0:0:0:
437,144,130710,2,0,L|521:124,1,84.4999961318971,2|2,3:2|0:0,0:0:0:0:
478,54,131245,2,0,L|379:33,1,84.4999961318971,10|2,1:2|1:0,0:0:0:0:
315,3,131781,6,0,P|302:82|239:120,1,126.749994197846,4|4,1:0|3:0,0:0:0:0:
251,103,132317,2,0,L|150:110,1,84.4999961318971,8|2,0:0|1:0,0:0:0:0:
91,150,132852,2,0,P|35:110|15:48,1,126.749994197846,2|2,3:2|0:0,0:0:0:0:
26,43,133388,1,8,0:0:0:0:
99,7,133656,1,2,3:2:0:0:
177,17,133924,6,0,P|246:48|293:86,1,126.749994197846,4|4,1:0|3:0,0:0:0:0:
284,101,134460,2,0,P|290:148|314:193,1,84.4999961318971,8|2,0:0|1:0,0:0:0:0:
366,237,134995,2,0,P|442:237|485:189,1,126.749994197846,2|2,3:2|0:0,0:0:0:0:
478,187,135531,1,8,0:0:0:0:
463,102,135799,1,2,3:2:0:0:
393,48,136067,6,0,P|358:103|338:172,1,126.749994197846,4|4,1:0|3:0,0:0:0:0:
352,182,136602,2,0,P|351:223|326:268,1,84.4999961318971,8|2,0:0|1:0,0:0:0:0:
263,307,137138,2,0,L|107:322,1,126.749994197846,2|2,3:2|0:0,0:0:0:0:
112,323,137674,1,8,0:0:0:0:
48,277,137942,1,2,3:2:0:0:
21,197,138210,6,0,P|50:150|115:110,2,126.749994197846,4|4|2,1:0|3:0|1:0,0:0:0:0:
60,269,139281,1,2,3:2:0:0:
265,371,140352,6,0,P|320:312|334:258,1,126.749994197846,4|0,1:0|0:0,0:0:0:0:
318,246,140888,2,0,P|322:182|480:177,1,253.499988395691,10|0,0:0|0:0,0:0:0:0:
484,249,141960,1,10,0:0:0:0:
439,316,142227,1,2,0:0:0:0:
364,345,142495,6,0,P|312:352|227:383,2,126.749994197846,4|2|0,3:0|0:0|3:0,0:0:0:0:
450,327,143567,1,2,1:0:0:0:
512,174,144102,2,0,P|512:113|494:86,1,84.4999961318971,8|2,0:0|0:0,0:0:0:0:
427,51,144638,6,0,P|369:86|278:92,1,126.749994197846,4|0,1:0|0:0,0:0:0:0:
296,80,145174,2,0,P|198:79|168:228,1,253.499988395691,10|0,0:0|0:0,0:0:0:0:
174,287,146245,1,10,0:0:0:0:
117,347,146513,1,2,0:0:0:0:
39,338,146781,6,0,P|13:284|12:200,2,126.749994197846,4|2|0,3:0|0:0|3:0,0:0:0:0:
119,359,147852,1,2,1:0:0:0:
214,184,148388,2,0,P|170:167|130:138,1,84.4999961318971,8|2,0:0|0:0,0:0:0:0:
89,76,148924,6,0,P|151:19|211:20,1,126.749994197846,4|0,1:0|0:0,0:0:0:0:
208,34,149460,2,0,B|249:63|285:62|320:36|326:34|332:30|371:8|426:5|462:23,1,253.499988395691,10|0,0:0|0:0,0:0:0:0:
508,77,150531,1,10,0:0:0:0:
488,154,150799,1,2,0:0:0:0:
426,207,151067,6,0,P|400:271|408:348,2,126.749994197846,4|2|0,3:0|0:0|3:0,0:0:0:0:
500,163,152138,1,2,1:0:0:0:
512,350,152674,2,0,P|459:379|411:386,1,84.4999961318971,8|2,0:0|0:0,0:0:0:0:
352,355,153210,6,0,P|321:295|304:216,1,126.749994197846,4|0,1:0|0:0,0:0:0:0:
327,217,153745,2,0,P|330:140|168:134,1,253.499988395691,10|0,0:0|0:0,0:0:0:0:
142,176,154817,1,10,0:0:0:0:
69,205,155085,1,2,0:0:0:0:
5,153,155352,6,0,P|18:92|83:52,2,126.749994197846,4|0|2,0:1|3:0|0:0,0:0:0:0:
77,274,156558,2,0,P|50:336|27:355,1,84.4999961318971,2|2,0:0|0:0,0:0:0:0:
22,360,156960,2,0,L|110:378,1,84.4999961318971,8|8,0:0|0:0,0:0:0:0:
178,344,157495,5,0,1:0:0:0:
