osu file format v14

[General]
AudioFilename: audio.mp3
AudioLeadIn: 0
PreviewTime: 37362
Countdown: 1
SampleSet: Soft
StackLeniency: 0.7
Mode: 0
LetterboxInBreaks: 0
WidescreenStoryboard: 0

[Editor]
Bookmarks: 3210,20353,28925,37496,46068,54639,63211,71782,88925,106068,123211,140353,157496,174639
DistanceSpacing: 0.8
BeatDivisor: 4
GridSize: 32
TimelineZoom: 1

[Metadata]
Title:Melon Soda
TitleUnicode:Melon Soda
Artist:Wisp X
ArtistUnicode:Wisp X
Creator:Free Hong Kong
Version:Insane
Source:osu!
Tags:defiance bor xootynator featured artist electronic mpg mappers' guild
BeatmapID:2160326
BeatmapSetID:1033247

[Difficulty]
HPDrainRate:5
CircleSize:4
OverallDifficulty:8
ApproachRate:9
SliderMultiplier:1.8
SliderTickRate:1

[Events]
//Background and Video events
0,0,"melon soda.png",0,0
//Break Periods
2,71980,88324
//Storyboard Layer 0 (Background)
//Storyboard Layer 1 (Fail)
//Storyboard Layer 2 (Pass)
//Storyboard Layer 3 (Foreground)
//Storyboard Layer 4 (Overlay)
//Storyboard Sound Samples

[TimingPoints]
3210,535.714285714286,4,2,1,40,1,0
3210,-166.666666666667,4,2,1,40,0,0
15531,-142.857142857143,4,2,1,40,0,0
18343,-125,4,2,1,40,0,0
19281,-111.111111111111,4,2,1,40,0,0
19817,-100,4,2,1,40,0,0
20353,-83.3333333333333,4,2,1,100,0,0
28925,-83.3333333333333,4,2,1,80,0,0
37496,-83.3333333333333,4,2,1,90,0,0
52497,-83.3333333333333,4,2,1,75,0,0
54639,-66.6666666666667,4,2,1,100,0,0
69639,-66.6666666666667,4,2,1,85,0,0
69906,-66.6666666666667,4,2,1,100,0,0
70041,-66.6666666666667,4,2,1,85,0,0
71245,-83.3333333333333,4,2,1,100,0,0
88925,-100,4,2,1,65,0,0
106068,-100,4,2,1,85,0,0
114638,-76.9230769230769,4,2,1,100,0,0
121068,-76.9230769230769,4,2,1,60,0,0
123211,-62.5,4,2,1,100,0,0

[Colours]
Combo1 : 132,220,122
Combo2 : 243,95,95
Combo3 : 102,200,221

[HitObjects]
256,192,3210,5,4,0:0:0:0:
430,51,3745,2,0,L|455:160,2,107.999996704102,2|0|0,0:0|0:0|0:0,0:0:0:0:
337,226,5352,2,0,L|454:243,2,107.999996704102,2|0|0,0:0|0:0|0:0,0:0:0:0:
200,369,6960,1,2,0:0:0:0:
136,312,7227,1,0,0:0:0:0:
130,226,7495,6,0,L|125:115,3,107.999996704102,2|0|0|0,0:0|0:0|0:0|0:0,0:0:0:0:
242,50,9638,2,0,L|362:23,2,107.999996704102,2|0|0,0:0|0:0|0:0,0:0:0:0:
37,31,11245,1,2,0:0:0:0:
37,31,11781,5,0,3:0:0:0:
29,70,11915,2,0,L|20:143,1,53.9999983520508,2|0,0:0|0:0,0:0:0:0:
157,126,12317,2,0,L|147:9,1,107.999996704102,0|0,3:0|1:0,0:0:0:0:
292,138,13254,1,2,0:0:0:0:
303,104,13388,2,0,L|319:60,1,26.9999991760254,2|0,0:0|0:0,0:0:0:0:
388,173,13656,2,0,L|364:212,1,26.9999991760254,2|0,0:0|0:0,0:0:0:0:
480,127,13924,5,0,3:0:0:0:
491,166,14058,2,0,L|498:236,1,53.9999983520508,2|0,0:0|0:0,0:0:0:0:
408,267,14460,2,0,L|337:172,1,107.999996704102,0|0,3:0|1:0,0:0:0:0:
288,350,15397,1,0,0:0:0:0:
252,361,15531,2,0,L|201:375,1,31.4999990386963,2|0,0:0|0:0,0:0:0:0:
156,295,15799,2,0,L|186:286,1,31.4999990386963,2|0,0:0|0:0,0:0:0:0:
186,183,16067,5,4,0:0:0:0:
154,194,16201,2,0,L|85:212,1,62.9999980773926,2|0,0:0|0:0,0:0:0:0:
17,151,16602,2,0,L|52:72,1,62.9999980773926,0|0,1:0|0:0,0:0:0:0:
73,72,17004,2,0,L|72:29,1,31.4999990386963,0|8,3:0|0:0,0:0:0:0:
219,154,17406,1,0,0:0:0:0:
219,154,17540,1,2,0:0:0:0:
219,154,17674,2,0,L|201:205,1,31.4999990386963,2|0,0:0|0:0,0:0:0:0:
264,255,17942,2,0,L|297:211,1,31.4999990386963,2|0,0:0|0:0,0:0:0:0:
328,328,18210,5,0,1:0:0:0:
376,343,18343,2,0,L|474:356,1,72,2|0,0:0|0:0,0:0:0:0:
494,249,18745,2,0,L|437:253,1,36,0|0,1:0|0:0,0:0:0:0:
394,217,19013,2,0,L|337:221,1,36
497,159,19281,2,0,L|448:153,1,40.4999987640381,0|0,3:0|0:0,0:0:0:0:
386,116,19549,1,2,0:0:0:0:
347,109,19683,1,2,0:0:0:0:
380,18,19817,2,0,L|314:38,1,45,2|0,1:0|0:0,0:0:0:0:
268,100,20085,2,0,L|202:120,1,45,2|0,0:0|0:0,0:0:0:0:
92,21,20352,5,4,1:0:0:0:
84,67,20486,2,0,L|66:181,1,107.999996704102,2|0,0:0|0:0,0:0:0:0:
179,229,20888,2,0,L|188:170,1,53.9999983520508,0|0,1:0|0:0,0:0:0:0:
92,75,21156,2,0,L|83:128,1,53.9999983520508,0|0,3:0|0:0,0:0:0:0:
193,242,21424,1,0,3:0:0:0:
193,242,21558,2,0,L|202:183,1,53.9999983520508,2|0,0:0|0:0,0:0:0:0:
77,323,21826,1,2,0:0:0:0:
117,338,21960,2,0,L|199:349,1,53.9999983520508,8|0,0:0|0:0,0:0:0:0:
267,316,22227,2,0,L|349:305,1,53.9999983520508,4|0,3:0|0:0,0:0:0:0:
450,358,22495,5,4,1:0:0:0:
405,347,22629,2,0,P|363:312|356:252,1,107.999996704102,2|0,0:0|0:0,0:0:0:0:
485,189,23031,2,0,P|504:214|516:266,1,53.9999983520508,8|0,0:0|0:0,0:0:0:0:
381,340,23299,2,0,P|359:315|345:263,1,53.9999983520508,0|0,3:0|0:0,0:0:0:0:
479,194,23567,1,0,3:0:0:0:
479,194,23701,2,0,P|498:219|510:271,1,53.9999983520508,2|0,0:0|0:0,0:0:0:0:
297,157,23968,1,2,0:0:0:0:
337,130,24102,2,0,L|409:88,1,53.9999983520508,8|0,0:0|0:0,0:0:0:0:
356,0,24370,2,0,L|309:27,1,53.9999983520508,0|0,3:0|0:0,0:0:0:0:
153,107,24638,5,4,1:2:0:0:
108,103,24772,2,0,P|50:66|29:21,1,107.999996704102,2|0,0:0|0:0,0:0:0:0:
260,105,25174,2,0,P|273:136|277:182,1,53.9999983520508,8|0,0:0|0:0,0:0:0:0:
74,116,25442,2,0,P|45:97|16:61,1,53.9999983520508,0|0,3:0|0:0,0:0:0:0:
278,98,25710,1,0,3:0:0:0:
278,98,25843,2,0,P|291:129|295:175,1,53.9999983520508,2|0,0:0|0:0,0:0:0:0:
179,239,26111,1,2,0:0:0:0:
140,254,26245,2,0,L|78:275,1,53.9999983520508,8|0,0:0|0:0,0:0:0:0:
0,384,26513,2,0,L|51:366,1,53.9999983520508,0|0,3:0|0:0,0:0:0:0:
231,304,26781,5,4,0:0:0:0:
263,334,26915,2,0,P|323:365|375:363,1,107.999996704102,2|0,0:0|0:0,0:0:0:0:
409,264,27317,2,0,L|387:203,1,53.9999983520508,8|0,0:0|0:0,0:0:0:0:
269,354,27585,2,0,P|292:368|337:376,1,53.9999983520508,0|0,3:0|0:0,0:0:0:0:
436,263,27852,1,0,3:0:0:0:
436,263,27986,2,0,L|414:202,1,53.9999983520508,2|0,0:0|0:0,0:0:0:0:
456,108,28254,1,2,0:0:0:0:
464,19,28388,2,0,L|375:3,1,53.9999983520508,10|0,0:0|0:0,0:0:0:0:
310,126,28656,2,0,L|257:143,1,53.9999983520508,0|0,3:0|0:0,0:0:0:0:
142,181,28924,5,4,1:0:0:0:
131,107,29058,2,0,L|116:-13,1,107.999996704102,2|0,0:0|0:0,0:0:0:0:
18,114,29460,2,0,L|30:41,1,53.9999983520508,8|0,0:0|0:0,0:0:0:0:
60,200,29727,1,2,0:0:0:0:
65,234,29861,2,0,L|74:318,1,53.9999983520508,2|0,0:0|0:0,0:0:0:0:
189,274,30129,2,0,L|176:352,1,53.9999983520508,0|0,3:0|0:0,0:0:0:0:
59,378,30397,1,2,0:0:0:0:
151,343,30531,2,0,L|147:258,1,53.9999983520508,8|0,0:0|0:0,0:0:0:0:
143,202,30799,2,0,L|145:255,1,53.9999983520508,2|0,0:0|0:0,0:0:0:0:
239,360,31067,5,4,0:0:0:0:
309,384,31201,2,0,L|440:335,1,107.999996704102,2|0,0:0|0:0,0:0:0:0:
479,207,31602,2,0,L|398:242,1,53.9999983520508,8|0,0:0|0:0,0:0:0:0:
279,204,31870,1,2,0:0:0:0:
244,220,32004,2,0,L|163:255,1,53.9999983520508,2|0,0:0|0:0,0:0:0:0:
61,181,32272,2,0,L|110:159,1,53.9999983520508,0|0,3:0|0:0,0:0:0:0:
184,55,32540,1,2,0:0:0:0:
78,11,32674,2,0,P|59:38|47:101,1,53.9999983520508,8|0,0:0|0:0,0:0:0:0:
143,118,32942,2,0,P|162:91|174:28,1,53.9999983520508,2|0,0:0|0:0,0:0:0:0:
22,74,33210,5,4,0:0:0:0:
0,164,33343,2,0,L|122:183,1,107.999996704102,2|0,0:0|0:0,0:0:0:0:
273,122,33745,2,0,L|170:131,1,53.9999983520508,8|0,0:0|0:0,0:0:0:0:
171,247,34013,1,2,0:0:0:0:
203,272,34147,2,0,L|278:261,1,53.9999983520508,2|0,0:0|0:0,0:0:0:0:
384,195,34415,2,0,L|403:93,1,53.9999983520508,0|0,3:0|0:0,0:0:0:0:
480,232,34683,1,2,0:0:0:0:
403,302,34817,2,0,L|383:383,1,53.9999983520508,8|0,0:0|0:0,0:0:0:0:
246,329,35085,2,0,L|226:410,1,53.9999983520508,0|0,3:0|0:0,0:0:0:0:
54,333,35352,5,4,0:0:0:0:
41,249,35486,2,0,P|78:188|141:132,1,107.999996704102,2|0,0:0|0:0,0:0:0:0:
189,152,35888,2,0,L|247:164,1,53.9999983520508,8|0,0:0|0:0,0:0:0:0:
286,142,36156,2,0,L|350:154,1,53.9999983520508,8|0,0:0|0:0,0:0:0:0:
235,80,36424,2,0,L|293:92,1,53.9999983520508,2|0,0:0|0:0,0:0:0:0:
308,73,36692,2,0,L|372:85,1,53.9999983520508,2|2,0:0|0:0,0:0:0:0:
269,10,36960,1,2,0:1:0:0:
457,47,37227,1,8,0:0:0:0:
457,47,37361,1,8,0:0:0:0:
457,47,37495,5,4,1:0:0:0:
488,131,37629,2,0,L|500:244,1,107.999996704102,2|4,1:0|3:0,0:0:0:0:
506,282,38031,1,8,0:0:0:0:
350,369,38299,2,0,P|343:341|371:318,1,53.9999983520508,2|0,1:0|0:0,0:0:0:0:
424,359,38567,1,2,3:2:0:0:
308,340,38701,2,0,L|182:362,1,107.999996704102,2|2,3:2|0:0,0:0:0:0:
72,292,39102,2,0,L|60:216,1,53.9999983520508,8|0,0:0|0:0,0:0:0:0:
177,333,39370,2,0,L|158:394,1,53.9999983520508,2|0,3:2|0:0,0:0:0:0:
26,249,39638,5,4,1:0:0:0:
26,249,39772,2,0,L|52:131,1,107.999996704102,2|4,1:0|3:0,0:0:0:0:
60,99,40174,1,8,0:0:0:0:
212,61,40442,2,0,P|229:38|220:13,1,53.9999983520508,2|0,1:0|0:0,0:0:0:0:
151,23,40710,1,2,3:2:0:0:
271,53,40843,2,0,L|389:29,1,107.999996704102,2|2,3:2|0:0,0:0:0:0:
501,106,41245,2,0,L|470:179,1,53.9999983520508,8|0,0:0|0:0,0:0:0:0:
399,52,41513,2,0,L|418:-20,1,53.9999983520508,2|0,3:2|0:0,0:0:0:0:
474,123,41781,5,4,1:0:0:0:
474,123,41915,2,0,L|334:140,1,107.999996704102,2|4,1:0|3:0,0:0:0:0:
324,140,42317,1,8,0:0:0:0:
221,282,42585,2,0,P|195:262|208:230,1,53.9999983520508,2|0,1:0|0:0,0:0:0:0:
270,227,42852,1,2,3:2:0:0:
283,331,42986,2,0,P|232:361|157:331,1,107.999996704102,2|2,3:2|0:0,0:0:0:0:
43,269,43388,2,0,P|18:292|6:339,1,53.9999983520508,8|0,0:0|0:0,0:0:0:0:
80,368,43656,2,0,P|104:344|116:297,1,53.9999983520508,2|0,3:2|0:0,0:0:0:0:
93,197,43924,5,4,1:0:0:0:
93,197,44058,2,0,P|74:138|34:68,1,107.999996704102,2|4,1:0|3:0,0:0:0:0:
22,68,44460,1,8,0:0:0:0:
220,19,44727,2,0,P|228:47|192:71,1,53.9999983520508,2|0,1:0|0:0,0:0:0:0:
148,36,44995,1,2,3:2:0:0:
192,43,45129,1,2,0:0:0:0:
258,96,45263,1,2,0:0:0:0:
302,89,45397,1,2,1:0:0:0:
377,30,45531,2,0,L|387:93,1,53.9999983520508,10|0,1:2|0:0,0:0:0:0:
476,129,45799,2,0,L|485:76,1,53.9999983520508,2|0,1:0|0:0,0:0:0:0:
488,253,46067,5,4,1:0:0:0:
488,253,46201,2,0,L|500:140,1,107.999996704102,2|4,1:0|3:0,0:0:0:0:
506,102,46602,1,8,0:0:0:0:
350,15,46870,2,0,P|343:43|371:66,1,53.9999983520508,2|0,1:0|0:0,0:0:0:0:
424,25,47138,1,2,3:2:0:0:
309,43,47272,2,0,L|183:21,1,107.999996704102,2|2,3:2|0:0,0:0:0:0:
72,92,47674,2,0,L|60:168,1,53.9999983520508,8|0,0:0|0:0,0:0:0:0:
177,51,47942,2,0,L|158:-10,1,53.9999983520508,2|0,3:2|0:0,0:0:0:0:
26,135,48210,5,4,1:0:0:0:
26,135,48343,2,0,L|52:253,1,107.999996704102,2|4,1:0|3:0,0:0:0:0:
60,285,48745,1,8,0:0:0:0:
212,323,49013,2,0,P|229:346|220:371,1,53.9999983520508,2|0,1:0|0:0,0:0:0:0:
151,361,49281,1,2,3:2:0:0:
271,331,49415,2,0,L|389:355,1,107.999996704102,2|2,3:2|0:0,0:0:0:0:
501,278,49817,2,0,L|470:205,1,53.9999983520508,8|0,0:0|0:0,0:0:0:0:
399,332,50085,2,0,L|418:404,1,53.9999983520508,2|0,3:2|0:0,0:0:0:0:
474,261,50352,5,4,1:0:0:0:
474,261,50486,2,0,L|334:244,1,107.999996704102,2|4,1:0|3:0,0:0:0:0:
324,244,50888,1,8,0:0:0:0:
221,102,51156,2,0,P|195:122|208:154,1,53.9999983520508,2|0,1:0|0:0,0:0:0:0:
270,157,51424,1,2,3:2:0:0:
283,53,51558,2,0,P|232:23|157:53,1,107.999996704102,2|2,3:2|0:0,0:0:0:0:
43,115,51960,2,0,P|18:92|6:45,1,53.9999983520508,8|0,0:0|0:0,0:0:0:0:
80,16,52227,2,0,P|104:40|116:87,1,53.9999983520508,2|0,3:2|0:0,0:0:0:0:
93,187,52495,5,4,1:0:0:0:
93,187,52629,2,0,P|74:246|34:316,1,107.999996704102,2|4,1:0|3:0,0:0:0:0:
22,316,53031,1,8,0:0:0:0:
220,365,53299,2,0,P|228:337|192:313,1,53.9999983520508,2|0,1:0|0:0,0:0:0:0:
148,348,53567,1,2,3:2:0:0:
192,341,53701,1,2,0:0:0:0:
258,288,53835,1,2,0:0:0:0:
302,295,53968,1,2,1:0:0:0:
377,354,54102,2,0,L|387:291,1,53.9999983520508,10|0,1:2|0:0,0:0:0:0:
476,255,54370,2,0,L|485:308,1,53.9999983520508,2|0,1:0|0:0,0:0:0:0:
387,198,54638,5,4,1:0:0:0:
370,103,54772,2,0,P|428:125|412:196,1,135.000005149842,2|0,0:0|0:0,0:0:0:0:
263,129,55174,2,0,P|287:34|373:82,1,202.500007724762,10|0,0:0|0:0,0:0:0:0:
212,69,55710,1,0,3:0:0:0:
189,30,55843,1,0,3:0:0:0:
98,172,56111,1,0,3:0:0:0:
55,183,56245,2,0,P|28:202|12:249,1,67.5000025749208,10|0,0:0|0:0,0:0:0:0:
131,297,56513,2,0,P|152:266|147:229,1,67.5000025749208,2|0,0:0|0:0,0:0:0:0:
2,348,56781,6,0,P|17:266|109:258,1,135.000005149842,4|0,3:0|0:0,0:0:0:0:
193,222,57183,1,2,0:0:0:0:
193,222,57317,2,0,P|225:211|273:174,1,67.5000025749208,8|0,0:0|0:0,0:0:0:0:
276,116,57585,1,0,3:0:0:0:
442,27,57852,2,0,P|429:132|332:75,1,202.500007724762,2|2,1:0|0:0,0:0:0:0:
474,0,58388,2,0,P|488:35|489:93,1,67.5000025749208,8|0,0:0|0:0,0:0:0:0:
432,212,58656,2,0,P|401:236|348:253,1,67.5000025749208,2|0,0:0|0:0,0:0:0:0:
202,222,58924,5,4,1:0:0:0:
79,281,59058,2,0,P|153:274|168:222,1,135.000005149842,2|0,0:0|0:0,0:0:0:0:
110,119,59460,2,0,P|-3:163|29:261,1,202.500007724762,10|0,0:0|0:0,0:0:0:0:
60,88,59995,1,0,3:0:0:0:
58,42,60129,1,0,3:0:0:0:
259,134,60397,1,0,3:0:0:0:
278,88,60531,2,0,P|308:65|355:48,1,67.5000025749208,10|0,0:0|0:0,0:0:0:0:
413,167,60799,2,0,P|383:190|336:207,1,67.5000025749208,2|0,0:0|0:0,0:0:0:0:
355,24,61067,6,0,P|411:43|427:125,1,135.000005149842,4|0,3:0|0:0,0:0:0:0:
335,197,61468,1,2,0:0:0:0:
335,197,61602,2,0,P|353:230|380:255,1,67.5000025749208,8|0,0:0|0:0,0:0:0:0:
449,282,61870,1,0,3:0:0:0:
267,346,62138,2,0,P|236:360|199:387,2,67.5000025749208,2|0|0,1:0|0:0|0:0,0:0:0:0:
358,349,62540,1,2,0:0:0:0:
339,315,62674,2,0,P|334:283|341:247,1,67.5000025749208,8|0,0:0|0:0,0:0:0:0:
403,191,62942,2,0,P|391:221|367:248,1,67.5000025749208,2|0,0:0|0:0,0:0:0:0:
199,287,63210,5,4,1:0:0:0:
162,175,63343,2,0,P|104:222|144:302,1,135.000005149842,2|0,0:0|0:0,0:0:0:0:
257,373,63745,2,0,P|215:266|138:286,1,202.500007724762,10|0,0:0|0:0,0:0:0:0:
10,384,64281,1,0,3:0:0:0:
1,336,64415,1,0,3:0:0:0:
129,146,64683,1,0,3:0:0:0:
95,172,64817,2,0,P|57:167|15:140,1,67.5000025749208,10|0,0:0|0:0,0:0:0:0:
51,28,65085,2,0,P|81:51|104:95,1,67.5000025749208,2|0,0:0|0:0,0:0:0:0:
166,223,65352,6,0,P|224:244|324:178,1,135.000005149842,4|0,3:0|0:0,0:0:0:0:
313,124,65754,1,2,0:0:0:0:
306,81,65888,2,0,P|316:49|343:22,1,67.5000025749208,8|0,0:0|0:0,0:0:0:0:
415,15,66156,1,0,3:0:0:0:
477,208,66424,2,0,P|516:134|449:49,1,202.500007724762,2|2,1:0|0:0,0:0:0:0:
347,202,66960,2,0,P|358:235|401:292,1,67.5000025749208,8|0,0:0|0:0,0:0:0:0:
494,320,67227,2,0,P|469:340|418:359,1,67.5000025749208,2|0,0:0|0:0,0:0:0:0:
290,357,67495,5,4,1:0:0:0:
267,205,67629,2,0,P|339:288|304:326,1,135.000005149842,2|0,0:0|0:0,0:0:0:0:
148,367,68031,2,0,P|170:283|249:349,1,202.500007724762,10|0,0:0|0:0,0:0:0:0:
114,384,68567,1,0,3:0:0:0:
72,365,68701,1,0,3:0:0:0:
43,172,68968,1,0,3:0:0:0:
82,155,69102,2,0,P|107:127|133:82,1,67.5000025749208,10|0,0:0|0:0,0:0:0:0:
37,17,69370,2,0,P|34:49|46:113,1,67.5000025749208,2|0,0:0|0:0,0:0:0:0:
217,99,69638,6,0,P|205:43|135:8,1,135.000005149842,4|0,0:1|0:0,0:0:0:0:
189,176,70040,2,0,P|211:200|250:227,1,67.5000025749208,0|8,3:0|0:0,0:0:0:0:
308,44,70442,1,2,0:0:0:0:
337,24,70843,1,2,0:0:0:0:
368,3,71111,1,2,0:0:0:0:
403,15,71245,2,0,P|447:58|453:114,2,107.999996704102,8|8|0,0:0|0:0|1:0,0:0:0:0:
78,133,88924,5,2,0:0:0:0:
154,111,89192,1,2,0:0:0:0:
57,269,89593,1,2,0:0:0:0:
138,291,89861,1,0,3:0:0:0:
156,329,89995,1,2,0:0:0:0:
240,352,90263,1,2,0:0:0:0:
328,324,90531,2,0,P|367:342|374:397,1,90,8|0,0:0|0:0,0:0:0:0:
471,308,91067,5,2,0:0:0:0:
434,230,91335,1,2,0:0:0:0:
290,37,91736,1,2,0:0:0:0:
383,5,92004,1,0,3:0:0:0:
412,35,92138,1,2,0:0:0:0:
501,81,92406,1,2,0:0:0:0:
398,130,92674,2,0,L|378:195,1,45,8|0,0:0|0:0,0:0:0:0:
284,99,92942,2,0,L|294:155,1,45,2|0,0:0|0:0,0:0:0:0:
188,101,93210,5,2,0:0:0:0:
129,24,93477,1,2,0:0:0:0:
34,179,93879,1,2,0:0:0:0:
12,270,94147,1,0,3:0:0:0:
45,296,94281,1,2,0:0:0:0:
112,374,94549,1,2,0:0:0:0:
167,291,94817,2,0,P|191:250|239:261,1,90,8|0,0:0|0:0,0:0:0:0:
294,173,95352,5,2,0:0:0:0:
233,106,95620,1,2,0:0:0:0:
445,41,96022,1,2,0:0:0:0:
503,125,96290,1,0,3:0:0:0:
479,162,96424,1,2,0:0:0:0:
405,243,96692,1,2,0:0:0:0:
493,362,96960,2,0,P|502:335|486:313,1,45,8|0,0:0|0:0,0:0:0:0:
348,323,97227,2,0,P|341:344|350:364,1,45,2|0,0:0|0:0,0:0:0:0:
422,342,97495,5,2,0:0:0:0:
378,250,97763,1,2,0:0:0:0:
222,100,98165,1,2,0:0:0:0:
181,1,98433,1,0,3:0:0:0:
139,30,98567,1,2,0:0:0:0:
34,82,98835,1,2,0:0:0:0:
76,186,99102,2,0,P|133:158|126:120,1,90,8|0,0:0|0:0,0:0:0:0:
6,253,99638,5,2,0:0:0:0:
33,346,99906,1,2,0:0:0:0:
233,384,100308,1,2,0:0:0:0:
304,315,100576,1,0,3:0:0:0:
340,343,100710,1,2,0:0:0:0:
449,362,100977,1,2,0:0:0:0:
487,255,101245,1,8,0:0:0:0:
385,267,101513,1,2,0:0:0:0:
302,168,101781,6,0,L|311:100,1,45,0|0,3:0|0:0,0:0:0:0:
415,141,102049,2,0,L|428:66,1,45,2|0,0:0|0:0,0:0:0:0:
173,42,102451,2,0,L|170:-9,1,45,2|2,0:0|0:0,0:0:0:0:
272,96,102718,1,0,3:0:0:0:
283,63,102852,2,0,L|304:4,1,45,8|0,0:0|0:0,0:0:0:0:
201,151,103120,2,0,L|188:219,1,45,2|0,0:0|0:0,0:0:0:0:
98,158,103388,2,0,L|82:261,1,90,8|0,0:0|0:0,0:0:0:0:
212,367,103924,6,0,L|207:290,1,45
305,384,104192,2,0,L|320:316,1,45,2|0,0:0|0:0,0:0:0:0:
488,204,104593,2,0,L|496:274,1,45,2|0,0:0|0:0,0:0:0:0:
349,173,104861,1,0,3:0:0:0:
359,210,104995,2,0,L|371:269,1,45,8|0,0:0|0:0,0:0:0:0:
438,73,105263,2,0,L|452:-1,1,45,2|0,0:0|0:0,0:0:0:0:
259,138,105531,2,0,L|207:194,1,45,8|0,0:0|0:0,0:0:0:0:
264,22,105799,1,10,0:0:0:0:
304,9,105933,1,10,0:0:0:0:
363,75,106067,6,0,L|273:138,1,90,4|0,1:0|0:0,0:0:0:0:
192,94,106468,2,0,P|164:50|166:-1,1,90,2|0,0:0|0:0,0:0:0:0:
158,167,106870,2,0,P|111:230|75:231,1,90,2|0,0:0|0:0,0:0:0:0:
7,291,107272,2,0,L|106:314,1,90,2|0,0:0|0:0,0:0:0:0:
200,376,107674,1,2,1:0:0:0:
226,347,107808,1,0,3:0:0:0:
317,323,107942,2,0,L|333:377,1,45,8|0,0:0|0:0,0:0:0:0:
426,362,108210,6,0,P|480:318|483:261,1,90,4|0,1:0|0:0,0:0:0:0:
412,234,108611,2,0,L|294:256,1,90,0|0,1:0|0:0,0:0:0:0:
258,188,109013,2,0,P|237:128|252:78,1,90,0|0,1:0|0:0,0:0:0:0:
329,51,109415,2,0,L|420:35,1,90,0|0,1:0|0:0,0:0:0:0:
498,0,109817,1,8,0:0:0:0:
358,151,110085,2,0,P|333:140|311:121,1,45,4|0,3:0|0:0,0:0:0:0:
273,50,110352,6,0,P|244:13|174:8,1,90,4|0,1:0|0:0,0:0:0:0:
231,137,110754,2,0,P|197:183|196:238,1,90,0|0,1:0|0:0,0:0:0:0:
329,276,111156,2,0,L|230:286,1,90,0|0,1:0|0:0,0:0:0:0:
119,289,111558,2,0,P|101:341|117:381,1,90,0|0,1:0|0:0,0:0:0:0:
221,380,111960,1,8,0:0:0:0:
119,204,112227,2,0,L|117:118,1,45,4|0,3:0|0:0,0:0:0:0:
60,71,112495,6,0,L|157:42,1,90,4|0,1:0|0:0,0:0:0:0:
268,141,112897,2,0,P|262:98|238:74,1,45,0|0,1:0|0:0,0:0:0:0:
221,19,113165,1,2,0:0:0:0:
257,7,113299,2,0,L|376:22,1,90,10|0,0:0|0:0,0:0:0:0:
425,116,113701,2,0,P|464:58|471:18,1,90,0|0,1:0|0:0,0:0:0:0:
337,151,114102,2,0,L|315:211,1,45,8|0,0:0|0:0,0:0:0:0:
435,232,114370,2,0,L|433:288,1,45,4|0,3:0|0:0,0:0:0:0:
502,384,114638,6,0,P|454:356|419:303,1,116.999994644165,4|0,1:0|0:0,0:0:0:0:
359,201,115040,1,2,0:0:0:0:
335,227,115174,2,0,L|321:296,1,58.4999973220826,8|0,0:0|0:0,0:0:0:0:
235,366,115442,2,0,L|214:237,1,116.999994644165,0|0,1:0|0:0,0:0:0:0:
64,204,115843,2,0,P|95:184|116:161,2,58.4999973220826,2|0|0,0:0|0:0|0:0,0:0:0:0:
0,274,116245,1,10,0:0:0:0:
30,307,116379,1,2,0:0:0:0:
113,333,116513,2,0,L|147:254,1,58.4999973220826,4|0,3:0|0:0,0:0:0:0:
138,173,116781,6,0,P|100:123|25:102,1,116.999994644165,4|0,1:0|0:0,0:0:0:0:
219,223,117183,2,0,P|286:235|344:213,1,116.999994644165,0|0,1:0|0:0,0:0:0:0:
298,60,117585,2,0,P|244:98|208:148,1,116.999994644165,0|0,1:0|0:0,0:0:0:0:
281,328,117986,2,0,L|306:193,1,116.999994644165,0|0,1:0|0:0,0:0:0:0:
412,154,118388,2,0,L|473:170,1,58.4999973220826,8|0,0:0|0:0,0:0:0:0:
453,48,118656,2,0,L|514:64,1,58.4999973220826,0|0,1:0|0:0,0:0:0:0:
373,178,118924,6,0,L|494:206,1,116.999994644165,4|0,0:0|0:0,0:0:0:0:
358,335,119326,1,2,0:0:0:0:
332,304,119460,2,0,P|322:273|327:239,1,58.4999973220826,8|0,0:0|0:0,0:0:0:0:
278,66,119727,2,0,P|295:149|248:201,1,116.999994644165,0|0,1:0|0:0,0:0:0:0:
176,203,120129,2,0,L|37:224,1,116.999994644165,0|0,1:0|0:0,0:0:0:0:
2,139,120531,2,0,L|17:63,1,58.4999973220826,2|0,0:0|0:0,0:0:0:0:
80,198,120799,2,0,L|70:272,1,58.4999973220826,2|0,0:0|0:0,0:0:0:0:
92,357,121067,5,8,0:0:0:0:
130,347,121201,1,8,0:0:0:0:
165,337,121335,1,8,0:0:0:0:
236,363,121468,1,8,0:0:0:0:
251,367,121602,1,8,0:0:0:0:
262,370,121736,1,8,0:0:0:0:
330,333,121870,1,10,0:0:0:0:
91,0,122674,6,0,P|75:26|69:88,1,58.4999973220826,2|0,0:0|0:0,0:0:0:0:
164,131,122942,1,0,3:0:0:0:
205,114,123076,1,0,3:0:0:0:
274,57,123210,5,4,1:0:0:0:
274,57,123343,2,0,L|431:76,1,144,2|4,1:0|3:0,0:0:0:0:
500,87,123745,1,8,0:0:0:0:
461,292,124013,2,0,P|442:322|377:324,1,72,2|0,1:0|0:0,0:0:0:0:
394,260,124281,1,2,3:2:0:0:
465,339,124415,2,0,L|291:356,1,144,2|2,3:2|0:0,0:0:0:0:
160,280,124817,2,0,P|131:307|107:358,1,72,8|0,0:0|0:0,0:0:0:0:
302,252,125085,2,0,P|296:216|272:178,1,72,2|0,3:2|0:0,0:0:0:0:
152,100,125352,5,4,1:0:0:0:
152,100,125486,2,0,P|187:16|291:26,1,144,2|4,1:0|3:0,0:0:0:0:
314,42,125888,1,8,0:0:0:0:
144,196,126156,2,0,L|37:216,1,72,2|0,1:0|0:0,0:0:0:0:
39,118,126424,1,2,3:2:0:0:
0,228,126558,2,0,L|170:273,1,144,2|2,3:2|0:0,0:0:0:0:
338,315,126960,2,0,P|348:347|343:390,1,72,8|0,0:0|0:0,0:0:0:0:
230,223,127227,2,0,P|252:191|293:165,1,72,2|0,3:2|0:0,0:0:0:0:
477,190,127495,5,4,1:0:0:0:
477,190,127629,2,0,L|514:45,1,144,2|4,1:0|3:0,0:0:0:0:
435,0,128031,1,8,0:0:0:0:
272,154,128299,2,0,P|265:189|307:245,1,72,2|0,1:0|0:0,0:0:0:0:
343,181,128567,1,2,3:2:0:0:
242,233,128701,2,0,P|152:174|131:128,1,144,2|2,3:2|0:0,0:0:0:0:
183,49,129102,2,0,L|234:-47,1,72,8|0,0:0|0:0,0:0:0:0:
55,139,129370,2,0,L|-40:168,1,72,2|0,3:2|0:0,0:0:0:0:
7,306,129638,5,4,1:0:0:0:
7,306,129772,2,0,L|174:341,1,144,2|4,1:0|3:0,0:0:0:0:
236,355,130174,1,8,0:0:0:0:
454,280,130442,2,0,L|462:172,1,72,2|0,1:0|0:0,0:0:0:0:
460,55,130710,1,2,3:2:0:0:
418,70,130843,1,2,0:0:0:0:
320,27,130977,1,2,0:0:0:0:
281,56,131111,1,2,1:0:0:0:
168,40,131245,2,0,P|137:59|105:111,1,72,10|0,1:2|0:0,0:0:0:0:
186,233,131513,2,0,P|200:199|196:138,1,72,2|0,1:0|0:0,0:0:0:0:
22,216,131781,5,4,1:0:0:0:
22,216,131915,2,0,L|72:60,1,144,2|4,1:0|3:0,0:0:0:0:
95,2,132317,1,8,0:0:0:0:
300,23,132585,2,0,P|317:50|309:92,1,72,2|0,1:0|0:0,0:0:0:0:
241,65,132852,1,2,3:2:0:0:
335,23,132986,2,0,P|390:72|472:105,1,144,2|2,3:2|0:0,0:0:0:0:
512,219,133388,2,0,P|476:233|444:278,1,72,8|0,0:0|0:0,0:0:0:0:
423,384,133656,2,0,P|414:351|378:314,1,72,2|0,3:2|0:0,0:0:0:0:
271,230,133924,5,4,1:0:0:0:
271,230,134058,2,0,P|208:324|165:343,1,144,2|4,1:0|3:0,0:0:0:0:
92,347,134460,1,8,0:0:0:0:
35,133,134727,2,0,L|117:101,1,72,2|0,1:0|0:0,0:0:0:0:
120,9,134995,1,2,3:2:0:0:
138,118,135129,2,0,L|26:239,1,144,2|2,3:2|0:0,0:0:0:0:
134,354,135531,2,0,P|163:373|205:386,1,72,8|0,0:0|0:0,0:0:0:0:
162,172,135799,2,0,P|128:188|77:239,1,72,2|0,3:2|0:0,0:0:0:0:
25,344,136067,5,4,1:0:0:0:
25,344,136201,2,0,L|198:322,1,144,2|4,1:0|3:0,0:0:0:0:
262,316,136602,1,8,0:0:0:0:
417,127,136870,2,0,P|457:130|487:163,1,72,2|0,1:0|0:0,0:0:0:0:
423,209,137138,1,2,3:2:0:0:
340,120,137272,2,0,P|415:96|472:39,1,144,2|2,3:2|0:0,0:0:0:0:
262,8,137674,2,0,L|245:105,1,72,8|0,0:0|0:0,0:0:0:0:
397,222,137942,2,0,L|430:117,1,72,2|0,3:2|0:0,0:0:0:0:
286,47,138210,5,4,1:0:0:0:
262,51,138343,1,2,1:0:0:0:
238,55,138477,1,0,0:0:0:0:
162,133,138611,2,0,P|141:96|130:49,1,72,4|8,3:0|0:0,0:0:0:0:
153,56,139013,6,0,L|136:157,1,72,2|0,1:0|0:0,0:0:0:0:
60,220,139281,1,2,3:2:0:0:
48,237,139415,1,2,0:0:0:0:
137,284,139549,1,2,0:0:0:0:
142,304,139683,1,2,1:0:0:0:
53,367,139817,2,0,P|20:334|36:297,1,72,10|0,1:2|0:0,0:0:0:0:
222,263,140085,1,2,1:0:0:0:
245,301,140218,1,0,0:0:0:0:
320,351,140352,5,4,1:0:0:0:
409,269,140486,2,0,P|415:331|329:368,1,144,2|0,0:0|0:0,0:0:0:0:
299,217,140888,2,0,P|419:197|441:73,1,216,10|0,0:0|0:0,0:0:0:0:
371,17,141424,1,0,3:0:0:0:
412,6,141558,1,0,3:0:0:0:
228,92,141826,1,0,3:0:0:0:
147,80,141960,2,0,P|121:54|102:11,1,72,10|0,0:0|0:0,0:0:0:0:
14,149,142227,2,0,P|4:184|12:241,1,72,2|0,0:0|0:0,0:0:0:0:
118,303,142495,5,4,3:0:0:0:
157,319,142629,2,0,P|183:377|191:423,1,72
4,345,142897,1,2,0:0:0:0:
46,283,143031,1,8,0:0:0:0:
269,349,143299,2,0,P|276:314|301:267,1,72,0|0,3:0|0:0,0:0:0:0:
412,255,143567,2,0,P|394:368|292:367,1,216,2|2,1:0|0:0,0:0:0:0:
215,253,144102,2,0,P|231:190|263:165,1,72,8|0,0:0|0:0,0:0:0:0:
415,50,144370,2,0,P|394:80|353:113,1,72,2|0,0:0|0:0,0:0:0:0:
230,81,144638,5,4,1:0:0:0:
98,177,144772,2,0,P|187:114|166:57,1,144,2|0,0:0|0:0,0:0:0:0:
31,34,145174,2,0,P|132:53|108:159,1,216,10|0,0:0|0:0,0:0:0:0:
10,283,145710,1,0,3:0:0:0:
0,324,145843,1,0,3:0:0:0:
245,384,146111,1,0,3:0:0:0:
242,337,146245,2,0,P|229:303|199:262,1,72,10|0,0:0|0:0,0:0:0:0:
368,362,146513,2,0,P|407:381|441:385,1,72,2|0,0:0|0:0,0:0:0:0:
454,191,146781,5,4,3:0:0:0:
413,201,146915,2,0,P|388:232|368:277,1,72
256,371,147183,1,2,0:0:0:0:
178,349,147317,1,8,0:0:0:0:
32,184,147585,2,0,P|67:172|114:140,1,72,0|0,3:0|0:0,0:0:0:0:
69,11,147852,2,0,P|29:82|66:160,1,144,2|0,1:0|0:0,0:0:0:0:
171,184,148254,1,2,0:0:0:0:
218,168,148388,2,0,P|241:138|264:86,1,72,8|0,0:0|0:0,0:0:0:0:
356,13,148656,2,0,P|362:50|379:95,1,72,2|0,0:0|0:0,0:0:0:0:
498,122,148924,5,4,1:0:0:0:
473,246,149058,2,0,P|412:178|448:131,1,144,2|0,0:0|0:0,0:0:0:0:
512,36,149460,2,0,P|426:122|309:150,1,216,10|0,0:0|0:0,0:0:0:0:
155,208,149995,1,0,3:0:0:0:
135,254,150129,1,0,3:0:0:0:
335,372,150397,1,0,3:0:0:0:
363,301,150531,2,0,P|337:273|283:256,1,72,10|0,0:0|0:0,0:0:0:0:
181,384,150799,2,0,P|202:349|216:304,1,72,2|0,0:0|0:0,0:0:0:0:
146,120,151067,5,4,3:0:0:0:
153,81,151201,2,0,P|185:57|249:39,1,72
368,45,151468,1,2,0:0:0:0:
300,4,151602,1,8,0:0:0:0:
269,193,151870,2,0,P|290:219|337:258,1,72,0|0,3:0|0:0,0:0:0:0:
494,316,152138,2,0,P|446:220|330:265,1,216,2|2,1:0|0:0,0:0:0:0:
247,342,152674,2,0,P|218:367|172:387,1,72,8|0,0:0|0:0,0:0:0:0:
104,229,152942,2,0,P|129:258|149:304,1,72,2|0,0:0|0:0,0:0:0:0:
16,350,153210,5,4,1:0:0:0:
25,190,153343,2,0,P|87:284|61:333,1,144,2|0,0:0|0:0,0:0:0:0:
0,384,153745,2,0,L|30:159,1,216,10|0,0:0|0:0,0:0:0:0:
118,24,154281,1,0,3:0:0:0:
73,0,154415,1,0,3:0:0:0:
101,207,154683,1,0,3:0:0:0:
126,247,154817,2,0,P|155:272|194:287,1,72,10|0,0:0|0:0,0:0:0:0:
368,323,155085,2,0,P|333:343|271:361,1,72,2|0,0:0|0:0,0:0:0:0:
125,365,155352,6,0,P|102:277|167:319,1,216,4|0,0:1|3:0,0:0:0:0:
39,360,155888,2,0,P|14:333|-5:277,1,72,8|0,0:0|0:0,0:0:0:0:
25,209,156156,1,2,0:0:0:0:
162,29,156424,1,0,0:0:0:0:
162,29,156558,2,0,L|1:43,1,144,2|2,0:0|0:0,0:0:0:0:
2,116,156960,2,0,P|4:154|30:202,1,72,8|0,0:0|0:0,0:0:0:0:
131,113,157227,2,0,P|152:82|164:38,1,72,8|0,0:0|0:0,0:0:0:0:
262,17,157495,5,0,1:0:0:0:
