osu file format v14

[General]
AudioFilename: audio.mp3
AudioLeadIn: 0
PreviewTime: 123339
Countdown: 0
SampleSet: Soft
StackLeniency: 0.7
Mode: 0
LetterboxInBreaks: 0
WidescreenStoryboard: 1

[Editor]
Bookmarks: 36553,54839,73124,91410,109696,118839,127981,130267,146267,164553
DistanceSpacing: 1.3
BeatDivisor: 4
GridSize: 32
TimelineZoom: 1

[Metadata]
Title:Hibiscus
TitleUnicode:Hibiscus
Artist:Wisp X
ArtistUnicode:Wisp X
Creator:Aeril
Version:Hard
Source:osu!
Tags:mappers' guild electronic instrumental featured artist fa
BeatmapID:2176484
BeatmapSetID:1040161

[Difficulty]
HPDrainRate:5
CircleSize:4
OverallDifficulty:6
ApproachRate:7
SliderMultiplier:1.4
SliderTickRate:1

[Events]
//Background and Video events
0,0,"hibiscus.png",0,0
//Break Periods
//Storyboard Layer 0 (Background)
//Storyboard Layer 1 (Fail)
//Storyboard Layer 2 (Pass)
//Storyboard Layer 3 (Foreground)
//Storyboard Layer 4 (Overlay)
//Storyboard Sound Samples

[TimingPoints]
-18,571.428571428571,4,2,0,100,1,0
31981,-100,4,2,0,40,0,0
34267,-100,4,2,0,50,0,0
36553,-100,4,2,0,65,0,0
72553,-100,4,2,0,30,0,0
72839,-100,4,2,0,50,0,0
73124,-100,4,2,0,60,0,0
90267,-100,4,2,0,50,0,0
90839,-100,4,2,0,45,0,0
91410,-153.846153846154,4,2,0,55,0,0
109696,-100,4,2,0,60,0,0
123410,-100,4,2,0,65,0,0
126839,-100,4,2,0,50,0,0
127410,-100,4,2,0,45,0,0
127981,-100,4,2,0,60,0,0
130267,-76.9230769230769,4,2,0,75,0,0
145124,-76.9230769230769,4,2,0,40,0,0
145981,-76.9230769230769,4,2,0,60,0,0
146267,-76.9230769230769,4,2,0,65,0,0
163410,-76.9230769230769,4,2,0,50,0,0
163981,-76.9230769230769,4,2,0,30,0,0
164267,-76.9230769230769,4,2,0,60,0,0
164553,-111.111111111111,4,2,0,45,0,0
183981,-111.111111111111,4,2,0,35,0,0
185124,-111.111111111111,4,2,0,25,0,0
186267,-111.111111111111,4,2,0,15,0,0
187410,-111.111111111111,4,2,0,5,0,0

[Colours]
Combo1 : 244,128,227
Combo2 : 206,6,101

[HitObjects]
256,192,31981,12,0,35981,0:0:0:0:
24,276,36553,6,0,P|73:265|142:288,1,105,4|0,3:0|0:0,0:0:0:0:
163,241,37124,2,0,P|173:203|167:161,1,70,2|2,1:2|0:0,0:0:0:0:
229,42,37696,1,4,3:0:0:0:
281,39,37839,1,0,0:0:0:0:
326,65,37981,2,0,L|331:115,1,35,0|0,0:0|0:0,0:0:0:0:
395,147,38267,2,0,B|442:152|442:152|448:156|448:156|528:164,1,105,2|0,1:2|0:0,0:0:0:0:
498,162,38839,6,0,P|496:218|457:259,1,105,4|0,3:0|0:0,0:0:0:0:
429,293,39410,2,0,P|420:346|429:382,2,70,2|2|4,1:2|0:0|3:0,0:0:0:0:
324,223,40267,1,0,0:0:0:0:
271,223,40410,1,2,0:0:0:0:
233,260,40553,2,0,L|151:246,1,70,0|4,1:0|3:0,0:0:0:0:
57,331,41124,6,0,P|110:325|166:364,1,105,4|0,3:0|0:0,0:0:0:0:
206,356,41696,2,0,P|253:349|277:322,1,70,2|2,1:2|0:0,0:0:0:0:
284,209,42267,2,0,L|272:152,1,35,4|0,3:0|0:0,0:0:0:0:
240,135,42553,1,0,0:0:0:0:
257,85,42696,1,0,0:0:0:0:
305,65,42839,2,0,B|392:59|356:99|463:86,1,140,2|4,1:2|3:0,0:0:0:0:
467,286,43839,5,0,0:0:0:0:
479,272,43981,2,0,P|433:254|394:257,1,70,2|2,1:2|0:0,0:0:0:0:
338,328,44553,2,0,L|331:376,2,35,4|0|2,3:0|0:0|0:0,0:0:0:0:
305,286,44981,1,2,0:0:0:0:
305,286,45124,2,0,L|296:199,1,70,0|8,1:0|3:0,0:0:0:0:
208,121,45696,6,0,P|236:72|223:-2,1,105,4|0,3:0|0:0,0:0:0:0:
184,8,46267,2,0,P|145:39|94:38,1,70,2|2,1:2|0:0,0:0:0:0:
28,129,46839,1,4,3:0:0:0:
70,159,46981,1,0,0:0:0:0:
90,207,47124,2,0,L|79:258,1,35,0|0,0:0|0:0,0:0:0:0:
136,300,47410,2,0,B|180:303|180:303|185:307|185:307|257:313,1,105,2|0,1:2|0:0,0:0:0:0:
240,313,47981,6,0,P|283:314|331:279,1,105,4|0,3:0|0:0,0:0:0:0:
374,247,48553,2,0,P|371:206|354:175,2,70,2|2|4,1:2|0:0|3:0,0:0:0:0:
257,199,49410,1,0,0:0:0:0:
257,146,49553,1,2,0:0:0:0:
287,102,49696,2,0,L|368:88,1,70,0|4,1:0|3:0,0:0:0:0:
453,9,50267,6,0,P|447:62|486:118,1,105,4|0,3:0|0:0,0:0:0:0:
494,153,50839,2,0,P|487:200|460:224,1,70,2|2,1:2|0:0,0:0:0:0:
348,190,51410,2,0,L|360:247,1,35,4|0,3:0|0:0,0:0:0:0:
392,264,51696,1,0,0:0:0:0:
375,314,51839,1,0,0:0:0:0:
400,360,51982,2,0,B|313:354|349:394|242:381,1,140,2|4,1:2|3:0,0:0:0:0:
96,303,52982,5,0,0:0:0:0:
84,289,53124,2,0,P|130:271|169:274,1,70,2|2,1:2|0:0,0:0:0:0:
448,225,54267,2,0,L|441:127,1,70,0|8,1:0|3:0,0:0:0:0:
489,37,54839,6,0,P|446:13|365:19,1,105,4|0,3:1|0:0,0:0:0:0:
337,69,55410,2,0,P|293:89|261:89,1,70,2|2,1:2|0:0,0:0:0:0:
232,55,55839,2,0,L|167:47,1,35,2|4,3:0|3:0,0:0:0:0:
103,52,56267,1,2,0:0:0:0:
103,52,56410,1,0,0:0:0:0:
103,52,56553,2,0,B|108:102|108:102|107:111|107:111|114:165,1,105,2|0,1:2|0:0,0:0:0:0:
113,157,57124,6,0,P|68:181|-5:167,1,105,4|0,3:0|0:0,0:0:0:0:
15,257,57696,2,0,P|32:288|36:332,1,70,2|2,1:2|0:0,0:0:0:0:
22,372,58124,2,0,L|71:380,1,35,2|4,3:0|3:0,0:0:0:0:
149,327,58553,1,2,0:0:0:0:
200,318,58696,1,0,0:0:0:0:
242,348,58839,2,0,L|320:338,1,70,0|4,1:0|3:0,0:0:0:0:
436,360,59410,6,0,P|416:312|435:251,1,105,4|2,3:0|0:0,0:0:0:0:
407,183,59981,2,0,P|440:159|475:154,1,70,2|2,1:2|0:0,0:0:0:0:
507,118,60410,2,0,L|515:65,1,35,2|4,3:0|3:0,0:0:0:0:
445,31,60839,1,2,0:0:0:0:
445,31,60981,1,0,0:0:0:0:
445,31,61124,2,0,B|389:22|351:42|351:42|362:51,1,105,2|0,1:2|0:0,0:0:0:0:
357,47,61696,6,0,P|349:94|302:133,1,105,4|2,3:0|0:0,0:0:0:0:
333,206,62267,2,0,P|325:250|334:289,1,70,2|2,1:2|0:0,0:0:0:0:
303,320,62696,2,0,L|295:375,1,35,2|4,3:0|3:0,0:0:0:0:
195,378,63124,1,2,0:0:0:0:
166,333,63267,1,0,0:0:0:0:
178,282,63410,2,0,P|196:235|192:194,2,70,2|8|4,1:2|3:0|3:1,0:0:0:0:
55,294,64267,5,0,0:0:0:0:
55,294,64410,1,0,0:0:0:0:
55,294,64553,2,0,P|46:253|58:211,1,70,2|2,1:2|0:0,0:0:0:0:
39,174,64981,2,0,L|74:164,1,35,2|4,3:0|3:0,0:0:0:0:
125,72,65410,1,2,0:0:0:0:
125,72,65553,1,0,0:0:0:0:
125,72,65696,2,0,B|69:71|69:71|60:75|60:75|20:75,1,105,2|0,1:2|0:0,0:0:0:0:
20,75,66267,6,0,P|51:38|130:23,1,105,4|0,3:0|0:0,0:0:0:0:
178,17,66839,2,0,P|207:41|243:46,1,70,2|2,1:2|0:0,0:0:0:0:
288,61,67267,2,0,L|336:40,1,35,2|4,3:0|3:0,0:0:0:0:
424,31,67696,1,2,0:0:0:0:
458,70,67839,1,0,0:0:0:0:
442,119,67981,2,0,L|437:199,1,70,0|4,1:0|3:0,0:0:0:0:
391,307,68553,6,0,P|348:301|309:254,1,105,4|2,3:0|0:0,0:0:0:0:
272,191,69124,2,0,P|281:152|273:113,1,70,2|2,1:2|0:0,0:0:0:0:
227,102,69553,2,0,L|178:108,1,35,2|4,3:0|3:0,0:0:0:0:
111,173,69981,1,2,0:0:0:0:
111,173,70124,1,0,0:0:0:0:
111,173,70267,2,0,B|96:217|116:267|116:267|119:259,1,105,2|0,1:2|0:0,0:0:0:0:
119,258,70839,6,0,P|140:316|121:373,1,105,4|2,3:0|0:0,0:0:0:0:
60,378,71410,2,0,P|14:360|0:334,1,70,2|2,1:2|0:0,0:0:0:0:
256,192,71981,12,4,73124,3:2:0:0:
256,192,73696,5,2,1:2:0:0:
133,346,74839,2,0,P|94:349|58:339,1,70,2|2,1:2|0:0,0:0:0:0:
247,306,75696,1,2,0:0:0:0:
247,306,75981,2,0,B|373:302|325:353|461:332,1,210,2|2,1:2|0:0,0:0:0:0:
494,237,77124,2,0,L|503:148,2,70,2|4|4,1:2|3:0|3:0,0:0:0:0:
315,126,78267,5,2,1:2:0:0:
438,26,79410,2,0,P|483:16|534:26,1,70,2|2,1:2|0:0,0:0:0:0:
396,111,79981,2,0,P|389:177|407:253,2,140,4|2|4,3:1|1:2|3:0,0:0:0:0:
186,87,81696,2,0,L|101:78,1,70,2|8,1:2|3:0,0:0:0:0:
30,18,82267,5,4,3:2:0:0:
30,18,82839,1,2,1:2:0:0:
155,276,83981,2,0,P|153:326|141:356,1,70,2|2,1:2|0:0,0:0:0:0:
58,215,84839,1,2,0:0:0:0:
58,215,85124,2,0,B|52:87|103:150|86:-17,1,210,2|2,1:2|0:0,0:0:0:0:
175,68,86267,2,0,L|261:84,2,70,2|4|4,1:2|3:0|3:2,0:0:0:0:
235,269,87410,5,2,1:2:0:0:
426,193,88553,2,0,P|440:150|436:104,1,70,2|2,1:2|0:0,0:0:0:0:
381,273,89124,2,0,P|438:272|516:309,2,140,4|2|4,3:1|1:2|3:0,0:0:0:0:
130,311,90839,1,2,1:2:0:0:
44,383,91410,5,2,0:0:0:0:
44,383,91981,1,0,0:0:0:0:
115,213,93124,1,2,0:0:0:0:
47,123,93696,2,0,P|43:75|64:24,1,90.9999958343508,2|0,0:0|0:0,0:0:0:0:
57,293,95410,1,0,0:0:0:0:
115,213,95981,1,2,0:0:0:0:
115,213,96553,2,0,B|211:186|268:247|268:247|253:272,1,181.999991668702,0|2,0:0|0:0,0:0:0:0:
386,311,98267,1,2,0:0:0:0:
386,311,98839,2,0,P|408:261|395:123,1,181.999991668702,0|0,0:0|0:0,0:0:0:0:
487,30,100553,5,2,0:0:0:0:
487,30,101124,1,0,0:0:0:0:
321,186,102267,1,2,0:0:0:0:
302,298,102839,1,2,0:0:0:0:
302,298,103410,1,0,0:0:0:0:
54,353,104553,1,0,0:0:0:0:
146,284,105124,1,2,0:0:0:0:
146,284,105696,2,0,B|173:188|112:131|112:131|87:146,1,181.999991668702,0|2,0:0|0:0,0:0:0:0:
54,68,107124,1,2,0:0:0:0:
54,68,107410,2,0,P|100:46|141:47,1,90.9999958343508,2|0,0:0|0:0,0:0:0:0:
349,106,109124,1,2,0:0:0:0:
415,49,109410,5,0,3:0:0:0:
428,46,109553,1,0,3:0:0:0:
441,43,109696,2,0,P|460:80|440:167,1,105,0|2,3:0|0:0,0:0:0:0:
430,187,110267,2,0,P|423:232|447:278,1,70,2|2,0:3|0:0,0:0:0:0:
372,343,110839,1,2,0:3:0:0:
354,327,110981,1,0,3:0:0:0:
312,333,111124,2,0,L|266:337,1,35,2|0,0:3|0:0,0:0:0:0:
216,297,111410,2,0,B|138:297|182:333|62:329,1,140,2|0,3:2|3:0,0:0:0:0:
34,208,112267,6,0,L|78:218,1,35,0|2,0:0|0:0,0:0:0:0:
87,206,112553,2,0,P|109:147|106:119,1,70,2|2,0:3|0:0,0:0:0:0:
58,49,113124,2,0,L|7:39,2,35,2|0|2,0:3|3:0|0:3,0:0:0:0:
108,31,113553,1,2,3:2:0:0:
108,31,113696,2,0,L|193:17,1,70,2|2,3:0|0:0,0:0:0:0:
287,80,114267,6,0,P|263:129|269:204,1,105,0|2,3:0|0:0,0:0:0:0:
238,226,114839,2,0,P|251:268|247:313,1,70,2|2,0:3|0:0,0:0:0:0:
329,363,115410,1,2,0:3:0:0:
342,342,115553,1,0,3:0:0:0:
384,346,115696,2,0,L|423:336,1,35,2|0,0:3|0:0,0:0:0:0:
454,274,115981,2,0,B|454:196|420:226|422:120,1,140,2|0,3:2|3:0,0:0:0:0:
411,13,116839,6,0,L|398:52,1,35,0|2,0:0|0:0,0:0:0:0:
364,84,117124,2,0,P|318:82|289:65,1,70,2|2,0:3|0:0,0:0:0:0:
204,121,117696,1,2,0:3:0:0:
186,105,117839,1,0,3:0:0:0:
148,69,117981,1,2,0:3:0:0:
105,100,118124,1,2,3:2:0:0:
52,98,118267,2,0,L|43:185,1,70,2|2,3:0|0:0,0:0:0:0:
16,303,118839,5,0,1:0:0:0:
193,347,119410,1,0,1:3:0:0:
237,170,119981,1,0,1:3:0:0:
60,126,120553,1,2,3:2:0:0:
274,72,121124,5,0,1:0:0:0:
451,28,121695,1,0,1:3:0:0:
495,205,122266,1,0,1:3:0:0:
318,249,122838,1,0,1:3:0:0:
39,320,123410,5,0,1:0:0:0:
142,300,123696,1,2,1:2:0:0:
235,346,123981,1,0,1:3:0:0:
337,324,124267,1,2,1:2:0:0:
403,213,124553,5,0,1:3:0:0:
300,193,124839,1,0,1:0:0:0:
207,239,125124,1,0,1:2:0:0:
105,217,125410,1,0,1:0:0:0:
256,192,125696,12,2,127981,0:0:0:0:
58,58,130267,6,0,P|88:86|154:91,1,90.9999958343508,4|0,3:1|0:0,0:0:0:0:
196,49,130696,1,2,0:0:0:0:
196,49,130839,2,0,P|237:34|300:50,1,90.9999958343508,2|2,1:2|0:0,0:0:0:0:
452,29,131410,2,0,L|442:87,1,45.4999979171754,4|2,3:0|0:0,0:0:0:0:
410,123,131696,1,2,0:0:0:0:
431,178,131839,1,2,0:3:0:0:
479,210,131981,2,0,P|488:261|475:303,1,90.9999958343508,0|4,1:0|3:0,0:0:0:0:
318,357,132553,6,0,B|323:270|293:307|297:204,1,136.499993751526,4|2,3:0|0:0,0:0:0:0:
267,172,133124,2,0,P|305:143|326:96,1,90.9999958343508,2|2,1:2|0:0,0:0:0:0:
168,141,133696,1,4,3:0:0:0:
109,129,133839,1,0,0:0:0:0:
56,155,133981,2,0,L|46:201,1,45.4999979171754,2|2,0:0|0:0,0:0:0:0:
16,268,134267,2,0,B|56:313|127:295|127:295|121:268,1,136.499993751526,2|0,1:2|0:0,0:0:0:0:
123,279,134839,6,0,P|175:278|216:310,1,90.9999958343508,4|0,3:0|0:0,0:0:0:0:
274,341,135267,1,2,0:0:0:0:
274,341,135410,2,0,P|289:289|284:253,1,90.9999958343508,2|2,1:2|0:0,0:0:0:0:
204,120,135981,1,4,3:0:0:0:
256,92,136124,1,2,0:0:0:0:
315,96,136267,1,2,0:0:0:0:
361,132,136410,1,2,0:3:0:0:
414,106,136553,2,0,L|423:16,1,90.9999958343508,0|8,1:0|3:0,0:0:0:0:
492,177,137124,6,0,P|435:188|384:249,1,136.499993751526,4|2,3:0|0:0,0:0:0:0:
326,238,137696,2,0,P|265:257|224:248,1,90.9999958343508,2|2,1:2|0:0,0:0:0:0:
96,347,138267,2,0,L|31:356,2,45.4999979171754,4|0|2,3:0|0:0|0:0,0:0:0:0:
135,302,138696,1,2,0:0:0:0:
135,302,138839,2,0,B|139:230|139:230|135:225|135:225|139:159,1,136.499993751526,2|0,1:2|0:0,0:0:0:0:
138,167,139410,6,0,P|108:139|42:134,1,90.9999958343508,4|0,3:0|0:0,0:0:0:0:
28,58,139839,1,2,0:0:0:0:
28,58,139982,2,0,P|79:51|114:24,1,90.9999958343508,2|2,1:2|0:0,0:0:0:0:
276,1,140553,2,0,L|266:59,1,45.4999979171754,4|2,3:0|0:0,0:0:0:0:
225,87,140839,1,2,0:0:0:0:
250,140,140982,1,2,0:3:0:0:
307,152,141124,2,0,P|354:165|386:206,1,90.9999958343508,0|4,1:0|3:0,0:0:0:0:
512,297,141696,6,0,B|425:292|465:329|359:318,1,136.499993751526,4|2,3:0|0:0,0:0:0:0:
323,338,142267,2,0,P|305:298|312:249,1,90.9999958343508,2|2,1:2|0:0,0:0:0:0:
342,85,142839,1,4,3:0:0:0:
286,64,142982,1,0,0:0:0:0:
231,85,143124,2,0,L|221:131,1,45.4999979171754,2|2,0:0|0:0,0:0:0:0:
168,179,143410,2,0,B|110:197|58:146|58:146|77:126,1,136.499993751526,2|0,1:2|0:0,0:0:0:0:
68,135,143982,6,0,P|69:187|37:228,1,90.9999958343508,4|0,3:0|0:0,0:0:0:0:
27,292,144410,1,2,0:0:0:0:
27,292,144553,2,0,P|76:298|115:329,1,90.9999958343508,2|2,1:2|0:0,0:0:0:0:
267,366,145124,2,0,L|335:356,1,45.4999979171754,4|0,3:0|0:0,0:0:0:0:
364,308,145410,2,0,L|432:318,1,45.4999979171754,0|0,0:0|0:0,0:0:0:0:
191,270,145981,1,6,0:0:0:0:
88,353,146267,6,0,P|78:295|108:221,1,136.499993751526,4|2,3:1|0:0,0:0:0:0:
73,158,146839,2,0,P|76:109|44:62,1,90.9999958343508,2|2,1:2|0:0,0:0:0:0:
81,19,147267,2,0,L|141:13,1,45.4999979171754,2|4,3:0|3:0,0:0:0:0:
253,82,147696,1,2,0:0:0:0:
308,102,147839,1,0,0:0:0:0:
362,78,147981,2,0,B|420:68|420:68|433:71|433:71|526:52,1,136.499993751526,2|0,1:2|0:0,0:0:0:0:
496,58,148553,6,0,P|470:110|483:195,1,136.499993751526,4|2,3:0|0:0,0:0:0:0:
433,247,149124,2,0,P|390:228|327:229,1,90.9999958343508,2|2,1:2|0:0,0:0:0:0:
303,266,149553,2,0,L|295:322,1,45.4999979171754,2|4,3:0|3:0,0:0:0:0:
231,349,149839,1,2,3:0:0:0:
173,361,149981,1,2,0:0:0:0:
124,327,150124,1,2,0:0:0:0:
121,267,150267,2,0,P|125:218|83:173,1,90.9999958343508,0|4,1:0|3:0,0:0:0:0:
38,29,150839,6,0,P|10:78|12:178,1,136.499993751526,4|2,3:0|0:0,0:0:0:0:
16,230,151410,2,0,P|72:239|106:277,1,90.9999958343508,2|2,1:2|0:0,0:0:0:0:
110,318,151839,2,0,L|101:379,1,45.4999979171754,2|4,3:0|3:0,0:0:0:0:
253,330,152267,1,2,0:0:0:0:
226,277,152410,1,0,0:0:0:0:
254,224,152553,2,0,B|286:179|271:114|271:114|228:91,1,136.499993751526,2|0,1:2|0:0,0:0:0:0:
251,103,153124,6,0,P|198:122|117:69,1,136.499993751526,4|2,3:0|0:0,0:0:0:0:
158,22,153696,2,0,P|210:16|267:37,1,90.9999958343508,2|2,1:2|0:0,0:0:0:0:
302,44,154124,2,0,L|379:30,1,45.4999979171754,2|4,3:0|3:0,0:0:0:0:
416,0,154410,1,2,3:0:0:0:
456,43,154553,1,2,0:0:0:0:
451,102,154696,1,2,0:0:0:0:
404,138,154839,2,0,P|398:175|426:236,1,90.9999958343508,2|8,1:2|3:0,0:0:0:0:
304,344,155410,6,0,P|322:299|281:191,1,136.499993751526,4|2,3:1|0:0,0:0:0:0:
229,223,155981,2,0,P|193:214|134:228,1,90.9999958343508,2|2,1:2|0:0,0:0:0:0:
103,270,156410,2,0,L|94:330,1,45.4999979171754,2|4,3:0|3:0,0:0:0:0:
26,191,156839,1,2,0:0:0:0:
7,135,156981,1,0,0:0:0:0:
37,84,157124,2,0,B|106:74|106:74|117:77|117:77|186:67,1,136.499993751526,2|0,1:2|0:0,0:0:0:0:
171,69,157696,6,0,P|192:113|174:203,1,136.499993751526,4|2,3:0|0:0,0:0:0:0:
235,244,158267,2,0,P|236:283|268:329,1,90.9999958343508,2|2,1:2|0:0,0:0:0:0:
321,340,158696,2,0,L|403:357,1,45.4999979171754,2|4,3:0|3:0,0:0:0:0:
424,303,158981,1,2,3:0:0:0:
399,249,159124,1,2,0:0:0:0:
418,192,159267,1,2,0:0:0:0:
464,155,159410,2,0,P|476:112|454:56,1,90.9999958343508,0|4,1:0|3:0,0:0:0:0:
312,11,159981,6,0,P|321:70|281:154,1,136.499993751526,4|2,3:0|0:0,0:0:0:0:
223,117,160553,2,0,P|167:111|120:78,1,90.9999958343508,2|2,1:2|0:0,0:0:0:0:
87,62,160981,2,0,L|33:57,1,45.4999979171754,2|4,3:0|3:0,0:0:0:0:
69,186,161410,1,2,0:0:0:0:
47,240,161553,1,0,0:0:0:0:
74,292,161696,2,0,B|144:286|191:317|191:317|168:329,1,136.499993751526,2|0,1:2|0:0,0:0:0:0:
178,323,162267,6,0,P|235:342|314:303,1,136.499993751526,4|2,3:0|0:0,0:0:0:0:
369,280,162839,2,0,P|366:227|380:181,1,90.9999958343508,2|2,1:2|0:0,0:0:0:0:
346,139,163267,2,0,L|291:125,1,45.4999979171754,2|0,3:0|3:0,0:0:0:0:
271,61,163553,1,2,3:0:0:0:
259,63,163696,2,0,L|186:69,1,45.4999979171754,2|0,0:0|0:0,0:0:0:0:
462,114,164267,1,6,0:0:0:0:
412,19,164553,6,0,P|383:60|387:122,1,94.499997116089,6|2,0:0|0:0,0:0:0:0:
380,102,165124,1,2,0:0:0:0:
411,186,165410,1,0,0:0:0:0:
368,259,165696,2,0,L|373:299,1,31.4999990386963,2|0,0:0|0:0,0:0:0:0:
402,317,165981,1,2,0:0:0:0:
399,329,166124,1,2,0:0:0:0:
276,362,166839,6,0,L|173:348,1,94.499997116089,2|2,0:0|0:0,0:0:0:0:
182,349,167410,1,2,0:0:0:0:
143,278,167696,1,0,0:0:0:0:
63,305,167981,1,2,0:0:0:0:
59,289,168124,1,0,0:0:0:0:
36,254,168267,2,0,L|49:200,1,31.4999990386963,2|2,0:0|0:0,0:0:0:0:
70,122,168839,1,2,0:0:0:0:
37,22,169124,6,0,P|69:36|147:31,1,94.499997116089,2|2,0:0|0:0,0:0:0:0:
127,37,169696,2,0,P|171:54|197:82,1,62.9999980773926,2|0,0:0|0:0,0:0:0:0:
176,159,170267,2,0,L|169:207,1,31.4999990386963,2|0,0:0|0:0,0:0:0:0:
206,228,170553,2,0,L|213:276,1,31.4999990386963,2|2,0:0|0:0,0:0:0:0:
183,301,170839,1,2,0:0:0:0:
296,357,171410,6,0,L|398:345,1,94.499997116089,2|2,0:0|0:0,0:0:0:0:
389,345,171981,1,2,0:0:0:0:
433,273,172267,1,0,0:0:0:0:
384,203,172553,1,2,0:0:0:0:
379,173,172696,1,2,0:0:0:0:
374,143,172839,1,2,0:0:0:0:
369,113,172981,1,2,0:0:0:0:
278,30,173410,1,2,0:0:0:0:
199,104,173696,6,0,P|148:99|104:56,1,94.499997116089,2|2,0:0|0:0,0:0:0:0:
114,75,174267,1,2,0:0:0:0:
52,136,174553,1,0,0:0:0:0:
103,205,174839,2,0,L|98:245,1,31.4999990386963,2|0,0:0|0:0,0:0:0:0:
69,263,175124,1,2,0:0:0:0:
72,275,175267,1,2,0:0:0:0:
170,358,175982,6,0,L|273:344,1,94.499997116089,2|2,0:0|0:0,0:0:0:0:
264,345,176553,1,2,0:0:0:0:
319,280,176839,1,0,0:0:0:0:
276,207,177124,1,2,0:0:0:0:
280,191,177267,1,0,0:0:0:0:
303,156,177410,2,0,L|290:102,1,31.4999990386963,2|2,0:0|0:0,0:0:0:0:
377,28,177982,1,2,0:0:0:0:
484,75,178267,6,0,P|470:107|475:185,1,94.499997116089,2|2,0:0|0:0,0:0:0:0:
468,165,178839,2,0,P|470:215|456:244,1,62.9999980773926,2|0,0:0|0:0,0:0:0:0:
416,308,179410,2,0,L|368:315,1,31.4999990386963,2|0,0:0|0:0,0:0:0:0:
339,331,179696,2,0,L|291:324,1,31.4999990386963,2|2,0:0|0:0,0:0:0:0:
271,294,179982,1,2,0:0:0:0:
134,347,180553,6,0,L|146:245,1,94.499997116089,2|2,0:0|0:0,0:0:0:0:
146,254,181124,1,2,0:0:0:0:
219,207,181410,1,0,0:0:0:0:
181,131,181696,1,2,0:0:0:0:
183,100,181839,1,2,0:0:0:0:
185,70,181982,1,2,0:0:0:0:
188,40,182124,1,2,0:0:0:0:
293,0,182553,1,2,0:0:0:0:
256,192,182696,12,0,187410,0:0:0:0:
