osu file format v14

[General]
AudioFilename: audio.mp3
AudioLeadIn: 0
PreviewTime: 123339
Countdown: 0
SampleSet: Soft
StackLeniency: 0.7
Mode: 0
LetterboxInBreaks: 0
WidescreenStoryboard: 0

[Editor]
Bookmarks: 36553,54839,73124,91410,109696,118839,127981,130267,146267,164553
DistanceSpacing: 1.4
BeatDivisor: 4
GridSize: 32
TimelineZoom: 1

[Metadata]
Title:Hibiscus
TitleUnicode:Hibiscus
Artist:Wisp X
ArtistUnicode:Wisp X
Creator:Aeril
Version:Expert
Source:osu!
Tags:mappers' guild electronic instrumental featured artist fa
BeatmapID:2174050
BeatmapSetID:1040161

[Difficulty]
HPDrainRate:6
CircleSize:5
OverallDifficulty:9
ApproachRate:8
SliderMultiplier:2
SliderTickRate:1

[Events]
//Background and Video events
0,0,"hibiscus.png",0,0
//Break Periods
//Storyboard Layer 0 (Background)
//Storyboard Layer 1 (Fail)
//Storyboard Layer 2 (Pass)
//Storyboard Layer 3 (Foreground)
//Storyboard Layer 4 (Overlay)
//Storyboard Sound Samples

[TimingPoints]
-18,571.428571428571,4,2,0,100,1,0
31981,-100,4,2,0,40,0,0
34267,-100,4,2,0,50,0,0
36553,-100,4,2,0,65,0,0
63696,-333.333333333333,4,2,0,65,0,0
63981,-100,4,2,0,65,0,0
72553,-100,4,2,0,30,0,0
72839,-333.333333333333,4,2,0,50,0,0
73124,-125,4,2,0,60,0,0
90267,-125,4,2,0,50,0,0
90839,-125,4,2,0,45,0,0
91124,-333.333333333333,4,2,0,45,0,0
91410,-333.333333333333,4,2,0,55,0,0
109696,-76.9230769230769,4,2,0,60,0,0
110267,-100,4,2,0,60,0,0
110981,-200,4,2,0,60,0,0
111053,-200,4,2,0,5,0,0
111124,-200,4,2,0,60,0,0
111196,-200,4,2,0,5,0,0
111267,-200,4,2,0,60,0,0
111339,-200,4,2,0,5,0,0
111410,-100,4,2,0,60,0,0
111981,-76.9230769230769,4,2,0,60,0,0
112553,-100,4,2,0,60,0,0
113267,-200,4,2,0,60,0,0
113339,-200,4,2,0,5,0,0
113410,-200,4,2,0,60,0,0
113481,-200,4,2,0,5,0,0
113553,-100,4,2,0,60,0,0
113981,-83.3333333333333,4,2,0,60,0,0
114267,-76.9230769230769,4,2,0,60,0,0
114839,-100,4,2,0,60,0,0
115553,-200,4,2,0,60,0,0
115624,-200,4,2,0,5,0,0
115696,-200,4,2,0,60,0,0
115767,-200,4,2,0,5,0,0
115839,-200,4,2,0,60,0,0
115910,-200,4,2,0,5,0,0
115981,-100,4,2,0,60,0,0
116553,-76.9230769230769,4,2,0,60,0,0
117124,-100,4,2,0,60,0,0
117839,-200,4,2,0,60,0,0
117910,-200,4,2,0,5,0,0
117981,-200,4,2,0,60,0,0
118053,-200,4,2,0,5,0,0
118124,-100,4,2,0,60,0,0
118839,-76.9230769230769,4,2,0,60,0,0
123410,-55.5555555555556,4,2,0,65,0,0
126839,-55.5555555555556,4,2,0,50,0,0
127410,-55.5555555555556,4,2,0,45,0,0
127981,-55.5555555555556,4,2,0,60,0,0
130267,-71.4285714285714,4,2,0,75,0,0
134267,-142.857142857143,4,2,0,75,0,0
134839,-71.4285714285714,4,2,0,75,0,0
138839,-90.909090909091,4,2,0,75,0,0
139410,-71.4285714285714,4,2,0,75,0,0
143410,-90.909090909091,4,2,0,75,0,0
143981,-71.4285714285714,4,2,0,75,0,0
145124,-71.4285714285714,4,2,0,40,0,0
145981,-71.4285714285714,4,2,0,60,0,0
146267,-71.4285714285714,4,2,0,65,0,0
163410,-71.4285714285714,4,2,0,50,0,0
163981,-71.4285714285714,4,2,0,30,0,0
164267,-71.4285714285714,4,2,0,60,0,0
164553,-100,4,2,0,45,0,0
183981,-100,4,2,0,35,0,0
185124,-100,4,2,0,25,0,0
186267,-100,4,2,0,15,0,0
187410,-100,4,2,0,5,0,0

[Colours]
Combo1 : 244,128,227
Combo2 : 206,6,101

[HitObjects]
256,192,31981,12,0,36267,0:0:0:0:
46,216,36553,5,4,3:0:0:0:
85,246,36696,1,0,0:0:0:0:
98,294,36839,1,0,0:0:0:0:
85,342,36981,1,0,0:0:0:0:
77,256,37124,2,0,P|115:224|164:213,1,100,2|2,1:2|0:0,0:0:0:0:
223,69,37696,5,4,3:0:0:0:
158,28,37839,1,0,0:0:0:0:
214,56,37981,1,0,0:0:0:0:
273,33,38124,1,0,0:0:0:0:
427,55,38267,2,0,B|434:149|397:114|405:223,1,150,2|0,1:2|0:0,0:0:0:0:
383,278,38839,5,4,3:0:0:0:
408,319,38981,1,0,0:0:0:0:
455,306,39124,1,0,0:0:0:0:
457,258,39267,1,0,0:0:0:0:
397,329,39410,1,2,1:2:0:0:
413,239,39696,1,2,0:0:0:0:
280,283,39981,5,4,3:0:0:0:
215,303,40124,1,0,0:0:0:0:
156,269,40267,1,0,0:0:0:0:
90,251,40410,1,2,0:0:0:0:
201,313,40553,1,0,1:0:0:0:
176,370,40839,1,4,3:0:0:0:
11,204,41124,5,4,3:0:0:0:
57,185,41267,1,0,0:0:0:0:
75,138,41410,1,0,0:0:0:0:
66,88,41553,1,0,0:0:0:0:
96,0,41696,2,0,P|78:57|80:120,1,100,2|2,1:2|0:0,0:0:0:0:
252,183,42267,5,4,3:0:0:0:
320,153,42410,1,0,0:0:0:0:
379,198,42553,1,0,0:0:0:0:
325,164,42696,1,0,0:0:0:0:
440,174,42839,2,0,B|467:142|456:105|456:105|467:142|508:155,1,150,2|0,1:2|0:0,0:0:0:0:
490,218,43410,6,0,L|480:345,1,100,4|0,3:0|0:0,0:0:0:0:
319,318,43839,1,0,0:0:0:0:
401,356,43981,2,0,P|371:314|304:316,1,100,2|2,1:2|0:0,0:0:0:0:
156,151,44553,5,4,3:0:0:0:
192,83,44696,1,0,0:0:0:0:
265,58,44839,1,2,0:0:0:0:
385,2,44981,1,2,0:0:0:0:
306,74,45124,1,0,1:0:0:0:
225,60,45410,1,8,3:0:0:0:
31,212,45696,5,4,3:0:0:0:
79,200,45839,1,0,0:0:0:0:
126,214,45981,1,0,0:0:0:0:
157,253,46124,1,0,0:0:0:0:
227,367,46267,2,0,P|219:301|230:269,1,100,2|2,1:2|0:0,0:0:0:0:
458,138,46839,5,4,3:0:0:0:
512,196,46981,1,0,0:0:0:0:
461,153,47124,1,0,0:0:0:0:
395,152,47267,1,0,0:0:0:0:
442,273,47410,2,0,B|429:185|472:223|451:109,1,150,2|0,1:2|0:0,0:0:0:0:
244,58,47981,5,4,3:0:0:0:
269,17,48123,1,0,0:0:0:0:
316,30,48266,1,0,0:0:0:0:
318,78,48409,1,0,0:0:0:0:
258,7,48552,1,2,1:2:0:0:
274,97,48838,1,2,0:0:0:0:
156,239,49124,5,4,3:0:0:0:
201,291,49267,1,0,0:0:0:0:
189,358,49410,1,0,0:0:0:0:
254,379,49553,1,2,0:0:0:0:
171,272,49696,1,0,1:0:0:0:
26,205,49981,1,4,3:0:0:0:
26,205,50267,5,4,3:0:0:0:
68,178,50410,1,0,0:0:0:0:
81,129,50553,1,0,0:0:0:0:
71,79,50696,1,0,0:0:0:0:
63,168,50839,2,0,P|114:163|160:133,1,100,2|2,1:2|0:0,0:0:0:0:
434,43,51410,5,4,3:0:0:0:
366,13,51553,1,0,0:0:0:0:
307,58,51696,1,0,0:0:0:0:
361,24,51839,1,0,0:0:0:0:
410,157,51982,2,0,B|377:183|382:222|382:222|377:183|339:163,1,150,2|0,1:2|0:0,0:0:0:0:
261,198,52553,6,0,L|119:221,1,100,4|0,3:0|0:0,0:0:0:0:
14,92,52981,1,0,0:0:0:0:
51,195,53124,2,0,P|22:146|32:84,1,100,2|2,1:2|0:0,0:0:0:0:
224,18,53696,5,0,0:0:0:0:
227,34,53839,1,0,0:0:0:0:
205,29,53981,1,0,0:0:0:0:
192,92,54124,1,0,0:0:0:0:
337,68,54267,1,0,1:0:0:0:
175,177,54553,1,8,3:0:0:0:
151,289,54839,5,4,3:1:0:0:
198,273,54981,1,0,0:0:0:0:
245,287,55124,1,0,0:0:0:0:
273,328,55267,1,0,0:0:0:0:
389,298,55410,2,0,L|397:234,1,50,2|0,1:2|0:0,0:0:0:0:
465,345,55696,1,2,0:0:0:0:
405,239,55839,2,0,L|398:288,1,50,2|4,3:0|3:0,0:0:0:0:
349,171,56124,5,2,3:0:0:0:
385,108,56267,1,2,0:0:0:0:
357,41,56410,1,0,0:0:0:0:
512,72,56553,2,0,B|431:65|466:108|347:94,1,150,2|0,1:2|0:0,0:0:0:0:
202,35,57124,5,4,3:0:0:0:
145,57,57267,1,0,0:0:0:0:
148,118,57410,1,0,0:0:0:0:
206,133,57553,1,0,0:0:0:0:
135,49,57696,2,0,L|66:69,1,50,2|0,1:2|0:0,0:0:0:0:
239,81,57981,1,2,0:0:0:0:
97,71,58124,2,0,L|145:57,1,50,2|4,3:0|3:0,0:0:0:0:
202,226,58410,5,2,3:0:0:0:
129,248,58553,1,2,0:0:0:0:
82,308,58696,1,0,0:0:0:0:
120,237,58839,1,0,1:0:0:0:
199,247,59124,1,4,3:0:0:0:
206,249,59267,1,0,0:0:0:0:
259,312,59410,5,4,3:0:0:0:
248,263,59553,1,0,0:0:0:0:
270,218,59696,1,0,0:0:0:0:
318,206,59839,1,2,0:0:0:0:
369,112,59981,2,0,L|307:99,1,50,2|0,1:2|0:0,0:0:0:0:
437,67,60267,1,2,0:0:0:0:
315,110,60410,2,0,L|363:120,1,50,2|4,3:0|3:0,0:0:0:0:
459,297,60696,5,2,3:0:0:0:
389,294,60839,1,2,0:0:0:0:
339,341,60981,1,0,0:0:0:0:
337,238,61124,2,0,B|362:204|350:167|350:167|362:204|401:218,1,150,2|0,1:2|0:0,0:0:0:0:
464,172,61696,6,0,L|476:59,1,100,4|0,3:0|0:0,0:0:0:0:
300,0,62124,1,2,0:0:0:0:
379,24,62267,2,0,L|385:96,1,50,2|0,1:2|0:0,0:0:0:0:
295,6,62553,1,2,0:0:0:0:
377,81,62696,2,0,L|373:32,1,50,2|4,3:0|3:0,0:0:0:0:
214,121,62981,5,2,3:0:0:0:
149,82,63124,1,2,0:0:0:0:
74,93,63267,1,0,0:0:0:0:
189,31,63410,2,0,L|200:123,1,50,2|0,1:2|0:0,0:0:0:0:
128,196,63696,2,0,L|130:219,1,22.4999993133545,8|0,3:0|0:0,0:0:0:0:
87,266,63981,5,4,3:1:0:0:
115,224,64124,1,0,0:0:0:0:
114,173,64267,1,0,0:0:0:0:
86,131,64410,1,0,0:0:0:0:
142,41,64553,2,0,L|191:35,1,50,2|0,1:2|0:0,0:0:0:0:
58,6,64839,1,2,0:0:0:0:
190,43,64981,2,0,L|141:49,1,50,2|4,3:0|3:0,0:0:0:0:
302,127,65267,5,2,3:0:0:0:
370,109,65410,1,2,0:0:0:0:
429,149,65553,1,0,0:0:0:0:
394,10,65696,2,0,B|389:102|425:50|414:187,1,150,2|0,1:2|0:0,0:0:0:0:
379,328,66267,5,4,3:0:0:0:
354,272,66410,1,0,0:0:0:0:
399,231,66553,1,0,0:0:0:0:
451,261,66696,1,0,0:0:0:0:
348,279,66839,2,0,L|267:290,1,50,2|0,1:2|0:0,0:0:0:0:
437,321,67124,1,2,0:0:0:0:
295,294,67267,2,0,L|344:287,1,50,2|4,3:0|3:0,0:0:0:0:
192,173,67553,5,2,3:0:0:0:
121,200,67696,1,2,0:0:0:0:
94,271,67839,1,0,0:0:0:0:
0,351,67981,1,0,1:0:0:0:
62,301,68267,1,4,3:0:0:0:
64,292,68410,1,0,0:0:0:0:
31,221,68553,5,4,3:0:0:0:
80,230,68696,1,0,0:0:0:0:
124,207,68839,1,0,0:0:0:0:
140,159,68981,1,2,0:0:0:0:
73,63,69124,2,0,L|82:126,1,50,2|0,1:2|0:0,0:0:0:0:
151,11,69410,1,2,0:0:0:0:
89,117,69553,2,0,L|81:67,1,50,2|4,3:0|3:0,0:0:0:0:
239,160,69839,5,2,3:0:0:0:
208,228,69981,1,2,0:0:0:0:
250,290,70124,1,0,0:0:0:0:
139,207,70267,2,0,B|118:243|80:248|80:248|118:243|148:274,1,150,2|0,1:2|0:0,0:0:0:0:
214,319,70839,6,0,L|347:339,1,100,4|0,3:0|0:0,0:0:0:0:
451,382,71267,1,2,0:0:0:0:
396,318,71410,2,0,L|403:258,1,50,2|0,1:2|0:0,0:0:0:0:
457,377,71696,1,2,0:0:0:0:
409,264,71839,2,0,L|403:313,1,50,2|0,3:0|0:0,0:0:0:0:
341,361,72124,1,2,3:0:0:0:
342,373,72267,1,2,0:0:0:0:
332,294,72553,1,0,1:0:0:0:
292,35,72839,2,0,L|295:60,1,22.4999993133545,6|0,0:0|0:0,0:0:0:0:
269,116,73124,6,0,P|309:80|419:82,2,160,4|2|4,3:2|1:2|3:0,0:0:0:0:
385,250,74839,2,0,P|358:221|319:210,1,80,2|2,1:2|0:0,0:0:0:0:
162,359,75410,1,4,3:0:0:0:
114,189,75696,5,2,0:0:0:0:
62,272,75981,2,0,P|140:279|203:233,1,160,2|4,1:2|3:0,0:0:0:0:
116,54,76839,1,2,0:0:0:0:
42,106,77124,2,0,P|68:134|107:145,1,80,2|4,1:2|3:0,0:0:0:0:
138,12,77696,6,0,P|46:-2|-12:66,2,160,4|2|4,3:0|1:2|3:0,0:0:0:0:
190,83,79410,2,0,P|179:132|153:158,1,80,2|2,1:2|0:0,0:0:0:0:
323,351,79981,2,0,P|415:365|473:297,2,160,4|2|4,3:1|1:2|3:0,0:0:0:0:
317,336,81267,1,2,0:0:0:0:
239,340,81410,1,0,0:0:0:0:
243,310,81553,1,2,0:0:0:0:
165,292,81696,1,2,1:2:0:0:
196,246,81839,1,2,0:0:0:0:
115,193,81981,1,8,3:0:0:0:
186,173,82124,1,2,0:0:0:0:
131,91,82267,6,0,P|39:118|5:191,2,160,4|2|4,3:2|1:2|3:0,0:0:0:0:
142,288,83981,2,0,P|137:234|159:190,1,80,2|2,1:2|0:0,0:0:0:0:
337,147,84553,1,4,3:0:0:0:
317,355,84839,5,2,0:0:0:0:
419,322,85124,2,0,P|384:273|284:252,1,160,2|4,1:2|3:0,0:0:0:0:
415,148,85981,1,2,0:0:0:0:
457,240,86267,2,0,P|493:215|513:163,1,80,2|4,1:2|3:0,0:0:0:0:
366,71,86839,6,0,P|403:37|516:32,2,160,4|2|4,3:2|1:2|3:0,0:0:0:0:
340,164,88553,1,2,1:2:0:0:
366,71,88839,1,2,0:0:0:0:
186,235,89124,2,0,P|117:227|61:141,2,160,4|2|4,3:1|1:2|3:0,0:0:0:0:
216,314,90410,1,2,0:0:0:0:
293,255,90553,1,0,0:0:0:0:
296,295,90696,1,2,0:0:0:0:
382,280,90839,1,2,1:2:0:0:
378,293,90981,1,2,0:0:0:0:
512,300,91124,6,0,L|482:306,1,29.9999990844727,0|2,0:0|0:0,0:0:0:0:
482,305,91981,1,0,0:0:0:0:
410,246,93124,1,2,0:0:0:0:
37,352,93696,5,2,0:0:0:0:
87,303,94267,1,0,0:0:0:0:
70,336,95410,1,0,0:0:0:0:
403,153,95981,5,2,0:0:0:0:
403,153,96553,1,0,0:0:0:0:
381,48,97696,1,2,0:0:0:0:
32,2,98267,5,2,0:0:0:0:
89,125,98839,1,0,0:0:0:0:
37,75,99981,1,0,0:0:0:0:
3,310,100553,5,2,0:0:0:0:
3,310,101124,1,0,0:0:0:0:
72,272,102267,1,2,0:0:0:0:
329,239,102839,5,2,0:0:0:0:
292,257,103410,1,0,0:0:0:0:
249,314,104553,1,0,0:0:0:0:
256,192,105124,12,0,108839,0:0:0:0:
188,153,109124,5,2,0:0:0:0:
115,175,109410,1,0,3:0:0:0:
105,178,109553,1,0,3:0:0:0:
10,138,109696,6,0,B|1:43|1:43|9:65|41:77,1,129.999994049073,0|0,3:0|0:0,0:0:0:0:
144,115,110124,1,2,0:0:0:0:
95,39,110267,2,0,P|126:20|198:21,2,100,2|2|2,0:3|0:0|0:3,0:0:0:0:
62,115,110981,6,0,L|44:120,1,12.5,0|0,3:0|0:0,0:0:0:0:
26,187,111124,2,0,L|19:201,1,12.5,2|0,0:3|0:0,0:0:0:0:
123,234,111267,2,0,L|130:248,1,12.5,0|0,0:0|0:0,0:0:0:0:
75,338,111410,2,0,B|74:263|107:284|97:176,1,150,2|0,3:2|0:0,0:0:0:0:
153,137,111981,6,0,B|194:109|259:117|259:117|239:142,1,129.999994049073,0|0,3:0|0:0,0:0:0:0:
283,298,112410,1,2,0:0:0:0:
200,234,112553,2,0,P|159:248|126:301,2,100,2|2|2,0:3|0:0|0:3,0:0:0:0:
268,287,113267,6,0,L|274:308,1,12.5,0|0,3:0|0:0,0:0:0:0:
346,230,113410,2,0,L|345:252,1,12.5,2|0,0:3|0:0,0:0:0:0:
470,347,113553,2,0,L|460:290,1,50,2|2,3:2|3:0,0:0:0:0:
461,297,113981,2,0,B|460:247|482:261|480:196,1,89.9999972534181,2|0,0:0|0:0,0:0:0:0:
394,127,114267,6,0,P|404:78|481:109,1,129.999994049073,0|0,3:0|0:0,0:0:0:0:
474,178,114696,1,2,0:0:0:0:
345,211,114839,2,0,P|308:226|266:276,2,100,2|2|2,0:3|0:0|0:3,0:0:0:0:
290,115,115553,6,0,L|285:97,1,12.5,0|0,3:0|0:0,0:0:0:0:
227,59,115696,2,0,L|213:52,1,12.5,2|0,0:3|0:0,0:0:0:0:
155,155,115839,2,0,L|141:162,1,12.5,0|0,0:0|0:0,0:0:0:0:
37,119,115981,2,0,B|112:118|91:151|199:141,1,150,2|0,3:2|0:0,0:0:0:0:
274,116,116553,6,0,B|285:52|242:10|242:10|231:40,1,129.999994049073,0|0,3:0|0:0,0:0:0:0:
80,50,116981,1,2,0:0:0:0:
160,117,117124,2,0,P|160:149|116:222,2,100,2|2|2,0:3|0:0|0:3,0:0:0:0:
92,68,117839,6,0,L|78:65,1,12.5,0|0,3:0|0:0,0:0:0:0:
12,133,117981,2,0,L|-2:136,1,12.5,2|0,0:3|0:0,0:0:0:0:
100,283,118124,2,0,L|48:269,1,50,2|2,3:2|3:0,0:0:0:0:
59,194,118553,1,2,0:0:0:0:
89,304,118839,6,0,L|75:30,3,259.999988098145,0|0|0|2,1:0|1:3|1:3|3:2,0:0:0:0:
205,89,121124,2,0,L|191:363,3,259.999988098145,0|0|0|0,1:0|1:3|1:3|1:3,0:0:0:0:
191,348,123124,1,2,0:0:0:0:
482,344,123410,6,0,L|467:164,3,179.999994506836,0|2|0|2,1:0|1:2|1:3|1:2,0:0:0:0:
339,54,124553,2,0,L|324:234,3,179.999994506836,0|0|0|0,1:3|1:0|1:2|1:0,0:0:0:0:
211,350,125696,5,0,1:0:0:0:
268,293,125839,1,0,3:0:0:0:
187,215,125981,1,0,1:0:0:0:
178,213,126053,1,0,1:0:0:0:
169,211,126124,1,0,1:0:0:0:
251,158,126267,1,0,1:0:0:0:
211,85,126410,1,0,3:0:0:0:
324,34,126553,1,0,1:0:0:0:
333,32,126625,1,0,1:0:0:0:
342,30,126696,1,0,1:0:0:0:
256,192,126839,12,2,127981,0:0:0:0:
118,222,130267,6,0,L|110:151,1,69.9999978637696,4|0,3:1|0:0,0:0:0:0:
69,336,130553,1,0,0:0:0:0:
126,372,130696,1,2,0:0:0:0:
60,343,130839,2,0,L|63:271,1,69.9999978637696,2|0,1:2|0:0,0:0:0:0:
126,216,131124,2,0,L|118:145,1,69.9999978637696,2|0,0:0|0:0,0:0:0:0:
194,34,131410,5,4,3:0:0:0:
268,79,131553,1,2,0:0:0:0:
345,38,131696,1,2,0:0:0:0:
275,67,131839,1,2,0:3:0:0:
406,101,131981,2,0,B|438:130|436:165|436:165|438:130|483:106,1,139.999995727539,0|4,1:0|3:0,0:0:0:0:
397,111,132410,1,0,0:0:0:0:
338,252,132553,5,4,3:0:0:0:
359,321,132696,1,0,0:0:0:0:
431,322,132839,1,0,0:0:0:0:
454,253,132981,1,2,0:0:0:0:
350,327,133124,2,0,L|270:336,1,69.9999978637696,2|0,1:2|0:0,0:0:0:0:
396,209,133410,1,2,0:0:0:0:
399,196,133553,1,0,0:0:0:0:
276,132,133696,5,4,3:0:0:0:
223,191,133839,1,0,0:0:0:0:
133,208,133981,1,2,0:0:0:0:
31,169,134124,1,2,0:0:0:0:
143,195,134267,2,0,L|148:283,1,69.9999978637696,2|0,1:2|0:0,0:0:0:0:
138,277,134696,1,0,0:0:0:0:
206,356,134839,6,0,L|295:366,1,69.9999978637696,4|0,3:0|0:0,0:0:0:0:
457,275,135124,1,0,0:0:0:0:
500,210,135267,1,2,0:0:0:0:
453,260,135410,2,0,L|364:270,1,69.9999978637696,2|0,1:2|0:0,0:0:0:0:
316,201,135696,2,0,L|227:191,1,69.9999978637696,2|0,0:0|0:0,0:0:0:0:
96,40,135981,5,4,3:0:0:0:
36,106,136124,1,2,0:0:0:0:
75,186,136267,1,2,0:0:0:0:
58,273,136410,1,2,0:3:0:0:
168,139,136553,2,0,B|145:170|105:162|105:162|145:170|158:211,1,139.999995727539,0|8,1:0|3:0,0:0:0:0:
164,122,136981,1,0,0:0:0:0:
263,42,137124,6,0,L|361:59,1,69.9999978637696,4|0,3:0|0:0,0:0:0:0:
93,9,137410,1,0,0:0:0:0:
47,76,137553,1,2,0:0:0:0:
105,20,137696,2,0,L|203:3,1,69.9999978637696,2|0,1:2|0:0,0:0:0:0:
247,52,137981,2,0,L|345:69,1,69.9999978637696,2|0,0:0|0:0,0:0:0:0:
445,224,138267,5,4,3:0:0:0:
402,296,138410,1,0,0:0:0:0:
430,232,138553,1,2,0:0:0:0:
400,169,138696,1,2,0:0:0:0:
512,59,138839,2,0,B|452:64|484:91|395:96,1,110.000003356934,2|0,1:2|0:0,0:0:0:0:
399,80,139267,1,0,0:0:0:0:
308,142,139410,5,4,3:0:0:0:
250,185,139553,1,0,0:0:0:0:
274,253,139696,1,0,0:0:0:0:
346,251,139838,1,2,0:0:0:0:
237,174,139981,2,0,L|161:190,1,69.9999978637696,2|0,1:2|0:0,0:0:0:0:
368,181,140267,1,2,0:0:0:0:
380,187,140410,1,0,0:0:0:0:
431,307,140553,5,4,3:0:0:0:
351,278,140696,1,2,0:0:0:0:
245,277,140839,1,2,0:0:0:0:
159,357,140981,1,2,0:3:0:0:
166,201,141124,2,0,B|205:220|207:255|207:255|205:220|241:192,1,139.999995727539,0|4,1:0|3:0,0:0:0:0:
155,215,141553,1,0,0:0:0:0:
289,108,141696,6,0,L|200:118,1,69.9999978637696,4|0,3:0|0:0,0:0:0:0:
46,108,141981,1,0,0:0:0:0:
3,43,142124,1,2,0:0:0:0:
50,93,142267,2,0,L|139:103,1,69.9999978637696,2|0,1:2|0:0,0:0:0:0:
187,34,142553,2,0,L|276:24,1,69.9999978637696,2|0,0:0|0:0,0:0:0:0:
471,168,142839,5,4,3:0:0:0:
397,118,142981,1,0,0:0:0:0:
310,141,143124,1,2,0:0:0:0:
385,130,143267,1,2,0:0:0:0:
248,18,143410,2,0,B|250:80|223:55|231:145,1,110.000003356934,2|0,1:2|0:0,0:0:0:0:
236,142,143839,1,0,0:0:0:0:
122,149,143981,5,4,3:0:0:0:
178,214,144124,1,0,0:0:0:0:
133,287,144267,1,0,0:0:0:0:
49,267,144410,1,2,0:0:0:0:
187,229,144553,2,0,L|270:224,1,69.9999978637696,2|0,1:2|0:0,0:0:0:0:
42,180,144839,1,2,0:0:0:0:
28,175,144981,1,0,0:0:0:0:
113,208,145124,5,4,3:0:0:0:
256,192,145196,12,0,146124,0:0:0:0:
463,30,146267,5,4,3:1:0:0:
473,99,146410,1,0,0:0:0:0:
416,140,146553,1,0,0:0:0:0:
406,71,146696,1,2,0:0:0:0:
306,141,146839,2,0,P|295:181|300:220,1,69.9999978637696,2|0,1:2|0:0,0:0:0:0:
255,60,147124,1,2,0:0:0:0:
282,209,147267,2,0,P|280:174|290:140,1,69.9999978637696,2|4,3:0|3:0,0:0:0:0:
149,33,147553,5,2,3:0:0:0:
86,94,147696,1,2,0:0:0:0:
95,181,147839,1,0,0:0:0:0:
12,310,147981,2,0,B|90:291|68:337|156:309,1,139.999995727539,2|0,1:2|0:0,0:0:0:0:
157,294,148410,1,0,0:0:0:0:
329,365,148553,5,4,3:0:0:0:
365,305,148696,1,0,0:0:0:0:
319,252,148839,1,0,0:0:0:0:
254,279,148981,1,2,0:0:0:0:
379,300,149124,2,0,P|391:279|400:226,1,69.9999978637696,2|0,1:2|0:0,0:0:0:0:
259,349,149410,1,2,0:0:0:0:
386,229,149553,2,0,P|380:263|364:294,1,69.9999978637696,2|4,3:0|3:0,0:0:0:0:
300,112,149839,5,2,3:0:0:0:
388,134,149981,1,2,0:0:0:0:
461,79,150124,1,2,0:0:0:0:
315,19,150267,2,0,B|359:27|370:62|370:62|359:27|389:-9,1,139.999995727539,0|4,1:0|3:0,0:0:0:0:
306,35,150696,1,0,0:0:0:0:
137,52,150839,5,4,3:0:0:0:
105,114,150981,1,0,0:0:0:0:
142,173,151124,1,0,0:0:0:0:
174,111,151266,1,2,0:0:0:0:
295,191,151410,2,0,P|326:190|366:166,1,69.9999978637696,2|0,1:2|0:0,0:0:0:0:
211,240,151696,1,2,0:0:0:0:
355,161,151839,2,0,P|324:177|290:179,1,69.9999978637696,2|4,3:0|3:0,0:0:0:0:
144,276,152124,5,2,3:0:0:0:
54,266,152267,1,2,0:0:0:0:
5,342,152410,1,0,0:0:0:0:
27,199,152553,2,0,B|46:121|0:143|28:55,1,139.999995727539,2|0,1:2|0:0,0:0:0:0:
43,54,152982,1,0,0:0:0:0:
192,123,153124,5,4,3:0:0:0:
222,59,153267,1,0,0:0:0:0:
292,67,153410,1,0,0:0:0:0:
305,136,153553,1,2,0:0:0:0:
212,72,153696,2,0,P|171:57|123:62,1,69.9999978637696,2|0,1:2|0:0,0:0:0:0:
244,172,153981,1,2,0:0:0:0:
140,69,154124,2,0,P|174:70|206:84,1,69.9999978637696,2|4,3:0|3:0,0:0:0:0:
392,34,154410,5,2,3:0:0:0:
366,121,154553,1,2,0:0:0:0:
423,192,154696,1,2,0:0:0:0:
380,334,154839,2,0,B|391:299|376:269|376:269|391:299|444:312,1,139.999995727539,2|8,1:2|3:0,0:0:0:0:
364,344,155267,1,0,0:0:0:0:
178,301,155410,5,4,3:1:0:0:
137,358,155553,1,0,0:0:0:0:
68,348,155696,1,0,0:0:0:0:
109,291,155839,1,2,0:0:0:0:
68,179,155982,2,0,P|66:144|76:110,1,69.9999978637696,2|0,1:2|0:0,0:0:0:0:
0,278,156267,1,2,0:0:0:0:
90,117,156410,2,0,P|80:150|82:185,1,69.9999978637696,2|4,3:0|3:0,0:0:0:0:
182,36,156696,5,2,3:0:0:0:
243,99,156839,1,2,0:0:0:0:
330,90,156982,1,0,0:0:0:0:
501,178,157124,2,0,B|423:159|445:205|357:177,1,139.999995727539,2|0,1:2|0:0,0:0:0:0:
356,162,157553,1,0,0:0:0:0:
154,271,157696,5,4,3:0:0:0:
118,211,157839,1,0,0:0:0:0:
164,158,157982,1,0,0:0:0:0:
229,185,158124,1,2,0:0:0:0:
106,223,158267,2,0,P|61:217|30:187,1,69.9999978637696,2|0,1:2|0:0,0:0:0:0:
224,255,158553,1,2,0:0:0:0:
35,217,158696,2,0,P|65:235|100:237,1,69.9999978637696,2|4,3:0|3:0,0:0:0:0:
300,210,158982,5,2,3:0:0:0:
388,188,159124,1,2,0:0:0:0:
461,243,159267,1,2,0:0:0:0:
327,289,159410,2,0,B|356:318|348:354|348:354|356:318|399:307,1,139.999995727539,0|4,1:0|3:0,0:0:0:0:
313,295,159839,1,0,0:0:0:0:
403,161,159982,5,4,3:0:0:0:
371,99,160124,1,0,0:0:0:0:
408,40,160267,1,0,0:0:0:0:
440,102,160409,1,2,0:0:0:0:
269,119,160553,2,0,P|238:118|198:94,1,69.9999978637696,2|0,1:2|0:0,0:0:0:0:
319,193,160839,1,2,0:0:0:0:
205,83,160982,2,0,P|236:99|270:101,1,69.9999978637696,2|4,3:0|3:0,0:0:0:0:
361,264,161267,5,2,3:0:0:0:
445,231,161410,1,2,0:0:0:0:
512,291,161553,1,0,0:0:0:0:
311,187,161696,2,0,B|292:265|338:243|310:331,1,139.999995727539,2|0,1:2|0:0,0:0:0:0:
295,332,162125,1,0,0:0:0:0:
78,279,162267,5,4,3:0:0:0:
108,215,162410,1,0,0:0:0:0:
178,223,162553,1,0,0:0:0:0:
191,292,162696,1,2,0:0:0:0:
98,228,162839,2,0,P|57:213|9:218,1,69.9999978637696,2|0,1:2|0:0,0:0:0:0:
130,328,163124,1,2,0:0:0:0:
26,225,163267,2,0,P|60:226|92:240,1,69.9999978637696,2|0,3:0|3:0,0:0:0:0:
190,111,163553,5,2,3:0:0:0:
296,162,163696,1,2,0:0:0:0:
392,94,163839,1,0,0:0:0:0:
512,205,163982,2,0,B|477:186|437:211|437:211|476:234|470:286,1,139.999995727539,0|6,1:0|0:0,0:0:0:0:
456,274,164410,1,0,0:0:0:0:
343,346,164553,5,6,0:0:0:0:
352,306,164696,1,0,0:0:0:0:
336,268,164839,1,0,0:0:0:0:
302,246,164981,1,2,0:0:0:0:
289,178,165124,1,2,0:0:0:0:
289,247,165410,1,0,0:0:0:0:
51,309,165696,1,2,0:0:0:0:
109,324,165839,1,0,0:0:0:0:
166,304,165981,1,2,0:0:0:0:
192,249,166124,1,2,0:0:0:0:
182,236,166839,5,2,0:0:0:0:
166,199,166981,1,0,0:0:0:0:
172,159,167124,1,0,0:0:0:0:
192,124,167267,1,2,0:0:0:0:
159,60,167410,1,2,0:0:0:0:
203,118,167696,1,0,0:0:0:0:
40,24,167981,1,2,0:0:0:0:
108,9,168124,1,0,0:0:0:0:
177,20,168267,1,2,0:0:0:0:
229,66,168410,1,2,0:0:0:0:
240,135,168839,1,2,0:0:0:0:
470,106,169124,5,2,0:0:0:0:
430,113,169267,1,0,0:0:0:0:
391,100,169410,1,0,0:0:0:0:
365,69,169553,1,2,0:0:0:0:
292,45,169696,1,2,0:0:0:0:
368,56,169981,1,0,0:0:0:0:
461,197,170267,1,2,0:0:0:0:
407,223,170410,1,0,0:0:0:0:
385,279,170553,1,2,0:0:0:0:
392,338,170696,1,2,0:0:0:0:
466,298,170839,1,2,0:0:0:0:
68,276,171410,5,2,0:0:0:0:
184,325,171839,1,2,0:0:0:0:
62,287,171982,1,2,0:0:0:0:
131,280,172267,1,0,0:0:0:0:
136,263,172553,1,2,0:0:0:0:
184,210,172696,1,2,0:0:0:0:
191,140,172839,1,2,0:0:0:0:
150,83,172981,1,2,0:0:0:0:
191,140,173410,1,2,0:0:0:0:
23,317,173696,5,2,0:0:0:0:
61,304,173839,1,0,0:0:0:0:
99,311,173981,1,0,0:0:0:0:
131,334,174124,1,2,0:0:0:0:
203,309,174267,1,2,0:0:0:0:
137,344,174553,1,0,0:0:0:0:
374,384,174839,1,2,0:0:0:0:
339,335,174981,1,0,0:0:0:0:
345,275,175124,1,2,0:0:0:0:
383,228,175267,1,2,0:0:0:0:
374,210,175981,5,2,0:0:0:0:
401,181,176124,1,0,0:0:0:0:
412,142,176267,1,0,0:0:0:0:
404,102,176410,1,2,0:0:0:0:
459,41,176552,1,2,0:0:0:0:
392,88,176838,1,0,0:0:0:0:
229,15,177124,1,2,0:0:0:0:
260,77,177267,1,0,0:0:0:0:
251,146,177410,1,2,0:0:0:0:
207,200,177553,1,2,0:0:0:0:
137,208,177981,1,2,0:0:0:0:
10,56,178267,5,2,0:0:0:0:
41,82,178410,1,0,0:0:0:0:
81,90,178553,1,0,0:0:0:0:
119,76,178696,1,2,0:0:0:0:
194,92,178839,1,2,0:0:0:0:
123,63,179124,1,0,0:0:0:0:
8,246,179410,1,2,0:0:0:0:
61,219,179553,1,0,0:0:0:0:
121,220,179696,1,2,0:0:0:0:
164,262,179839,1,2,0:0:0:0:
92,305,179982,1,2,0:0:0:0:
383,362,180553,5,2,0:0:0:0:
259,319,180981,1,2,0:0:0:0:
373,352,181123,1,2,0:0:0:0:
332,279,181410,1,0,0:0:0:0:
323,266,181696,1,2,0:0:0:0:
356,204,181839,1,2,0:0:0:0:
318,133,181981,1,2,0:0:0:0:
387,68,182124,1,2,0:0:0:0:
360,2,182553,1,2,0:0:0:0:
256,192,182696,12,0,187410,0:0:0:0:
