osu file format v14

[General]
AudioFilename: audio.mp3
AudioLeadIn: 0
PreviewTime: 23720
Countdown: 0
SampleSet: None
StackLeniency: 0.7
Mode: 0
LetterboxInBreaks: 0
WidescreenStoryboard: 0

[Editor]
Bookmarks: 2902,4357,13084,24720,47993,71266
DistanceSpacing: 0.2
BeatDivisor: 4
GridSize: 16
TimelineZoom: 2.2

[Metadata]
Title:Final Moments
TitleUnicode:Final Moments
Artist:Wisp X
ArtistUnicode:Wisp X
Creator:Burt
Version:Insane
Source:
Tags:
BeatmapID:1610975
BeatmapSetID:766295

[Difficulty]
HPDrainRate:7
CircleSize:4.3
OverallDifficulty:7
ApproachRate:9
SliderMultiplier:1.4
SliderTickRate:1

[Events]
//Background and Video events
0,0,"tetris.jpg",0,0
//Break Periods
//Storyboard Layer 0 (Background)
//Storyboard Layer 1 (Fail)
//Storyboard Layer 2 (Pass)
//Storyboard Layer 3 (Foreground)
//Storyboard Sound Samples

[TimingPoints]
1448,363.636363636364,4,1,0,100,1,0
1448,-200,4,2,0,15,0,0
13084,-100,4,3,0,40,0,0
24720,-71.4285714285714,4,3,0,65,0,0
47993,-50,4,3,0,65,0,0
59629,-58.8235294117647,4,3,0,65,0,0

[Colours]
Combo1 : 86,71,255
Combo2 : 62,141,250
Combo3 : 90,155,252

[HitObjects]
240,288,1448,6,0,B|176:288|128:256|128:176|160:160|176:128|176:128|160:80|160:80|208:120|208:120|240:112|248:112|248:112|256:152|256:152|264:112|264:112|272:112|304:120|304:120|352:80|352:80|336:128|336:128|352:160|384:176|384:256|336:288|272:288|272:288|286:329|308:348|376:368,1,980
250,257,7266,5,0,0:0:0:0:
254,261,8720,5,0,0:0:0:0:
256,192,10175,12,0,12720,0:0:0:0:
87,153,13084,6,0,L|79:249,1,70
214,257,13448,1,0,0:0:0:0:
272,144,13629,2,0,L|304:128,1,35
208,176,13811,2,0,L|176:192,1,35
307,245,13993,2,0,P|347:261|387:261,1,70
433,113,14357,2,0,P|437:133|433:153,1,35
328,128,14538,5,0,0:0:0:0:
430,250,14720,2,0,B|430:210|430:210|414:170,1,70
304,224,15084,1,0,0:0:0:0:
288,248,15175,1,0,0:0:0:0:
264,264,15266,1,0,0:0:0:0:
240,272,15357,1,0,0:0:0:0:
210,275,15448,2,0,P|170:275|138:267,1,70
120,96,15811,2,0,L|120:144,1,35
174,222,15993,6,0,B|203:197|203:197|227:147,1,70
289,234,16357,1,0,0:0:0:0:
320,96,16538,2,0,L|304:144,3,35
303,150,16902,1,0,0:0:0:0:
392,208,17084,1,0,0:0:0:0:
272,208,17266,2,0,L|248:248,1,35
160,312,17448,2,0,L|144:232,1,70
238,167,17811,1,0,0:0:0:0:
267,40,17993,2,0,L|283:88,1,35
315,186,18175,2,0,L|348:154,1,35
291,118,18357,1,0,0:0:0:0:
162,61,18538,1,0,0:0:0:0:
162,61,18720,1,0,0:0:0:0:
167,180,18902,5,0,0:0:0:0:
187,201,18993,1,0,0:0:0:0:
208,218,19084,1,0,0:0:0:0:
229,240,19175,2,0,P|239:284|239:284,1,35
320,256,19448,2,0,L|352:280,1,35
396,334,19629,2,0,L|444:318,1,35
439,185,19811,1,0,0:0:0:0:
312,208,19993,1,0,0:0:0:0:
312,80,20175,2,0,L|280:128,1,35
190,233,20357,6,0,L|238:161,1,70
122,85,20720,1,0,0:0:0:0:
240,40,20902,2,0,L|288:72,1,35
328,96,21084,2,0,L|376:128,1,35
358,202,21266,2,0,L|277:241,1,70
256,192,21811,12,0,23266,0:0:0:0:
320,64,23811,5,0,0:0:0:0:
312,80,23902,1,0,0:0:0:0:
304,96,23993,1,0,0:0:0:0:
275,251,24175,1,0,0:0:0:0:
136,110,24357,1,0,0:0:0:0:
148,285,24538,1,0,0:0:0:0:
240,160,24720,6,0,P|288:136|328:104,1,97.9999970092774
443,151,25084,1,0,0:0:0:0:
320,232,25266,2,0,L|368:232,1,48.9999985046387
248,200,25448,2,0,L|223:158,1,48.9999985046387
256,272,25630,2,0,B|224:312|224:312|176:328,1,97.9999970092774
88,128,25993,2,0,L|72:184,1,48.9999985046387
53,254,26175,5,0,0:0:0:0:
200,112,26357,2,0,L|224:240,1,97.9999970092774
120,186,26720,1,0,0:0:0:0:
120,186,26811,1,0,0:0:0:0:
120,186,26902,1,0,0:0:0:0:
312,136,27084,2,0,B|280:176|280:176|208:224,1,97.9999970092774
125,90,27448,2,0,L|69:58,1,48.9999985046387
216,164,27629,1,0,0:0:0:0:
288,80,27811,6,0,B|320:40|320:40|392:32,1,97.9999970092774
440,200,28175,1,0,0:0:0:0:
428,234,28266,1,0,0:0:0:0:
411,262,28357,1,0,0:0:0:0:
388,291,28448,1,0,0:0:0:0:
359,314,28538,1,0,0:0:0:0:
176,304,28720,1,0,0:0:0:0:
307,166,28902,6,0,B|323:198|323:198|307:214,1,48.9999985046387
243,201,29084,6,0,B|227:233|227:233|243:249,1,48.9999985046387
300,278,29266,1,0,0:0:0:0:
192,144,29448,2,0,L|80:80,1,97.9999970092774
184,256,29811,2,0,L|248:296,2,48.9999985046387
368,232,30175,2,0,L|256:168,1,97.9999970092774
30,172,30538,6,0,B|74:138|74:138|117:83,1,97.9999970092774
249,102,30902,2,0,B|205:68|205:68|162:13,1,97.9999970092774
225,176,31448,1,0,0:0:0:0:
184,272,31629,1,0,0:0:0:0:
312,200,31811,2,0,L|392:128,1,97.9999970092774
494,91,32175,5,0,0:0:0:0:
432,200,32357,1,0,0:0:0:0:
420,233,32448,1,0,0:0:0:0:
404,261,32539,1,0,0:0:0:0:
381,289,32630,1,0,0:0:0:0:
357,311,32720,2,0,P|313:343|227:370,1,97.9999970092774
224,284,33084,2,0,P|274:266|346:209,1,97.9999970092774
280,158,33448,2,0,B|235:172|235:172|192:201,1,97.9999970092774
192,200,33811,1,0,0:0:0:0:
354,135,33993,1,0,0:0:0:0:
354,135,34357,5,0,0:0:0:0:
205,104,34538,2,0,P|157:144|157:192,1,97.9999970092774
176,288,34902,1,0,0:0:0:0:
184,296,34993,1,0,0:0:0:0:
192,304,35084,1,0,0:0:0:0:
200,312,35175,1,0,0:0:0:0:
208,320,35266,1,0,0:0:0:0:
216,328,35357,1,0,0:0:0:0:
224,336,35448,1,0,0:0:0:0:
325,149,35629,5,0,0:0:0:0:
304,328,35811,1,0,0:0:0:0:
394,177,35993,1,0,0:0:0:0:
376,304,36175,1,0,0:0:0:0:
359,235,36357,6,0,L|272:192,1,97.9999970092774
176,280,36720,2,0,B|152:284|152:284|104:280,1,48.9999985046387
184,176,36902,2,0,B|164:161|164:161|119:144,1,48.9999985046387
79,203,37084,2,0,P|63:147|55:99,1,97.9999970092774
168,80,37448,2,0,B|170:55|170:55|187:10,1,48.9999985046387
265,116,37630,2,0,B|284:100|284:100|313:62,1,48.9999985046387
416,128,37811,5,0,0:0:0:0:
368,272,37993,1,0,0:0:0:0:
368,272,38084,1,0,0:0:0:0:
368,272,38175,2,0,B|312:277|312:277|268:269,1,97.9999970092774
104,288,38538,2,0,L|96:232,1,48.9999985046387
177,269,38720,2,0,L|143:219,1,48.9999985046387
302,194,38902,2,0,L|286:146,1,48.9999985046387
351,178,39084,2,0,L|359:106,1,48.9999985046387
235,100,39266,5,0,0:0:0:0:
112,240,39448,1,0,0:0:0:0:
177,97,39629,1,0,0:0:0:0:
260,221,39811,2,0,L|173:174,1,97.9999970092774
192,280,40175,1,0,0:0:0:0:
192,280,40266,1,0,0:0:0:0:
192,280,40357,2,0,B|201:301|201:334|201:334|226:326|226:326|262:330,1,97.9999970092774
326,288,40720,6,0,B|370:252|370:252|398:216,1,97.9999970092774
290,168,41084,2,0,B|315:135|315:135|359:99,1,97.9999970092774
454,44,41448,1,0,0:0:0:0:
454,44,41538,1,0,0:0:0:0:
454,44,41629,1,0,0:0:0:0:
296,141,41811,2,0,P|353:136|438:121,1,97.9999970092774,0|0,0:0|0:0,0:3:0:0:
281,51,42175,6,0,P|234:84|169:141,1,97.9999970092774
80,160,42538,2,0,L|32:112,2,48.9999985046387
239,157,42902,1,0,0:0:0:0:
187,269,43084,1,0,0:0:0:0:
336,256,43266,6,0,B|384:240|384:240|424:208,1,97.9999970092774
440,192,43538,1,0,0:0:0:0:
440,192,43629,1,0,0:0:0:0:
306,102,43811,1,0,0:0:0:0:
306,102,43902,1,0,0:0:0:0:
306,102,43993,1,0,0:0:0:0:
171,60,44175,2,0,P|219:44|219:44,1,48.9999985046387
358,28,44357,5,0,0:0:0:0:
358,28,44539,1,0,0:0:0:0:
487,73,44720,2,0,B|449:102|449:102|401:118,1,97.9999970092774
311,156,45084,2,0,B|288:197|288:197|250:230,1,97.9999970092774
164,158,45448,1,0,0:0:0:0:
51,218,45629,2,0,B|88:247|88:247|136:263,1,97.9999970092774
249,246,45993,2,0,B|286:216|291:207|298:208|297:203|300:203|310:192|306:196|308:191|301:202|299:201|285:218|293:208|276:222|258:238|264:234|248:248|272:225|270:228|287:216|303:201|297:201|306:193|312:189|300:205|283:217|285:215|275:225|259:239|250:246|270:225|277:221|291:209|294:210|304:201|307:196|286:216|271:226|254:242|249:248|242:254|252:244|269:230|279:219|296:207|304:197|309:190|290:210|268:230|259:238|250:248|241:254|266:232|285:214|300:200|310:192|282:219|275:223|254:247|247:249|277:222|303:200|310:193|313:189,1,195.999994018555
369,300,46538,2,0,B|419:265|419:265|426:222,1,97.9999970092774
368,66,46902,1,0,0:0:0:0:
205,180,47084,1,0,0:0:0:0:
205,180,47175,1,0,0:0:0:0:
205,180,47266,1,0,0:0:0:0:
333,82,47448,1,0,0:0:0:0:
313,237,47629,1,0,0:0:0:0:
182,124,47811,1,0,0:0:0:0:
448,48,47993,6,0,B|407:111|380:136|353:158|353:158|353:158|353:158|361:152|361:152|352:158|352:158|358:154|358:154|352:159|352:159|359:153|359:153|354:158|354:158|357:154|357:154|352:159|352:159|357:154|357:154|352:159|352:159|357:154|357:154|336:168|336:168|368:176|368:176|320:224|232:248,1,420
434,50,48902,5,0,0:0:0:0:
442,38,48993,1,0,0:0:0:0:
448,55,49084,1,0,0:0:0:0:
136,88,49448,6,0,B|98:106|98:106|145:207|145:207|204:153|204:153|145:207|145:207|236:124,1,420
434,50,50357,5,0,0:0:0:0:
442,38,50448,1,0,0:0:0:0:
448,55,50539,1,0,0:0:0:0:
192,264,50902,6,0,B|173:315|173:315|267:337|267:337|265:314|265:314|267:337|267:337|265:314|265:314|267:337|267:337|265:314|265:314|267:337|267:337|336:272|336:272|304:224,1,420
434,50,51811,5,0,0:0:0:0:
442,38,51902,1,0,0:0:0:0:
448,55,51993,1,0,0:0:0:0:
57,239,52357,6,0,B|112:232|112:232|163:196|163:196|154:203|154:203|163:196|163:196|154:203|154:203|163:196|163:196|154:203|154:203|163:196|163:196|154:203|154:203|163:196|163:196|154:203|154:203|163:196|163:196|154:203|154:203|163:196|163:196|154:203|154:203|163:196|163:196|154:203|154:203|163:196|163:196|154:203|154:203|185:262|185:262|232:289|232:289,1,420
336,152,53084,1,0,0:0:0:0:
336,152,53448,1,0,0:0:0:0:
76,201,53811,6,0,B|108:153|132:137|132:137|100:121|100:121|114:151|114:151|156:121|180:113|180:113|172:89|172:89|164:113|164:113|220:121|252:137|252:137|252:177|228:201|228:201,1,420
361,50,54720,2,0,B|427:80|427:80|399:145|400:145,1,140
93,229,55266,6,0,B|145:212|205:208|205:208|179:165|182:115|182:115|120:167|120:167|125:234|116:297,1,420
275,242,56175,2,0,B|298:213|337:200|337:200|327:168|333:142|352:119|355:115,1,140
133,67,56720,2,0,B|105:111|105:111|132:136|159:158|159:158|159:158|159:158|151:152|151:152|160:158|160:158|154:154|154:154|160:159|160:159|153:153|153:153|158:158|158:158|155:154|155:154|160:159|160:159|155:154|155:154|160:159|160:159|155:154|155:154|176:168|176:168|144:176|144:176|64:192|64:192|88:225|127:239|127:239,1,420
245,125,57629,2,0,B|240:203|240:203|195:244,1,140
289,292,58175,6,0,P|365:234|386:183,1,140
306,83,58538,1,0,0:0:0:0:
306,83,58629,1,0,0:0:0:0:
306,83,58720,1,0,0:0:0:0:
160,112,58902,5,0,0:0:0:0:
272,272,59084,1,0,0:0:0:0:
238,196,59266,2,0,B|194:213|178:254|181:296|209:334,1,140
150,137,59629,6,0,B|163:129|163:129|192:96,1,59.5000011348725
288,48,59811,1,0,0:0:0:0:
298,139,59993,2,0,B|274:171|274:171|170:219,1,119.000002269745
100,215,60538,2,0,L|58:270,2,59.5000011348725
192,96,60902,1,0,0:0:0:0:
192,96,61084,6,0,L|174:33,1,59.5000011348725
240,208,61266,2,0,B|263:152|263:152|318:120|318:120,1,119.000002269745,8|0,0:0|0:0,0:0:0:0:
343,198,61629,2,0,B|394:167|394:167|458:174|458:174,1,119.000002269745
410,255,61993,2,0,B|359:286|359:286|295:279|295:279,1,119.000002269745
171,317,62357,1,0,0:0:0:0:
88,220,62538,2,0,B|65:193|73:161|73:161|102:152|120:124,1,119.000002269745
171,47,62902,1,0,0:0:0:0:
207,158,63084,2,0,P|236:162|266:158,3,59.5000011348725
266,157,63448,1,0,0:0:0:0:
363,146,63629,6,0,B|409:109|409:109|416:169,1,119.000002269745
374,272,63993,2,0,B|318:307|318:307|311:247,1,119.000002269745
281,151,64357,1,0,0:0:0:0:
219,56,64538,2,0,B|197:109|197:109|141:147|141:147|150:142|150:142|145:150|145:150|155:143|155:143|149:152|149:152|159:145|159:145|153:155|153:155|163:147|163:147|155:160|155:160|134:205|143:248|143:248|173:241|208:245,1,357.000006809235
315,286,65266,1,0,0:0:0:0:
315,286,65357,1,0,0:0:0:0:
315,286,65448,6,0,P|368:251|412:202,1,119.000002269745
370,67,65811,2,0,P|349:122|344:181,1,119.000002269745
228,167,66175,2,0,B|171:128|171:128|109:112,1,119.000002269745
151,266,66538,2,0,L|121:317,1,59.5000011348725
254,293,66720,2,0,L|284:242,1,59.5000011348725
377,296,66902,6,0,B|422:249|422:249|441:165|441:165,1,119.000002269745
380,73,67266,2,0,B|347:107|347:107|328:191|335:159,1,119.000002269745
254,99,67629,2,0,L|121:147,1,119.000002269745
168,224,67993,2,0,L|106:249,1,59.5000011348725
300,259,68175,2,0,L|238:284,1,59.5000011348725
416,302,68357,6,0,P|424:238|448:184,1,119.000002269745
375,76,68720,2,0,P|371:140|343:194,1,119.000002269745
195,303,69084,6,0,B|234:249|234:249|208:176,1,119.000002269745
91,162,69448,1,0,0:0:0:0:
224,48,69629,5,0,0:0:0:0:
224,48,69720,1,0,0:0:0:0:
224,48,69811,1,0,0:0:0:0:
360,233,69993,2,0,B|330:174|330:174|285:128|285:128,1,119.000002269745
288,336,70357,1,0,0:0:0:0:
288,336,70448,1,0,0:0:0:0:
288,336,70539,1,0,0:0:0:0:
156,154,70720,2,0,B|186:213|186:213|231:259|231:259,1,119.000002269745
263,170,71084,5,0,0:0:0:0:
263,170,71266,5,0,0:0:0:0:
