osu file format v14

[General]
AudioFilename: audio.mp3
AudioLeadIn: 0
PreviewTime: 163890
Countdown: 0
SampleSet: Soft
StackLeniency: 0.7
Mode: 2
LetterboxInBreaks: 0
WidescreenStoryboard: 0

[Editor]
Bookmarks: 11695,23402,46817,70231,93646,105353,117061,140475,163890,187305,210719
DistanceSpacing: 1.2
BeatDivisor: 16
GridSize: 4
TimelineZoom: 1

[Metadata]
Title:Eventide
TitleUnicode:Eventide
Artist:Wisp X
ArtistUnicode:Wisp X
Creator:JBHyperion
Version:Salad
Source:osu!
Tags:featured artist electronic instrumental Ninety9lives 99 lives Sinnoh
BeatmapID:1947219
BeatmapSetID:932657

[Difficulty]
HPDrainRate:4
CircleSize:3
OverallDifficulty:7
ApproachRate:7
SliderMultiplier:1.6
SliderTickRate:1

[Events]
//Background and Video events
0,0,"photo-1531366599837-ce0c0e17657c.jpg",0,0
//Break Periods
2,93846,104453
//Storyboard Layer 0 (Background)
//Storyboard Layer 1 (Fail)
//Storyboard Layer 2 (Pass)
//Storyboard Layer 3 (Foreground)
//Storyboard Sound Samples

[TimingPoints]
-12,365.853658536585,4,2,1,40,1,0
11695,-133.333333333333,4,2,1,40,0,0
14622,-133.333333333333,4,2,1,20,0,0
14805,-133.333333333333,4,2,1,40,0,0
17548,-100,4,2,1,20,0,0
17914,-100,4,2,1,22,0,0
18280,-100,4,2,1,25,0,0
18646,-100,4,2,1,28,0,0
19012,-100,4,2,1,30,0,0
19378,-100,4,2,1,32,0,0
19744,-100,4,2,1,35,0,0
20110,-100,4,2,1,38,0,0
20476,-100,4,2,1,40,0,0
20842,-100,4,2,1,42,0,0
21208,-100,4,2,1,45,0,0
21573,-100,4,2,1,48,0,0
21939,-100,4,2,1,50,0,0
22305,-100,4,2,1,52,0,0
22671,-100,4,2,1,55,0,0
23036,-100,4,2,2,60,0,0
23402,-100,4,2,1,60,0,0
23585,-100,4,2,1,50,0,0
26329,-100,4,2,1,35,0,0
26512,-100,4,2,1,50,0,0
28524,-100,4,2,1,35,0,0
28707,-100,4,2,1,50,0,0
29256,-100,4,2,1,55,0,0
32183,-100,4,2,1,40,0,0
32914,-100,4,2,1,50,0,0
33646,-100,4,2,1,45,0,0
34012,-100,4,2,1,50,0,0
35109,-100,4,2,3,60,0,0
36573,-100,4,2,3,62,0,0
38036,-100,4,2,3,64,0,0
39317,-100,4,2,3,66,0,0
40963,-100,4,2,3,68,0,0
41695,-100,4,2,3,70,0,0
42427,-100,4,2,3,72,0,0
43158,-100,4,2,3,74,0,0
43890,-100,4,2,3,76,0,0
44622,-100,4,2,3,78,0,0
45353,-100,4,2,3,80,0,0
45719,-100,4,2,1,80,0,0
45902,-100,4,2,3,80,0,0
46817,-100,4,2,77,90,0,1
47000,-100,4,2,4,90,0,1
58433,-100,4,2,4,90,0,0
58524,-100,4,2,77,90,0,1
58707,-100,4,2,4,90,0,1
67305,-100,4,2,4,80,0,1
67670,-100,4,2,4,70,0,1
68036,-100,4,2,4,60,0,1
68402,-100,4,2,4,90,0,1
68768,-100,4,2,1,60,0,0
69134,-100,4,2,3,50,0,0
69500,-100,4,2,4,30,0,0
69683,-100,4,2,4,40,0,0
69866,-100,4,2,4,50,0,0
70048,-100,4,2,4,60,0,0
70231,-100,4,2,77,60,0,0
70414,-100,4,2,4,60,0,0
80475,-100,4,2,1,60,0,0
80841,-100,4,2,3,30,0,0
81024,-100,4,2,1,60,0,0
81573,-100,4,2,3,30,0,0
81939,-100,4,2,2,80,0,0
82122,-100,4,2,4,60,0,0
92183,-100,4,2,1,80,0,0
92731,-100,4,2,1,90,0,0
93280,-100,4,2,1,70,0,0
93646,-100,4,2,2,80,0,0
105353,-100,4,2,1,30,0,0
112122,-100,4,2,1,15,0,0
112305,-100,4,2,1,30,0,0
113585,-100,4,2,1,15,0,0
113768,-100,4,2,1,30,0,0
115597,-100,4,2,1,40,0,0
116695,-100,4,2,2,60,0,0
117061,-100,4,2,2,60,0,0
117152,-100,4,3,1,60,0,0
123097,-100,4,3,1,70,0,0
125841,-100,4,3,1,75,0,0
127305,-100,4,3,1,80,0,0
128768,-100,4,3,1,85,0,0
134622,-100,4,2,2,50,0,0
136085,-100,4,2,2,60,0,0
136817,-100,4,2,2,65,0,0
137548,-100,4,2,2,70,0,0
138280,-100,4,2,2,75,0,0
139012,-100,4,2,2,80,0,0
139744,-100,4,2,1,70,0,0
140109,-100,4,2,3,80,0,0
140475,-100,4,2,4,70,0,0
162427,-100,4,2,2,80,0,0
163158,-100,4,2,2,60,0,0
163341,-100,4,2,2,70,0,0
163524,-100,4,2,2,80,0,0
163890,-100,4,2,77,90,0,1
164073,-100,4,2,4,90,0,1
175506,-100,4,2,1,90,0,0
175597,-100,4,2,77,90,0,1
175780,-100,4,2,4,90,0,1
184378,-100,4,2,4,80,0,1
184743,-100,4,2,4,70,0,1
185109,-100,4,2,4,60,0,1
185475,-100,4,2,4,90,0,1
185841,-100,4,2,1,60,0,0
186207,-100,4,2,3,50,0,0
186573,-100,4,2,4,30,0,0
186756,-100,4,2,4,40,0,0
186939,-100,4,2,4,50,0,0
187121,-100,4,2,4,60,0,0
187305,-100,4,2,77,60,0,0
187487,-100,4,2,4,60,0,0
196634,-100,4,2,4,40,0,0
196817,-100,4,2,4,60,0,0
197548,-100,4,2,1,60,0,0
197914,-100,4,2,3,30,0,0
198097,-100,4,2,1,60,0,0
198646,-100,4,2,3,30,0,0
199012,-100,4,2,2,80,0,0
199195,-100,4,2,4,60,0,0
209256,-100,4,2,1,80,0,0
209805,-100,4,2,1,90,0,0
210353,-100,4,2,2,80,0,0
210902,-100,4,2,1,45,0,0
211085,-100,4,2,1,40,0,0
211451,-100,4,2,1,35,0,0
211817,-100,4,2,1,30,0,0
212183,-100,4,2,1,25,0,0
212548,-100,4,2,1,20,0,0
212914,-100,4,2,1,15,0,0
213280,-100,4,2,1,10,0,0
213646,-100,4,2,1,5,0,0

[Colours]
Combo1 : 20,255,40
Combo2 : 0,80,160
Combo3 : 75,115,205
Combo4 : 150,165,255
Combo5 : 160,255,160
Combo6 : 40,255,120

[HitObjects]
284,192,11695,6,0,L|447:116,2,180.000006866455,2|0|0,0:0|0:0|0:0,0:0:0:0:
140,192,13158,2,0,L|303:116,2,180.000006866455,2|0|0,0:0|0:0|0:0,0:0:0:0:
308,192,14622,6,0,L|312:252,1,60.0000022888184,8|0,0:0|0:0,0:0:0:0:
156,244,15170,2,0,L|264:188,1,120.000004577637,2|0,0:0|0:0,0:0:0:0:
104,244,15902,2,0,L|212:188,1,120.000004577637,2|0,0:0|0:0,0:0:0:0:
314,189,16634,1,0,0:0:0:0:
242,189,16817,6,0,L|182:181,2,60.0000022888184,2|0|0,0:0|0:0|0:0,0:0:0:0:
256,192,17548,12,0,22670,0:0:0:0:
244,192,23036,6,0,L|252:112,1,80,8|8,0:0|0:0,0:0:0:0:
60,192,23402,6,0,P|24:120|64:60,1,160,4|0,0:0|0:0,0:0:0:0:
160,60,23951,1,2,0:0:0:0:
256,60,24134,2,0,L|96:60,1,160,0|0,0:0|0:0,0:0:0:0:
288,60,24866,2,0,P|320:136|280:196,1,160,2|0,0:0|0:0,0:0:0:0:
184,196,25414,1,2,0:0:0:0:
280,195,25597,2,0,L|448:195,1,160,0|0,0:0|0:0,0:0:0:0:
232,192,26329,6,0,L|224:108,1,80,8|0,0:0|0:0,0:0:0:0:
416,112,26878,2,0,L|276:36,1,160,2|0,0:0|0:0,0:0:0:0:
68,116,27609,2,0,L|208:35,1,160,2|0,0:0|0:0,0:0:0:0:
28,116,28341,1,0,0:0:0:0:
116,116,28524,2,0,L|184:160,2,80,8|0|0,0:0|0:0|0:0,0:0:0:0:
308,160,29256,6,0,L|476:160,1,160,2|0,0:0|0:0,0:0:0:0:
380,160,29805,1,2,0:0:0:0:
292,160,29987,1,0,0:0:0:0:
484,160,30353,1,0,0:0:0:0:
308,268,30719,2,0,L|140:268,1,160,2|0,0:0|0:0,0:0:0:0:
236,268,31268,1,2,0:0:0:0:
148,268,31450,1,0,0:0:0:0:
340,268,31816,1,0,0:0:0:0:
164,356,32183,6,0,L|20:280,2,160,2|0|2,0:0|0:0|0:0,0:0:0:0:
364,216,33280,1,0,0:0:0:0:
268,216,33463,2,0,B|28:192|28:192|108:180,1,320,0|0,0:0|0:0,0:0:0:0:
196,180,34378,2,0,L|52:112,1,160,2|0,0:0|0:0,0:0:0:0:
388,176,35109,6,0,L|412:16,1,160,10|8,0:0|0:0,0:0:0:0:
332,16,35658,1,0,0:0:0:0:
252,16,35841,1,8,0:0:0:0:
460,16,36207,1,10,0:0:0:0:
284,112,36573,2,0,L|128:160,1,160,10|8,0:0|0:0,0:0:0:0:
208,136,37122,1,0,0:0:0:0:
284,112,37305,1,8,0:0:0:0:
76,112,37670,1,10,0:0:0:0:
396,112,38036,6,0,L|400:192,1,80,10|0,0:0|0:0,0:0:0:0:
304,192,38402,1,8,0:0:0:0:
128,192,38585,2,0,L|48:192,2,80,2|8|0,0:0|0:0|0:0,0:0:0:0:
432,324,39317,6,0,L|412:232,1,80,2|8,0:0|0:0,0:0:0:0:
304,244,39683,2,0,L|384:244,2,80,0|8|0,0:0|0:0|0:0,0:0:0:0:
112,244,40231,1,10,0:0:0:0:
44,244,40414,1,0,0:0:0:0:
44,176,40597,1,8,0:0:0:0:
348,176,40963,6,0,L|428:176,2,80,10|8|8,0:0|0:0|0:0,0:0:0:0:
244,176,41512,1,8,0:0:0:0:
428,80,41695,1,10,0:0:0:0:
356,80,41878,1,8,0:0:0:0:
284,80,42061,2,0,L|372:80,1,80,10|8,0:0|0:0,0:0:0:0:
180,80,42427,6,0,L|100:80,2,80,10|8|8,0:0|0:0|0:0,0:0:0:0:
284,80,42976,1,8,0:0:0:0:
100,176,43159,1,10,0:0:0:0:
28,176,43342,1,8,0:0:0:0:
100,176,43524,1,10,0:0:0:0:
256,192,43890,12,2,45353,0:0:0:0:
236,192,45719,5,8,0:0:0:0:
140,192,45902,2,0,P|100:136|140:64,1,160,0|8,0:0|0:0,0:0:0:0:
236,64,46451,2,0,L|156:64,1,80,12|8,0:0|0:0,0:0:0:0:
348,64,46817,6,0,L|509:64,1,160,4|8,0:0|0:0,0:0:0:0:
412,64,47366,1,0,0:0:0:0:
316,64,47548,2,0,L|396:64,1,80,2|0,0:0|0:0,0:0:0:0:
300,152,47914,2,0,L|216:152,1,80,8|0,0:0|0:0,0:0:0:0:
408,152,48280,6,0,P|464:200|408:240,1,160,2|8,0:0|0:0,0:0:0:0:
316,240,48829,1,2,0:0:0:0:
412,240,49012,1,2,0:0:0:0:
108,240,49378,1,8,0:0:0:0:
428,240,49744,6,0,L|440:160,1,80,6|0,0:0|0:0,0:0:0:0:
344,160,50109,1,8,0:0:0:0:
152,160,50292,2,0,L|144:320,1,160,4|0,0:0|0:0,0:0:0:0:
240,320,50841,1,8,0:0:0:0:
432,320,51024,1,4,0:0:0:0:
272,320,51390,6,0,L|256:240,1,80,0|8,0:0|0:0,0:0:0:0:
352,192,51756,1,0,0:0:0:0:
256,192,51939,1,6,0:0:0:0:
352,192,52122,1,2,0:0:0:0:
448,192,52305,1,8,0:0:0:0:
112,192,52670,6,0,L|104:32,1,160,2|8,0:0|0:0,0:0:0:0:
192,32,53219,1,0,0:0:0:0:
280,32,53402,2,0,L|288:120,1,80,2|0,0:0|0:0,0:0:0:0:
199,111,53768,2,0,L|191:23,1,80,8|0,0:0|0:0,0:0:0:0:
384,32,54134,6,0,P|452:64|480:140,1,160,2|8,0:0|0:0,0:0:0:0:
392,140,54683,1,0,0:0:0:0:
480,140,54866,1,2,0:0:0:0:
176,140,55231,1,8,0:0:0:0:
464,240,55597,6,0,L|472:68,1,160,2|8,0:0|0:0,0:0:0:0:
264,172,56329,2,0,L|272:332,1,160,2|8,0:0|0:0,0:0:0:0:
176,332,56878,1,2,0:0:0:0:
80,332,57061,6,0,P|32:268|80:224,1,160,2|8,0:0|0:0,0:0:0:0:
240,224,57792,2,0,L|80:224,1,160,2|8,0:0|0:0,0:0:0:0:
384,224,58524,6,0,P|436:176|388:120,1,160,4|8,0:0|0:0,0:0:0:0:
300,120,59073,1,0,0:0:0:0:
387,119,59256,2,0,L|395:39,1,80,2|0,0:0|0:0,0:0:0:0:
300,40,59622,2,0,L|216:40,1,80,8|0,0:0|0:0,0:0:0:0:
36,144,59987,6,0,L|196:144,1,160,2|8,0:0|0:0,0:0:0:0:
284,144,60536,1,0,0:0:0:0:
196,144,60719,1,2,0:0:0:0:
484,144,61085,1,8,0:0:0:0:
180,240,61451,6,0,L|100:240,2,80,6|0|8,0:0|0:0|0:0,0:0:0:0:
372,240,62000,2,0,B|452:240|452:240|452:160,1,160,4|0,0:0|0:0,0:0:0:0:
364,160,62548,1,8,0:0:0:0:
172,160,62731,1,4,0:0:0:0:
332,160,63097,6,0,L|348:80,1,80,0|8,0:0|0:0,0:0:0:0:
251,82,63463,1,0,0:0:0:0:
155,82,63646,1,6,0:0:0:0:
251,82,63829,1,0,0:0:0:0:
347,82,64012,1,8,0:0:0:0:
44,192,64378,6,0,L|208:192,1,160,2|8,0:0|0:0,0:0:0:0:
292,192,64926,1,0,0:0:0:0:
204,192,65109,2,0,L|196:104,1,80,2|0,0:0|0:0,0:0:0:0:
285,113,65475,2,0,L|293:201,1,80,8|0,0:0|0:0,0:0:0:0:
96,184,65841,6,0,P|120:256|196:284,1,160,2|8,0:0|0:0,0:0:0:0:
283,284,66390,1,0,0:0:0:0:
372,284,66573,1,2,0:0:0:0:
96,184,66939,1,8,0:0:0:0:
400,184,67304,6,0,L|408:0,1,160,2|8,0:0|0:0,0:0:0:0:
216,24,68036,2,0,L|376:24,1,160,2|8,0:0|0:0,0:0:0:0:
96,104,68768,2,0,P|76:184|96:260,1,160,2|8,0:0|0:0,0:0:0:0:
184,256,69317,2,0,P|260:192|184:104,1,240,0|8,0:0|0:0,0:0:0:0:
488,104,70231,6,0,P|496:188|464:256,1,160,2|8,0:0|0:0,0:0:0:0:
384,256,70780,1,0,0:0:0:0:
304,256,70963,1,2,0:0:0:0:
448,332,71329,1,8,0:0:0:0:
256,332,71695,2,0,L|100:300,1,160,2|8,0:0|0:0,0:0:0:0:
176,316,72244,1,0,0:0:0:0:
256,332,72427,1,2,0:0:0:0:
84,300,72792,1,8,0:0:0:0:
276,224,73158,6,0,L|432:192,1,160,2|8,0:0|0:0,0:0:0:0:
344,192,73707,2,0,L|336:112,1,80,0|2,0:0|0:0,0:0:0:0:
176,112,74256,1,8,0:0:0:0:
352,112,74622,2,0,L|212:192,1,160,2|8,0:0|0:0,0:0:0:0:
300,192,75170,2,0,P|368:272|300:372,1,240,0|8,0:0|0:0,0:0:0:0:
24,372,76085,6,0,P|8:292|56:232,1,160,2|8,0:0|0:0,0:0:0:0:
140,236,76634,2,0,L|296:192,1,160,0|0,0:0|0:0,0:0:0:0:
204,192,77183,1,8,0:0:0:0:
380,192,77548,2,0,P|396:112|348:52,1,160,2|8,0:0|0:0,0:0:0:0:
256,52,78097,2,0,L|412:8,1,160,2|0,0:0|0:0,0:0:0:0:
492,8,78646,1,8,0:0:0:0:
300,52,79012,6,0,L|220:52,2,80,2|0|8,0:0|0:0|0:0,0:0:0:0:
116,52,79561,2,0,P|80:120|116:188,1,160,4|2,0:0|0:0,0:0:0:0:
212,192,80109,1,8,0:0:0:0:
372,292,80475,2,0,L|248:192,1,160,2|4,0:0|0:0,0:0:0:0:
440,136,81024,2,0,P|496:100|440:56,1,160,8|0,0:0|0:0,0:0:0:0:
352,56,81573,1,6,0:0:0:0:
48,56,81939,6,0,L|216:56,1,160,4|8,0:0|0:0,0:0:0:0:
288,56,82487,1,0,0:0:0:0:
208,56,82670,1,2,0:0:0:0:
400,56,83036,1,8,0:0:0:0:
96,56,83402,2,0,L|88:136,1,80,6|0,0:0|0:0,0:0:0:0:
256,136,83768,2,0,L|336:136,1,80,12|2,0:0|0:0,0:0:0:0:
88,135,84500,1,8,0:0:0:0:
244,136,84866,5,2,0:0:0:0:
389,224,85231,1,8,0:0:0:0:
300,224,85414,2,0,L|161:304,1,160,4|4,0:0|0:0,0:0:0:0:
464,344,86146,2,0,P|509:280|465:224,1,160,4|0,0:0|0:0,0:0:0:0:
376,224,86695,1,8,0:0:0:0:
465,224,86878,1,2,0:0:0:0:
376,224,87061,2,0,L|219:192,1,160,2|8,0:0|0:0,0:0:0:0:
20,192,87792,6,0,P|8:124|68:64,1,160,2|8,0:0|0:0,0:0:0:0:
156,64,88341,2,0,P|200:132|152:176,1,160,4|0,0:0|0:0,0:0:0:0:
64,176,88890,1,8,0:0:0:0:
256,176,89256,2,0,L|416:176,1,160,2|8,0:0|0:0,0:0:0:0:
320,176,89805,2,0,P|240:248|320:320,1,240,4|8,0:0|0:0,0:0:0:0:
140,320,90719,6,0,P|100:260|144:192,1,160,2|8,0:0|0:0,0:0:0:0:
240,192,91268,2,0,P|280:132|236:64,1,160,4|2,0:0|0:0,0:0:0:0:
140,64,91817,1,8,0:0:0:0:
444,64,92183,6,0,L|280:64,1,160,2|0,0:0|0:0,0:0:0:0:
92,160,92731,2,0,L|252:160,1,160,8|0,0:0|0:0,0:0:0:0:
340,160,93280,2,0,L|256:160,1,80,2|0,0:0|0:0,0:0:0:0:
68,160,93646,5,4,0:0:0:0:
264,288,105353,6,0,P|328:192|264:100,1,240,2|0,0:0|0:0,0:0:0:0:
72,100,106451,1,2,0:0:0:0:
248,100,106817,2,0,L|168:100,1,80,10|0,0:0|0:0,0:0:0:0:
256,192,107183,2,0,L|336:192,1,80,8|2,0:0|0:0,0:0:0:0:
224,192,107914,1,0,0:0:0:0:
416,192,108280,6,0,P|440:136|392:56,1,160,2|0,0:0|0:0,0:0:0:0:
304,56,108829,1,2,0:0:0:0:
480,56,109195,1,8,0:0:0:0:
328,56,109561,1,2,0:0:0:0:
136,56,109744,6,0,L|56:56,1,80,8|0,0:0|0:0,0:0:0:0:
152,56,110109,2,0,L|160:136,1,80,2|0,0:0|0:0,0:0:0:0:
64,136,110475,1,8,0:0:0:0:
224,136,110841,1,2,0:0:0:0:
384,136,111207,6,0,P|428:200|384:260,1,160,2|2,0:0|0:0,0:0:0:0:
304,260,111756,2,0,P|332:172|464:136,1,240,8|0,0:0|0:0,0:0:0:0:
288,136,112670,6,0,P|244:72|288:12,1,160,2|2,0:0|0:0,0:0:0:0:
376,12,113219,1,8,0:0:0:0:
184,12,113768,1,0,0:0:0:0:
360,96,114134,6,0,L|200:96,1,160,2|0,0:0|0:0,0:0:0:0:
200,176,114683,2,0,L|360:176,1,160,8|0,0:0|0:0,0:0:0:0:
72,176,115597,2,0,L|232:176,1,160,2|0,0:0|0:0,0:0:0:0:
168,256,116146,2,0,L|8:256,1,160,8|0,0:0|0:0,0:0:0:0:
88,256,116695,1,8,0:0:0:0:
8,256,116878,1,8,0:0:0:0:
188,256,117061,6,0,L|336:192,1,160,4|2,0:0|0:0,0:0:0:0:
260,224,117609,1,8,0:0:0:0:
334,192,117792,1,2,0:0:0:0:
172,192,118158,1,0,0:0:0:0:
364,192,118524,2,0,P|396:120|360:52,1,160,2|8,0:0|0:0,0:0:0:0:
280,52,119073,1,0,0:0:0:0:
360,52,119256,2,0,L|200:52,1,160,0|8,0:0|0:0,0:0:0:0:
120,52,119805,1,8,0:0:0:0:
224,140,119987,6,0,B|304:140|304:140|304:220,1,160,2|8,0:0|0:0,0:0:0:0:
216,220,120536,1,0,0:0:0:0:
304,220,120719,1,2,0:0:0:0:
128,220,121085,1,8,0:0:0:0:
320,220,121451,2,0,L|322:301,1,80,2|0,0:0|0:0,0:0:0:0:
217,299,121817,2,0,L|215:219,1,80,8|8,0:0|0:0,0:0:0:0:
320,220,122183,2,0,L|402:221,2,80,2|0|8,0:0|0:0|0:0,0:0:0:0:
24,216,122914,6,0,B|24:136|24:136|100:108,1,160,6|8,0:0|0:0,0:0:0:0:
184,84,123463,1,0,0:0:0:0:
99,108,123646,2,0,L|23:80,2,80,2|0|8,0:0|0:0|0:0,0:0:0:0:
388,108,124378,2,0,L|396:268,1,160,2|8,0:0|0:0,0:0:0:0:
308,268,124927,1,0,0:0:0:0:
220,268,125109,1,2,0:0:0:0:
380,268,125475,1,8,0:0:0:0:
84,264,125841,6,0,P|40:208|76:136,1,160,2|8,0:0|0:0,0:0:0:0:
164,136,126390,1,0,0:0:0:0:
344,132,126573,2,0,L|424:132,1,80,2|0,0:0|0:0,0:0:0:0:
320,132,126939,2,0,L|312:48,1,80,8|0,0:0|0:0,0:0:0:0:
416,56,127305,6,0,B|416:136|416:136|344:176,1,160,2|2,0:0|0:0,0:0:0:0:
156,176,127853,1,8,0:0:0:0:
72,176,128036,2,0,L|64:336,1,160,2|2,0:0|0:0,0:0:0:0:
352,340,128768,6,0,L|192:340,1,160,4|2,0:0|0:0,0:0:0:0:
280,300,129317,1,8,0:0:0:0:
368,260,129500,2,0,L|204:260,1,160,2|2,0:0|0:0,0:0:0:0:
496,264,130231,6,0,L|500:180,1,80,2|0,0:0|0:0,0:0:0:0:
412,184,130597,2,0,L|328:184,1,80,8|0,0:0|0:0,0:0:0:0:
428,184,130963,1,2,0:0:0:0:
236,184,131329,1,8,0:0:0:0:
316,184,131512,1,8,0:0:0:0:
152,100,131695,6,0,L|296:32,1,160,2|2,0:0|0:0,0:0:0:0:
376,32,132244,1,8,0:0:0:0:
296,32,132427,2,0,L|460:32,1,160,2|8,0:0|0:0,0:0:0:0:
152,112,133158,6,0,L|148:196,1,80,2|0,0:0|0:0,0:0:0:0:
236,192,133524,2,0,L|320:192,1,80,2|8,0:0|0:0,0:0:0:0:
220,192,133890,1,2,0:0:0:0:
412,192,134256,1,8,0:0:0:0:
97,294,134622,6,0,L|96:132,1,160,10|8,0:0|0:0,0:0:0:0:
392,132,135353,1,8,0:0:0:0:
452,180,135535,1,8,0:0:0:0:
450,257,135718,1,8,0:0:0:0:
388,303,135901,1,8,0:0:0:0:
196,304,136085,6,0,L|356:304,1,160,10|8,0:0|0:0,0:0:0:0:
68,304,136817,1,8,0:0:0:0:
24,248,137000,1,8,0:0:0:0:
72,192,137183,1,8,0:0:0:0:
256,192,137548,12,4,140109,0:0:0:0:
80,192,140475,6,0,L|232:132,1,160,2|8,0:0|0:0,0:0:0:0:
36,96,141207,2,0,L|188:40,1,160,2|8,0:0|0:0,0:0:0:0:
476,40,141939,6,0,L|480:120,1,80,6|0,0:0|0:0,0:0:0:0:
384,120,142305,2,0,L|300:120,1,80,8|0,0:0|0:0,0:0:0:0:
208,120,142670,2,0,L|276:76,1,80,2|0,0:0|0:0,0:0:0:0:
371,163,143036,2,0,L|303:119,1,80,8|0,0:0|0:0,0:0:0:0:
115,76,143402,6,0,B|36:76|36:76|36:156,1,160,2|8,0:0|0:0,0:0:0:0:
228,156,144134,2,0,B|228:236|228:236|148:236,1,160,2|8,0:0|0:0,0:0:0:0:
88,200,144683,1,0,0:0:0:0:
148,156,144866,5,2,0:0:0:0:
324,156,145231,1,8,0:0:0:0:
164,156,145597,1,2,0:0:0:0:
96,156,145780,1,2,0:0:0:0:
28,156,145963,1,8,0:0:0:0:
316,156,146329,6,0,L|476:156,1,160,2|8,0:0|0:0,0:0:0:0:
284,248,147061,2,0,L|444:248,1,160,2|8,0:0|0:0,0:0:0:0:
156,248,147792,6,0,L|76:248,1,80,2|0,0:0|0:0,0:0:0:0:
180,248,148158,2,0,L|188:168,1,80,8|2,0:0|0:0,0:0:0:0:
292,168,148524,2,0,L|360:212,1,80,2|0,0:0|0:0,0:0:0:0:
256,144,148890,2,0,L|324:188,1,80,8|0,0:0|0:0,0:0:0:0:
152,236,149256,6,0,L|116:80,1,160,6|8,0:0|0:0,0:0:0:0:
212,80,149805,1,0,0:0:0:0:
308,80,149987,2,0,L|148:80,1,160,6|8,0:0|0:0,0:0:0:0:
244,80,150536,1,2,0:0:0:0:
432,80,150719,6,0,P|476:132|432:200,1,160,6|8,0:0|0:0,0:0:0:0:
344,200,151268,1,2,0:0:0:0:
160,200,151451,2,0,L|76:200,1,80,6|2,0:0|0:0,0:0:0:0:
264,200,151817,2,0,L|348:200,1,80,8|2,0:0|0:0,0:0:0:0:
156,260,152183,6,0,L|4:200,1,160,2|8,0:0|0:0,0:0:0:0:
216,184,152915,2,0,L|64:128,1,160,2|8,0:0|0:0,0:0:0:0:
388,104,153647,6,0,L|468:104,1,80,6|0,0:0|0:0,0:0:0:0:
364,104,154013,2,0,L|280:104,1,80,8|0,0:0|0:0,0:0:0:0:
376,148,154378,2,0,L|308:104,1,80,2|2,0:0|0:0,0:0:0:0:
216,147,154744,2,0,L|284:103,1,80,8|0,0:0|0:0,0:0:0:0:
96,144,155110,6,0,B|53:76,2,80,2|0|8,0:0|0:0|0:0,0:0:0:0:
288,148,155842,2,0,B|188:148,1,80,2|2,0:0|0:0,0:0:0:0:
120,224,156207,2,0,L|200:224,1,80,8|0,0:0|0:0,0:0:0:0:
296,224,156574,5,2,0:0:0:0:
104,224,156939,1,8,0:0:0:0:
396,224,157305,2,0,L|476:224,1,80,2|0,0:0|0:0,0:0:0:0:
376,224,157670,1,8,0:0:0:0:
84,224,158036,6,0,L|80:140,1,80,2|0,0:0|0:0,0:0:0:0:
168,92,158402,1,8,0:0:0:0:
344,224,158768,2,0,L|264:224,1,80,2|2,0:0|0:0,0:0:0:0:
168,224,159134,1,8,0:0:0:0:
456,64,159500,5,2,0:0:0:0:
256,64,159866,1,8,0:0:0:0:
56,64,160231,2,0,L|200:156,1,160,2|8,0:0|0:0,0:0:0:0:
480,116,160963,6,0,L|400:116,1,80,6|0,0:0|0:0,0:0:0:0:
320,192,161329,2,0,L|400:192,1,80,8|0,0:0|0:0,0:0:0:0:
216,192,161695,2,0,L|136:192,1,80,6|2,0:0|0:0,0:0:0:0:
56,268,162061,2,0,L|136:268,1,80,8|2,0:0|0:0,0:0:0:0:
316,264,162427,6,0,P|364:228|312:164,1,160,8|0,0:0|0:0,0:0:0:0:
216,164,162975,1,0,0:0:0:0:
408,168,163158,2,0,L|488:168,2,80,8|8|8,0:0|0:0|0:0,0:0:0:0:
104,80,163890,6,0,P|64:148|104:208,1,160,4|8,0:0|0:0,0:0:0:0:
196,80,164439,1,0,0:0:0:0:
284,80,164622,2,0,L|204:80,1,80,2|0,0:0|0:0,0:0:0:0:
300,168,164987,2,0,L|384:168,1,80,8|0,0:0|0:0,0:0:0:0:
200,168,165353,6,0,L|364:168,1,160,2|8,0:0|0:0,0:0:0:0:
440,168,165902,1,0,0:0:0:0:
360,168,166085,1,2,0:0:0:0:
64,168,166451,1,8,0:0:0:0:
367,169,166817,6,0,L|379:249,1,80,6|2,0:0|0:0,0:0:0:0:
283,249,167182,1,8,0:0:0:0:
91,249,167365,2,0,L|252:248,1,160,4|0,0:0|0:0,0:0:0:0:
336,248,167914,1,8,0:0:0:0:
156,248,168097,1,4,0:0:0:0:
316,248,168463,6,0,L|332:168,1,80,2|8,0:0|0:0,0:0:0:0:
236,120,168829,1,4,0:0:0:0:
44,120,169012,1,2,0:0:0:0:
124,120,169195,1,2,0:0:0:0:
204,120,169378,2,0,L|296:120,1,80,8|0,0:0|0:0,0:0:0:0:
92,120,169743,6,0,L|84:280,1,160,2|8,0:0|0:0,0:0:0:0:
172,280,170292,1,0,0:0:0:0:
260,280,170475,2,0,L|180:280,1,80,2|0,0:0|0:0,0:0:0:0:
268,280,170841,2,0,L|349:279,1,80,8|0,0:0|0:0,0:0:0:0:
164,280,171207,6,0,P|116:236|168:176,1,160,2|8,0:0|0:0,0:0:0:0:
256,176,171756,1,2,0:0:0:0:
168,176,171939,1,2,0:0:0:0:
456,176,172304,1,8,0:0:0:0:
160,16,172670,6,0,L|148:176,1,160,2|8,0:0|0:0,0:0:0:0:
340,16,173402,2,0,L|180:16,1,160,2|8,0:0|0:0,0:0:0:0:
268,16,173951,1,2,0:0:0:0:
356,16,174134,6,0,P|404:80|356:124,1,160,2|8,0:0|0:0,0:0:0:0:
268,124,174683,1,2,0:0:0:0:
364,124,174865,2,0,B|444:124|444:124|444:204,1,160,2|8,0:0|0:0,0:0:0:0:
140,308,175597,6,0,P|88:260|136:204,1,160,4|8,0:0|0:0,0:0:0:0:
224,204,176146,1,0,0:0:0:0:
137,203,176329,2,0,L|129:123,1,80,2|0,0:0|0:0,0:0:0:0:
224,124,176695,2,0,L|308:124,1,80,8|0,0:0|0:0,0:0:0:0:
120,36,177061,6,0,L|280:36,1,160,2|8,0:0|0:0,0:0:0:0:
192,36,177609,1,2,0:0:0:0:
104,36,177792,1,2,0:0:0:0:
392,36,178158,1,8,0:0:0:0:
88,120,178524,6,0,L|8:120,2,80,6|0|8,0:0|0:0|0:0,0:0:0:0:
280,120,179073,2,0,B|280:200|280:200|200:200,1,160,4|0,0:0|0:0,0:0:0:0:
112,200,179622,1,8,0:0:0:0:
304,200,179804,1,4,0:0:0:0:
144,200,180170,6,0,L|128:280,1,80,0|8,0:0|0:0,0:0:0:0:
225,278,180536,1,4,0:0:0:0:
416,276,180719,2,0,L|500:276,1,80,2|2,0:0|0:0,0:0:0:0:
400,192,181085,2,0,L|316:192,1,80,8|2,0:0|0:0,0:0:0:0:
136,192,181451,6,0,B|56:192|56:192|56:112,1,160,2|8,0:0|0:0,0:0:0:0:
144,112,181999,1,2,0:0:0:0:
232,112,182183,2,0,L|152:112,1,80,2|0,0:0|0:0,0:0:0:0:
56,191,182548,2,0,L|137:192,1,80,8|0,0:0|0:0,0:0:0:0:
328,192,182914,6,0,P|400:215|428:292,1,160,2|8,0:0|0:0,0:0:0:0:
340,288,183463,1,0,0:0:0:0:
428,289,183646,1,2,0:0:0:0:
140,288,184012,1,8,0:0:0:0:
444,352,184378,6,0,L|448:192,1,160,2|8,0:0|0:0,0:0:0:0:
264,80,185109,2,0,L|424:80,1,160,2|8,0:0|0:0,0:0:0:0:
252,40,185841,6,0,P|232:120|252:196,1,160,2|8,0:0|0:0,0:0:0:0:
332,192,186390,1,0,0:0:0:0:
412,192,186573,2,0,L|418:95,1,80,8|8,0:0|0:0,0:0:0:0:
328,112,186939,2,0,L|322:15,1,80,8|8,0:0|0:0,0:0:0:0:
128,32,187305,6,0,P|80:96|100:168,1,160,4|8,0:0|0:0,0:0:0:0:
180,168,187854,1,0,0:0:0:0:
260,168,188037,1,2,0:0:0:0:
104,247,188402,2,0,L|99:167,1,80,8|0,0:0|0:0,0:0:0:0:
292,248,188769,6,0,L|448:216,1,160,2|8,0:0|0:0,0:0:0:0:
372,232,189318,1,2,0:0:0:0:
292,248,189500,2,0,L|264:324,1,80,2|0,0:0|0:0,0:0:0:0:
376,320,189866,1,8,0:0:0:0:
80,320,190232,6,0,L|72:160,1,160,2|8,0:0|0:0,0:0:0:0:
152,160,190780,1,0,0:0:0:0:
232,160,190963,2,0,L|244:80,1,80,0|0,0:0|0:0,0:0:0:0:
164,80,191330,1,8,0:0:0:0:
452,80,191696,6,0,P|488:136|456:220,1,160,2|8,0:0|0:0,0:0:0:0:
380,220,192244,1,2,0:0:0:0:
468,220,192427,2,0,L|476:300,1,80,2|0,0:0|0:0,0:0:0:0:
380,300,192792,2,0,L|296:300,1,80,8|2,0:0|0:0,0:0:0:0:
112,300,193159,6,0,P|64:236|104:180,1,160,2|8,0:0|0:0,0:0:0:0:
192,180,193708,2,0,P|268:152|292:80,1,160,0|0,0:0|0:0,0:0:0:0:
204,80,194257,1,8,0:0:0:0:
492,80,194622,5,2,0:0:0:0:
412,80,194805,1,0,0:0:0:0:
332,80,194987,1,8,0:0:0:0:
428,80,195171,2,0,P|488:148|452:196,1,160,0|0,0:0|0:0,0:0:0:0:
376,196,195720,1,8,0:0:0:0:
88,196,196086,6,0,L|8:196,2,80,2|2|8,0:0|0:0|0:0,0:0:0:0:
284,196,196635,2,0,B|364:196|364:196|364:280,1,160,4|0,0:0|0:0,0:0:0:0:
268,272,197183,2,0,L|260:192,1,80,8|0,0:0|0:0,0:0:0:0:
356,192,197549,6,0,P|408:144|356:92,1,160,2|4,0:0|0:0,0:0:0:0:
160,96,198097,2,0,B|80:96|80:96|80:180,1,160,4|0,0:0|0:0,0:0:0:0:
176,172,198646,2,0,L|256:172,1,80,4|2,0:0|0:0,0:0:0:0:
444,168,199012,6,0,P|494:228|484:312,1,160,4|0,0:0|0:0,0:0:0:0:
392,300,199561,2,0,B|312:300|312:300|312:220,1,160,0|0,0:0|0:0,0:0:0:0:
400,220,200109,1,8,0:0:0:0:
104,220,200475,6,0,L|100:132,1,80,6|0,0:0|0:0,0:0:0:0:
272,140,200841,2,0,L|352:140,1,80,12|2,0:0|0:0,0:0:0:0:
156,220,201573,1,8,0:0:0:0:
332,220,201939,6,0,L|336:136,1,80,2|0,0:0|0:0,0:0:0:0:
248,140,202305,1,8,0:0:0:0:
344,140,202487,2,0,L|413:100,1,80,6|2,0:0|0:0,0:0:0:0:
492,60,202853,1,4,0:0:0:0:
196,32,203219,6,0,P|144:84|196:140,1,160,4|0,0:0|0:0,0:0:0:0:
288,140,203768,2,0,L|372:140,1,80,8|2,0:0|0:0,0:0:0:0:
264,140,204134,2,0,L|260:220,1,80,2|0,0:0|0:0,0:0:0:0:
356,220,204500,2,0,L|264:220,1,80,8|2,0:0|0:0,0:0:0:0:
92,216,204866,5,2,0:0:0:0:
32,292,205048,1,0,0:0:0:0:
92,364,205231,1,8,0:0:0:0:
188,364,205414,2,0,B|268:364|268:364|268:284,1,160,0|2,0:0|0:0,0:0:0:0:
180,284,205963,1,8,0:0:0:0:
476,284,206329,6,0,B|480:204,1,80,2|0,0:0|0:0,0:0:0:0:
296,192,206695,1,8,0:0:0:0:
208,192,206878,2,0,P|152:148|208:104,1,160,2|0,0:0|0:0,0:0:0:0:
292,104,207427,2,0,L|304:24,1,80,8|0,0:0|0:0,0:0:0:0:
124,24,207792,6,0,L|112:184,1,160,2|8,0:0|0:0,0:0:0:0:
208,184,208341,2,0,P|256:228|208:292,1,160,4|0,0:0|0:0,0:0:0:0:
120,292,208890,2,0,L|112:180,1,80,8|0,0:0|0:0,0:0:0:0:
308,184,209256,6,0,L|468:184,1,160,2|0,0:0|0:0,0:0:0:0:
276,104,209804,2,0,L|112:104,1,160,8|0,0:0|0:0,0:0:0:0:
204,104,210353,2,0,L|208:188,1,80,2|0,0:0|0:0,0:0:0:0:
20,208,210719,5,4,0:0:0:0:
256,192,211085,12,0,213646,0:0:0:0:
