osu file format v14

[General]
AudioFilename: audio.mp3
AudioLeadIn: 0
PreviewTime: 163890
Countdown: 0
SampleSet: Soft
StackLeniency: 0.7
Mode: 2
LetterboxInBreaks: 0
WidescreenStoryboard: 0

[Editor]
Bookmarks: 11695,23402,46817,70231,93646,105353,117061,140475,163890,187305,210719
DistanceSpacing: 1
BeatDivisor: 4
GridSize: 4
TimelineZoom: 1.2

[Metadata]
Title:Eventide
TitleUnicode:Eventide
Artist:Wisp X
ArtistUnicode:Wisp X
Creator:JBHyperion
Version:Overdose
Source:osu!
Tags:featured artist electronic instrumental Ninety9lives 99 lives Sinnoh
BeatmapID:1954178
BeatmapSetID:932657

[Difficulty]
HPDrainRate:7
CircleSize:4.5
OverallDifficulty:9.3
ApproachRate:9.3
SliderMultiplier:1.8
SliderTickRate:2

[Events]
//Background and Video events
0,0,"photo-1531366599837-ce0c0e17657c.jpg",0,0
//Break Periods
2,93846,104799
//Storyboard Layer 0 (Background)
//Storyboard Layer 1 (Fail)
//Storyboard Layer 2 (Pass)
//Storyboard Layer 3 (Foreground)
//Storyboard Sound Samples

[TimingPoints]
-12,365.853658536585,4,2,1,40,1,0
11695,-133.333333333333,4,2,1,40,0,0
14622,-133.333333333333,4,2,1,20,0,0
14805,-133.333333333333,4,2,1,40,0,0
17548,-100,4,2,1,20,0,0
17914,-100,4,2,1,22,0,0
18280,-100,4,2,1,25,0,0
18646,-100,4,2,1,28,0,0
19012,-100,4,2,1,30,0,0
19378,-100,4,2,1,32,0,0
19744,-100,4,2,1,35,0,0
20110,-100,4,2,1,38,0,0
20476,-100,4,2,1,40,0,0
20842,-100,4,2,1,42,0,0
21208,-100,4,2,1,45,0,0
21573,-100,4,2,1,48,0,0
21939,-100,4,2,1,50,0,0
22305,-100,4,2,1,52,0,0
22671,-100,4,2,1,55,0,0
23036,-100,4,2,2,60,0,0
23402,-100,4,2,1,60,0,0
23585,-100,4,2,1,50,0,0
26329,-100,4,2,1,35,0,0
26512,-100,4,2,1,50,0,0
28524,-100,4,2,1,35,0,0
28707,-100,4,2,1,50,0,0
29256,-90.9090909090909,4,2,1,55,0,0
30719,-80,4,2,1,55,0,0
31085,-90.9090909090909,4,2,1,55,0,0
32183,-90.9090909090909,4,2,1,40,0,0
32914,-90.9090909090909,4,2,1,50,0,0
33646,-66.6666666666667,4,2,1,45,0,0
34012,-66.6666666666667,4,2,1,50,0,0
34195,-100,4,2,1,50,0,0
35109,-100,4,2,3,60,0,0
36573,-100,4,2,3,62,0,0
38036,-100,4,2,3,64,0,0
39317,-100,4,2,3,66,0,0
40963,-100,4,2,3,68,0,0
41695,-100,4,2,3,70,0,0
42427,-100,4,2,3,72,0,0
43158,-100,4,2,3,74,0,0
43890,-100,4,2,3,76,0,0
44622,-100,4,2,3,78,0,0
45353,-66.6666666666667,4,2,3,80,0,0
45719,-66.6666666666667,4,2,1,80,0,0
45902,-100,4,2,3,80,0,0
46817,-80,4,2,77,90,0,1
47000,-80,4,2,4,90,0,1
57061,-57.1428571428571,4,2,4,90,0,1
57427,-80,4,2,4,90,0,1
58433,-100,4,2,4,90,0,0
58524,-80,4,2,77,90,0,1
58707,-80,4,2,4,90,0,1
67305,-80,4,2,4,80,0,1
67670,-80,4,2,4,70,0,1
68036,-80,4,2,4,60,0,1
68402,-80,4,2,4,90,0,1
68768,-50,4,2,1,60,0,0
69134,-100,4,2,3,50,0,0
69500,-100,4,2,4,30,0,0
69683,-100,4,2,4,40,0,0
69866,-100,4,2,4,50,0,0
70048,-100,4,2,4,60,0,0
70231,-100,4,2,77,60,0,0
70414,-100,4,2,4,60,0,0
80475,-100,4,2,1,60,0,0
80841,-100,4,2,3,30,0,0
81024,-66.6666666666667,4,2,1,60,0,0
81573,-100,4,2,3,30,0,0
81939,-100,4,2,2,80,0,0
82122,-100,4,2,4,60,0,0
92183,-80,4,2,1,80,0,0
92731,-80,4,2,1,90,0,0
93280,-100,4,2,1,70,0,0
93646,-100,4,2,2,80,0,0
105353,-100,4,2,1,30,0,0
112122,-100,4,2,1,15,0,0
112305,-100,4,2,1,30,0,0
113585,-100,4,2,1,15,0,0
113768,-100,4,2,1,30,0,0
115597,-100,4,2,1,40,0,0
116695,-100,4,2,2,60,0,0
117061,-100,4,2,2,60,0,0
117152,-100,4,3,1,60,0,0
123097,-100,4,3,1,70,0,0
125841,-100,4,3,1,75,0,0
127305,-80,4,3,1,80,0,0
127670,-100,4,3,1,80,0,0
128768,-100,4,3,1,85,0,0
134622,-100,4,2,2,50,0,0
136085,-100,4,2,2,60,0,0
136817,-100,4,2,2,65,0,0
137548,-100,4,2,2,70,0,0
138280,-100,4,2,2,75,0,0
139012,-100,4,2,2,80,0,0
139744,-100,4,2,1,70,0,0
139927,-66.6666666666667,4,2,1,70,0,0
140109,-66.6666666666667,4,2,3,80,0,0
140384,-100,4,2,3,80,0,0
140475,-100,4,2,4,70,0,0
145963,-80,4,2,4,70,0,0
146237,-100,4,2,4,70,0,0
157670,-80,4,2,4,70,0,0
157944,-100,4,2,4,70,0,0
162427,-66.6666666666667,4,2,2,80,0,0
163158,-66.6666666666667,4,2,2,60,0,0
163341,-66.6666666666667,4,2,2,70,0,0
163524,-30.7692307692308,4,2,2,80,0,0
163890,-100,4,2,77,90,0,1
164073,-80,4,2,4,90,0,1
171207,-80,4,2,4,90,0,1
174134,-57.1428571428571,4,2,4,90,0,1
174500,-80,4,2,4,90,0,1
175506,-100,4,2,1,90,0,0
175597,-80,4,2,77,90,0,1
175780,-80,4,2,4,90,0,1
184378,-80,4,2,4,80,0,1
184743,-80,4,2,4,70,0,1
185109,-80,4,2,4,60,0,1
185475,-80,4,2,4,90,0,1
185841,-50,4,2,1,60,0,0
186207,-100,4,2,3,50,0,0
186573,-100,4,2,4,30,0,0
186756,-100,4,2,4,40,0,0
186939,-100,4,2,4,50,0,0
187121,-100,4,2,4,60,0,0
187305,-100,4,2,77,60,0,0
187487,-100,4,2,4,60,0,0
190963,-100,4,2,10,60,0,0
191146,-100,4,2,4,60,0,0
196634,-100,4,2,4,40,0,0
196817,-100,4,2,4,60,0,0
197548,-100,4,2,1,60,0,0
197914,-100,4,2,3,30,0,0
198097,-66.6666666666667,4,2,1,60,0,0
198646,-66.6666666666667,4,2,3,30,0,0
199012,-100,4,2,2,80,0,0
199195,-100,4,2,4,60,0,0
209256,-66.6666666666667,4,2,1,80,0,0
209805,-66.6666666666667,4,2,1,90,0,0
210353,-66.6666666666667,4,2,1,90,0,0
210902,-100,4,2,1,45,0,0
211085,-100,4,2,1,40,0,0
211451,-100,4,2,1,35,0,0
211817,-100,4,2,1,30,0,0
212183,-100,4,2,1,25,0,0
212548,-100,4,2,1,20,0,0
212914,-100,4,2,1,15,0,0
213280,-100,4,2,1,10,0,0
213646,-100,4,2,1,5,0,0

[Colours]
Combo1 : 20,255,40
Combo2 : 0,80,160
Combo3 : 75,115,205
Combo4 : 150,165,255
Combo5 : 160,255,160
Combo6 : 40,255,120

[HitObjects]
348,192,11695,6,0,L|212:192,1,135.000005149842,2|0,0:0|0:0,0:0:0:0:
300,192,12244,1,0,0:0:0:0:
16,192,12792,1,0,0:0:0:0:
300,192,13158,6,0,P|336:136|300:88,1,135.000005149842,2|0,0:0|0:0,0:0:0:0:
212,88,13707,2,0,L|416:88,1,202.500007724762
104,200,14622,6,0,L|100:128,1,67.5000025749208,8|0,0:0|0:0,0:0:0:0:
372,132,15170,1,2,0:0:0:0:
208,132,15536,1,0,0:0:0:0:
480,48,15902,6,0,L|345:48,1,135.000005149842,2|0,0:0|0:0,0:0:0:0:
156,48,16634,1,0,0:0:0:0:
316,136,16817,1,2,0:0:0:0:
404,136,17000,1,0,0:0:0:0:
228,136,17183,6,0,L|220:212,1,67.5000025749208
256,192,17548,12,0,22853,0:0:0:0:
320,192,23036,5,8,0:0:0:0:
184,192,23219,2,0,L|228:192,1,45,8|8,0:0|0:0,0:0:0:0:
396,192,23402,6,0,P|456:140|396:88,1,180,4|0,0:0|0:0,0:0:0:0:
215,69,23951,2,0,B|224:160|224:160|312:160,1,180,2|0,0:0|0:0,0:0:0:0:
132,160,24500,2,0,L|48:208,1,90,0|0,0:0|0:0,0:0:0:0:
252,160,24866,6,0,P|312:212|252:264,1,180,2|0,0:0|0:0,0:0:0:0:
432,172,25414,2,0,B|423:263|423:263|335:263,1,180,2|0,0:0|0:0,0:0:0:0:
152,260,25963,2,0,L|144:364,1,90
384,348,26329,5,8,0:0:0:0:
496,348,26512,1,0,0:0:0:0:
404,348,26695,1,0,0:0:0:0:
204,352,26878,2,0,L|212:260,1,90,2|0,0:0|0:0,0:0:0:0:
340,260,27244,2,0,L|244:260,1,90,0|0,0:0|0:0,0:0:0:0:
448,256,27609,6,0,L|440:164,1,90,2|0,0:0|0:0,0:0:0:0:
312,164,27975,2,0,L|408:164,1,90,0|0,0:0|0:0,0:0:0:0:
240,164,28341,1,0,0:0:0:0:
36,164,28524,2,0,L|120:212,1,90,8|0,0:0|0:0,0:0:0:0:
244,212,28890,2,0,L|148:212,1,90,0|0,0:0|0:0,0:0:0:0:
352,212,29256,6,0,P|420:160|352:108,1,198.000006042481,2|0,0:0|0:0,0:0:0:0:
152,4,29805,2,0,L|326:109,1,198.000006042481,2|0,0:0|0:0,0:0:0:0:
124,76,30353,2,0,L|208:128,1,99.0000030212403,0|0,0:0|0:0,0:0:0:0:
412,192,30719,6,0,B|412:304|412:304|300:304,1,225,2|0,0:0|0:0,0:0:0:0:
100,300,31268,2,0,B|100:200|100:200|192:148,1,198.000006042481,2|0,0:0|0:0,0:0:0:0:
384,108,31817,2,0,L|296:160,1,99.0000030212403,0|0,0:0|0:0,0:0:0:0:
36,272,32183,6,0,P|0:220|36:152,1,148.50000453186,2|0,0:0|0:0,0:0:0:0:
156,148,32548,2,0,P|196:92|156:28,1,148.50000453186
36,36,32914,2,0,B|36:112|36:112|96:156,1,148.50000453186,2|0,0:0|0:0,0:0:0:0:
220,156,33280,1,0,0:0:0:0:
112,156,33463,1,0,0:0:0:0:
356,156,33646,6,0,B|436:156|436:156|436:268|336:268|336:268|336:156|436:156,1,405.000015449525,8|0,0:0|0:0,0:0:0:0:
236,156,34378,2,0,L|157:111,1,90,2|0,0:0|0:0,0:0:0:0:
356,96,34744,2,0,L|433:50,1,90,0|0,0:0|0:0,0:0:0:0:
157,111,35109,6,0,P|96:144|156:208,1,180,10|8,0:0|0:0,0:0:0:0:
252,208,35658,1,0,0:0:0:0:
56,300,35841,2,0,L|44:188,1,90,8|0,0:0|0:0,0:0:0:0:
242,297,36207,2,0,L|254:185,1,90,10|0,0:0|0:0,0:0:0:0:
492,208,36573,6,0,B|492:296|492:296|400:316,1,180,10|8,0:0|0:0,0:0:0:0:
500,312,37122,1,0,0:0:0:0:
304,316,37305,2,0,L|300:224,1,90,8|0,0:0|0:0,0:0:0:0:
112,228,37670,2,0,L|202:228,1,90,10|0,0:0|0:0,0:0:0:0:
448,152,38036,6,0,L|356:152,1,90,10|0,0:0|0:0,0:0:0:0:
248,152,38402,1,8,0:0:0:0:
484,152,38585,2,0,L|488:48,1,90,2|8,0:0|0:0,0:0:0:0:
248,60,38951,2,0,L|164:108,1,90,0|8,0:0|0:0,0:0:0:0:
436,60,39317,6,0,L|340:60,1,90,2|8,0:0|0:0,0:0:0:0:
108,104,39683,2,0,L|201:158,1,90,0|8,0:0|0:0,0:0:0:0:
16,148,40048,1,0,0:0:0:0:
260,152,40231,2,0,L|264:244,1,90,10|0,0:0|0:0,0:0:0:0:
84,240,40597,2,0,L|7:285,1,90,8|0,0:0|0:0,0:0:0:0:
276,340,40963,6,0,L|368:340,3,90,10|8|8|8,0:0|0:0|0:0|0:0,0:0:0:0:
128,340,41695,2,0,L|220:340,1,90,10|8,0:0|0:0,0:0:0:0:
468,256,42061,2,0,L|376:256,1,90,10|8,0:0|0:0,0:0:0:0:
108,256,42427,5,10,0:0:0:0:
232,256,42609,1,8,0:0:0:0:
68,256,42792,1,8,0:0:0:0:
196,256,42975,1,8,0:0:0:0:
496,256,43158,1,10,0:0:0:0:
256,256,43341,1,8,0:0:0:0:
16,256,43524,1,10,0:0:0:0:
256,256,43707,1,8,0:0:0:0:
16,192,43890,5,10,0:0:0:0:
20,128,43981,1,8,0:0:0:0:
60,80,44073,1,8,0:0:0:0:
120,68,44164,1,8,0:0:0:0:
220,160,44256,1,10,0:0:0:0:
280,148,44347,1,8,0:0:0:0:
320,100,44439,1,8,0:0:0:0:
324,36,44530,1,8,0:0:0:0:
144,36,44622,6,0,L|140:96,1,45,10|8,0:0|0:0,0:0:0:0:
320,100,44805,2,0,L|368:100,1,45,8|8,0:0|0:0,0:0:0:0:
140,160,44987,2,0,L|88:160,1,45,10|8,0:0|0:0,0:0:0:0:
412,160,45170,2,0,L|457:160,1,45,8|8,0:0|0:0,0:0:0:0:
84,232,45353,6,0,P|12:280|84:324,1,202.500007724762,2|0,0:0|0:0,0:0:0:0:
356,324,45719,2,0,L|216:324,1,135.000005149842,8|0,0:0|0:0,0:0:0:0:
404,324,46085,2,0,L|408:232,1,90,8|8,0:0|0:0,0:0:0:0:
352,192,46359,1,8,0:0:0:0:
148,192,46451,1,12,0:0:0:0:
320,192,46634,1,8,0:0:0:0:
60,192,46817,6,0,P|0:138|80:48,1,225,4|8,0:0|0:0,0:0:0:0:
280,52,47366,1,0,0:0:0:0:
40,48,47548,2,0,L|36:160,1,112.5,2|0,0:0|0:0,0:0:0:0:
320,160,47914,2,0,L|432:160,1,112.5,8|0,0:0|0:0,0:0:0:0:
128,160,48280,6,0,L|356:160,1,225,2|8,0:0|0:0,0:0:0:0:
152,160,48829,1,2,0:0:0:0:
424,160,49012,2,0,L|428:272,1,112.5,2|0,0:0|0:0,0:0:0:0:
144,272,49378,2,0,L|32:272,1,112.5,8|0,0:0|0:0,0:0:0:0:
400,272,49744,6,0,L|288:272,2,112.5,6|0|8,0:0|0:0|0:0,0:0:0:0:
120,272,50292,2,0,L|116:160,1,112.5,4|2,0:0|0:0,0:0:0:0:
320,160,50658,2,0,L|200:160,1,112.5,0|8,0:0|0:0,0:0:0:0:
480,164,51024,6,0,L|484:52,1,112.5,4|2,0:0|0:0,0:0:0:0:
280,52,51390,2,0,L|400:52,1,112.5,0|8,0:0|0:0,0:0:0:0:
120,52,51756,1,0,0:0:0:0:
456,164,51939,2,0,L|344:164,1,112.5,6|2,0:0|0:0,0:0:0:0:
140,164,52305,1,8,0:0:0:0:
284,164,52487,1,2,0:0:0:0:
16,164,52670,6,0,B|32:276|32:276|144:276,1,225,2|8,0:0|0:0,0:0:0:0:
20,276,53219,1,0,0:0:0:0:
268,276,53402,2,0,L|368:334,1,112.5,2|0,0:0|0:0,0:0:0:0:
72,280,53768,2,0,L|68:168,1,112.5,8|0,0:0|0:0,0:0:0:0:
340,164,54134,6,0,L|456:164,1,112.5,2|0,0:0|0:0,0:0:0:0:
272,164,54500,1,8,0:0:0:0:
464,164,54683,1,0,0:0:0:0:
192,164,54866,2,0,L|184:44,1,112.5,2|0,0:0|0:0,0:0:0:0:
492,52,55231,2,0,L|380:52,1,112.5,8|0,0:0|0:0,0:0:0:0:
96,52,55597,6,0,P|76:104|148:176,1,168.75,2|0,0:0|0:0,0:0:0:0:
340,176,55963,2,0,P|392:232|340:288,1,168.75,8|0,0:0|0:0,0:0:0:0:
144,292,56329,2,0,L|256:292,1,112.5,2|2,0:0|0:0,0:0:0:0:
496,292,56695,1,8,0:0:0:0:
256,292,56878,1,2,0:0:0:0:
16,288,57061,6,0,B|16:208|16:208|84:152|160:208|160:208|160:128,1,315.000003004074,2|8,0:0|0:0,0:0:0:0:
36,132,57609,1,2,0:0:0:0:
276,132,57792,2,0,L|392:132,1,112.5,2|0,0:0|0:0,0:0:0:0:
48,24,58158,2,0,L|160:24,1,112.5,8|2,0:0|0:0,0:0:0:0:
448,192,58524,6,0,P|508:138|428:48,1,225,4|8,0:0|0:0,0:0:0:0:
228,52,59073,1,0,0:0:0:0:
468,48,59256,2,0,L|472:172,1,112.5,2|0,0:0|0:0,0:0:0:0:
188,160,59622,2,0,L|76:160,1,112.5,8|0,0:0|0:0,0:0:0:0:
360,160,59987,6,0,L|248:160,1,112.5,2|0,0:0|0:0,0:0:0:0:
496,160,60353,1,8,0:0:0:0:
260,160,60536,1,0,0:0:0:0:
24,164,60719,2,0,L|20:276,1,112.5,2|2,0:0|0:0,0:0:0:0:
312,272,61085,2,0,L|424:272,1,112.5,8|0,0:0|0:0,0:0:0:0:
48,272,61451,6,0,L|160:272,2,112.5,6|0|8,0:0|0:0|0:0,0:0:0:0:
340,272,62000,2,0,L|344:160,1,112.5,4|2,0:0|0:0,0:0:0:0:
72,160,62366,2,0,L|192:160,1,112.5,0|8,0:0|0:0,0:0:0:0:
456,160,62731,6,0,L|344:160,1,112.5,4|2,0:0|0:0,0:0:0:0:
48,160,63097,2,0,L|56:40,1,112.5,0|8,0:0|0:0,0:0:0:0:
340,48,63463,1,0,0:0:0:0:
24,48,63646,2,0,L|136:48,1,112.5,6|0,0:0|0:0,0:0:0:0:
408,48,64012,1,8,0:0:0:0:
156,48,64195,1,0,0:0:0:0:
472,48,64378,6,0,B|456:160|456:160|344:160,1,225,2|8,0:0|0:0,0:0:0:0:
468,160,64927,1,0,0:0:0:0:
220,160,65109,2,0,L|120:218,1,112.5,2|0,0:0|0:0,0:0:0:0:
416,164,65475,2,0,L|420:52,1,112.5,8|0,0:0|0:0,0:0:0:0:
172,164,65841,6,0,L|288:164,1,112.5,2|0,0:0|0:0,0:0:0:0:
408,164,66207,1,8,0:0:0:0:
156,164,66390,1,0,0:0:0:0:
436,164,66573,2,0,L|444:44,1,112.5,2|2,0:0|0:0,0:0:0:0:
128,52,66939,2,0,L|16:52,1,112.5,8|2,0:0|0:0,0:0:0:0:
256,112,67305,6,0,B|256:196|256:196|172:220,1,168.75,2|0,0:0|0:0,0:0:0:0:
344,216,67670,2,0,P|400:268|344:320,1,168.75,8|0,0:0|0:0,0:0:0:0:
160,324,68036,2,0,P|192:240|264:216,1,168.75,2|0,0:0|0:0,0:0:0:0:
380,216,68402,2,0,P|444:172|440:88,1,168.75,8|0,0:0|0:0,0:0:0:0:
168,140,68768,6,0,P|216:10|270:140,1,360,2|8,0:0|0:0,0:0:0:0:
168,140,69317,1,0,0:0:0:0:
362,143,69500,2,0,L|366:203,1,45,8|8,0:0|0:0,0:0:0:0:
287,191,69683,2,0,L|283:251,1,45,8|8,0:0|0:0,0:0:0:0:
442,187,69866,2,0,L|486:227,1,45,8|8,0:0|0:0,0:0:0:0:
284,236,70048,2,0,L|220:236,1,45,8|8,0:0|0:0,0:0:0:0:
24,236,70231,6,0,L|116:236,2,90,2|0|8,0:0|0:0|0:0,0:0:0:0:
204,236,70780,1,0,0:0:0:0:
40,236,70963,2,0,L|32:136,1,90,2|0,0:0|0:0,0:0:0:0:
288,136,71329,2,0,L|367:90,1,90,8|0,0:0|0:0,0:0:0:0:
108,80,71695,5,2,0:0:0:0:
16,80,71878,1,0,0:0:0:0:
108,80,72061,1,8,0:0:0:0:
288,228,72244,1,0,0:0:0:0:
468,284,72427,2,0,L|475:192,1,90,2|2,0:0|0:0,0:0:0:0:
186,228,72792,2,8,L|278:228,1,90,8|0,0:0|0:0,0:0:0:0:
462,194,73158,5,2,0:0:0:0:
354,194,73341,1,0,0:0:0:0:
246,194,73524,1,8,0:0:0:0:
408,194,73707,1,0,0:0:0:0:
228,194,73890,2,0,L|216:98,1,90,2|0,0:0|0:0,0:0:0:0:
472,104,74256,2,0,L|380:104,1,90,8|0,0:0|0:0,0:0:0:0:
200,16,74622,5,2,0:0:0:0:
308,16,74805,1,0,0:0:0:0:
416,16,74987,1,8,0:0:0:0:
244,16,75170,1,0,0:0:0:0:
72,16,75353,2,0,L|60:112,1,90,2|2,0:0|0:0,0:0:0:0:
304,104,75719,2,0,L|404:104,1,90,8|2,0:0|0:0,0:0:0:0:
208,188,76085,6,0,L|176:104,1,90,2|0,0:0|0:0,0:0:0:0:
339,103,76451,1,8,0:0:0:0:
160,104,76634,1,0,0:0:0:0:
348,104,76817,2,0,L|440:104,1,90
272,312,77183,2,0,L|364:312,1,90,8|0,0:0|0:0,0:0:0:0:
172,316,77548,6,0,L|80:316,1,90,2|0,0:0|0:0,0:0:0:0:
200,316,77914,1,8,0:0:0:0:
36,316,78097,1,2,0:0:0:0:
280,316,78280,2,0,L|340:248,1,90,2|0,0:0|0:0,0:0:0:0:
156,260,78646,2,0,L|151:168,1,90,8|0,0:0|0:0,0:0:0:0:
332,172,79012,6,0,L|424:172,1,90,2|0,0:0|0:0,0:0:0:0:
312,172,79378,1,8,0:0:0:0:
72,172,79561,1,4,0:0:0:0:
200,172,79744,2,0,L|304:172,1,90,2|2,0:0|0:0,0:0:0:0:
36,172,80109,2,0,L|28:80,1,90,8|0,0:0|0:0,0:0:0:0:
200,84,80475,6,0,L|292:84,2,90,2|0|4,0:0|0:0|0:0,0:0:0:0:
444,84,81024,2,0,P|512:136|428:264,1,270.000010299683,8|0,0:0|0:0,0:0:0:0:
184,264,81573,2,0,L|92:264,1,90,6|0,0:0|0:0,0:0:0:0:
368,356,81939,6,0,L|278:356,2,90,4|0|8,0:0|0:0|0:0,0:0:0:0:
204,356,82487,1,0,0:0:0:0:
388,356,82670,2,0,L|380:256,1,90,2|0,0:0|0:0,0:0:0:0:
140,268,83036,2,0,L|48:268,1,90,8|0,0:0|0:0,0:0:0:0:
397,128,83402,6,0,L|289:128,1,90,6|0,0:0|0:0,0:0:0:0:
48,128,83768,1,12,0:0:0:0:
284,128,83951,2,0,L|288:28,1,90,2|2,0:0|0:0,0:0:0:0:
180,40,84317,1,2,0:0:0:0:
360,40,84500,2,0,L|453:40,1,90,8|0,0:0|0:0,0:0:0:0:
268,132,84866,6,0,L|176:132,1,90,2|0,0:0|0:0,0:0:0:0:
88,132,85231,1,8,0:0:0:0:
276,232,85414,2,0,L|184:232,1,90,4|2,0:0|0:0,0:0:0:0:
376,232,85780,1,4,0:0:0:0:
212,232,85963,1,8,0:0:0:0:
472,232,86146,6,0,L|481:140,1,90,4|2,0:0|0:0,0:0:0:0:
400,144,86420,1,0,0:0:0:0:
204,144,86512,2,0,L|160:144,1,45
344,232,86695,2,0,L|436:232,1,90,8|2,0:0|0:0,0:0:0:0:
252,316,87061,2,0,L|348:316,1,90,2|0,0:0|0:0,0:0:0:0:
88,316,87427,2,0,L|9:270,1,90,8|0,0:0|0:0,0:0:0:0:
192,276,87792,6,0,L|92:276,2,90,2|2|8,0:0|0:0|0:0,0:0:0:0:
372,280,88341,1,4,0:0:0:0:
452,220,88524,1,2,0:0:0:0:
364,164,88707,1,0,0:0:0:0:
124,164,88890,2,0,L|117:60,1,90,8|0,0:0|0:0,0:0:0:0:
300,72,89256,6,0,L|208:72,1,90,2|0,0:0|0:0,0:0:0:0:
372,72,89622,1,8,0:0:0:0:
192,72,89805,2,0,L|176:160,1,90,4|2,0:0|0:0,0:0:0:0:
272,192,90170,1,0,0:0:0:0:
452,192,90353,2,0,L|436:104,1,90,8|0,0:0|0:0,0:0:0:0:
256,104,90719,6,0,L|161:104,1,90,2|0,0:0|0:0,0:0:0:0:
276,104,91085,1,8,0:0:0:0:
96,104,91268,2,0,L|12:68,2,90,4|2|2,0:0|0:0|0:0,0:0:0:0:
280,192,91817,2,0,L|180:192,1,90,8|0,0:0|0:0,0:0:0:0:
488,192,92183,6,0,P|416:128|488:52,1,225,2|0,0:0|0:0,0:0:0:0:
152,56,92731,2,0,L|376:56,1,225,8|0,0:0|0:0,0:0:0:0:
212,232,93280,2,0,L|203:132,1,90,2|0,0:0|0:0,0:0:0:0:
496,140,93646,5,4,0:0:0:0:
92,188,105353,6,0,L|272:188,1,180,2|0,0:0|0:0,0:0:0:0:
104,192,105902,1,0,0:0:0:0:
376,192,106451,1,2,0:0:0:0:
52,192,106817,5,10,0:0:0:0:
216,192,107000,1,0,0:0:0:0:
376,192,107183,1,8,0:0:0:0:
216,192,107366,1,2,0:0:0:0:
460,192,107914,1,0,0:0:0:0:
208,192,108280,6,0,B|96:192|100:76,1,180,2|0,0:0|0:0,0:0:0:0:
208,80,108829,2,0,L|287:125,1,90,2|0,0:0|0:0,0:0:0:0:
124,192,109195,2,0,L|203:238,1,90,8|0,0:0|0:0,0:0:0:0:
384,236,109561,1,2,0:0:0:0:
96,236,109744,5,8,0:0:0:0:
31,204,109835,1,0,0:0:0:0:
28,133,109927,1,0,0:0:0:0:
88,95,110018,1,0,0:0:0:0:
196,96,110109,2,0,L|200:188,1,90,2|0,0:0|0:0,0:0:0:0:
20,304,110475,2,0,L|112:304,1,90,8|0,0:0|0:0,0:0:0:0:
272,304,110841,2,0,L|181:252,1,90,2|0,0:0|0:0,0:0:0:0:
12,192,111207,6,0,B|12:76|128:76,1,180,2|2,0:0|0:0,0:0:0:0:
284,76,111756,2,0,P|340:132|280:192,1,180,8|0,0:0|0:0,0:0:0:0:
120,192,112305,2,0,L|116:300,1,90,0|0,0:0|0:0,0:0:0:0:
360,280,112670,5,2,0:0:0:0:
488,280,112853,1,0,0:0:0:0:
308,280,113036,1,2,0:0:0:0:
180,281,113219,2,0,P|120:237|180:177,1,180,8|0,0:0|0:0,0:0:0:0:
364,176,113768,2,0,L|368:72,1,90,0|0,0:0|0:0,0:0:0:0:
176,88,114134,6,0,L|360:88,1,180,2|0,0:0|0:0,0:0:0:0:
192,20,114683,2,0,P|136:32|140:148,1,180,8|0,0:0|0:0,0:0:0:0:
236,140,115231,2,0,L|128:140,1,90,0|0,0:0|0:0,0:0:0:0:
440,140,115597,6,0,P|464:200|452:312,1,180,2|0,0:0|0:0,0:0:0:0:
144,312,116146,2,0,P|145:233|228:184,1,180,8|0,0:0|0:0,0:0:0:0:
480,184,116695,1,8,0:0:0:0:
352,184,116878,2,0,L|296:184,1,45,8|8,0:0|0:0,0:0:0:0:
104,188,117061,6,0,L|12:188,2,90,4|0|2,0:0|0:0|0:0,0:0:0:0:
212,188,117609,1,8,0:0:0:0:
48,188,117792,2,0,L|41:96,2,90,2|0|0,0:0|0:0|0:0,0:0:0:0:
364,40,118524,6,0,P|380:88|364:160,1,90,2|0,0:0|0:0,0:0:0:0:
323,128,118798,1,2,0:0:0:0:
268,128,118890,2,0,L|172:128,1,90,8|0,0:0|0:0,0:0:0:0:
353,213,119256,2,0,L|377:125,1,90,0|0,0:0|0:0,0:0:0:0:
136,128,119622,2,8,L|128:76,1,45,8|8,0:0|0:0,0:0:0:0:
204,64,119805,2,8,L|212:8,1,45,8|8,0:0|0:0,0:0:0:0:
20,16,119987,6,0,L|112:16,1,90,2|0,0:0|0:0,0:0:0:0:
168,64,120262,1,2,0:0:0:0:
112,112,120353,2,0,L|16:112,1,90,8|0,0:0|0:0,0:0:0:0:
208,200,120719,2,0,L|192:108,1,90,2|0,0:0|0:0,0:0:0:0:
12,200,121085,2,0,L|104:200,1,90,8|0,0:0|0:0,0:0:0:0:
284,200,121451,6,0,L|360:248,1,90,2|0,0:0|0:0,0:0:0:0:
296,244,121725,1,0,0:0:0:0:
232,244,121817,2,0,L|156:292,1,90,8|8,0:0|0:0,0:0:0:0:
340,328,122183,2,0,L|244:328,1,90,2|0,0:0|0:0,0:0:0:0:
65,292,122548,2,0,L|161:292,1,90,8|0,0:0|0:0,0:0:0:0:
448,192,122914,6,0,L|452:284,1,90,6|0,0:0|0:0,0:0:0:0:
392,284,123189,1,2,0:0:0:0:
332,284,123280,2,0,L|422:284,1,90,8|0,0:0|0:0,0:0:0:0:
240,192,123646,2,0,L|332:192,1,90,2|0,0:0|0:0,0:0:0:0:
148,96,124012,2,0,L|240:96,1,90,8|0,0:0|0:0,0:0:0:0:
480,188,124378,6,0,L|484:96,1,90,2|0,0:0|0:0,0:0:0:0:
420,100,124652,1,2,0:0:0:0:
238,96,124744,2,0,L|142:96,1,90,8|0,0:0|0:0,0:0:0:0:
328,96,125109,2,0,L|407:142,1,90,2|0,0:0|0:0,0:0:0:0:
168,176,125475,2,8,L|144:224,1,45,8|8,0:0|0:0,0:0:0:0:
236,228,125658,2,8,L|212:276,1,45,8|8,0:0|0:0,0:0:0:0:
32,272,125841,6,0,L|24:176,1,90,2|0,0:0|0:0,0:0:0:0:
96,184,126116,1,2,0:0:0:0:
168,184,126207,2,0,L|72:184,1,90,8|0,0:0|0:0,0:0:0:0:
332,184,126573,2,0,L|336:95,1,90,2|0,0:0|0:0,0:0:0:0:
156,96,126939,2,0,L|65:44,1,90,8|0,0:0|0:0,0:0:0:0:
339,63,127305,6,0,P|411:111|331:183,1,225,2|2,0:0|0:0,0:0:0:0:
216,184,127853,1,8,0:0:0:0:
456,184,128036,2,0,L|460:280,1,90,2|0,0:0|0:0,0:0:0:0:
280,276,128402,2,0,L|276:186,1,90,2|0,0:0|0:0,0:0:0:0:
32,188,128768,6,0,L|122:188,2,90,4|0|2,0:0|0:0|0:0,0:0:0:0:
160,188,129317,1,8,0:0:0:0:
348,184,129500,2,0,L|440:184,1,90,2|0,0:0|0:0,0:0:0:0:
256,96,129866,2,0,L|164:96,1,90,2|0,0:0|0:0,0:0:0:0:
408,96,130231,6,0,L|314:96,1,90,2|0,0:0|0:0,0:0:0:0:
408,96,130506,1,0,0:0:0:0:
498,96,130597,2,0,L|402:96,1,90,8|0,0:0|0:0,0:0:0:0:
216,96,130963,1,2,0:0:0:0:
324,96,131146,1,0,0:0:0:0:
84,96,131329,2,0,L|80:144,1,45,8|8,0:0|0:0,0:0:0:0:
184,192,131512,2,0,L|188:240,1,45,8|8,0:0|0:0,0:0:0:0:
360,236,131695,6,0,L|452:236,1,90,2|0,0:0|0:0,0:0:0:0:
400,236,131969,1,0,0:0:0:0:
352,236,132061,1,2,0:0:0:0:
504,152,132244,1,8,0:0:0:0:
264,152,132427,2,0,L|256:60,1,90,2|0,0:0|0:0,0:0:0:0:
436,60,132792,2,0,L|344:60,1,90,8|0,0:0|0:0,0:0:0:0:
30,192,133158,6,0,L|122:192,1,90,2|0,0:0|0:0,0:0:0:0:
180,192,133433,1,0,0:0:0:0:
90,192,133524,2,0,L|180:192,1,90,2|8,0:0|0:0,0:0:0:0:
344,192,133890,1,2,0:0:0:0:
164,272,134073,1,0,0:0:0:0:
408,272,134256,2,0,L|508:272,1,90,8|0,0:0|0:0,0:0:0:0:
200,272,134622,6,8,L|192:176,1,90,10|8,0:0|0:0,0:0:0:0:
460,192,134987,2,8,L|452:96,1,90,8|8,0:0|0:0,0:0:0:0:
208,104,135353,1,8,0:0:0:0:
372,104,135536,1,8,0:0:0:0:
136,104,135719,1,8,0:0:0:0:
316,104,135902,1,8,0:0:0:0:
28,192,136085,6,8,L|118:192,1,90,10|8,0:0|0:0,0:0:0:0:
408,192,136451,2,8,L|318:192,1,90,8|8,0:0|0:0,0:0:0:0:
80,192,136817,1,8,0:0:0:0:
260,192,137000,1,8,0:0:0:0:
24,192,137183,1,8,0:0:0:0:
340,192,137366,1,8,0:0:0:0:
80,192,137548,5,10,0:0:0:0:
28,240,137640,1,8,0:0:0:0:
28,312,137731,1,8,0:0:0:0:
80,360,137823,1,8,0:0:0:0:
260,360,137914,2,8,L|316:360,1,45,10|8,0:0|0:0,0:0:0:0:
192,360,138097,2,8,L|188:304,1,45,8|8,0:0|0:0,0:0:0:0:
392,236,138280,6,8,L|396:180,1,45,10|8,0:0|0:0,0:0:0:0:
292,192,138463,2,8,L|248:192,1,45,8|8,0:0|0:0,0:0:0:0:
484,192,138646,2,8,L|466:138,1,45,10|8,0:0|0:0,0:0:0:0:
244,96,138829,2,8,L|200:96,1,45,8|8,0:0|0:0,0:0:0:0:
448,60,139012,6,8,L|492:60,1,45,10|8,0:0|0:0,0:0:0:0:
156,96,139195,2,8,L|108:96,1,45,8|8,0:0|0:0,0:0:0:0:
384,196,139378,5,10,0:0:0:0:
204,196,139469,1,8,0:0:0:0:
20,196,139561,1,8,0:0:0:0:
204,196,139652,1,8,0:0:0:0:
452,196,139744,6,0,L|456:244,1,45,2|2,0:0|0:0,0:0:0:0:
252,272,139927,2,0,L|324:272,1,67.5000025749208,8|2,0:0|0:0,0:0:0:0:
84,268,140109,2,0,P|20:204|84:136,1,202.500007724762,4|0,0:0|0:0,0:0:0:0:
312,136,140475,6,0,L|412:136,1,90,2|0,0:0|0:0,0:0:0:0:
220,60,140841,2,0,L|320:60,1,90,8|0,0:0|0:0,0:0:0:0:
128,136,141207,1,2,0:0:0:0:
292,136,141390,1,0,0:0:0:0:
112,60,141573,2,0,L|212:60,1,90,8|0,0:0|0:0,0:0:0:0:
456,60,141939,6,0,L|360:60,1,90,6|0,0:0|0:0,0:0:0:0:
128,60,142305,1,8,0:0:0:0:
256,60,142487,1,0,0:0:0:0:
16,144,142670,2,0,L|116:144,1,90,2|0,0:0|0:0,0:0:0:0:
346,60,143036,2,0,L|242:60,1,90,8|0,0:0|0:0,0:0:0:0:
496,144,143402,6,0,L|406:176,1,90,2|0,0:0|0:0,0:0:0:0:
228,174,143768,2,0,L|302:235,1,90,8|0,0:0|0:0,0:0:0:0:
132,176,144134,2,0,L|86:255,1,90,2|2,0:0|0:0,0:0:0:0:
234,320,144500,2,0,L|326:320,1,90,8|0,0:0|0:0,0:0:0:0:
160,320,144866,5,2,0:0:0:0:
268,320,145048,1,0,0:0:0:0:
88,320,145231,2,0,L|64:232,1,90,8|0,0:0|0:0,0:0:0:0:
304,232,145597,2,0,L|200:232,1,90,2|2,0:0|0:0,0:0:0:0:
396,232,145963,2,0,L|400:120,1,112.5,8|0,0:0|0:0,0:0:0:0:
134,119,146329,6,0,L|38:119,1,90,2|0,0:0|0:0,0:0:0:0:
228,40,146695,2,0,L|128:40,1,90,8|0,0:0|0:0,0:0:0:0:
320,120,147061,1,2,0:0:0:0:
156,120,147244,1,2,0:0:0:0:
336,40,147427,2,0,L|436:40,1,90,8|0,0:0|0:0,0:0:0:0:
176,120,147792,6,0,L|80:120,1,90,2|0,0:0|0:0,0:0:0:0:
324,120,148158,1,8,0:0:0:0:
160,120,148341,1,2,0:0:0:0:
396,120,148524,2,0,L|300:120,1,90,2|0,0:0|0:0,0:0:0:0:
476,120,148890,2,0,L|490:208,1,90,8|0,0:0|0:0,0:0:0:0:
176,208,149256,6,0,L|76:208,1,90,6|0,0:0|0:0,0:0:0:0:
252,300,149622,2,0,L|160:300,1,90,8|0,0:0|0:0,0:0:0:0:
400,208,149987,2,0,L|496:208,1,90,6|0,0:0|0:0,0:0:0:0:
232,208,150353,2,0,L|140:208,1,90,8|2,0:0|0:0,0:0:0:0:
460,300,150719,6,0,L|364:300,2,90,6|0|8,0:0|0:0|0:0,0:0:0:0:
332,300,151268,1,2,0:0:0:0:
60,300,151451,2,0,L|152:300,1,90,6|2,0:0|0:0,0:0:0:0:
424,192,151817,2,0,L|332:192,1,90,8|2,0:0|0:0,0:0:0:0:
96,192,152183,6,0,L|-4:192,1,90,2|0,0:0|0:0,0:0:0:0:
244,192,152548,2,0,L|144:192,1,90,8|0,0:0|0:0,0:0:0:0:
392,192,152914,2,0,L|492:192,1,90,2|0,0:0|0:0,0:0:0:0:
244,192,153280,2,0,L|344:192,1,90,8|0,0:0|0:0,0:0:0:0:
16,192,153646,6,0,L|110:192,1,90,6|0,0:0|0:0,0:0:0:0:
344,84,154012,2,0,L|250:84,1,90,8|0,0:0|0:0,0:0:0:0:
416,84,154378,1,2,0:0:0:0:
236,84,154561,1,2,0:0:0:0:
484,84,154744,2,0,L|468:180,1,90,8|0,0:0|0:0,0:0:0:0:
180,168,155109,6,0,L|272:168,1,90,2|0,0:0|0:0,0:0:0:0:
452,256,155475,2,0,L|352:256,1,90,8|0,0:0|0:0,0:0:0:0:
120,252,155841,2,0,L|156:336,1,90,2|2,0:0|0:0,0:0:0:0:
317,170,156207,2,0,L|281:254,1,90,8|0,0:0|0:0,0:0:0:0:
117,252,156573,5,2,0:0:0:0:
296,252,156756,1,2,0:0:0:0:
36,252,156939,2,0,L|104:192,1,90,8|0,0:0|0:0,0:0:0:0:
284,192,157305,1,2,0:0:0:0:
48,192,157487,1,0,0:0:0:0:
320,192,157670,2,0,B|432:192,1,112.5,8|0,0:0|0:0,0:0:0:0:
164,24,158036,6,0,L|256:24,1,90,2|0,0:0|0:0,0:0:0:0:
16,108,158402,2,0,L|120:108,1,90,8|0,0:0|0:0,0:0:0:0:
344,108,158768,1,2,0:0:0:0:
180,108,158951,1,2,0:0:0:0:
432,24,159134,2,0,L|328:24,1,90,8|0,0:0|0:0,0:0:0:0:
52,192,159500,6,0,L|148:192,1,90,2|0,0:0|0:0,0:0:0:0:
412,192,159866,2,0,L|300:192,1,90,8|0,0:0|0:0,0:0:0:0:
78,255,160231,2,0,L|142:191,1,90,2|2,0:0|0:0,0:0:0:0:
322,192,160597,2,0,L|234:118,1,90,8|2,0:0|0:0,0:0:0:0:
496,136,160963,6,0,L|404:136,1,90,6|0,0:0|0:0,0:0:0:0:
224,276,161329,2,0,L|320:276,1,90,8|0,0:0|0:0,0:0:0:0:
60,276,161695,1,6,0:0:0:0:
332,276,161878,1,2,0:0:0:0:
60,276,162061,1,8,0:0:0:0:
420,276,162244,1,2,0:0:0:0:
16,276,162427,6,0,P|64:128|164:104,1,270.000010299683,8|0,0:0|0:0,0:0:0:0:
472,104,162975,1,0,0:0:0:0:
100,104,163158,2,8,L|108:172,1,67.5000025749208,8|8,0:0|0:0,0:0:0:0:
416,104,163341,2,8,L|408:172,1,67.5000025749208,8|8,0:0|0:0,0:0:0:0:
36,172,163524,6,0,B|476:172,1,438.750012552739,8|0,0:0|0:0,0:0:0:0:
156,172,163890,6,0,P|96:224|156:278,1,180,4|8,0:0|0:0,0:0:0:0:
320,280,164439,1,0,0:0:0:0:
118,276,164622,2,0,L|112:160,1,112.5,2|0,0:0|0:0,0:0:0:0:
352,188,164987,2,0,L|240:188,1,112.5,8|0,0:0|0:0,0:0:0:0:
488,120,165353,6,0,L|376:120,1,112.5,2|0,0:0|0:0,0:0:0:0:
264,120,165719,1,8,0:0:0:0:
432,120,165902,1,0,0:0:0:0:
224,120,166085,2,0,L|220:232,1,112.5,2|2,0:0|0:0,0:0:0:0:
484,232,166451,2,0,L|372:232,1,112.5,8|0,0:0|0:0,0:0:0:0:
32,232,166817,6,0,L|144:232,2,112.5,6|2|8,0:0|0:0|0:0,0:0:0:0:
367,344,167366,2,0,L|371:232,1,112.5,4|2,0:0|0:0,0:0:0:0:
100,344,167731,2,0,L|220:344,1,112.5,0|8,0:0|0:0,0:0:0:0:
468,344,168097,6,0,L|464:232,1,112.5,4|2,0:0|0:0,0:0:0:0:
188,232,168463,2,0,L|308:232,1,112.5,2|8,0:0|0:0,0:0:0:0:
16,232,168829,1,4,0:0:0:0:
264,120,169012,1,2,0:0:0:0:
28,120,169195,1,2,0:0:0:0:
264,120,169378,1,8,0:0:0:0:
500,120,169561,1,0,0:0:0:0:
160,120,169744,6,0,B|48:120,2,112.5,2|0|8,0:0|0:0|0:0,0:0:0:0:
332,120,170292,1,0,0:0:0:0:
116,120,170475,2,0,L|108:238,1,112.5,2|0,0:0|0:0,0:0:0:0:
360,232,170841,2,0,L|480:232,1,112.5,8|0,0:0|0:0,0:0:0:0:
120,324,171207,6,0,L|236:324,1,112.5,2|0,0:0|0:0,0:0:0:0:
424,324,171573,1,8,0:0:0:0:
244,324,171756,1,2,0:0:0:0:
492,324,171939,2,0,L|500:204,1,112.5,2|0,0:0|0:0,0:0:0:0:
244,212,172305,2,0,L|132:212,1,112.5,8|0,0:0|0:0,0:0:0:0:
416,120,172670,6,0,P|472:148|420:212,1,168.75,2|0,0:0|0:0,0:0:0:0:
192,212,173036,2,0,B|192:296|192:296|276:328,1,168.75,8|0,0:0|0:0,0:0:0:0:
435,326,173402,2,0,L|323:326,1,112.5,2|2,0:0|0:0,0:0:0:0:
16,328,173768,1,8,0:0:0:0:
256,328,173951,1,2,0:0:0:0:
496,324,174134,6,0,B|496:244|496:244|428:188|352:244|352:244|352:164,1,315.000003004074,2|8,0:0|0:0,0:0:0:0:
476,168,174683,1,2,0:0:0:0:
216,168,174866,2,0,L|100:168,1,112.5,2|0,0:0|0:0,0:0:0:0:
376,60,175231,1,8,0:0:0:0:
124,56,175414,1,0,0:0:0:0:
440,168,175597,6,0,P|508:120|416:60,1,225,4|8,0:0|0:0,0:0:0:0:
228,56,176146,1,0,0:0:0:0:
480,56,176329,2,0,L|484:180,1,112.5,2|0,0:0|0:0,0:0:0:0:
184,168,176695,2,0,L|72:168,1,112.5,8|0,0:0|0:0,0:0:0:0:
412,168,177061,6,0,L|300:168,1,112.5,2|0,0:0|0:0,0:0:0:0:
496,168,177427,1,8,0:0:0:0:
256,168,177609,1,2,0:0:0:0:
16,168,177792,2,0,L|12:280,1,112.5,2|0,0:0|0:0,0:0:0:0:
264,280,178158,2,0,L|152:280,1,112.5,8|0,0:0|0:0,0:0:0:0:
480,280,178524,6,0,L|368:280,2,112.5,6|0|8,0:0|0:0|0:0,0:0:0:0:
168,280,179073,2,0,L|164:168,1,112.5,4|2,0:0|0:0,0:0:0:0:
456,168,179439,2,0,L|336:168,1,112.5,0|8,0:0|0:0,0:0:0:0:
52,168,179805,6,0,L|164:168,1,112.5,4|2,0:0|0:0,0:0:0:0:
480,168,180170,2,0,L|472:48,1,112.5,0|8,0:0|0:0,0:0:0:0:
172,56,180536,1,4,0:0:0:0:
496,56,180719,1,2,0:0:0:0:
256,56,180902,1,0,0:0:0:0:
16,56,181085,1,8,0:0:0:0:
340,56,181268,1,2,0:0:0:0:
36,56,181451,6,0,B|260:56,1,225,2|8,0:0|0:0,0:0:0:0:
72,164,182000,1,2,0:0:0:0:
332,160,182183,2,0,L|336:272,1,112.5,2|0,0:0|0:0,0:0:0:0:
32,272,182548,2,0,L|156:272,1,112.5,8|0,0:0|0:0,0:0:0:0:
444,160,182914,6,0,L|328:160,1,112.5,2|0,0:0|0:0,0:0:0:0:
140,160,183280,1,8,0:0:0:0:
392,160,183463,1,0,0:0:0:0:
112,160,183646,1,2,0:0:0:0:
292,160,183829,1,2,0:0:0:0:
40,160,184012,2,0,L|36:44,1,112.5,8|0,0:0|0:0,0:0:0:0:
294,55,184378,6,0,P|347:108|291:159,1,168.75,2|0,0:0|0:0,0:0:0:0:
120,160,184744,2,0,B|143:241|143:241|227:241,1,168.75,8|0,0:0|0:0,0:0:0:0:
60,244,185109,2,0,P|8:292|68:348,1,168.75,2|0,0:0|0:0,0:0:0:0:
236,328,185475,2,0,L|90:244,1,168.75,8|0,0:0|0:0,0:0:0:0:
364,240,185841,6,0,P|316:110|262:240,1,360,2|8,0:0|0:0,0:0:0:0:
364,240,186390,1,0,0:0:0:0:
128,240,186573,2,0,L|124:300,1,45,8|8,0:0|0:0,0:0:0:0:
242,240,186756,2,0,L|246:300,1,45,8|8,0:0|0:0,0:0:0:0:
64,240,186939,2,0,L|20:280,1,45,8|8,0:0|0:0,0:0:0:0:
308,240,187122,2,0,L|352:280,1,45,8|8,0:0|0:0,0:0:0:0:
20,150,187305,6,0,L|112:150,2,90,4|0|8,0:0|0:0|0:0,0:0:0:0:
200,152,187853,1,0,0:0:0:0:
380,152,188036,2,0,L|388:252,1,90,2|0,0:0|0:0,0:0:0:0:
116,240,188402,2,0,L|208:240,1,90,8|0,0:0|0:0,0:0:0:0:
444,240,188768,5,2,0:0:0:0:
336,240,188951,1,0,0:0:0:0:
228,240,189134,1,8,0:0:0:0:
408,240,189317,1,2,0:0:0:0:
156,240,189500,2,0,L|149:148,1,90,2|0,0:0|0:0,0:0:0:0:
404,152,189866,2,8,L|312:152,1,90,8|0,0:0|0:0,0:0:0:0:
500,72,190231,5,2,0:0:0:0:
392,72,190414,1,0,0:0:0:0:
284,72,190597,1,8,0:0:0:0:
464,72,190780,1,0,0:0:0:0:
264,72,190963,2,0,L|168:72,1,90,0|0,0:0|0:0,0:0:0:0:
428,72,191329,2,0,L|436:168,1,90,8|0,0:0|0:0,0:0:0:0:
180,160,191695,5,2,0:0:0:0:
288,160,191878,1,0,0:0:0:0:
160,160,192061,1,8,0:0:0:0:
340,160,192244,1,2,0:0:0:0:
88,160,192427,2,0,L|76:256,1,90,2|0,0:0|0:0,0:0:0:0:
348,248,192792,1,8,0:0:0:0:
176,248,192975,1,2,0:0:0:0:
428,248,193158,6,0,L|420:348,1,90,2|0,0:0|0:0,0:0:0:0:
264,336,193524,1,8,0:0:0:0:
440,336,193707,1,0,0:0:0:0:
188,336,193890,1,0,0:0:0:0:
80,336,194073,1,0,0:0:0:0:
332,336,194256,2,0,L|340:244,1,90,8|0,0:0|0:0,0:0:0:0:
88,60,194622,6,0,L|178:60,1,90,2|0,0:0|0:0,0:0:0:0:
342,60,194987,1,8,0:0:0:0:
162,60,195170,1,0,0:0:0:0:
414,60,195353,2,0,L|474:128,1,90,0|0,0:0|0:0,0:0:0:0:
290,124,195719,2,0,L|382:124,1,90,8|0,0:0|0:0,0:0:0:0:
200,192,196085,6,0,L|108:192,1,90,2|2,0:0|0:0,0:0:0:0:
272,192,196451,1,8,0:0:0:0:
24,192,196634,1,4,0:0:0:0:
296,192,196817,2,0,L|400:192,1,90,2|0,0:0|0:0,0:0:0:0:
132,192,197183,2,0,L|124:284,1,90,8|0,0:0|0:0,0:0:0:0:
304,280,197548,6,0,L|212:280,2,90,2|0|4,0:0|0:0|0:0,0:0:0:0:
60,280,198097,2,0,P|0:212|100:96,1,270.000010299683,4|0,0:0|0:0,0:0:0:0:
348,96,198646,2,0,L|208:96,1,135.000005149842,4|2,0:0|0:0,0:0:0:0:
484,20,199012,6,0,L|394:20,2,90,4|0|8,0:0|0:0|0:0,0:0:0:0:
320,20,199561,1,0,0:0:0:0:
500,20,199744,2,0,L|492:120,1,90,2|0,0:0|0:0,0:0:0:0:
240,108,200109,2,0,L|148:108,1,90,8|0,0:0|0:0,0:0:0:0:
405,248,200475,6,0,L|297:248,1,90,6|0,0:0|0:0,0:0:0:0:
56,248,200841,1,12,0:0:0:0:
344,248,201024,2,0,L|348:348,1,90,2|2,0:0|0:0,0:0:0:0:
240,336,201390,1,0,0:0:0:0:
492,336,201573,2,0,L|399:336,1,90,8|0,0:0|0:0,0:0:0:0:
148,336,201939,6,0,L|144:240,1,90,2|0,0:0|0:0,0:0:0:0:
308,248,202305,1,8,0:0:0:0:
54,246,202487,2,0,L|146:246,1,90,6|2,0:0|0:0,0:0:0:0:
400,144,202853,1,4,0:0:0:0:
164,144,203036,1,8,0:0:0:0:
460,144,203219,6,0,L|348:144,1,90,4|2,0:0|0:0,0:0:0:0:
200,144,203494,1,0,0:0:0:0:
372,216,203585,2,0,L|416:216,1,45,0|0,0:0|0:0,0:0:0:0:
244,216,203768,2,0,L|148:216,1,90,8|2,0:0|0:0,0:0:0:0:
336,304,204134,2,0,L|240:304,1,90,2|0,0:0|0:0,0:0:0:0:
64,260,204500,2,0,L|144:304,1,90,8|2,0:0|0:0,0:0:0:0:
344,108,204866,6,0,L|244:108,2,90,2|0|8,0:0|0:0|0:0,0:0:0:0:
88,108,205414,1,0,0:0:0:0:
197,107,205597,1,0,0:0:0:0:
305,107,205780,1,2,0:0:0:0:
124,108,205963,2,0,L|117:212,1,90,8|0,0:0|0:0,0:0:0:0:
300,200,206329,6,0,L|392:200,1,90,2|0,0:0|0:0,0:0:0:0:
208,200,206695,1,8,0:0:0:0:
460,200,206878,2,0,L|476:288,1,90,2|2,0:0|0:0,0:0:0:0:
380,320,207244,1,0,0:0:0:0:
200,320,207427,2,0,L|300:320,1,90,8|0,0:0|0:0,0:0:0:0:
108,320,207792,6,0,L|13:320,1,90,2|0,0:0|0:0,0:0:0:0:
180,320,208158,1,8,0:0:0:0:
420,320,208341,2,0,L|504:284,2,90,4|0|0,0:0|0:0|0:0,0:0:0:0:
236,320,208890,2,0,L|336:320,1,90,8|0,0:0|0:0,0:0:0:0:
36,280,209256,6,0,P|128:204|36:136,1,270.000010299683,2|0,0:0|0:0,0:0:0:0:
392,136,209805,2,0,L|120:136,1,270.000010299683,8|0,0:0|0:0,0:0:0:0:
312,272,210353,2,0,L|318:136,1,135.000005149842,2|0,0:0|0:0,0:0:0:0:
32,136,210719,5,4,0:0:0:0:
256,192,210902,12,0,213646,0:0:0:0:
