osu file format v14

[General]
AudioFilename: audio.mp3
AudioLeadIn: 0
PreviewTime: 2735
Countdown: 0
SampleSet: Soft
StackLeniency: 0.7
Mode: 0
LetterboxInBreaks: 0
WidescreenStoryboard: 1

[Editor]
Bookmarks: 25405,36695,59275,81855,104436,127016,138306,149596,160885,168118,183467
DistanceSpacing: 1.5
BeatDivisor: 4
GridSize: 32
TimelineZoom: 2.4

[Metadata]
Title:Crimson feat. Hatsune Miku (Radio Edit)
TitleUnicode:Crimson feat. 初音 ミク (Radio Edit)
Artist:Wisp X
ArtistUnicode:Wisp X
Creator:Nao Tomori
Version:Normal
Source:osu!
Tags:mappers guild featured artist vocaloid novelty japanese yaspo aeril
BeatmapID:2158529
BeatmapSetID:1032163

[Difficulty]
HPDrainRate:3
CircleSize:3
OverallDifficulty:4
ApproachRate:6
SliderMultiplier:1
SliderTickRate:1

[Events]
//Background and Video events
0,0,"miku bg 2.jpg",0,0
//Break Periods
2,104641,114683
//Storyboard Layer 0 (Background)
//Storyboard Layer 1 (Fail)
//Storyboard Layer 2 (Pass)
//Storyboard Layer 3 (Foreground)
//Storyboard Layer 4 (Overlay)
//Storyboard Sound Samples

[TimingPoints]
2809,352.88928098809,4,2,3,40,1,0
2809,-125,4,2,3,40,0,0
25379,-111.111111111111,4,2,3,60,0,0
31024,-100,4,2,3,70,0,0
36669,-90.9090909090909,4,2,3,80,0,0
81829,-100,4,2,3,70,0,0
115700,-125,4,2,3,40,0,0
126990,-111.111111111111,4,2,3,60,0,0
138280,-90.9090909090909,4,2,3,80,0,0
148159,-100,4,2,3,80,0,0
149570,-90.9090909090909,4,2,3,80,0,0

[Colours]
Combo1 : 166,157,238
Combo2 : 245,206,116
Combo3 : 101,189,237
Combo4 : 238,168,168

[HitObjects]
62,301,2809,6,0,L|39:177,2,120,10|2|2,2:2|2:2|2:2,0:0:0:0:
140,370,4220,2,0,P|190:357|226:351,1,80,2|0,0:0|0:0,0:0:0:0:
309,302,4926,2,0,P|363:305|393:311,1,80,2|0,0:0|0:0,0:0:0:0:
481,357,5632,6,0,L|500:222,1,120,2|2,0:0|0:0,0:0:0:0:
480,196,6337,1,2,0:0:0:0:
493,93,6690,1,2,0:0:0:0:
398,50,7043,2,0,P|331:57|265:63,1,120,2|2,0:0|0:0,0:0:0:0:
241,41,7749,1,2,0:0:0:0:
153,96,8102,1,2,0:0:0:0:
50,80,8455,6,0,P|31:108|42:203,2,120,2|2|2,0:0|0:0|0:0,0:0:0:0:
133,141,9866,2,0,L|142:232,1,80,2|0,0:0|0:0,0:0:0:0:
239,254,10572,2,0,L|246:174,1,80,2|0,0:0|0:0,0:0:0:0:
327,107,11278,2,0,P|383:93|447:236,1,240,2|2,0:0|0:0,0:0:0:0:
384,307,12689,6,0,P|301:296|257:288,1,120,2|2,0:0|0:0,0:0:0:0:
231,312,13395,1,2,0:0:0:0:
140,260,13748,1,2,0:0:0:0:
47,307,14101,6,0,P|36:248|22:179,2,120,2|2|2,3:2|0:0|0:0,0:0:0:0:
147,280,15513,2,0,P|159:239|166:185,1,80,2|0,0:0|0:0,0:0:0:0:
269,202,16218,2,0,P|275:241|286:279,1,80,2|0,0:0|0:0,0:0:0:0:
390,292,16924,6,0,L|407:173,1,120,2|2,0:0|0:0,0:0:0:0:
435,144,17630,1,2,0:0:0:0:
380,55,17983,1,2,0:0:0:0:
290,108,18336,2,0,P|220:114|153:113,1,120,2|2,0:0|0:0,0:0:0:0:
134,96,19041,1,2,0:0:0:0:
64,173,19394,1,2,0:0:0:0:
134,249,19747,6,0,P|186:220|245:224,2,120,2|2|2,0:0|0:0|0:0,0:0:0:0:
37,210,21159,2,0,L|27:121,1,80,2|0,0:0|0:0,0:0:0:0:
112,68,21865,2,0,L|120:147,1,80,2|0,0:0|0:0,0:0:0:0:
210,199,22570,2,0,B|350:169|297:270|446:234,1,240,2|2,0:0|0:0,0:0:0:0:
496,146,23982,6,0,P|506:103|464:35,1,120,2|2,0:0|0:0,0:0:0:0:
431,48,24688,1,2,0:0:0:0:
333,11,25041,1,2,0:0:0:0:
237,67,25393,6,0,L|230:214,1,134.999995880127,0|0,3:2|0:0,0:0:0:0:
193,240,26099,1,8,0:1:0:0:
106,304,26452,1,8,0:1:0:0:
16,243,26805,2,0,P|3:193|18:99,1,134.999995880127,0|0,3:0|0:0,0:0:0:0:
47,69,27511,1,8,0:1:0:0:
147,108,27864,1,8,0:1:0:0:
241,54,28217,5,0,3:0:0:0:
241,54,28393,2,0,P|352:69|386:70,1,134.999995880127,2|8,0:0|0:1,0:0:0:0:
476,33,29275,1,8,0:1:0:0:
504,137,29628,1,0,3:0:0:0:
504,137,29805,2,0,P|494:214|487:281,1,134.999995880127,2|8,0:0|0:1,0:0:0:0:
475,378,30687,1,8,0:1:0:0:
360,342,31040,6,0,P|312:337|249:335,1,100,10|0,0:0|0:0,0:0:0:0:
202,350,31569,1,0,3:0:0:0:
202,350,31745,2,0,P|145:353|86:358,1,100,8|8,0:1|2:1,0:0:0:0:
3,287,32451,1,0,3:0:0:0:
3,287,32628,2,0,P|-6:239|-10:175,1,100,2|0,0:0|3:0,0:0:0:0:
17,134,33157,2,0,P|25:87|30:17,1,100,8|8,2:0|1:0,0:0:0:0:
148,22,33863,5,0,3:0:0:0:
241,96,34216,1,0,3:0:0:0:
341,29,34569,1,0,3:0:0:0:
341,29,34745,1,0,3:0:0:0:
341,29,34921,2,0,L|403:41,1,50,0|0,3:0|0:0,0:0:0:0:
448,22,35274,6,0,B|469:68|469:68|451:137,1,100,8|8,0:0|0:0,0:0:0:0:
386,213,35980,1,2,0:0:0:0:
439,320,36333,1,2,0:0:0:0:
318,365,36686,6,0,P|251:354|198:345,1,110.000003356934,2|8,3:2|0:0,0:0:0:0:
151,363,37215,1,2,0:0:0:0:
151,363,37392,2,0,P|131:314|131:241,1,110.000003356934,2|10,3:2|0:0,0:0:0:0:
176,146,38097,1,2,3:2:0:0:
176,146,38274,2,0,P|230:158|299:161,1,110.000003356934,2|2,0:0|0:0,0:0:0:0:
340,139,38803,1,2,3:2:0:0:
455,103,39156,1,10,0:0:0:0:
370,16,39509,6,0,P|304:25|248:26,1,110.000003356934,2|8,3:2|0:0,0:0:0:0:
200,17,40038,1,2,0:0:0:0:
200,17,40215,2,0,P|137:22|65:32,1,110.000003356934,2|10,3:2|0:0,0:0:0:0:
11,119,40921,1,2,3:2:0:0:
11,119,41097,2,0,P|18:163|28:248,1,110.000003356934,2|2,0:0|0:0,0:0:0:0:
22,288,41626,1,2,3:2:0:0:
125,350,41979,1,10,0:2:0:0:
125,350,42156,1,0,0:0:0:0:
125,350,42332,6,0,P|137:276|143:231,1,110.000003356934,2|8,3:2|0:0,0:0:0:0:
105,125,43038,1,2,3:2:0:0:
173,25,43391,1,10,0:0:0:0:
290,52,43744,2,0,P|294:104|297:167,1,110.000003356934,2|8,3:2|0:0,0:0:0:0:
271,216,44273,1,2,0:0:0:0:
271,216,44449,2,0,P|278:274|284:332,1,110.000003356934,2|10,3:2|0:0,0:0:0:0:
393,374,45155,5,2,3:2:0:0:
490,301,45508,2,0,P|500:230|500:175,1,110.000003356934,8|2,0:0|3:2,0:0:0:0:
480,134,46037,1,0,0:0:0:0:
480,134,46214,1,10,0:0:0:0:
384,59,46567,2,0,P|336:54|253:46,1,110.000003356934,2|8,3:2|0:0,0:0:0:0:
215,63,47096,1,2,0:0:0:0:
215,63,47273,1,2,3:2:0:0:
101,21,47625,1,10,0:0:0:0:
5,95,47978,6,0,P|-6:124|5:221,1,110.000003356934,6|8,3:2|0:0,0:0:0:0:
74,295,48684,1,2,3:2:0:0:
193,276,49037,1,10,0:0:0:0:
278,189,49390,1,2,3:2:0:0:
278,189,49566,2,8,P|285:134|295:80,1,110.000003356934,2|2,0:0|0:0,0:0:0:0:
342,42,50096,2,0,P|376:59|400:128,1,110.000003356934,2|10,3:2|0:0,0:0:0:0:
470,222,50801,6,0,P|446:290|429:345,1,110.000003356934,2|8,3:2|0:0,0:0:0:0:
387,364,51331,1,2,0:0:0:0:
387,364,51507,2,0,P|348:343|283:333,1,110.000003356934,2|10,3:2|0:0,0:0:0:0:
165,360,52213,1,2,3:2:0:0:
165,360,52389,2,0,L|44:336,1,110.000003356934,2|2,0:0|0:0,0:0:0:0:
12,296,52919,1,2,3:2:0:0:
86,200,53272,1,10,0:0:0:0:
15,101,53625,6,0,P|13:58|70:8,1,110.000003356934,2|8,3:2|0:0,0:0:0:0:
172,48,54330,2,0,P|236:59|287:30,1,110.000003356934,2|10,3:2|0:0,0:0:0:0:
323,4,54860,1,0,0:0:0:0:
323,4,55036,2,0,L|340:117,1,110.000003356934,2|8,3:2|0:0,0:0:0:0:
445,171,55742,2,0,P|425:246|412:294,1,110.000003356934,2|10,3:2|0:0,0:0:0:0:
399,335,56271,1,2,0:0:0:0:
399,335,56448,6,0,P|348:365|255:251,1,220.000006713867,2|2,3:2|3:2,0:0:0:0:
320,170,57506,1,10,0:0:0:0:
320,170,57683,1,0,0:0:0:0:
320,170,57859,6,0,L|387:179,7,55.0000016784668,0|0|0|0|0|0|0|0,0:0|0:0|0:0|0:0|0:0|0:0|0:0|0:0,0:0:0:0:
424,211,59271,6,0,P|445:171|323:62,1,220.000006713867,0|0,3:0|3:0,0:0:0:0:
239,111,60329,1,10,0:0:0:0:
239,111,60506,2,0,L|119:91,1,110.000003356934,2|0,0:0|0:0,0:0:0:0:
72,110,61035,2,0,P|48:137|39:230,1,110.000003356934,8|0,0:0|3:0,0:0:0:0:
96,311,61741,1,10,0:0:0:0:
213,280,62094,6,0,L|331:277,1,110.000003356934,0|8,3:0|0:0,0:0:0:0:
375,307,62623,1,0,0:0:0:0:
375,307,62800,2,0,P|403:262|395:202,1,110.000003356934,0|8,3:0|0:0,0:0:0:0:
312,120,63505,1,2,3:2:0:0:
312,120,63682,1,2,0:0:0:0:
403,40,64035,1,2,0:0:0:0:
403,40,64211,2,0,L|515:56,1,110.000003356934,2|8,3:2|0:0,0:0:0:0:
446,157,64917,6,0,B|305:155|385:211|220:209,1,220.000006713867,2|0,3:2|3:0,0:0:0:0:
128,155,65976,1,10,0:0:0:0:
128,155,66152,2,0,P|130:220|130:283,1,110.000003356934,2|0,0:0|0:0,0:0:0:0:
76,292,66681,2,0,P|36:266|29:195,1,110.000003356934,8|0,0:0|3:0,0:0:0:0:
58,91,67387,1,10,0:0:0:0:
164,32,67740,6,0,B|221:51|221:51|329:23,1,165.000005035401,0|0,3:0|0:0,0:0:0:0:
377,49,68446,2,0,P|396:91|389:160,1,110.000003356934,0|10,0:0|0:0,0:0:0:0:
318,250,69152,1,2,3:2:0:0:
318,250,69328,1,2,0:0:0:0:
206,203,69681,1,2,0:0:0:0:
206,203,69857,2,0,P|141:192|82:214,1,110.000003356934,2|8,3:2|0:0,0:0:0:0:
38,308,70563,6,0,B|94:343|94:343|205:319,1,165.000005035401,6|0,3:2|0:0,0:0:0:0:
247,343,71269,2,0,P|298:353|362:362,1,110.000003356934,0|10,3:0|0:0,0:0:0:0:
411,337,71798,2,0,P|419:302|437:172,1,165.000005035401,2|8,0:0|0:0,0:0:0:0:
389,62,72681,1,0,3:0:0:0:
278,111,73033,1,10,0:0:0:0:
278,111,73210,6,0,P|224:100|149:83,1,110.000003356934,2|0,0:0|0:0,0:0:0:0:
113,110,73739,2,0,P|64:123|-13:138,2,110.000003356934,8|0|8,0:0|3:0|0:0,0:0:0:0:
195,198,74798,1,2,3:2:0:0:
195,198,74974,1,2,0:0:0:0:
300,139,75327,1,2,0:0:0:0:
300,139,75504,2,0,P|369:130|425:125,1,110.000003356934,2|8,3:2|0:0,0:0:0:0:
481,223,76209,6,0,P|493:260|357:335,1,220.000006713867,2|0,3:2|3:0,0:0:0:0:
269,274,77268,1,10,0:0:0:0:
269,274,77445,2,0,P|182:284|138:290,1,110.000003356934,2|0,0:0|0:0,0:0:0:0:
103,310,77974,2,0,P|37:294|-8:281,1,110.000003356934,8|0,0:0|3:0,0:0:0:0:
61,179,78680,1,10,0:0:0:0:
61,179,78856,1,2,0:0:0:0:
61,179,79033,6,0,P|55:112|49:46,2,110.000003356934,0|8|0,3:0|0:0|3:0,0:0:0:0:
167,236,80091,1,10,0:0:0:0:
167,236,80268,1,0,0:0:0:0:
167,236,80444,2,0,P|221:205|330:311,1,220.000006713867,0|2,3:0|3:2,0:0:0:0:
243,374,81503,1,0,0:0:0:0:
142,329,81856,6,0,P|48:321|31:320,2,100,6|8|0,3:2|0:0|3:0,0:0:0:0:
209,241,82914,1,10,0:0:0:0:
119,176,83267,2,0,L|102:61,2,100,0|0|0,3:0|0:0|3:0,0:0:0:0:
207,110,84326,1,10,0:0:0:0:
305,159,84679,2,0,P|364:152|424:142,1,100,0|8,3:0|0:0,0:0:0:0:
378,253,85385,2,0,P|319:260|259:270,1,100,0|8,3:0|0:0,0:0:0:0:
190,332,86090,5,2,3:2:0:0:
190,332,86267,2,0,P|109:307|86:303,1,100,2|0,0:0|2:2,0:0:0:0:
52,267,86796,2,0,P|25:233|-6:177,1,100,2|8,3:2|0:0,0:0:0:0:
84,113,87502,6,0,P|127:98|218:205,1,200,2|0,3:2|3:0,0:0:0:0:
292,278,88561,1,10,0:0:0:0:
292,278,88737,2,0,P|347:293|421:220,1,150,2|0,0:0|0:0,0:0:0:0:
388,133,89619,1,0,3:0:0:0:
279,113,89972,1,10,0:0:0:0:
212,200,90325,6,8,L|8:174,1,200,0|0,3:0|3:0,0:0:0:0:
57,275,91384,1,10,0:0:0:0:
113,369,91737,1,2,3:2:0:0:
113,369,91913,2,0,P|184:336|270:347,2,150,2|2|0,0:0|3:2|0:0,0:0:0:0:
66,338,93148,6,0,P|33:304|34:149,1,200,6|2,3:2|3:2,0:0:0:0:
109,86,94207,1,10,0:0:0:0:
109,86,94383,2,0,P|182:102|265:105,1,150,2|0,0:0|0:0,0:0:0:0:
365,86,95265,1,2,3:2:0:0:
460,140,95618,1,10,0:0:0:0:
460,140,95795,6,0,B|498:192|480:260|480:260|402:268|370:330,1,250,2|2,3:2|3:2,0:0:0:0:
268,298,97030,1,10,0:0:0:0:
164,335,97383,1,2,3:2:0:0:
164,335,97559,2,0,P|115:309|23:270,1,150,2|2,0:0|3:2,0:0:0:0:
88,179,98441,1,10,0:2:0:0:
186,228,98794,6,0,P|238:245|366:175,1,200,2|2,3:2|3:2,0:0:0:0:
344,75,99853,1,10,0:0:0:0:
244,28,100206,2,0,P|166:18|124:14,1,100,0|8,3:0|0:0,0:0:0:0:
56,82,100912,2,0,P|39:124|20:195,1,100,2|10,3:2|0:0,0:0:0:0:
53,223,101441,1,2,0:0:0:0:
53,223,101617,6,0,P|108:217|273:204,1,200,2|0,3:2|3:0,0:0:0:0:
350,254,102676,1,10,0:0:0:0:
450,210,103029,1,0,3:0:0:0:
450,210,103206,2,0,L|465:55,2,150,0|2|0,3:0|3:2|0:0,0:0:0:0:
486,251,104441,5,6,3:2:0:0:
92,163,115733,6,0,B|75:146|48:135|48:135|-27:230|54:320,1,240,2|2,0:0|0:0,0:0:0:0:
121,346,117145,2,0,P|163:328|274:364,1,160,2|0,0:0|0:0,0:0:0:0:
268,358,118556,6,0,L|293:234,1,120,2|2,0:0|0:0,0:0:0:0:
321,208,119262,2,0,P|334:176|325:123,1,80,2|2,0:0|0:0,0:0:0:0:
248,96,119968,2,0,P|199:113|123:101,1,120,2|2,0:0|0:0,0:0:0:0:
93,84,120674,2,0,P|74:122|68:174,1,80,2|2,0:0|0:0,0:0:0:0:
28,237,121379,6,0,B|60:256|60:256|192:231,1,160,2|0,0:0|0:0,0:0:0:0:
262,265,122438,1,2,0:0:0:0:
339,223,122791,2,0,P|382:211|445:290,2,160,2|0|2,0:0|0:0|0:0,0:0:0:0:
256,192,124379,12,10,127026,0:0:0:0:
71,85,127731,6,0,P|50:118|55:179,1,89.9999972534181,8|8,2:1|0:1,0:0:0:0:
115,242,128437,1,0,3:0:0:0:
207,205,128790,1,8,0:1:0:0:
290,257,129143,2,0,B|332:245|332:245|391:261,1,89.9999972534181,8|8,0:1|0:1,0:0:0:0:
460,203,129849,6,0,L|469:94,1,89.9999972534181,0|8,3:0|2:1,0:0:0:0:
391,48,130554,1,8,0:1:0:0:
304,95,130907,1,8,0:1:0:0:
217,46,131260,2,0,P|182:62|119:57,2,89.9999972534181,0|8|8,3:0|0:1|0:1,0:0:0:0:
306,3,132319,1,8,0:1:0:0:
386,61,132672,5,10,2:2:0:0:
386,61,132848,2,0,L|396:168,1,89.9999972534181,0|2,3:0|3:2,0:0:0:0:
365,191,133378,2,0,L|355:298,1,89.9999972534181,2|0,3:2|3:0,0:0:0:0:
275,337,134083,1,2,3:2:0:0:
275,337,134260,2,0,P|226:325|181:348,1,89.9999972534181,2|8,3:2|0:0,0:0:0:0:
143,324,134789,2,0,L|44:317,1,89.9999972534181,2|0,3:2|3:0,0:0:0:0:
7,229,135495,5,10,0:0:0:0:
73,155,135848,1,8,0:0:0:0:
15,74,136201,1,0,3:0:0:0:
101,24,136554,1,8,0:0:0:0:
174,89,136906,5,0,3:0:0:0:
256,192,137083,12,6,138318,3:2:0:0:
100,277,139024,6,0,L|92:166,1,110.000003356934,0|10,3:0|0:0,0:0:0:0:
59,115,139553,2,0,P|121:145|221:115,1,165.000005035401,2|8,0:0|0:0,0:0:0:0:
310,54,140435,1,0,3:0:0:0:
416,112,140788,1,10,0:0:0:0:
416,112,140965,6,0,P|400:150|381:281,1,165.000005035401,2|8,0:0|0:0,0:0:0:0:
297,359,141847,2,0,P|274:308|242:256,1,110.000003356934,0|8,3:0|0:0,0:0:0:0:
129,228,142553,1,2,3:2:0:0:
129,228,142729,1,2,0:0:0:0:
26,292,143082,1,2,0:0:0:0:
26,292,143258,2,0,P|6:326|62:367,1,110.000003356934,2|8,3:2|0:0,0:0:0:0:
164,330,143964,6,0,P|199:327|286:349,2,110.000003356934,2|0|0,3:2|0:0|3:0,0:0:0:0:
91,232,145023,1,10,0:0:0:0:
91,232,145199,2,0,P|76:177|108:60,1,165.000005035401,2|8,0:0|0:0,0:0:0:0:
216,46,146082,2,0,P|221:86|240:164,1,110.000003356934,0|10,3:0|0:0,0:0:0:0:
275,200,146611,6,0,B|350:186|350:186|386:195|386:195|493:177,1,220.000006713867,2|0,0:2|0:0,0:0:0:0:
462,123,147493,1,0,3:0:0:0:
391,24,147846,1,10,0:0:0:0:
303,90,148199,5,6,3:2:0:0:
303,90,148375,2,0,P|250:81|165:143,1,150,2|2,0:0|3:2,0:0:0:0:
201,235,149258,1,8,0:0:0:0:
201,235,149434,1,8,0:0:0:0:
201,235,149610,6,0,B|313:213|289:305|419:275,1,220.000006713867,6|0,3:2|3:0,0:0:0:0:
488,185,150669,1,10,0:0:0:0:
439,74,151022,2,8,P|403:57|327:51,1,110.000003356934,2|8,3:2|0:0,0:0:0:0:
248,136,151728,2,8,P|193:133|142:112,1,110.000003356934,2|8,3:2|0:0,0:0:0:0:
26,147,152434,6,0,L|0:251,2,82.5000025177003,2|2|2,3:2|0:0|0:0,0:0:0:0:
3,90,153139,1,2,3:2:0:0:
95,12,153492,1,10,0:0:0:0:
194,81,153845,2,0,B|239:87|239:87|292:72,2,82.5000025177003,2|2|2,3:2|0:0|0:0,0:0:0:0:
145,117,154551,2,0,P|124:150|137:234,1,110.000003356934,2|10,3:2|0:0,0:0:0:0:
244,248,155257,6,0,P|293:230|372:357,1,220.000006713867,2|0,3:2|3:0,0:0:0:0:
262,380,156315,1,10,0:0:0:0:
155,323,156668,2,0,P|99:315|31:311,1,110.000003356934,2|8,3:2|0:0,0:0:0:0:
19,193,157374,2,0,P|75:201|143:205,1,110.000003356934,2|8,3:2|0:0,0:0:0:0:
181,174,157903,1,0,3:0:0:0:
181,174,158080,6,0,P|241:159|413:148,1,220.000006713867,2|0,3:2|3:0,0:0:0:0:
493,221,159138,1,8,0:0:0:0:
406,305,159491,1,2,0:0:0:0:
406,305,159668,2,0,P|339:289|279:277,2,110.000003356934,2|2|0,0:0|0:0|0:0,0:0:0:0:
450,345,160550,1,2,0:0:0:0:
512,240,160903,6,0,B|528:176|528:176|467:69,1,165.000005035401,6|0,3:2|0:0,0:0:0:0:
422,67,161609,2,0,P|382:89|305:86,1,110.000003356934,0|10,3:0|0:0,0:0:0:0:
212,32,162314,2,0,P|155:16|49:121,1,220.000006713867,0|2,3:0|3:2,0:0:0:0:
7,229,163373,1,10,0:0:0:0:
7,229,163550,2,0,B|71:213|71:213|159:259,1,165.000005035401,2|8,0:0|0:0,0:0:0:0:
254,333,164432,1,2,3:2:0:0:
372,311,164785,1,10,0:0:0:0:
379,190,165138,5,2,3:2:0:0:
379,190,165314,2,0,P|386:147|427:85,1,110.000003356934,2|2,0:0|0:0,0:0:0:0:
389,38,165843,2,0,P|354:53|265:46,1,110.000003356934,2|10,3:2|0:2,0:0:0:0:
184,122,166549,6,0,P|141:91|26:178,1,220.000006713867,2|0,3:2|3:0,0:0:0:0:
112,260,167608,1,10,0:0:0:0:
112,260,167784,2,0,P|184:235|228:216,1,110.000003356934,2|2,0:2|0:0,0:0:0:0:
273,238,168314,2,0,P|304:249|393:266,1,110.000003356934,8|2,0:0|3:2,0:0:0:0:
480,198,169019,1,10,0:0:0:0:
480,198,169196,6,0,P|461:152|425:23,1,165.000005035401,2|8,0:0|0:0,0:0:0:0:
308,50,170078,2,0,B|311:110|288:166,1,110.000003356934,2|10,3:2|0:0,0:0:0:0:
222,258,170784,1,2,3:2:0:0:
222,258,170960,1,2,0:0:0:0:
104,228,171313,1,2,0:0:0:0:
104,228,171490,2,0,P|84:188|108:113,1,110.000003356934,2|10,3:2|0:0,0:0:0:0:
182,41,172195,6,0,B|222:46|243:64|243:64|304:12|403:38,1,220.000006713867,6|0,3:2|3:0,0:0:0:0:
480,113,173254,1,10,0:0:0:0:
480,113,173430,2,0,P|441:146|432:261,1,165.000005035401,2|8,0:0|0:0,0:0:0:0:
476,364,174313,1,2,3:2:0:0:
357,338,174666,1,10,0:0:0:0:
357,338,174842,2,0,P|297:328|178:310,1,165.000005035401,2|0,0:0|0:0,0:0:0:0:
83,361,175724,1,2,3:2:0:0:
4,268,176077,1,10,0:0:0:0:
89,181,176430,5,2,3:2:0:0:
89,181,176606,2,0,P|97:134|45:83,1,110.000003356934,2|2,0:0|0:0,0:0:0:0:
7,57,177136,1,2,3:2:0:0:
120,14,177489,1,10,0:0:0:0:
231,60,177842,6,0,P|286:69|441:8,1,220.000006713867,2|0,3:2|3:0,0:0:0:0:
506,111,178900,1,10,0:0:0:0:
506,111,179077,2,0,B|491:131|466:142|466:142|512:195|496:252,1,165.000005035401,2|8,0:2|0:0,0:0:0:0:
413,333,179959,1,2,3:2:0:0:
297,296,180312,1,10,0:0:0:0:
297,296,180488,5,2,0:0:0:0:
256,192,180665,12,12,183488,0:2:0:0:
