osu file format v14

[General]
AudioFilename: audio.mp3
AudioLeadIn: 0
PreviewTime: 2735
Countdown: 0
SampleSet: Soft
StackLeniency: 0.7
Mode: 0
LetterboxInBreaks: 0
WidescreenStoryboard: 0

[Editor]
Bookmarks: 25405,36695,59275,81855,104436,127016,138306,149596,160885,168118,183467
DistanceSpacing: 0.3
BeatDivisor: 4
GridSize: 32
TimelineZoom: 3.999999

[Metadata]
Title:Crimson feat. Hatsune Miku (Radio Edit)
TitleUnicode:Crimson feat. 初音 ミク (Radio Edit)
Artist:Wisp X
ArtistUnicode:Wisp X
Creator:Nao Tomori
Version:Insane
Source:osu!
Tags:mappers guild featured artist vocaloid novelty japanese yaspo aeril
BeatmapID:2158315
BeatmapSetID:1032163

[Difficulty]
HPDrainRate:6
CircleSize:4
OverallDifficulty:8
ApproachRate:9
SliderMultiplier:1.6
SliderTickRate:1

[Events]
//Background and Video events
0,0,"miku bg 2.jpg",0,0
//Break Periods
2,104640,115133
//Storyboard Layer 0 (Background)
//Storyboard Layer 1 (Fail)
//Storyboard Layer 2 (Pass)
//Storyboard Layer 3 (Foreground)
//Storyboard Layer 4 (Overlay)
//Storyboard Sound Samples

[TimingPoints]
2809,352.88928098809,4,2,3,40,1,0
2809,-153.846153846154,4,2,3,40,0,0
25384,-111.111111111111,4,2,3,60,0,0
31029,-100,4,2,3,70,0,0
36674,-83.3333333333333,4,2,3,80,0,0
81834,-100,4,2,3,70,0,0
115705,-153.846153846154,4,2,3,40,0,0
126995,-111.111111111111,4,2,3,60,0,0
138285,-83.3333333333333,4,2,3,80,0,0
148164,-100,4,2,3,80,0,0
149575,-83.3333333333333,4,2,3,80,0,0

[Colours]
Combo1 : 166,157,238
Combo2 : 245,206,116
Combo3 : 101,189,237
Combo4 : 238,168,168

[HitObjects]
256,192,162,12,0,2632,0:0:0:0:
118,321,2809,6,0,P|107:260|99:207,1,103.999995239258,10|0,2:2|0:0,0:0:0:0:
193,239,3338,2,0,P|199:140|205:69,1,155.999992858887,2|2,0:0|0:0,0:0:0:0:
374,18,4220,6,0,P|387:70|396:123,1,103.999995239258,2|0,0:0|0:0,0:0:0:0:
366,206,4749,1,0,0:0:0:0:
366,206,4926,2,0,P|353:258|344:311,1,103.999995239258,2|0,0:0|0:0,0:0:0:0:
486,361,5632,6,0,P|478:305|470:277,1,77.9999964294435,2|2,0:0|0:0,0:0:0:0:
459,265,5985,2,0,P|456:223|457:198,1,51.999997619629,0|2,0:0|0:0,0:0:0:0:
501,127,6337,2,0,P|505:74|505:15,1,103.999995239258,2|2,0:0|0:0,0:0:0:0:
305,42,7043,6,0,P|312:98|320:127,1,77.9999964294435,2|2,0:0|0:0,0:0:0:0:
328,141,7396,2,0,P|331:183|330:208,1,51.999997619629,0|2,0:0|0:0,0:0:0:0:
288,276,7749,2,0,P|283:328|284:388,1,103.999995239258,2|2,0:0|0:0,0:0:0:0:
160,315,8455,6,0,P|114:308|50:307,1,103.999995239258,2|0,0:0|0:0,0:0:0:0:
20,218,8984,2,0,P|95:210|175:195,1,155.999992858887,2|2,0:0|0:0,0:0:0:0:
470,248,9866,6,0,P|406:244|363:244,1,103.999995239258,2|0,0:0|0:0,0:0:0:0:
312,155,10396,1,0,0:0:0:0:
312,155,10572,2,0,P|363:154|415:150,1,103.999995239258,2|0,0:0|0:0,0:0:0:0:
232,218,11278,6,0,P|180:206|109:200,1,103.999995239258,2|0,0:0|0:0,0:0:0:0:
83,116,11807,2,0,P|150:102|239:77,1,155.999992858887,2|2,0:0|0:0,0:0:0:0:
501,114,12689,6,0,P|452:107|416:103,1,77.9999964294435,2|2,0:0|0:0,0:0:0:0:
403,115,13042,2,0,P|363:124|340:128,1,51.999997619629,0|2,0:0|0:0,0:0:0:0:
249,86,13395,2,0,P|177:78|140:72,1,103.999995239258,2|2,0:0|0:0,0:0:0:0:
14,182,14101,6,0,P|6:220|6:293,1,103.999995239258,2|0,3:2|0:0,0:0:0:0:
124,306,14630,2,0,P|119:239|103:152,1,155.999992858887,2|2,0:0|0:0,0:0:0:0:
281,101,15513,6,0,P|277:150|265:224,1,103.999995239258,2|0,0:0|0:0,0:0:0:0:
381,245,16042,1,0,0:0:0:0:
381,245,16218,2,0,P|373:193|369:142,1,103.999995239258,2|0,0:0|0:0,0:0:0:0:
489,32,16924,6,0,P|488:69|478:129,1,77.9999964294435,2|2,0:0|0:0,0:0:0:0:
475,132,17277,2,0,P|471:176|471:199,1,51.999997619629,0|2,0:0|0:0,0:0:0:0:
427,271,17630,2,0,P|432:305|436:346,2,51.999997619629,2|0|2,0:0|0:0|0:0,0:0:0:0:
267,242,18336,6,0,P|196:235|174:233,1,77.9999964294435,2|2,0:0|0:0,0:0:0:0:
167,242,18689,2,0,P|131:246|97:248,1,51.999997619629,0|2,0:0|0:0,0:0:0:0:
23,187,19041,2,0,P|13:149|2:84,1,103.999995239258,2|2,0:0|0:0,0:0:0:0:
159,4,19747,6,0,P|157:38|145:127,1,103.999995239258,2|0,0:0|0:0,0:0:0:0:
233,163,20277,2,0,P|239:207|256:318,1,155.999992858887,2|2,0:0|0:0,0:0:0:0:
409,362,21159,6,0,P|415:320|420:259,1,103.999995239258,2|0,0:0|0:0,0:0:0:0:
370,177,21688,1,0,0:0:0:0:
370,177,21865,2,0,P|364:135|359:74,1,103.999995239258,2|0,0:0|0:0,0:0:0:0:
227,73,22570,6,0,P|222:137|215:192,1,103.999995239258,2|0,0:0|0:0,0:0:0:0:
134,275,23100,2,0,P|128:223|124:171,1,103.999995239258,2|0,0:0|0:0,0:0:0:0:
34,190,23629,1,2,0:0:0:0:
124,69,23982,6,0,P|172:65|213:59,1,77.9999964294435,2|2,0:0|0:0,0:0:0:0:
224,69,24335,2,0,P|267:74|284:76,1,51.999997619629,0|2,0:0|0:0,0:0:0:0:
359,133,24688,2,0,P|410:123|461:115,1,103.999995239258,2|2,0:0|0:0,0:0:0:0:
448,280,25393,5,0,3:2:0:0:
339,235,25570,2,0,P|287:237|247:242,1,71.9999978027344,2|8,0:0|0:1,0:0:0:0:
190,314,25923,1,0,0:0:0:0:
190,314,26011,1,2,0:0:0:0:
190,314,26099,2,0,P|134:310|100:305,1,71.9999978027344,8|0,0:1|0:0,0:0:0:0:
0,210,26452,2,0,P|56:214|90:219,1,71.9999978027344,8|0,0:1|0:0,0:0:0:0:
262,167,26805,5,0,3:0:0:0:
174,110,26981,2,0,P|124:105|79:97,1,71.9999978027344,2|8,0:0|0:1,0:0:0:0:
253,42,27334,1,0,0:0:0:0:
253,42,27423,1,0,0:0:0:0:
253,42,27511,2,0,P|303:47|348:55,1,71.9999978027344,8|0,0:1|0:0,0:0:0:0:
427,101,27864,1,8,0:1:0:0:
510,35,28040,1,0,0:0:0:0:
427,135,28217,5,0,3:0:0:0:
495,214,28393,2,0,P|493:259|491:304,1,71.9999978027344,2|8,0:0|0:1,0:0:0:0:
404,355,28746,1,0,0:0:0:0:
404,355,28834,1,0,0:0:0:0:
404,355,28922,2,0,P|406:310|408:265,1,71.9999978027344,8|0,0:1|0:0,0:0:0:0:
313,220,29275,2,0,P|315:265|317:310,1,71.9999978027344,8|0,0:1|0:0,0:0:0:0:
142,372,29628,5,0,3:0:0:0:
64,309,29805,2,0,P|16:303|-20:299,1,71.9999978027344,2|8,0:0|0:1,0:0:0:0:
118,230,30157,1,0,0:0:0:0:
0,63,30334,5,8,0:1:0:0:
92,24,30510,1,0,0:0:0:0:
181,78,30687,1,8,0:1:0:0:
89,117,30863,1,0,0:0:0:0:
233,195,31040,5,10,0:0:0:0:
334,133,31216,2,0,P|387:131|446:124,1,80,2|0,0:0|0:0,0:0:0:0:
263,75,31569,1,0,3:0:0:0:
263,75,31657,1,0,0:0:0:0:
263,75,31745,2,0,P|210:77|151:84,1,80,8|2,0:1|0:0,0:0:0:0:
4,135,32098,2,0,P|57:133|116:126,1,80,8|2,2:1|0:0,0:0:0:0:
247,239,32451,5,0,3:0:0:0:
156,276,32628,2,0,P|160:236|161:196,1,80,2|8,0:0|2:1,0:0:0:0:
340,202,32981,1,0,3:0:0:0:
340,202,33069,1,0,0:0:0:0:
340,202,33157,2,0,P|335:242|335:282,1,80,8|2,2:0|0:0,0:0:0:0:
412,357,33510,1,8,1:0:0:0:
492,298,33686,1,2,0:0:0:0:
361,119,33863,5,0,3:0:0:0:
348,118,33951,1,0,3:0:0:0:
336,118,34039,1,0,3:0:0:0:
323,119,34127,1,0,3:0:0:0:
311,122,34216,1,0,3:0:0:0:
299,126,34304,1,0,3:0:0:0:
288,133,34392,1,0,3:0:0:0:
278,140,34480,1,0,3:0:0:0:
269,148,34569,1,0,3:0:0:0:
259,156,34657,1,0,3:0:0:0:
248,162,34745,1,0,3:0:0:0:
236,167,34833,1,0,3:0:0:0:
224,169,34921,1,0,3:0:0:0:
212,170,35010,1,0,3:0:0:0:
199,171,35098,1,0,3:0:0:0:
187,170,35186,1,0,3:0:0:0:
174,168,35274,6,0,L|151:217,3,40,8|8|8|8,0:0|0:0|0:0|0:0,0:0:0:0:
223,266,35627,2,0,L|207:303,3,40,8|8|8|8,0:0|0:0|0:0|0:0,0:0:0:0:
157,364,35980,6,0,P|212:382|265:356,1,120,2|0,0:0|0:0,0:0:0:0:
433,309,36333,2,0,P|383:280|328:298,1,120,2|0,0:0|0:0,0:0:0:0:
492,376,36686,5,2,3:2:0:0:
373,196,36862,2,0,P|372:136|374:73,1,95.9999970703126,2|8,0:0|0:0,0:0:0:0:
443,43,37215,1,2,0:0:0:0:
443,43,37303,1,2,0:0:0:0:
443,43,37392,5,2,3:2:0:0:
467,178,37568,1,0,0:0:0:0:
312,267,37745,1,10,0:0:0:0:
288,132,37921,1,0,0:0:0:0:
124,55,38097,5,2,3:2:0:0:
47,117,38274,2,0,P|43:171|56:241,1,95.9999970703126,2|8,0:0|0:0,0:0:0:0:
244,351,38627,1,2,0:0:0:0:
244,351,38715,1,2,0:0:0:0:
244,351,38803,5,2,3:2:0:0:
363,300,38980,1,0,0:0:0:0:
231,231,39156,1,10,0:0:0:0:
112,282,39333,1,0,0:0:0:0:
191,79,39509,5,2,3:2:0:0:
253,248,39685,2,0,P|251:335|251:378,1,95.9999970703126,2|8,0:0|0:0,0:0:0:0:
349,303,40038,1,2,0:0:0:0:
349,303,40127,1,2,0:0:0:0:
349,303,40215,5,2,3:2:0:0:
131,265,40391,1,0,0:0:0:0:
261,145,40568,1,10,0:0:0:0:
43,107,40744,1,0,0:0:0:0:
126,170,40921,5,2,3:2:0:0:
355,83,41097,2,0,P|428:74|469:69,1,95.9999970703126,2|8,0:0|0:0,0:0:0:0:
292,12,41450,1,2,0:0:0:0:
397,174,41626,5,2,3:2:0:0:
492,150,41803,1,0,0:0:0:0:
255,297,41979,1,10,0:2:0:0:
160,273,42156,1,0,0:0:0:0:
74,328,42332,5,2,3:2:0:0:
237,194,42509,2,0,P|247:128|254:87,1,95.9999970703126,2|8,0:0|0:0,0:0:0:0:
336,165,42861,1,2,0:0:0:0:
336,165,42950,1,2,0:0:0:0:
336,165,43038,5,2,3:2:0:0:
162,73,43214,1,0,0:0:0:0:
0,190,43391,1,10,0:0:0:0:
174,282,43567,1,0,0:0:0:0:
58,63,43744,5,2,3:2:0:0:
127,168,43920,2,0,P|206:159|234:158,1,95.9999970703126,2|8,0:0|0:0,0:0:0:0:
438,257,44273,1,2,0:0:0:0:
438,257,44361,1,2,0:0:0:0:
438,257,44449,5,2,3:2:0:0:
399,136,44626,1,0,0:0:0:0:
127,168,44802,1,10,0:0:0:0:
166,47,44979,1,0,0:0:0:0:
270,155,45155,5,2,3:2:0:0:
366,97,45332,2,0,P|440:83|484:73,1,95.9999970703126,2|8,0:0|0:0,0:0:0:0:
280,26,45685,1,2,0:0:0:0:
280,26,45773,1,2,0:0:0:0:
280,26,45861,5,2,3:2:0:0:
339,214,46037,1,0,0:0:0:0:
419,152,46214,1,10,0:0:0:0:
478,340,46390,1,0,0:0:0:0:
448,249,46567,5,2,3:2:0:0:
388,57,46743,2,0,P|315:64|286:66,1,95.9999970703126,2|8,0:0|0:0,0:0:0:0:
210,15,47096,1,2,0:0:0:0:
122,179,47273,5,2,3:2:0:0:
3,29,47449,1,0,0:0:0:0:
112,74,47625,1,10,0:0:0:0:
3,150,47802,1,0,0:0:0:0:
139,204,47978,5,6,3:2:0:0:
249,145,48155,2,0,P|254:225|262:268,1,95.9999970703126,2|8,0:0|0:0,0:0:0:0:
420,320,48508,1,2,0:0:0:0:
420,320,48596,1,2,0:0:0:0:
420,320,48684,6,0,P|425:272|427:224,1,95.9999970703126,2|0,3:2|0:0,0:0:0:0:
500,155,49037,1,10,0:0:0:0:
370,62,49213,1,0,0:0:0:0:
445,1,49390,5,2,3:2:0:0:
279,118,49566,2,0,P|212:111|156:107,1,95.9999970703126,2|8,0:0|0:0,0:0:0:0:
19,173,49919,1,2,0:0:0:0:
19,173,50007,1,2,0:0:0:0:
19,173,50096,6,0,P|12:240|8:296,1,95.9999970703126,2|0,3:2|0:0,0:0:0:0:
183,108,50449,2,0,P|190:41|194:-15,1,95.9999970703126,10|0,0:0|0:0,0:0:0:0:
282,67,50801,5,2,3:2:0:0:
96,58,50978,2,0,P|16:48|-17:42,1,95.9999970703126,2|8,0:0|0:0,0:0:0:0:
145,182,51331,1,2,0:0:0:0:
145,182,51419,1,2,0:0:0:0:
145,182,51507,5,2,3:2:0:0:
263,59,51684,1,0,0:0:0:0:
447,99,51860,1,10,0:0:0:0:
329,222,52037,1,0,0:0:0:0:
250,159,52213,5,2,3:2:0:0:
136,282,52389,2,0,P|88:290|40:294,1,95.9999970703126,2|8,0:0|0:0,0:0:0:0:
193,352,52742,1,2,0:0:0:0:
66,208,52919,5,2,3:2:0:0:
137,32,53095,1,0,0:0:0:0:
190,154,53272,1,10,0:0:0:0:
14,83,53448,1,0,0:0:0:0:
275,49,53625,5,2,3:2:0:0:
368,40,53801,2,0,P|382:102|385:144,1,95.9999970703126,2|8,0:0|0:0,0:0:0:0:
282,282,54154,1,2,0:0:0:0:
282,282,54242,1,2,0:0:0:0:
282,282,54330,6,0,P|287:234|299:188,1,95.9999970703126,2|0,3:2|0:0,0:0:0:0:
376,262,54683,1,10,0:0:0:0:
199,213,54860,1,0,0:0:0:0:
124,259,55036,5,2,3:2:0:0:
44,214,55213,2,0,P|34:152|27:109,1,95.9999970703126,2|8,0:0|0:0,0:0:0:0:
303,141,55565,1,2,0:0:0:0:
303,141,55654,1,2,0:0:0:0:
303,141,55742,6,0,P|295:188|287:235,1,95.9999970703126,2|0,3:2|0:0,0:0:0:0:
212,60,56095,1,10,0:0:0:0:
408,144,56271,1,2,0:0:0:0:
202,252,56448,6,0,P|137:248|83:244,1,95.9999970703126,2|2,3:2|0:0,0:0:0:0:
259,325,56801,1,8,0:0:0:0:
171,163,56977,1,2,0:0:0:0:
95,337,57153,2,0,P|29:334|-10:333,1,95.9999970703126,2|0,3:2|0:0,0:0:0:0:
270,236,57506,2,0,P|336:233|375:232,1,95.9999970703126,10|0,0:0|0:0,0:0:0:0:
256,192,57859,12,0,59271,3:0:0:0:
110,22,59624,6,0,P|102:108|105:213,2,191.999994140625,8|0|10,0:0|3:0|0:0,0:0:0:0:
402,22,60506,2,0,P|410:108|407:213,1,191.999994140625,2|0,0:0|0:0,0:0:0:0:
306,346,61035,2,0,P|302:250|311:155,1,191.999994140625,8|0,0:0|3:0,0:0:0:0:
256,64,61565,1,0,0:0:0:0:
196,132,61741,2,0,P|194:189|195:250,1,95.9999970703126,10|2,0:0|0:0,0:0:0:0:
23,336,62094,6,0,P|78:325|225:313,1,191.999994140625,0|8,3:0|0:0,0:0:0:0:
314,345,62623,1,0,0:0:0:0:
314,345,62711,1,0,0:0:0:0:
314,345,62800,2,0,P|409:338|504:322,1,191.999994140625,0|8,3:0|0:0,0:0:0:0:
426,248,63329,1,0,0:0:0:0:
499,96,63505,5,2,3:2:0:0:
444,21,63682,2,0,P|384:7|336:132,1,191.999994140625,2|2,0:0|0:0,0:0:0:0:
157,146,64211,2,0,B|266:138|213:212|355:211,1,191.999994140625,2|8,3:2|0:0,0:0:0:0:
420,182,64741,1,0,0:0:0:0:
84,57,64917,6,0,B|57:151|57:151|93:262,1,191.999994140625,2|8,3:2|0:0,0:0:0:0:
422,365,65446,1,0,0:0:0:0:
422,365,65535,1,0,0:0:0:0:
422,365,65623,2,0,B|449:271|449:271|413:160,1,191.999994140625,0|10,3:0|0:0,0:0:0:0:
347,113,66152,2,0,P|299:116|251:121,1,95.9999970703126,2|0,0:0|3:0,0:0:0:0:
89,200,66505,6,0,P|136:196|184:191,1,95.9999970703126,0|8,0:0|0:0,0:0:0:0:
70,23,66858,1,0,0:0:0:0:
70,23,66946,1,0,0:0:0:0:
70,23,67034,2,0,P|48:65|29:110,1,95.9999970703126,0|0,3:0|0:0,0:0:0:0:
227,97,67387,2,0,P|200:57|171:18,1,95.9999970703126,10|2,0:0|0:0,0:0:0:0:
123,105,67740,5,0,3:0:0:0:
291,32,67917,2,0,B|390:15|370:97|478:72,2,191.999994140625,0|0|0,0:0|0:0|0:0,0:0:0:0:
251,226,68799,2,0,B|272:257|272:257|349:197|312:113,1,191.999994140625,10|2,0:0|3:2,0:0:0:0:
183,161,69328,6,0,P|162:216|148:282,1,95.9999970703126,2|8,0:0|0:0,0:0:0:0:
420,329,69681,1,2,0:0:0:0:
420,329,69857,2,0,P|402:284|389:238,1,95.9999970703126,2|0,3:2|0:0,0:0:0:0:
430,149,70210,1,8,0:0:0:0:
484,226,70387,1,0,0:0:0:0:
284,327,70563,6,0,P|288:250|305:108,1,191.999994140625,6|8,3:2|0:0,0:0:0:0:
143,66,71093,1,0,0:0:0:0:
143,66,71181,1,0,0:0:0:0:
143,66,71269,2,0,P|154:162|160:258,1,191.999994140625,0|10,3:0|0:0,0:0:0:0:
0,351,71798,6,0,P|47:339|96:335,1,95.9999970703126,2|0,0:0|3:0,0:0:0:0:
323,46,72151,2,0,P|275:41|229:30,1,95.9999970703126,0|8,0:0|0:0,0:0:0:0:
406,111,72504,1,0,0:0:0:0:
406,111,72592,1,0,0:0:0:0:
406,111,72681,2,0,P|351:129|294:146,1,95.9999970703126,0|0,3:0|0:0,0:0:0:0:
465,186,73033,2,0,P|419:201|373:215,1,95.9999970703126,10|2,0:0|0:0,0:0:0:0:
194,362,73386,5,0,3:0:0:0:
114,315,73563,2,0,P|27:299|-7:293,1,95.9999970703126,0|8,0:0|0:0,0:0:0:0:
181,242,73916,1,0,0:0:0:0:
181,242,74004,1,0,0:0:0:0:
181,242,74092,2,0,P|268:258|302:264,1,95.9999970703126,0|0,3:0|0:0,0:0:0:0:
134,148,74445,2,0,P|87:139|40:131,1,95.9999970703126,8|0,0:0|0:0,0:0:0:0:
187,67,74798,5,2,3:2:0:0:
272,16,74974,2,0,P|334:9|358:124,1,191.999994140625,2|2,0:0|0:0,0:0:0:0:
495,202,75504,2,0,B|428:189|428:189|388:213|388:213|286:195,1,191.999994140625,2|8,3:2|0:0,0:0:0:0:
241,259,76033,1,0,0:0:0:0:
22,161,76209,6,0,P|2:95|-4:53,1,95.9999970703126,2|0,3:2|0:0,0:0:0:0:
97,36,76562,2,0,P|117:102|123:144,1,95.9999970703126,8|0,0:0|0:0,0:0:0:0:
201,178,76827,1,0,0:0:0:0:
201,178,76915,2,0,P|260:163|306:157,1,95.9999970703126,0|0,3:0|0:0,0:0:0:0:
318,248,77268,2,0,P|259:263|213:269,1,95.9999970703126,10|2,0:0|0:0,0:0:0:0:
430,384,77621,6,0,P|407:303|403:277,1,95.9999970703126,0|0,3:0|0:0,0:0:0:0:
434,115,77974,2,0,P|457:196|461:222,1,95.9999970703126,8|0,0:0|0:0,0:0:0:0:
291,375,78327,2,0,P|268:294|264:268,1,95.9999970703126,0|0,3:0|0:0,0:0:0:0:
295,106,78680,2,0,P|318:187|322:213,1,95.9999970703126,10|2,0:0|0:0,0:0:0:0:
160,340,79033,5,0,3:0:0:0:
64,299,79209,1,0,0:0:0:0:
159,65,79385,2,0,B|190:169|111:145|160:270,2,191.999994140625,8|0|10,0:0|3:0|0:0,0:0:0:0:
77,101,80268,1,0,0:0:0:0:
227,207,80444,1,0,3:0:0:0:
254,183,80532,1,0,3:0:0:0:
288,177,80621,1,0,3:0:0:0:
322,188,80709,1,0,3:0:0:0:
327,194,80797,6,0,L|393:183,3,47.9999985351563,8|0|0|0,0:0|3:0|3:0|3:0,0:0:0:0:
455,187,81150,6,0,P|487:248|293:276,1,335.999989746094,2|0,3:2|0:0,0:0:0:0:
367,256,81856,6,0,P|377:318|377:362,1,80,6|0,3:2|0:0,0:0:0:0:
232,359,82209,2,0,P|222:297|222:253,1,80,8|0,0:0|0:0,0:0:0:0:
256,209,82473,1,0,0:0:0:0:
256,209,82561,2,0,P|253:169|245:129,1,80,0|0,3:0|0:0,0:0:0:0:
161,14,82914,2,0,P|163:53|171:93,1,80,10|2,0:0|0:0,0:0:0:0:
121,158,83267,5,0,3:0:0:0:
28,284,83444,2,0,P|81:240|174:275,1,160
241,310,83885,1,0,0:0:0:0:
241,310,83973,2,0,L|247:219,1,80,0|0,3:0|0:0,0:0:0:0:
310,98,84326,2,0,L|316:189,1,80,10|2,0:0|0:0,0:0:0:0:
384,221,84591,1,0,0:0:0:0:
384,221,84679,6,0,P|437:217|488:216,2,80,0|0|8,3:0|0:0|0:0,0:0:0:0:
238,286,85208,1,0,0:0:0:0:
238,286,85296,1,0,0:0:0:0:
238,286,85385,2,0,P|277:284|317:281,1,80,0|0,3:0|0:0,0:0:0:0:
169,232,85737,2,0,P|129:233|89:236,1,80,8|0,0:0|0:0,0:0:0:0:
213,156,86090,5,2,3:2:0:0:
128,314,86267,2,0,P|63:322|2:226,1,160,2|2,0:0|0:0,0:0:0:0:
33,95,86796,2,0,P|45:150|41:195,1,80,2|0,3:2|0:0,0:0:0:0:
0,15,87149,1,8,0:0:0:0:
0,15,87325,1,0,0:0:0:0:
128,127,87502,5,2,3:2:0:0:
205,86,87678,2,0,B|289:91|252:158|362:155,1,160
420,130,88119,1,0,0:0:0:0:
420,130,88208,2,0,P|424:86|427:41,1,80,0|0,3:0|0:0,0:0:0:0:
480,189,88561,2,0,P|483:229|487:269,1,80,10|2,0:0|0:0,0:0:0:0:
323,372,88913,5,0,3:0:0:0:
503,354,89090,2,0,P|455:294|380:307,1,160,0|0,0:0|0:0,0:0:0:0:
311,257,89531,1,0,0:0:0:0:
311,257,89619,2,0,P|300:200|291:154,1,80,0|0,3:0|0:0,0:0:0:0:
225,237,89972,2,0,P|217:276|209:315,1,80,10|2,0:0|0:0,0:0:0:0:
140,351,90237,1,0,0:0:0:0:
140,351,90325,6,0,P|86:344|45:341,1,80,0|0,3:0|0:0,0:0:0:0:
300,210,90678,2,0,P|354:217|395:220,1,80,8|0,0:0|0:0,0:0:0:0:
451,180,90943,1,0,0:0:0:0:
451,180,91031,2,0,P|458:126|461:85,1,80,0|0,3:0|0:0,0:0:0:0:
227,165,91384,2,0,P|220:219|217:260,1,80,10|0,0:0|0:0,0:0:0:0:
297,117,91737,5,2,3:2:0:0:
134,196,91913,2,0,P|49:203|21:205,1,80,2|8,0:0|0:0,0:0:0:0:
1,129,92266,1,2,0:0:0:0:
217,244,92442,2,0,P|302:251|330:253,1,80,2|0,3:2|0:0,0:0:0:0:
147,312,92795,1,8,0:0:0:0:
147,312,92972,1,0,0:0:0:0:
228,126,93148,5,6,3:2:0:0:
301,179,93325,2,0,P|386:169|475:155,1,160,2|2,0:0|0:0,0:0:0:0:
510,82,93766,1,2,0:0:0:0:
510,82,93854,2,0,P|451:74|413:70,1,80,2|0,3:2|0:0,0:0:0:0:
409,241,94207,2,0,P|468:249|506:253,1,80,10|2,0:0|0:0,0:0:0:0:
459,157,94560,5,0,3:0:0:0:
341,287,94736,2,8,B|241:292|299:349|177:340,1,160,2|2,0:0|0:0,0:0:0:0:
135,286,95177,1,2,0:0:0:0:
135,286,95265,2,0,P|131:243|133:183,1,80,2|0,3:2|0:0,0:0:0:0:
191,66,95618,2,0,P|195:109|193:169,1,80,10|2,0:0|3:2,0:0:0:0:
266,188,95883,1,0,3:0:0:0:
266,188,95971,5,0,3:0:0:0:
414,150,96148,2,0,P|350:145|318:142,1,80,2|8,0:0|0:0,0:0:0:0:
118,253,96501,1,2,0:0:0:0:
118,253,96589,1,2,0:0:0:0:
118,253,96677,2,0,P|182:248|214:245,1,80,2|0,3:2|0:0,0:0:0:0:
344,316,97030,2,0,P|280:311|248:308,1,80,10|0,0:0|0:0,0:0:0:0:
93,369,97383,5,2,3:2:0:0:
23,317,97559,2,0,P|14:244|17:150,1,160,2|2,0:0|0:0,0:0:0:0:
87,30,98089,2,0,P|90:87|87:131,1,80,2|2,3:2|0:0,0:0:0:0:
161,262,98441,1,10,0:2:0:0:
161,262,98618,1,0,0:0:0:0:
306,177,98794,6,0,P|360:165|403:265,1,160,2|8,3:2|0:0,0:0:0:0:
232,143,99324,1,2,0:0:0:0:
232,143,99412,1,2,0:0:0:0:
232,143,99500,2,0,P|230:77|228:37,1,80,2|0,3:2|0:0,0:0:0:0:
163,182,99853,2,0,P|161:221|160:261,1,80,10|2,0:0|0:0,0:0:0:0:
103,127,100206,5,0,3:0:0:0:
0,195,100382,2,0,P|58:200|99:197,1,80,2|8,0:0|0:0,0:0:0:0:
315,298,100735,1,2,0:0:0:0:
315,298,100823,1,2,0:0:0:0:
315,298,100912,2,0,P|257:293|216:296,1,80,2|0,3:2|0:0,0:0:0:0:
159,336,101265,1,10,0:0:0:0:
1,299,101441,1,2,0:0:0:0:
1,299,101529,1,2,0:0:0:0:
1,299,101617,6,0,B|97:280|56:341|184:318,1,160,2|8,3:2|0:0,0:0:0:0:
354,275,102147,2,0,P|419:271|464:270,1,80,0|0,0:0|3:0,0:0:0:0:
265,248,102500,2,0,P|225:246|185:243,1,80,0|10,0:0|0:0,0:0:0:0:
172,230,102764,1,2,0:0:0:0:
164,211,102853,1,2,0:0:0:0:
160,191,102941,1,2,0:0:0:0:
157,168,103029,6,0,L|168:118,3,40,0|0|0|0,3:0|3:0|3:0|3:0,0:0:0:0:
124,62,103382,6,0,P|57:42|27:36,1,80,10|0,0:0|3:0,0:0:0:0:
204,52,103735,2,0,P|271:32|301:26,1,80,2|0,3:2|3:0,0:0:0:0:
469,19,104088,2,0,P|440:71|332:64,1,160,8|6,0:0|3:2,0:0:0:0:
407,81,115733,6,0,P|401:131|389:202,1,103.999995239258,2|0,0:0|0:0,0:0:0:0:
303,142,116262,2,0,P|311:217|321:315,1,155.999992858887,2|2,0:0|0:0,0:0:0:0:
257,355,116968,1,0,0:0:0:0:
180,308,117145,6,0,P|115:302|61:296,1,103.999995239258,2|0,0:0|0:0,0:0:0:0:
14,199,117674,2,0,P|79:205|133:211,1,103.999995239258,2|0,0:0|0:0,0:0:0:0:
193,163,118203,1,2,0:0:0:0:
365,101,118556,6,0,P|367:59|370:13,1,77.9999964294435,2|2,0:0|0:0,0:0:0:0:
390,12,118909,2,0,P|403:53|407:74,1,51.999997619629,0|2,0:0|0:0,0:0:0:0:
466,122,119262,2,0,P|452:175|438:243,1,103.999995239258,2|2,0:0|0:0,0:0:0:0:
358,353,119968,6,0,P|350:308|340:266,1,77.9999964294435,2|2,0:0|0:0,0:0:0:0:
320,270,120321,2,0,P|307:313|302:336,1,51.999997619629,0|2,0:0|0:0,0:0:0:0:
214,364,120674,2,0,P|199:309|180:248,1,103.999995239258,2|2,0:0|0:0,0:0:0:0:
30,138,121379,6,0,P|14:187|1:238,1,103.999995239258,2|0,0:0|0:0,0:0:0:0:
83,289,121909,2,0,P|98:239|125:127,1,155.999992858887,2|2,0:0|0:0,0:0:0:0:
200,84,122614,1,0,0:0:0:0:
317,175,122791,6,0,P|365:190|434:207,1,103.999995239258,2|0,0:0|0:0,0:0:0:0:
495,128,123320,2,0,P|447:113|378:96,1,103.999995239258,2|0,0:0|0:0,0:0:0:0:
342,32,123850,2,0,P|299:23|272:15,1,51.999997619629,2|0,0:0|0:0,0:0:0:0:
205,61,124202,6,0,P|184:100|156:169,1,103.999995239258,2|0,0:0|0:0,0:0:0:0:
208,248,124732,2,0,P|252:246|326:236,1,103.999995239258,2|0,0:0|0:0,0:0:0:0:
369,152,125261,2,0,P|345:114|299:55,1,103.999995239258,2|2,0:0|0:0,0:0:0:0:
260,154,125879,5,2,0:0:0:0:
416,64,126143,5,2,0:0:0:0:
357,0,126320,5,2,0:0:0:0:
305,236,126673,5,2,0:0:0:0:
96,76,127026,5,10,0:0:0:0:
161,147,127202,2,0,P|152:201|146:240,1,71.9999978027344,2|8,0:0|1:0,0:0:0:0:
245,325,127555,1,0,0:0:0:0:
245,325,127643,1,0,0:0:0:0:
245,325,127731,2,0,P|239:289|233:253,1,71.9999978027344,8|0,2:1|0:0,0:0:0:0:
298,180,128084,2,0,P|303:144|309:108,1,71.9999978027344,8|0,0:1|0:0,0:0:0:0:
431,20,128437,5,0,3:0:0:0:
503,75,128614,2,0,P|511:123|518:169,1,71.9999978027344,2|8,0:0|0:1,0:0:0:0:
456,217,128966,1,0,0:0:0:0:
456,217,129055,1,0,0:0:0:0:
455,216,129143,2,0,P|461:252|467:288,1,71.9999978027344,8|0,0:1|0:0,0:0:0:0:
385,366,129496,2,0,P|379:330|373:294,1,71.9999978027344,8|0,0:1|0:0,0:0:0:0:
281,187,129849,5,0,3:0:0:0:
200,252,130025,2,0,P|140:241|111:235,1,71.9999978027344,2|8,0:0|2:1,0:0:0:0:
21,134,130378,1,0,0:0:0:0:
21,134,130466,1,0,0:0:0:0:
21,134,130554,2,0,P|81:145|110:151,1,71.9999978027344,8|0,0:1|0:0,0:0:0:0:
175,87,130907,2,0,P|210:93|245:100,1,71.9999978027344,8|0,0:1|0:0,0:0:0:0:
424,108,131260,5,0,3:0:0:0:
342,58,131437,2,0,P|337:111|335:149,1,71.9999978027344,2|8,0:0|0:1,0:0:0:0:
510,139,131790,1,0,0:0:0:0:
510,139,131878,1,0,0:0:0:0:
510,139,131966,2,0,P|507:103|503:67,1,71.9999978027344,8|0,0:1|0:0,0:0:0:0:
437,192,132319,2,0,P|440:227|443:263,1,71.9999978027344,8|0,0:1|0:0,0:0:0:0:
351,372,132672,6,0,L|306:378,1,35.9999989013672,10|0,2:2|0:0,0:0:0:0:
239,326,132848,2,0,L|181:319,3,35.9999989013672,0|0|0|0,3:0|3:0|3:0|3:0,0:0:0:0:
126,375,133201,1,2,3:2:0:0:
126,375,133289,1,2,3:2:0:0:
126,375,133378,6,0,L|120:330,1,35.9999989013672,2|0,3:2|0:0,0:0:0:0:
58,267,133554,2,0,L|65:209,3,35.9999989013672,2|0|0|0,3:2|3:0|3:0|3:0,0:0:0:0:
135,162,133907,1,2,3:2:0:0:
135,162,133995,1,2,3:2:0:0:
135,162,134083,6,0,L|126:101,1,35.9999989013672,2|0,3:2|0:0,0:0:0:0:
53,61,134260,2,0,L|47:25,3,35.9999989013672,2|0|0|0,3:2|3:0|3:0|3:0,0:0:0:0:
146,34,134613,1,8,0:0:0:0:
146,34,134701,1,8,0:0:0:0:
146,34,134789,6,0,P|187:28|204:28,1,35.9999989013672,2|0,3:2|0:0,0:0:0:0:
270,74,134966,2,0,P|287:71|305:68,3,35.9999989013672,2|0|0|0,3:2|3:0|3:0|3:0,0:0:0:0:
392,15,135318,1,2,3:2:0:0:
392,15,135407,1,2,3:2:0:0:
392,15,135495,6,0,P|408:59|411:73,1,35.9999989013672,10|0,0:0|0:0,0:0:0:0:
370,127,135671,2,0,P|354:171|351:185,3,35.9999989013672,10|8|8|8,0:0|0:0|0:0|0:0,0:0:0:0:
427,224,136024,2,0,P|443:268|446:282,3,35.9999989013672,0|0|0|0,3:0|3:0|3:0|3:0,0:0:0:0:
362,308,136377,1,8,0:0:0:0:
339,300,136465,1,8,0:0:0:0:
315,298,136554,1,8,0:0:0:0:
291,301,136642,1,8,0:0:0:0:
269,310,136730,1,8,0:0:0:0:
250,324,136818,1,8,0:0:0:0:
233,346,136906,6,0,L|237:377,30,17.9999994506836,0|0|0|0|0|0|0|0|0|0|0|0|0|0|0|0|0|0|0|0|0|0|0|0|0|0|0|0|0|0|0,3:0|3:0|3:0|3:0|3:0|3:0|3:0|3:0|3:0|3:0|3:0|3:0|3:0|3:0|3:0|3:0|3:0|3:0|3:0|3:0|3:0|3:0|3:0|3:0|3:0|3:0|3:0|3:0|3:0|3:0|3:0,0:0:0:0:
210,325,138318,6,0,P|140:313|7:322,2,191.999994140625,6|8|0,3:2|0:0|3:0,0:0:0:0:
121,281,139200,1,0,0:0:0:0:
308,384,139377,2,0,P|316:329|318:285,1,95.9999970703126,10|2,0:0|0:0,0:0:0:0:
471,64,139730,6,0,P|455:126|440:281,2,191.999994140625,0|8|0,3:0|0:0|3:0,0:0:0:0:
483,162,140612,1,0,0:0:0:0:
331,135,140788,2,0,P|326:87|324:40,1,95.9999970703126,10|2,0:0|0:0,0:0:0:0:
252,9,141053,1,2,0:0:0:0:
252,9,141141,5,2,3:2:0:0:
173,166,141318,2,0,P|97:159|63:158,1,95.9999970703126,0|8,0:0|0:0,0:0:0:0:
57,302,141670,1,0,0:0:0:0:
57,302,141759,1,0,0:0:0:0:
57,302,141847,2,0,P|133:309|167:310,1,95.9999970703126,0|0,3:0|0:0,0:0:0:0:
339,309,142200,2,0,P|263:302|229:301,1,95.9999970703126,8|0,0:0|0:0,0:0:0:0:
415,361,142553,5,2,3:2:0:0:
294,216,142729,2,0,P|270:153|382:102,1,191.999994140625,2|2,0:0|0:0,0:0:0:0:
482,166,143258,2,0,P|414:168|356:175,1,95.9999970703126,2|0,3:2|0:0,0:0:0:0:
114,92,143611,2,0,P|182:90|240:83,1,95.9999970703126,8|0,0:0|0:0,0:0:0:0:
59,11,143964,5,2,3:2:0:0:
1,85,144141,2,0,P|-10:170|-14:299,1,191.999994140625
80,382,144670,2,0,P|91:297|95:168,1,191.999994140625,0|10,3:0|0:0,0:0:0:0:
174,130,145199,1,2,0:0:0:0:
306,251,145376,6,0,P|388:245|435:244,1,95.9999970703126,0|0,3:0|0:0,0:0:0:0:
495,139,145729,2,0,P|413:145|366:146,1,95.9999970703126,8|0,0:0|0:0,0:0:0:0:
329,96,145993,1,0,0:0:0:0:
329,96,146082,2,0,P|281:98|233:102,1,95.9999970703126,0|0,3:0|0:0,0:0:0:0:
165,159,146434,1,10,0:0:0:0:
10,118,146611,1,2,0:2:0:0:
10,118,146699,1,0,0:0:0:0:
10,118,146787,5,0,3:0:0:0:
96,101,146964,2,0,P|87:165|82:214,1,95.9999970703126,0|8,0:0|0:0,0:0:0:0:
190,124,147317,1,0,0:0:0:0:
190,124,147405,1,0,0:0:0:0:
190,124,147493,2,0,P|184:76|178:29,1,95.9999970703126,0|0,3:0|0:0,0:0:0:0:
293,88,147846,2,0,P|286:135|280:183,1,95.9999970703126,10|0,0:0|0:0,0:0:0:0:
416,333,148199,6,0,P|474:328|525:327,2,80,6|2|8,3:2|0:0|0:0,0:0:0:0:
370,265,148728,1,2,0:0:0:0:
249,336,148905,2,0,P|197:350|150:288,1,120,2|0,3:2|0:0,0:0:0:0:
171,283,149258,2,0,P|164:345|160:381,1,80,8|8,0:0|0:0,0:0:0:0:
42,206,149610,6,0,P|28:111|30:15,1,191.999994140625,6|8,3:2|0:0,0:0:0:0:
292,43,150140,1,0,0:0:0:0:
292,43,150228,1,0,0:0:0:0:
292,43,150316,2,0,P|306:206|302:252,1,191.999994140625,0|10,3:0|0:0,0:0:0:0:
374,299,150846,1,0,0:0:0:0:
502,192,151022,6,0,P|505:124|501:80,1,95.9999970703126,2|0,3:2|0:0,0:0:0:0:
405,0,151375,2,0,P|402:68|406:112,1,95.9999970703126,8|0,0:0|0:0,0:0:0:0:
296,213,151728,2,0,P|228:205|185:202,1,95.9999970703126,2|0,3:2|0:0,0:0:0:0:
89,247,152081,1,8,0:0:0:0:
192,84,152257,1,0,3:0:0:0:
192,84,152345,1,0,3:0:0:0:
192,84,152434,6,0,P|266:99|349:104,1,143.999995605469,2|2,3:2|0:0,0:0:0:0:
363,89,152786,2,0,P|427:84|480:83,1,95.9999970703126,8|2,0:0|0:0,0:0:0:0:
512,204,153139,2,0,P|448:209|395:210,1,95.9999970703126,2|0,3:2|0:0,0:0:0:0:
200,283,153492,2,0,P|248:287|296:289,1,95.9999970703126,10|0,0:0|0:0,0:0:0:0:
53,223,153845,6,0,B|48:157|53:53|54:36,1,143.999995605469,2|2,3:2|0:0,0:0:0:0:
81,58,154198,2,0,P|87:112|91:170,1,95.9999970703126,8|2,0:0|0:0,0:0:0:0:
200,283,154551,2,0,P|194:330|190:378,1,95.9999970703126,2|0,3:2|0:0,0:0:0:0:
429,207,154904,2,0,P|367:201|297:200,1,95.9999970703126,10|0,0:0|0:0,0:0:0:0:
265,61,155257,6,0,P|364:75|488:78,1,191.999994140625,2|8,3:2|0:0,0:0:0:0:
192,147,155786,1,0,0:0:0:0:
192,147,155874,1,0,0:0:0:0:
192,147,155962,2,0,P|93:161|-31:164,1,191.999994140625,0|10,3:0|0:0,0:0:0:0:
257,224,156492,1,0,0:0:0:0:
105,68,156668,6,0,P|42:64|-13:65,1,95.9999970703126,2|0,3:2|0:0,0:0:0:0:
0,262,157021,2,0,P|63:266|118:265,1,95.9999970703126,8|0,0:0|0:0,0:0:0:0:
164,318,157286,1,0,0:0:0:0:
164,318,157374,2,0,P|227:314|282:315,1,95.9999970703126,2|0,3:2|0:0,0:0:0:0:
446,361,157727,1,8,0:0:0:0:
415,167,157903,1,0,3:0:0:0:
415,167,157992,1,0,3:0:0:0:
415,167,158080,6,0,P|400:234|388:281,1,95.9999970703126,2|0,3:2|0:0,0:0:0:0:
313,144,158433,2,0,P|328:77|340:30,1,95.9999970703126,8|0,0:0|0:0,0:0:0:0:
106,240,158786,2,0,P|121:307|133:354,1,95.9999970703126,0|0,3:0|0:0,0:0:0:0:
208,217,159138,2,0,P|193:150|181:103,1,95.9999970703126,8|0,0:0|0:0,0:0:0:0:
256,192,159491,12,0,160726,0:0:0:0:
434,90,160903,6,0,P|422:176|404:325,1,191.999994140625,6|8,3:2|0:0,0:0:0:0:
480,355,161432,1,0,0:0:0:0:
480,355,161520,1,0,0:0:0:0:
480,355,161609,1,0,3:0:0:0:
344,194,161785,1,0,0:0:0:0:
206,362,161962,1,10,0:0:0:0:
275,275,162138,6,0,P|274:214|267:158,1,95.9999970703126,2|0,0:0|3:0,0:0:0:0:
185,25,162491,2,0,P|186:86|193:142,1,95.9999970703126,2|8,0:0|0:0,0:0:0:0:
69,232,162844,1,2,0:0:0:0:
69,232,162932,1,2,0:0:0:0:
69,232,163020,5,2,3:2:0:0:
3,166,163197,1,0,0:0:0:0:
175,239,163373,1,10,0:0:0:0:
18,371,163550,1,2,0:0:0:0:
109,142,163726,6,0,P|112:65|107:9,2,95.9999970703126,0|0|8,3:0|0:0|0:0,0:0:0:0:
267,276,164255,1,2,0:0:0:0:
267,276,164344,1,2,0:0:0:0:
267,276,164432,5,2,3:2:0:0:
365,231,164608,1,0,0:0:0:0:
461,281,164785,1,10,0:0:0:0:
363,326,164961,1,0,0:0:0:0:
395,28,165138,5,2,3:2:0:0:
459,91,165314,2,0,P|456:164|456:225,1,95.9999970703126,2|8,0:0|0:0,0:0:0:0:
258,153,165667,1,2,0:0:0:0:
194,216,165843,2,0,P|197:289|197:350,1,95.9999970703126,2|2,3:2|0:0,0:0:0:0:
110,156,166196,2,0,P|107:83|107:22,1,95.9999970703126,10|0,0:2|0:0,0:0:0:0:
357,170,166549,6,0,P|349:250|332:389,1,191.999994140625,2|8,3:2|0:0,0:0:0:0:
294,106,167078,1,0,0:0:0:0:
294,106,167167,1,0,0:0:0:0:
294,106,167255,1,0,3:0:0:0:
479,233,167431,1,0,0:0:0:0:
249,308,167608,1,10,0:0:0:0:
158,254,167784,6,0,P|76:248|45:244,1,95.9999970703126,2|0,0:2|3:0,0:0:0:0:
143,167,168137,2,0,P|225:173|256:177,1,95.9999970703126,2|8,0:0|0:0,0:0:0:0:
483,102,168490,1,2,0:0:0:0:
483,102,168578,1,2,0:0:0:0:
483,102,168666,5,2,3:2:0:0:
445,19,168843,1,0,0:0:0:0:
340,224,169019,1,10,0:0:0:0:
378,307,169196,1,2,0:0:0:0:
391,102,169372,6,0,P|314:100|262:94,1,95.9999970703126,0|0,3:0|0:0,0:0:0:0:
106,144,169725,2,0,P|183:146|235:152,1,95.9999970703126,8|2,0:0|0:0,0:0:0:0:
269,202,169990,1,2,0:0:0:0:
269,202,170078,5,2,3:2:0:0:
349,166,170254,1,2,0:0:0:0:
199,60,170431,2,0,P|133:53|93:53,1,95.9999970703126,10|0,0:0|0:0,0:0:0:0:
273,108,170784,5,2,3:2:0:0:
429,36,170960,2,0,P|436:90|434:136,1,95.9999970703126,2|8,0:0|0:0,0:0:0:0:
390,317,171313,1,2,0:0:0:0:
307,262,171490,5,2,3:2:0:0:
493,306,171666,1,2,0:0:0:0:
434,131,171842,1,10,0:0:0:0:
390,317,172019,1,0,0:0:0:0:
206,170,172195,6,0,P|115:163|11:150,1,191.999994140625,6|8,3:2|0:0,0:0:0:0:
268,103,172725,1,0,0:0:0:0:
268,103,172813,1,0,0:0:0:0:
268,103,172901,1,0,3:0:0:0:
128,260,173078,1,0,0:0:0:0:
56,61,173254,1,10,0:0:0:0:
260,238,173430,6,0,P|330:235|375:236,1,95.9999970703126,2|0,0:0|3:0,0:0:0:0:
512,299,173783,2,0,P|442:302|397:301,1,95.9999970703126,2|8,0:0|0:0,0:0:0:0:
308,152,174136,1,2,0:0:0:0:
308,152,174224,1,2,0:0:0:0:
308,152,174313,6,0,P|307:93|312:30,1,95.9999970703126,2|0,3:2|0:0,0:0:0:0:
181,273,174666,2,0,P|182:332|177:395,1,95.9999970703126,10|2,0:0|0:0,0:0:0:0:
55,191,175018,5,0,3:0:0:0:
136,152,175195,2,0,B|243:161|203:217|307:232,1,191.999994140625,2|2,0:0|0:0,0:0:0:0:
382,204,175636,1,2,0:0:0:0:
382,204,175724,2,0,P|447:198|499:194,1,95.9999970703126,2|0,3:2|0:0,0:0:0:0:
293,75,176077,2,0,P|228:81|176:85,1,95.9999970703126,10|0,0:0|0:0,0:0:0:0:
344,6,176430,5,2,3:2:0:0:
240,177,176606,2,0,P|176:187|98:70,1,191.999994140625,2|2,0:0|0:0,0:0:0:0:
51,217,177136,2,0,P|36:295|29:329,1,95.9999970703126,2|0,3:2|0:0,0:0:0:0:
314,258,177489,2,0,P|323:210|332:163,1,95.9999970703126,10|0,0:0|0:0,0:0:0:0:
444,98,177842,6,0,P|451:204|463:309,1,191.999994140625,2|8,3:2|0:0,0:0:0:0:
403,356,178371,1,0,0:0:0:0:
403,356,178459,1,0,0:0:0:0:
403,356,178547,1,0,3:0:0:0:
226,301,178724,1,0,0:0:0:0:
46,363,178900,1,10,0:0:0:0:
129,282,179077,6,0,P|139:355|140:385,1,95.9999970703126,2|0,0:2|3:0,0:0:0:0:
60,218,179430,2,0,P|63:170|71:123,1,95.9999970703126,2|8,0:0|0:0,0:0:0:0:
137,53,179782,1,2,0:0:0:0:
137,53,179871,1,2,0:0:0:0:
137,53,179959,1,2,3:2:0:0:
216,94,180135,1,0,0:0:0:0:
457,69,180312,1,10,0:0:0:0:
371,26,180488,6,0,P|364:94|360:142,1,95.9999970703126,2|0,0:0|3:0,0:0:0:0:
408,209,180841,1,8,0:0:0:0:
494,163,181018,1,0,3:0:0:0:
344,324,181194,5,8,0:0:0:0:
280,270,181370,1,0,3:0:0:0:
258,351,181547,1,8,0:0:0:0:
58,267,181723,5,2,3:2:0:0:
142,242,181900,1,8,0:0:0:0:
98,38,182076,5,10,0:0:0:0:
93,55,182164,1,8,0:0:0:0:
89,73,182253,1,10,0:0:0:0:
86,90,182341,1,8,0:0:0:0:
83,108,182429,1,8,0:0:0:0:
81,126,182517,1,8,0:0:0:0:
79,144,182606,1,10,0:0:0:0:
77,162,182694,1,8,0:0:0:0:
80,182,182782,6,0,B|328:152|193:305|443:271,1,383.99998828125,2|12,0:0|0:2,0:0:0:0:
