osu file format v14

[General]
AudioFilename: audio.mp3
AudioLeadIn: 0
PreviewTime: -1
Countdown: 1
SampleSet: None
StackLeniency: 0.7
Mode: 1
LetterboxInBreaks: 0
WidescreenStoryboard: 1

[Editor]
DistanceSpacing: 0.8
BeatDivisor: 4
GridSize: 32
TimelineZoom: 1

[Metadata]
Title:Crimson Feat. Hatsune Miku
TitleUnicode:真紅 Feat. 初音ミク
Artist:Wisp X
ArtistUnicode:Wisp X
Creator:CanDyFloS
Version:Muzukashii
Source:
Tags:
BeatmapID:1875309
BeatmapSetID:897644

[Difficulty]
HPDrainRate:6
CircleSize:5
OverallDifficulty:5
ApproachRate:5
SliderMultiplier:1.4
SliderTickRate:1

[Events]
//Background and Video events
0,0,"森井ケンシロウ.jpg",0,0
//Break Periods
//Storyboard Layer 0 (Background)
//Storyboard Layer 1 (Fail)
//Storyboard Layer 2 (Pass)
//Storyboard Layer 3 (Foreground)
//Storyboard Sound Samples

[TimingPoints]
2823,352.941176470588,4,2,0,100,1,0

[HitObjects]
171,172,3087,5,0,0:0:0:0:
165,174,3264,1,0,0:0:0:0:
165,174,3440,1,0,0:0:0:0:
165,174,3617,1,0,0:0:0:0:
165,174,3793,1,0,0:0:0:0:
165,174,4058,1,0,0:0:0:0:
165,174,4234,1,0,0:0:0:0:
165,174,4411,1,0,0:0:0:0:
165,174,4764,1,0,0:0:0:0:
165,174,4940,1,0,0:0:0:0:
165,174,5205,1,0,0:0:0:0:
165,174,5381,1,0,0:0:0:0:
165,174,5558,1,0,0:0:0:0:
165,174,5911,5,0,0:0:0:0:
165,174,6264,1,0,0:0:0:0:
165,174,6528,1,0,0:0:0:0:
165,174,6705,1,0,0:0:0:0:
202,165,7146,5,0,0:0:0:0:
202,165,7499,5,0,0:0:0:0:
172,172,7852,5,0,0:0:0:0:
186,179,8117,1,0,0:0:0:0:
186,179,8293,1,0,0:0:0:0:
206,127,8558,1,0,0:0:0:0:
191,139,8734,1,0,0:0:0:0:
131,156,8911,5,0,0:0:0:0:
185,137,9087,1,0,0:0:0:0:
217,128,9352,5,0,0:0:0:0:
181,187,9528,5,0,0:0:0:0:
186,179,9881,1,0,0:0:0:0:
186,179,10058,1,0,0:0:0:0:
193,232,10411,1,0,0:0:0:0:
131,210,10675,5,0,0:0:0:0:
285,203,11117,5,0,0:0:0:0:
221,262,11293,1,0,0:0:0:0:
104,198,11558,1,0,0:0:0:0:
226,171,11734,1,0,0:0:0:0:
248,265,11999,1,0,0:0:0:0:
131,218,12175,1,0,0:0:0:0:
251,274,12352,1,0,0:0:0:0:
181,263,12617,1,0,0:0:0:0:
271,182,12793,1,0,0:0:0:0:
245,290,12970,1,0,0:0:0:0:
118,213,13234,1,0,0:0:0:0:
288,253,13411,1,0,0:0:0:0:
201,320,13587,1,0,0:0:0:0:
181,181,13852,1,0,0:0:0:0:
181,181,14028,1,0,0:0:0:0:
181,181,14293,1,0,0:0:0:0:
181,181,14381,1,0,0:0:0:0:
181,181,14558,1,0,0:0:0:0:
181,181,14734,1,0,0:0:0:0:
181,181,15087,5,0,0:0:0:0:
181,181,15352,5,0,0:0:0:0:
181,181,15617,1,0,0:0:0:0:
181,181,15793,1,0,0:0:0:0:
176,198,16146,5,0,0:0:0:0:
176,198,16411,1,0,0:0:0:0:
176,198,16587,1,0,0:0:0:0:
176,198,16675,1,0,0:0:0:0:
176,198,17205,5,0,0:0:0:0:
176,198,17381,1,0,0:0:0:0:
176,198,17558,1,0,0:0:0:0:
176,198,17999,5,0,0:0:0:0:
176,198,18175,1,0,0:0:0:0:
176,198,18352,1,0,0:0:0:0:
176,198,18705,5,0,0:0:0:0:
176,198,18970,1,0,0:0:0:0:
176,198,19146,1,0,0:0:0:0:
176,198,19322,1,0,0:0:0:0:
176,198,19587,5,0,0:0:0:0:
176,198,19852,5,0,0:0:0:0:
176,198,20117,5,0,0:0:0:0:
176,198,20381,5,0,0:0:0:0:
176,198,20558,5,0,0:0:0:0:
176,198,20822,5,0,0:0:0:0:
176,198,21087,5,0,0:0:0:0:
176,198,21264,5,0,0:0:0:0:
176,198,21440,5,0,0:0:0:0:
176,198,21617,5,0,0:0:0:0:
176,198,21970,1,0,0:0:0:0:
176,198,22146,1,0,0:0:0:0:
176,198,22234,1,0,0:0:0:0:
176,198,22587,1,0,0:0:0:0:
176,198,22764,1,0,0:0:0:0:
176,198,22940,1,0,0:0:0:0:
176,198,23117,1,0,0:0:0:0:
176,198,23558,5,0,0:0:0:0:
176,198,23822,5,0,0:0:0:0:
166,203,24087,5,0,0:0:0:0:
176,203,24352,5,0,0:0:0:0:
176,203,24528,5,0,0:0:0:0:
186,198,24793,5,0,0:0:0:0:
186,198,24881,1,0,0:0:0:0:
176,201,25058,1,0,0:0:0:0:
176,203,25234,1,0,0:0:0:0:
176,203,25411,1,0,0:0:0:0:
176,201,25675,1,0,0:0:0:0:
176,203,26470,1,0,0:0:0:0:
176,203,26734,1,0,0:0:0:0:
176,203,27528,1,0,0:0:0:0:
176,203,28146,1,0,0:0:0:0:
176,203,28411,1,0,0:0:0:0:
176,203,28675,1,0,0:0:0:0:
176,203,28852,1,0,0:0:0:0:
176,203,29205,1,0,0:0:0:0:
176,203,29646,1,0,0:0:0:0:
176,203,29822,1,0,0:0:0:0:
176,203,30175,1,0,0:0:0:0:
176,203,30440,1,0,0:0:0:0:
176,203,30705,1,0,0:0:0:0:
176,203,31058,1,0,0:0:0:0:
176,203,31940,1,0,0:0:0:0:
176,203,32381,1,0,0:0:0:0:
176,203,33087,1,0,0:0:0:0:
176,203,33793,1,0,0:0:0:0:
176,203,33970,1,0,0:0:0:0:
176,203,34764,1,0,0:0:0:0:
176,203,35293,1,0,0:0:0:0:
176,203,35734,1,0,0:0:0:0:
176,203,35999,1,0,0:0:0:0:
176,203,36352,1,0,0:0:0:0:
176,203,36705,1,0,0:0:0:0:
176,203,37587,1,0,0:0:0:0:
176,203,38028,1,0,0:0:0:0:
176,203,38734,1,0,0:0:0:0:
176,203,39440,1,0,0:0:0:0:
176,203,39617,1,0,0:0:0:0:
176,203,40058,1,0,0:0:0:0:
176,203,40234,1,0,0:0:0:0:
176,203,40499,1,0,0:0:0:0:
176,203,40940,1,0,0:0:0:0:
176,203,41117,1,0,0:0:0:0:
176,203,41470,1,0,0:0:0:0:
176,203,41646,1,0,0:0:0:0:
176,203,41911,1,0,0:0:0:0:
176,203,42352,1,0,0:0:0:0:
176,203,43234,1,0,0:0:0:0:
176,203,43675,1,0,0:0:0:0:
176,203,44381,1,0,0:0:0:0:
176,203,44999,1,0,0:0:0:0:
176,203,45528,1,0,0:0:0:0:
176,203,45881,1,0,0:0:0:0:
176,203,46146,1,0,0:0:0:0:
176,203,46675,1,0,0:0:0:0:
176,203,46940,1,0,0:0:0:0:
176,203,47117,1,0,0:0:0:0:
176,203,47293,1,0,0:0:0:0:
176,203,47646,1,0,0:0:0:0:
176,203,48087,5,0,0:0:0:0:
176,203,48617,5,0,0:0:0:0:
176,203,48970,5,0,0:0:0:0:
176,203,49058,1,0,0:0:0:0:
176,203,49146,1,0,0:0:0:0:
176,203,49411,1,0,0:0:0:0:
176,203,49499,1,0,0:0:0:0:
176,203,49675,1,0,0:0:0:0:
176,203,50028,5,0,0:0:0:0:
176,203,50293,5,0,0:0:0:0:
176,203,50646,1,0,0:0:0:0:
176,203,50822,1,0,0:0:0:0:
176,203,51087,1,0,0:0:0:0:
176,203,51264,1,0,0:0:0:0:
176,203,51970,1,0,0:0:0:0:
229,217,52146,1,0,0:0:0:0:
205,226,52764,1,0,0:0:0:0:
210,224,53028,1,0,0:0:0:0:
212,224,53117,1,0,0:0:0:0:
212,224,53293,1,0,0:0:0:0:
210,225,53470,1,0,0:0:0:0:
205,226,53646,1,0,0:0:0:0:
211,231,54087,5,0,0:0:0:0:
221,232,54352,1,0,0:0:0:0:
221,232,54440,1,0,0:0:0:0:
219,234,54793,5,0,0:0:0:0:
224,235,55587,5,0,0:0:0:0:
228,240,55764,1,0,0:0:0:0:
230,239,55852,1,0,0:0:0:0:
230,239,55940,1,0,0:0:0:0:
230,239,56293,1,0,0:0:0:0:
235,242,56470,1,0,0:0:0:0:
234,243,56558,1,0,0:0:0:0:
233,243,56734,1,0,0:0:0:0:
232,244,56911,1,0,0:0:0:0:
233,245,57087,1,0,0:0:0:0:
231,246,57175,1,0,0:0:0:0:
231,246,57352,1,0,0:0:0:0:
230,247,57440,1,0,0:0:0:0:
228,247,57617,1,0,0:0:0:0:
228,247,57705,1,0,0:0:0:0:
226,247,57881,1,0,0:0:0:0:
216,252,58234,1,0,0:0:0:0:
221,250,58411,1,0,0:0:0:0:
228,247,58587,1,0,0:0:0:0:
228,247,58764,1,0,0:0:0:0:
226,249,59028,1,0,0:0:0:0:
226,249,59205,1,0,0:0:0:0:
226,249,59381,1,0,0:0:0:0:
228,247,59470,1,0,0:0:0:0:
226,249,59822,5,0,0:0:0:0:
236,253,59999,1,0,0:0:0:0:
236,253,60175,1,0,0:0:0:0:
236,253,60352,1,0,0:0:0:0:
241,252,60440,1,0,0:0:0:0:
241,252,60793,1,0,0:0:0:0:
241,252,60970,5,0,0:0:0:0:
241,257,61146,1,0,0:0:0:0:
241,257,61411,1,0,0:0:0:0:
241,257,61499,1,0,0:0:0:0:
241,257,61587,1,0,0:0:0:0:
241,252,61940,1,0,0:0:0:0:
241,252,62028,1,0,0:0:0:0:
242,250,62117,1,0,0:0:0:0:
242,250,62205,1,0,0:0:0:0:
242,250,62381,1,0,0:0:0:0:
242,250,62470,1,0,0:0:0:0:
255,250,62646,5,0,0:0:0:0:
249,256,63264,1,0,0:0:0:0:
249,256,63440,1,0,0:0:0:0:
255,257,63617,1,0,0:0:0:0:
249,256,63881,1,0,0:0:0:0:
249,256,64058,1,0,0:0:0:0:
249,256,64234,1,0,0:0:0:0:
250,257,64499,5,0,0:0:0:0:
250,266,64852,5,0,0:0:0:0:
250,266,65028,5,0,0:0:0:0:
211,269,65293,5,0,0:0:0:0:
227,263,65558,1,0,0:0:0:0:
235,268,65822,5,0,0:0:0:0:
238,263,66087,5,0,0:0:0:0:
237,262,66264,5,0,0:0:0:0:
237,262,66528,5,0,0:0:0:0:
203,285,66793,5,0,0:0:0:0:
226,278,67058,1,0,0:0:0:0:
232,274,67322,5,0,0:0:0:0:
246,283,67587,5,0,0:0:0:0:
248,282,67852,5,0,0:0:0:0:
249,281,68117,5,0,0:0:0:0:
251,276,68381,1,0,0:0:0:0:
251,276,68558,5,0,0:0:0:0:
253,272,68646,1,0,0:0:0:0:
253,272,68734,1,0,0:0:0:0:
253,272,68911,1,0,0:0:0:0:
253,272,69087,1,0,0:0:0:0:
254,272,69264,1,0,0:0:0:0:
254,272,69440,1,0,0:0:0:0:
253,272,69617,1,0,0:0:0:0:
253,272,69793,1,0,0:0:0:0:
253,272,70058,1,0,0:0:0:0:
254,272,70234,1,0,0:0:0:0:
253,272,70499,5,0,0:0:0:0:
253,272,70764,5,0,0:0:0:0:
261,263,70940,1,0,0:0:0:0:
259,268,71205,5,0,0:0:0:0:
259,270,71470,5,0,0:0:0:0:
259,270,71734,5,0,0:0:0:0:
259,272,71999,5,0,0:0:0:0:
259,268,72264,5,0,0:0:0:0:
259,270,72617,1,0,0:0:0:0:
259,272,72793,1,0,0:0:0:0:
259,272,72881,1,0,0:0:0:0:
259,268,73234,1,0,0:0:0:0:
259,270,73322,1,0,0:0:0:0:
259,270,73499,1,0,0:0:0:0:
259,272,73852,5,0,0:0:0:0:
259,268,74028,5,0,0:0:0:0:
259,268,74293,1,0,0:0:0:0:
259,270,74381,1,0,0:0:0:0:
270,298,74646,1,0,0:0:0:0:
270,298,74822,1,0,0:0:0:0:
270,298,74911,1,0,0:0:0:0:
270,293,75175,5,0,0:0:0:0:
270,293,75352,1,0,0:0:0:0:
270,293,75528,5,0,0:0:0:0:
270,293,75793,5,0,0:0:0:0:
267,302,76146,5,0,0:0:0:0:
267,301,76411,5,0,0:0:0:0:
268,298,76675,5,0,0:0:0:0:
268,298,76764,1,0,0:0:0:0:
267,302,76940,1,0,0:0:0:0:
267,302,77117,1,0,0:0:0:0:
273,298,77293,1,0,0:0:0:0:
273,298,77381,1,0,0:0:0:0:
273,298,77558,1,0,0:0:0:0:
273,298,77999,5,0,0:0:0:0:
273,298,78087,1,0,0:0:0:0:
273,298,78175,1,0,0:0:0:0:
273,298,78352,1,0,0:0:0:0:
273,298,78970,5,0,0:0:0:0:
273,298,79146,1,0,0:0:0:0:
273,298,79234,1,0,0:0:0:0:
273,298,79675,5,0,0:0:0:0:
273,298,80028,1,0,0:0:0:0:
273,298,80117,1,0,0:0:0:0:
282,307,80822,5,0,0:0:0:0:
282,307,81087,1,0,0:0:0:0:
282,307,81352,1,0,0:0:0:0:
282,307,81793,1,0,0:0:0:0:
282,307,81970,1,0,0:0:0:0:
282,307,82234,1,0,0:0:0:0:
278,292,82852,5,0,0:0:0:0:
278,292,83205,1,0,0:0:0:0:
278,292,83558,1,0,0:0:0:0:
278,292,84264,5,0,0:0:0:0:
278,292,84528,5,0,0:0:0:0:
278,292,84881,5,0,0:0:0:0:
280,287,85322,5,0,0:0:0:0:
280,287,85499,1,0,0:0:0:0:
280,287,85852,1,0,0:0:0:0:
280,287,86205,1,0,0:0:0:0:
280,287,86470,1,0,0:0:0:0:
280,287,86734,1,0,0:0:0:0:
280,287,86911,1,0,0:0:0:0:
280,287,87087,1,0,0:0:0:0:
280,287,87264,1,0,0:0:0:0:
280,287,87528,1,0,0:0:0:0:
280,287,87793,1,0,0:0:0:0:
280,287,88146,1,0,0:0:0:0:
280,287,88587,1,0,0:0:0:0:
280,287,88852,1,0,0:0:0:0:
280,287,89205,1,0,0:0:0:0:
280,287,89558,1,0,0:0:0:0:
280,287,89911,1,0,0:0:0:0:
280,287,90087,1,0,0:0:0:0:
280,287,90264,1,0,0:0:0:0:
280,287,90440,1,0,0:0:0:0:
280,287,90705,1,0,0:0:0:0:
280,287,91058,5,0,0:0:0:0:
280,287,91411,5,0,0:0:0:0:
280,287,91764,5,0,0:0:0:0:
280,287,92205,5,0,0:0:0:0:
280,287,92734,5,0,0:0:0:0:
280,287,93087,1,0,0:0:0:0:
280,287,93264,1,0,0:0:0:0:
280,287,93440,1,0,0:0:0:0:
280,287,93793,5,0,0:0:0:0:
280,287,94058,1,0,0:0:0:0:
280,287,94234,1,0,0:0:0:0:
280,287,94587,5,0,0:0:0:0:
280,287,94764,1,0,0:0:0:0:
280,287,94940,1,0,0:0:0:0:
280,287,95293,5,0,0:0:0:0:
280,287,95470,1,0,0:0:0:0:
280,287,95646,1,0,0:0:0:0:
280,287,95911,5,0,0:0:0:0:
280,287,96264,5,0,0:0:0:0:
280,287,96528,1,0,0:0:0:0:
280,287,96793,1,0,0:0:0:0:
280,287,96970,1,0,0:0:0:0:
280,287,97411,5,0,0:0:0:0:
275,291,97499,1,0,0:0:0:0:
275,291,97675,1,0,0:0:0:0:
275,291,97764,1,0,0:0:0:0:
280,287,98117,1,0,0:0:0:0:
280,287,98470,5,0,0:0:0:0:
280,287,98822,5,0,0:0:0:0:
280,287,99175,5,0,0:0:0:0:
280,287,99528,1,0,0:0:0:0:
274,302,99617,1,0,0:0:0:0:
274,302,99793,1,0,0:0:0:0:
274,302,99970,1,0,0:0:0:0:
280,287,100322,1,0,0:0:0:0:
280,287,100499,1,0,0:0:0:0:
280,287,100675,1,0,0:0:0:0:
280,287,100940,1,0,0:0:0:0:
280,287,101117,1,0,0:0:0:0:
274,302,101293,1,0,0:0:0:0:
274,302,101470,1,0,0:0:0:0:
280,287,101822,5,0,0:0:0:0:
280,287,101999,1,0,0:0:0:0:
280,287,102175,1,0,0:0:0:0:
274,302,102352,1,0,0:0:0:0:
274,303,102528,1,0,0:0:0:0:
274,303,102705,1,0,0:0:0:0:
280,287,102970,5,0,0:0:0:0:
280,287,103146,1,0,0:0:0:0:
280,287,103499,5,0,0:0:0:0:
280,287,103852,5,0,0:0:0:0:
280,287,104293,1,0,0:0:0:0:
281,284,104381,1,0,0:0:0:0:
280,287,104558,1,0,0:0:0:0:
281,283,104646,1,0,0:0:0:0:
280,287,104734,1,0,0:0:0:0:
280,287,104822,1,0,0:0:0:0:
280,287,104999,1,0,0:0:0:0:
280,287,105175,1,0,0:0:0:0:
281,284,105440,5,0,0:0:0:0:
280,287,105617,1,0,0:0:0:0:
281,283,105705,1,0,0:0:0:0:
280,287,105793,1,0,0:0:0:0:
280,287,105881,1,0,0:0:0:0:
280,287,106058,1,0,0:0:0:0:
281,284,106234,1,0,0:0:0:0:
281,284,106411,1,0,0:0:0:0:
281,282,106675,1,0,0:0:0:0:
281,282,106852,1,0,0:0:0:0:
281,282,106940,1,0,0:0:0:0:
274,309,107028,1,0,0:0:0:0:
274,309,107205,1,0,0:0:0:0:
274,309,107734,1,0,0:0:0:0:
274,309,107911,1,0,0:0:0:0:
274,309,108087,1,0,0:0:0:0:
274,309,108528,1,0,0:0:0:0:
274,309,108970,1,0,0:0:0:0:
274,309,109322,1,0,0:0:0:0:
274,309,109675,1,0,0:0:0:0:
274,309,110028,1,0,0:0:0:0:
274,309,110205,1,0,0:0:0:0:
274,309,110381,1,0,0:0:0:0:
274,309,111175,1,0,0:0:0:0:
274,309,111352,1,0,0:0:0:0:
272,313,112499,5,0,0:0:0:0:
272,313,112764,5,0,0:0:0:0:
283,311,113381,1,0,0:0:0:0:
283,311,113558,1,0,0:0:0:0:
283,311,113734,1,0,0:0:0:0:
283,311,113911,1,0,0:0:0:0:
283,311,114264,5,0,0:0:0:0:
283,311,114528,5,0,0:0:0:0:
286,301,114705,5,0,0:0:0:0:
287,298,114881,1,0,0:0:0:0:
287,298,114970,1,0,0:0:0:0:
287,298,115058,1,0,0:0:0:0:
287,298,115234,1,0,0:0:0:0:
287,298,115411,1,0,0:0:0:0:
286,301,115587,1,0,0:0:0:0:
287,298,115764,1,0,0:0:0:0:
287,298,116293,5,0,0:0:0:0:
287,298,116470,1,0,0:0:0:0:
287,298,116646,1,0,0:0:0:0:
287,298,116822,1,0,0:0:0:0:
287,298,116999,1,0,0:0:0:0:
287,298,117440,5,0,0:0:0:0:
287,298,117617,1,0,0:0:0:0:
287,298,117793,1,0,0:0:0:0:
287,298,118234,5,0,0:0:0:0:
287,298,118411,1,0,0:0:0:0:
287,298,118587,1,0,0:0:0:0:
287,298,119028,5,0,0:0:0:0:
287,298,119293,1,0,0:0:0:0:
287,298,119470,1,0,0:0:0:0:
287,298,119822,5,0,0:0:0:0:
287,298,119999,1,0,0:0:0:0:
287,298,120175,1,0,0:0:0:0:
287,298,120528,5,0,0:0:0:0:
287,298,120793,1,0,0:0:0:0:
287,298,120970,1,0,0:0:0:0:
287,298,121322,5,0,0:0:0:0:
287,298,121587,1,0,0:0:0:0:
291,301,122117,5,0,0:0:0:0:
291,301,122558,1,0,0:0:0:0:
291,301,122911,1,0,0:0:0:0:
291,301,123175,1,0,0:0:0:0:
291,301,123352,1,0,0:0:0:0:
291,301,123705,1,0,0:0:0:0:
296,310,123881,1,0,0:0:0:0:
296,310,124058,1,0,0:0:0:0:
296,310,124587,5,0,0:0:0:0:
296,310,124764,1,0,0:0:0:0:
296,310,124940,1,0,0:0:0:0:
296,310,125117,1,0,0:0:0:0:
296,310,125293,1,0,0:0:0:0:
296,310,125470,1,0,0:0:0:0:
296,310,125646,1,0,0:0:0:0:
296,310,125911,1,0,0:0:0:0:
296,310,126087,1,0,0:0:0:0:
296,310,126264,1,0,0:0:0:0:
296,310,126617,1,0,0:0:0:0:
296,310,126793,1,0,0:0:0:0:
296,310,126970,1,0,0:0:0:0:
293,301,127058,1,0,0:0:0:0:
293,301,128117,1,0,0:0:0:0:
293,301,128470,1,0,0:0:0:0:
293,301,129087,1,0,0:0:0:0:
293,301,129793,1,0,0:0:0:0:
293,301,129970,1,0,0:0:0:0:
293,301,130411,1,0,0:0:0:0:
308,292,130587,1,0,0:0:0:0:
308,293,130940,1,0,0:0:0:0:
301,302,131293,1,0,0:0:0:0:
296,308,131558,1,0,0:0:0:0:
296,308,131646,1,0,0:0:0:0:
296,303,131999,1,0,0:0:0:0:
301,302,132352,1,0,0:0:0:0:
297,303,132705,1,0,0:0:0:0:
297,303,133587,1,0,0:0:0:0:
297,303,134028,1,0,0:0:0:0:
297,303,134734,1,0,0:0:0:0:
297,303,135528,1,0,0:0:0:0:
297,303,136499,1,0,0:0:0:0:
297,303,137028,1,0,0:0:0:0:
297,303,137381,1,0,0:0:0:0:
297,303,137646,1,0,0:0:0:0:
297,303,137999,1,0,0:0:0:0:
297,303,138264,1,0,0:0:0:0:
297,303,139322,1,0,0:0:0:0:
297,303,139675,1,0,0:0:0:0:
297,303,140381,1,0,0:0:0:0:
297,303,141087,1,0,0:0:0:0:
297,303,141264,1,0,0:0:0:0:
297,303,141705,1,0,0:0:0:0:
297,303,141881,1,0,0:0:0:0:
297,303,142234,1,0,0:0:0:0:
297,303,142852,1,0,0:0:0:0:
297,303,143028,1,0,0:0:0:0:
297,303,143293,1,0,0:0:0:0:
297,303,143646,1,0,0:0:0:0:
297,303,143999,1,0,0:0:0:0:
297,303,144881,1,0,0:0:0:0:
301,297,145322,1,0,0:0:0:0:
301,306,146028,1,0,0:0:0:0:
301,306,146646,1,0,0:0:0:0:
301,306,147352,1,0,0:0:0:0:
301,306,148058,1,0,0:0:0:0:
301,306,148322,1,0,0:0:0:0:
301,306,148499,1,0,0:0:0:0:
301,306,148675,1,0,0:0:0:0:
301,306,148940,1,0,0:0:0:0:
301,306,149205,1,0,0:0:0:0:
301,306,149646,1,0,0:0:0:0:
301,306,149911,1,0,0:0:0:0:
301,306,150264,1,0,0:0:0:0:
301,306,150617,1,0,0:0:0:0:
301,306,150970,1,0,0:0:0:0:
301,306,151234,1,0,0:0:0:0:
301,306,151587,1,0,0:0:0:0:
301,306,152028,1,0,0:0:0:0:
301,306,152381,1,0,0:0:0:0:
301,306,152734,1,0,0:0:0:0:
301,306,153087,1,0,0:0:0:0:
301,306,153440,1,0,0:0:0:0:
301,306,153793,1,0,0:0:0:0:
301,306,154146,1,0,0:0:0:0:
301,306,154499,1,0,0:0:0:0:
301,306,154852,1,0,0:0:0:0:
301,306,155205,1,0,0:0:0:0:
301,306,155558,1,0,0:0:0:0:
301,306,155999,1,0,0:0:0:0:
301,306,156264,1,0,0:0:0:0:
301,306,156617,1,0,0:0:0:0:
301,306,156970,1,0,0:0:0:0:
301,306,157146,1,0,0:0:0:0:
301,306,157411,1,0,0:0:0:0:
301,306,157587,1,0,0:0:0:0:
301,306,157852,1,0,0:0:0:0:
301,306,158028,1,0,0:0:0:0:
301,306,158205,1,0,0:0:0:0:
301,306,158470,1,0,0:0:0:0:
301,306,158646,1,0,0:0:0:0:
301,306,158822,1,0,0:0:0:0:
301,306,158999,1,0,0:0:0:0:
301,306,159175,1,0,0:0:0:0:
301,306,159352,1,0,0:0:0:0:
301,306,159528,1,0,0:0:0:0:
301,306,159705,1,0,0:0:0:0:
301,306,159881,1,0,0:0:0:0:
301,306,160058,1,0,0:0:0:0:
301,306,160234,1,0,0:0:0:0:
301,306,160411,1,0,0:0:0:0:
301,306,160675,5,0,0:0:0:0:
301,306,160852,5,0,0:0:0:0:
301,306,161205,1,0,0:0:0:0:
301,306,161381,5,0,0:0:0:0:
301,306,161558,1,0,0:0:0:0:
308,288,161999,1,0,0:0:0:0:
314,306,162264,1,0,0:0:0:0:
314,307,162528,1,0,0:0:0:0:
314,307,162705,1,0,0:0:0:0:
314,306,163234,1,0,0:0:0:0:
314,307,163411,1,0,0:0:0:0:
314,307,163587,1,0,0:0:0:0:
314,306,164205,1,0,0:0:0:0:
314,307,164381,1,0,0:0:0:0:
314,307,164558,1,0,0:0:0:0:
314,306,164822,1,0,0:0:0:0:
314,306,164999,1,0,0:0:0:0:
314,306,165264,1,0,0:0:0:0:
314,307,165440,1,0,0:0:0:0:
314,306,165705,1,0,0:0:0:0:
314,306,165881,1,0,0:0:0:0:
314,306,166146,1,0,0:0:0:0:
315,301,166587,1,0,0:0:0:0:
315,301,166852,1,0,0:0:0:0:
314,306,167028,1,0,0:0:0:0:
315,301,167205,1,0,0:0:0:0:
315,301,167381,1,0,0:0:0:0:
315,301,167558,1,0,0:0:0:0:
315,301,167911,1,0,0:0:0:0:
314,306,168087,1,0,0:0:0:0:
315,301,168264,1,0,0:0:0:0:
315,301,168440,1,0,0:0:0:0:
315,301,168881,1,0,0:0:0:0:
314,306,169058,1,0,0:0:0:0:
315,301,169234,1,0,0:0:0:0:
315,301,169852,1,0,0:0:0:0:
314,306,170028,1,0,0:0:0:0:
315,301,170205,1,0,0:0:0:0:
315,301,170470,1,0,0:0:0:0:
315,301,170646,1,0,0:0:0:0:
314,306,170999,1,0,0:0:0:0:
315,301,171175,1,0,0:0:0:0:
315,301,171352,1,0,0:0:0:0:
315,301,171617,1,0,0:0:0:0:
314,306,171793,1,0,0:0:0:0:
315,301,172146,1,0,0:0:0:0:
315,301,172411,1,0,0:0:0:0:
315,301,172587,1,0,0:0:0:0:
314,306,172764,1,0,0:0:0:0:
315,301,173028,1,0,0:0:0:0:
315,301,173293,1,0,0:0:0:0:
315,301,173470,1,0,0:0:0:0:
314,306,173734,1,0,0:0:0:0:
315,301,173911,1,0,0:0:0:0:
315,301,174175,1,0,0:0:0:0:
315,301,174528,1,0,0:0:0:0:
314,306,174705,1,0,0:0:0:0:
315,301,174881,1,0,0:0:0:0:
315,301,175058,1,0,0:0:0:0:
315,301,175234,1,0,0:0:0:0:
