osu file format v14

[General]
AudioFilename: 1-02 Coffee.mp3
AudioLeadIn: 0
PreviewTime: 0
Countdown: 0
SampleSet: Soft
StackLeniency: 0.3
Mode: 0
LetterboxInBreaks: 1
WidescreenStoryboard: 1

[Editor]
Bookmarks: 19200,38400,57600,76800
DistanceSpacing: 1.2
BeatDivisor: 4
GridSize: 4
TimelineZoom: 1

[Metadata]
Title:Coffee
TitleUnicode:Coffee
Artist:Wisp X
ArtistUnicode:Wisp X
Creator:Sinnoh
Version:Hard
Source:
Tags:featured artist mirai wispx chill chillstep piano
BeatmapID:1546829
BeatmapSetID:733211

[Difficulty]
HPDrainRate:5
CircleSize:4
OverallDifficulty:6
ApproachRate:7
SliderMultiplier:1.9
SliderTickRate:1

[Events]
//Background and Video events
0,0,"bg.jpg",0,0
//Break Periods
//Storyboard Layer 0 (Background)
Sprite,Background,Centre,"Glow2.png",0,0 F,0,0,,0.6 S,0,0,,0.2 F,0,0,200,0,0.6 M,0,0,6452,620.9958,0,536.9958,480 P,0,0,54883,A F,0,6252,6452,0.6,0 F,0,6857,7057,0,0.6 M,0,6857,12150,112.0028,0,51.00279,480 F,0,11950,12150,0.6,0 F,0,12428,12628,0,0.6 M,0,12428,19046,600.7603,0,516.7603,480 F,0,18846,19046,0.6,0 F,0,19285,19485,0,0.6 M,0,19285,25277,645.8388,0,571.8388,480 F,0,25077,25277,0.6,0 F,0,25285,25485,0,0.6 M,0,25285,30586,304.6525,0,240.6525,480 F,0,30386,30586,0.6,0 F,0,30857,31057,0,0.6 M,0,30857,36380,188.0501,0,138.0501,480 F,0,36180,36380,0.6,0 F,0,36428,36628,0,0.6 M,0,36428,42713,412.3203,0,362.3203,480 F,0,42513,42713,0.6,0 F,0,42857,43057,0,0.6 M,0,42857,48926,358.5143,0,273.5143,480 F,0,48726,48926,0.6,0 F,0,49285,49485,0,0.6 M,0,49285,54883,504.1547,0,447.1547,480 F,0,54683,54883,0.6,0
Sprite,Background,Centre,"Glow2.png",0,0 F,0,428,,0.6 S,0,428,,0.2 F,0,428,628,0,0.6 M,0,428,6544,98.95232,0,27.95231,480 P,0,428,56653,A F,0,6344,6544,0.6,0 F,0,7285,7485,0,0.6 M,0,7285,13722,452.3351,0,386.3351,480 F,0,13522,13722,0.6,0 F,0,14142,14342,0,0.6 M,0,14142,19279,456.4278,0,376.4278,480 F,0,19079,19279,0.6,0 F,0,19714,19914,0,0.6 M,0,19714,24922,556.949,0,495.949,480 F,0,24722,24922,0.6,0 F,0,25714,25914,0,0.6 M,0,25714,30753,255.0675,0,167.0675,480 F,0,30553,30753,0.6,0 F,0,31285,31485,0,0.6 M,0,31285,37853,36.63321,0,-37.36679,480 F,0,37653,37853,0.6,0 F,0,38142,38342,0,0.6 M,0,38142,44436,776.1511,0,702.1511,480 F,0,44236,44436,0.6,0 F,0,44571,44771,0,0.6 M,0,44571,50709,314.0951,0,215.0951,480 F,0,50509,50709,0.6,0 F,0,50999,51199,0,0.6 M,0,50999,56653,83.57022,0,32.57022,480 F,0,56453,56653,0.6,0
Sprite,Background,Centre,"Glow2.png",0,0 F,0,857,,0.6 S,0,857,,0.2 F,0,857,1057,0,0.6 M,0,857,7669,300.6199,0,202.6199,480 P,0,857,57658,A F,0,7469,7669,0.6,0 F,0,7714,7914,0,0.6 M,0,7714,13103,672.9755,0,584.9755,480 F,0,12903,13103,0.6,0 F,0,13285,13485,0,0.6 M,0,13285,19611,207.031,0,154.031,480 F,0,19411,19611,0.6,0 F,0,20142,20342,0,0.6 M,0,20142,27008,34.61638,0,-45.38362,480 F,0,26808,27008,0.6,0 F,0,27428,27628,0,0.6 M,0,27428,34362,424.9748,0,339.9748,480 F,0,34162,34362,0.6,0 F,0,34714,34914,0,0.6 M,0,34714,39717,762.8465,0,665.8465,480 F,0,39517,39717,0.6,0 F,0,39857,40057,0,0.6 M,0,39857,45615,662.7073,0,606.7073,480 F,0,45415,45615,0.6,0 F,0,45857,46057,0,0.6 M,0,45857,51384,-65.90813,0,-128.9081,480 F,0,51184,51384,0.6,0 F,0,51428,51628,0,0.6 M,0,51428,57658,425.9135,0,331.9135,480 F,0,57458,57658,0.6,0
Sprite,Background,Centre,"Glow2.png",0,0 F,0,1285,,0.6 S,0,1285,,0.2 F,0,1285,1485,0,0.6 M,0,1285,6832,172.288,0,107.288,480 P,0,1285,54032,A F,0,6632,6832,0.6,0 F,0,8142,8342,0,0.6 M,0,8142,14612,655.9192,0,576.9192,480 F,0,14412,14612,0.6,0 F,0,15000,15200,0,0.6 M,0,15000,21857,-20.19056,0,-113.1906,480 F,0,21657,21857,0.6,0 F,0,21857,22057,0,0.6 M,0,21857,27994,-22.8251,0,-74.8251,480 F,0,27794,27994,0.6,0 F,0,28285,28485,0,0.6 M,0,28285,35056,753.8457,0,702.8457,480 F,0,34856,35056,0.6,0 F,0,35142,35342,0,0.6 M,0,35142,40456,582.5074,0,542.5074,480 F,0,40256,40456,0.6,0 F,0,40714,40914,0,0.6 M,0,40714,46796,369.2242,0,324.2242,480 F,0,46596,46796,0.6,0 F,0,47142,47342,0,0.6 M,0,47142,54032,650.3824,0,557.3824,480 F,0,53832,54032,0.6,0
Sprite,Background,Centre,"Glow2.png",0,0 F,0,1714,,0.6 S,0,1714,,0.2 F,0,1714,1914,0,0.6 M,0,1714,7979,323.9631,0,225.9632,480 P,0,1714,55647,A F,0,7779,7979,0.6,0 F,0,8571,8771,0,0.6 M,0,8571,14820,109.5194,0,16.51939,480 F,0,14620,14820,0.6,0 F,0,15428,15628,0,0.6 M,0,15428,21785,3.257246,0,-40.74275,480 F,0,21585,21785,0.6,0 F,0,22285,22485,0,0.6 M,0,22285,28970,408.1454,0,332.1454,480 F,0,28770,28970,0.6,0 F,0,29142,29342,0,0.6 M,0,29142,35907,388.1373,0,302.1373,480 F,0,35707,35907,0.6,0 F,0,35999,36199,0,0.6 M,0,35999,42464,10.04298,0,-78.95702,480 F,0,42264,42464,0.6,0 F,0,43285,43485,0,0.6 M,0,43285,49249,9.431193,0,-53.56881,480 F,0,49049,49249,0.6,0 F,0,49714,49914,0,0.6 M,0,49714,55647,605.5667,0,556.5667,480 F,0,55447,55647,0.6,0
Sprite,Background,Centre,"Glow2.png",0,0 F,0,2142,,0.6 S,0,2142,,0.2 F,0,2142,2342,0,0.6 M,0,2142,7202,659.4641,0,560.4641,480 P,0,2142,53504,A F,0,7002,7202,0.6,0 F,0,9000,9200,0,0.6 M,0,9000,15792,-3.06078,0,-92.06078,480 F,0,15592,15792,0.6,0 F,0,15857,16057,0,0.6 M,0,15857,21070,443.8292,0,347.8292,480 F,0,20870,21070,0.6,0 F,0,21428,21628,0,0.6 M,0,21428,27646,137.1391,0,38.13907,480 F,0,27446,27646,0.6,0 F,0,27857,28057,0,0.6 M,0,27857,33505,282.0432,0,184.0432,480 F,0,33305,33505,0.6,0 F,0,33857,34057,0,0.6 M,0,33857,40132,196.0342,0,138.0342,480 F,0,39932,40132,0.6,0 F,0,40285,40485,0,0.6 M,0,40285,46858,367.0458,0,279.0458,480 F,0,46658,46858,0.6,0 F,0,47571,47771,0,0.6 M,0,47571,53504,644.0661,0,586.0661,480 F,0,53304,53504,0.6,0
Sprite,Background,Centre,"Glow2.png",0,0 F,0,2571,,0.6 S,0,2571,,0.2 F,0,2571,2771,0,0.6 M,0,2571,8925,191.6614,0,103.6614,480 P,0,2571,56960,A F,0,8725,8925,0.6,0 F,0,9428,9628,0,0.6 M,0,9428,14768,473.0745,0,385.0745,480 F,0,14568,14768,0.6,0 F,0,16285,16485,0,0.6 M,0,16285,22266,49.44005,0,-29.55995,480 F,0,22066,22266,0.6,0 F,0,22714,22914,0,0.6 M,0,22714,28746,751.4887,0,711.4887,480 F,0,28546,28746,0.6,0 F,0,29571,29771,0,0.6 M,0,29571,35599,223.9355,0,124.9355,480 F,0,35399,35599,0.6,0 F,0,36857,37057,0,0.6 M,0,36857,43531,657.082,0,593.082,480 F,0,43331,43531,0.6,0 F,0,43714,43914,0,0.6 M,0,43714,48952,657.1265,0,586.1265,480 F,0,48752,48952,0.6,0 F,0,50142,50342,0,0.6 M,0,50142,56960,366.7844,0,275.7844,480 F,0,56760,56960,0.6,0
Sprite,Background,Centre,"Glow2.png",0,0 F,0,2999,,0.6 S,0,2999,,0.2 F,0,2999,3199,0,0.6 M,0,2999,9696,770.0845,0,733.0845,480 P,0,2999,54102,A F,0,9496,9696,0.6,0 F,0,9857,10057,0,0.6 M,0,9857,15295,776.9767,0,710.9767,480 F,0,15095,15295,0.6,0 F,0,16714,16914,0,0.6 M,0,16714,22853,115.4943,0,40.49427,480 F,0,22653,22853,0.6,0 F,0,23142,23342,0,0.6 M,0,23142,29167,56.02358,0,-30.97642,480 F,0,28967,29167,0.6,0 F,0,29999,30199,0,0.6 M,0,29999,35065,513.7352,0,471.7352,480 F,0,34865,35065,0.6,0 F,0,35571,35771,0,0.6 M,0,35571,40952,-23.62283,0,-65.62283,480 F,0,40752,40952,0.6,0 F,0,41142,41342,0,0.6 M,0,41142,47410,395.4619,0,340.4619,480 F,0,47210,47410,0.6,0 F,0,47999,48199,0,0.6 M,0,47999,54102,182.8648,0,120.8648,480 F,0,53902,54102,0.6,0
Sprite,Background,Centre,"Glow2.png",0,0 F,0,3428,,0.6 S,0,3428,,0.2 F,0,3428,3628,0,0.6 M,0,3428,9827,372.4467,0,277.4467,480 P,0,3428,57470,A F,0,9627,9827,0.6,0 F,0,10285,10485,0,0.6 M,0,10285,16589,537.646,0,450.646,480 F,0,16389,16589,0.6,0 F,0,17142,17342,0,0.6 M,0,17142,22152,231.2419,0,141.2419,480 F,0,21952,22152,0.6,0 F,0,23571,23771,0,0.6 M,0,23571,29856,414.386,0,344.386,480 F,0,29656,29856,0.6,0 F,0,30428,30628,0,0.6 M,0,30428,35817,347.0254,0,275.0254,480 F,0,35617,35817,0.6,0 F,0,37285,37485,0,0.6 M,0,37285,44099,608.9058,0,544.9058,480 F,0,43899,44099,0.6,0 F,0,44142,44342,0,0.6 M,0,44142,50546,470.1349,0,434.1349,480 F,0,50346,50546,0.6,0 F,0,50571,50771,0,0.6 M,0,50571,57470,154.3586,0,87.35856,480 F,0,57270,57470,0.6,0
Sprite,Background,Centre,"Glow2.png",0,0 F,0,3857,,0.6 S,0,3857,,0.2 F,0,3857,4057,0,0.6 M,0,3857,10232,389.9804,0,349.9804,480 P,0,3857,50243,A F,0,10032,10232,0.6,0 F,0,10714,10914,0,0.6 M,0,10714,15915,545.6463,0,464.6463,480 F,0,15715,15915,0.6,0 F,0,17571,17771,0,0.6 M,0,17571,22695,163.5268,0,83.52676,480 F,0,22495,22695,0.6,0 F,0,23999,24199,0,0.6 M,0,23999,30343,772.3427,0,718.3427,480 F,0,30143,30343,0.6,0 F,0,31714,31914,0,0.6 M,0,31714,37832,482.8989,0,425.8989,480 F,0,37632,37832,0.6,0 F,0,38571,38771,0,0.6 M,0,38571,43750,455.76,0,356.76,480 F,0,43550,43750,0.6,0 F,0,44999,45199,0,0.6 M,0,44999,50243,25.9068,0,-27.0932,480 F,0,50043,50243,0.6,0
Sprite,Background,Centre,"Glow2.png",0,0 F,0,4285,,0.6 S,0,4285,,0.2 F,0,4285,4485,0,0.6 M,0,4285,9659,310.1414,0,256.1414,480 P,0,4285,51689,A F,0,9459,9659,0.6,0 F,0,11142,11342,0,0.6 M,0,11142,16393,696.0206,0,649.0206,480 F,0,16193,16393,0.6,0 F,0,18000,18200,0,0.6 M,0,18000,24917,767.4458,0,707.4458,480 F,0,24717,24917,0.6,0 F,0,26142,26342,0,0.6 M,0,26142,31547,703.2394,0,667.2394,480 F,0,31347,31547,0.6,0 F,0,32142,32342,0,0.6 M,0,32142,37188,6.082178,0,-85.91782,480 F,0,36988,37188,0.6,0 F,0,37714,37914,0,0.6 M,0,37714,43394,587.5276,0,525.5276,480 F,0,43194,43394,0.6,0 F,0,45428,45628,0,0.6 M,0,45428,51689,605.5855,0,554.5855,480 F,0,51489,51689,0.6,0
Sprite,Background,Centre,"Glow2.png",0,0 F,0,4714,,0.6 S,0,4714,,0.2 F,0,4714,4914,0,0.6 M,0,4714,11691,471.8636,0,387.8636,480 P,0,4714,51873,A F,0,11491,11691,0.6,0 F,0,12000,12200,0,0.6 M,0,12000,18342,323.0117,0,234.0117,480 F,0,18142,18342,0.6,0 F,0,18428,18628,0,0.6 M,0,18428,24473,162.3978,0,95.39783,480 F,0,24273,24473,0.6,0 F,0,24857,25057,0,0.6 M,0,24857,30289,-15.77708,0,-64.77708,480 F,0,30089,30289,0.6,0 F,0,32571,32771,0,0.6 M,0,32571,38992,684.8867,0,607.8867,480 F,0,38792,38992,0.6,0 F,0,38999,39199,0,0.6 M,0,38999,45745,383.7705,0,340.7705,480 F,0,45545,45745,0.6,0 F,0,46285,46485,0,0.6 M,0,46285,51873,640.1501,0,552.1501,480 F,0,51673,51873,0.6,0
Sprite,Background,Centre,"Glow2.png",0,0 F,0,5142,,0.6 S,0,5142,,0.2 F,0,5142,5342,0,0.6 M,0,5142,10202,248.3779,0,191.3779,480 P,0,5142,52775,A F,0,10002,10202,0.6,0 F,0,11571,11771,0,0.6 M,0,11571,17524,384.8391,0,328.8391,480 F,0,17324,17524,0.6,0 F,0,18857,19057,0,0.6 M,0,18857,24920,-28.31483,0,-81.31483,480 F,0,24720,24920,0.6,0 F,0,26571,26771,0,0.6 M,0,26571,32589,745.3077,0,646.3077,480 F,0,32389,32589,0.6,0 F,0,32999,33199,0,0.6 M,0,32999,38509,149.1674,0,84.16743,480 F,0,38309,38509,0.6,0 F,0,39428,39628,0,0.6 M,0,39428,44431,399.0755,0,321.0755,480 F,0,44231,44431,0.6,0 F,0,46714,46914,0,0.6 M,0,46714,52775,735.635,0,687.635,480 F,0,52575,52775,0.6,0
Sprite,Background,Centre,"Glow2.png",0,0 F,0,5571,,0.6 S,0,5571,,0.2 F,0,5571,5771,0,0.6 M,0,5571,12485,354.3803,0,273.3803,480 P,0,5571,54209,A F,0,12285,12485,0.6,0 F,0,12857,13057,0,0.6 M,0,12857,19732,174.9273,0,106.9273,480 F,0,19532,19732,0.6,0 F,0,20571,20771,0,0.6 M,0,20571,26801,632.305,0,553.305,480 F,0,26601,26801,0.6,0 F,0,26999,27199,0,0.6 M,0,26999,32032,481.1049,0,428.1049,480 F,0,31832,32032,0.6,0 F,0,33428,33628,0,0.6 M,0,33428,38819,680.9973,0,614.9973,480 F,0,38619,38819,0.6,0 F,0,41571,41771,0,0.6 M,0,41571,47070,606.7382,0,542.7382,480 F,0,46870,47070,0.6,0 F,0,48428,48628,0,0.6 M,0,48428,54209,283.2096,0,205.2096,480 F,0,54009,54209,0.6,0
Sprite,Background,Centre,"Glow2.png",0,0 F,0,5999,,0.6 S,0,5999,,0.2 F,0,5999,6199,0,0.6 M,0,5999,11237,156.5276,0,63.52757,480 P,0,5999,55058,A F,0,11037,11237,0.6,0 F,0,13714,13914,0,0.6 M,0,13714,20355,113.0303,0,66.03031,480 F,0,20155,20355,0.6,0 F,0,21000,21200,0,0.6 M,0,21000,27139,70.54355,0,24.54355,480 F,0,26939,27139,0.6,0 F,0,28714,28914,0,0.6 M,0,28714,33978,689.2543,0,643.2543,480 F,0,33778,33978,0.6,0 F,0,34285,34485,0,0.6 M,0,34285,39774,773.0892,0,699.0892,480 F,0,39574,39774,0.6,0 F,0,41999,42199,0,0.6 M,0,41999,48842,211.1371,0,164.1371,480 F,0,48642,48842,0.6,0 F,0,48857,49057,0,0.6 M,0,48857,55058,718.9258,0,624.9258,480 F,0,54858,55058,0.6,0
Sprite,Background,Centre,"Glow2.png",0,0 F,0,6428,,0.6 S,0,6428,,0.2 F,0,6428,6628,0,0.6 M,0,6428,13017,210.9349,0,146.9349,480 P,0,6428,47728,A F,0,12817,13017,0.6,0 F,0,14571,14771,0,0.6 M,0,14571,20831,715.2023,0,666.2023,480 F,0,20631,20831,0.6,0 F,0,24428,24628,0,0.6 M,0,24428,29556,320.7104,0,254.7104,480 F,0,29356,29556,0.6,0 F,0,42428,42628,0,0.6 M,0,42428,47728,487.786,0,439.786,480 F,0,47528,47728,0.6,0
Sprite,Background,Centre,"bg.jpg",320,240 F,0,0,,0 S,0,0,,0.4928131 F,0,10,,0
Sprite,Background,Centre,"blur.jpg",320,240 S,0,0,,0.4928131 F,0,0,4800,0,0.6 F,0,55200,57600,0.6,0
Sprite,Background,Centre,"blur.jpg",320,240 S,0,55200,,0.4928131 F,0,55200,65200,0,0.3 F,0,76500,83700,0.3,0
Sprite,Background,Centre,"blur.jpg",320,240 F,0,38400,,0.4 S,0,38400,40900,0.4928131,0.6406571 F,0,38400,41900,0.4,0
Sprite,Background,Centre,"blur.jpg",320,240 F,0,19200,,0.4 S,0,19200,21700,0.4928131,0.6406571 F,0,19200,22700,0.4,0
Sprite,Background,Centre,"Glow2.png",0,0 F,0,19050,,0.6 S,0,19050,,0.2 F,0,19050,19250,0,0.6 M,0,19050,22637,518.7344,0,427.7343,480 P,0,19050,55635,A F,0,22437,22637,0.6,0 F,0,22800,23000,0,0.6 M,0,22800,26673,228.582,0,161.582,480 F,0,26473,26673,0.6,0 F,0,26800,27000,0,0.6 M,0,26800,31304,771.5342,0,730.5342,480 F,0,31104,31304,0.6,0 F,0,31550,31750,0,0.6 M,0,31550,35564,62.64802,0,-28.35198,480 F,0,35364,35564,0.6,0 F,0,35800,36000,0,0.6 M,0,35800,40215,224.4265,0,182.4265,480 F,0,40015,40215,0.6,0 F,0,40300,40500,0,0.6 M,0,40300,43630,626.1592,0,570.1592,480 F,0,43430,43630,0.6,0 F,0,43800,44000,0,0.6 M,0,43800,47129,90.92579,0,28.92579,480 F,0,46929,47129,0.6,0 F,0,47300,47500,0,0.6 M,0,47300,50941,684.5906,0,600.5906,480 F,0,50741,50941,0.6,0 F,0,51050,51250,0,0.6 M,0,51050,55635,168.0249,0,109.0249,480 F,0,55435,55635,0.6,0
Sprite,Background,Centre,"Glow2.png",0,0 F,0,19300,,0.6 S,0,19300,,0.2 F,0,19300,19500,0,0.6 M,0,19300,22696,401.6588,0,355.6588,480 P,0,19300,56509,A F,0,22496,22696,0.6,0 F,0,23050,23250,0,0.6 M,0,23050,26929,450.6207,0,366.6207,480 F,0,26729,26929,0.6,0 F,0,27050,27250,0,0.6 M,0,27050,32005,763.2393,0,694.2393,480 F,0,31805,32005,0.6,0 F,0,32050,32250,0,0.6 M,0,32050,35776,610.3793,0,526.3793,480 F,0,35576,35776,0.6,0 F,0,36050,36250,0,0.6 M,0,36050,40094,576.9548,0,484.9548,480 F,0,39894,40094,0.6,0 F,0,40550,40750,0,0.6 M,0,40550,44516,562.7041,0,519.7041,480 F,0,44316,44516,0.6,0 F,0,44550,44750,0,0.6 M,0,44550,49006,583.4897,0,515.4897,480 F,0,48806,49006,0.6,0 F,0,49050,49250,0,0.6 M,0,49050,52122,470.7916,0,408.7916,480 F,0,51922,52122,0.6,0 F,0,52300,52500,0,0.6 M,0,52300,56509,419.0179,0,350.0179,480 F,0,56309,56509,0.6,0
Sprite,Background,Centre,"Glow2.png",0,0 F,0,19550,,0.6 S,0,19550,,0.2 F,0,19550,19750,0,0.6 M,0,19550,23050,731.9354,0,674.9354,480 P,0,19550,56364,A F,0,22850,23050,0.6,0 F,0,23300,23500,0,0.6 M,0,23300,26441,606.2878,0,565.2878,480 F,0,26241,26441,0.6,0 F,0,26550,26750,0,0.6 M,0,26550,30938,547.3751,0,498.3751,480 F,0,30738,30938,0.6,0 F,0,31050,31250,0,0.6 M,0,31050,34089,248.9063,0,178.9063,480 F,0,33889,34089,0.6,0 F,0,34300,34500,0,0.6 M,0,34300,38836,-28.94005,0,-97.94005,480 F,0,38636,38836,0.6,0 F,0,39050,39250,0,0.6 M,0,39050,43344,314.0406,0,232.0406,480 F,0,43144,43344,0.6,0 F,0,43550,43750,0,0.6 M,0,43550,46883,7.595651,0,-50.40435,480 F,0,46683,46883,0.6,0 F,0,47050,47250,0,0.6 M,0,47050,51420,235.2855,0,159.2855,480 F,0,51220,51420,0.6,0 F,0,51550,51750,0,0.6 M,0,51550,56364,453.8587,0,395.8587,480 F,0,56164,56364,0.6,0
Sprite,Background,Centre,"Glow2.png",0,0 F,0,19800,,0.6 S,0,19800,,0.2 F,0,19800,20000,0,0.6 M,0,19800,23559,351.7916,0,264.7916,480 P,0,19800,57467,A F,0,23359,23559,0.6,0 F,0,23800,24000,0,0.6 M,0,23800,28368,97.66936,0,56.66935,480 F,0,28168,28368,0.6,0 F,0,28550,28750,0,0.6 M,0,28550,31563,485.0666,0,412.0666,480 F,0,31363,31563,0.6,0 F,0,31800,32000,0,0.6 M,0,31800,36132,277.5383,0,228.5383,480 F,0,35932,36132,0.6,0 F,0,36300,36500,0,0.6 M,0,36300,40171,739.5536,0,682.5536,480 F,0,39971,40171,0.6,0 F,0,40800,41000,0,0.6 M,0,40800,44896,4.244221,0,-67.75578,480 F,0,44696,44896,0.6,0 F,0,45050,45250,0,0.6 M,0,45050,48454,542.0757,0,472.0757,480 F,0,48254,48454,0.6,0 F,0,48550,48750,0,0.6 M,0,48550,52486,256.6143,0,178.6143,480 F,0,52286,52486,0.6,0 F,0,52550,52750,0,0.6 M,0,52550,57467,752.2804,0,654.2804,480 F,0,57267,57467,0.6,0
Sprite,Background,Centre,"Glow2.png",0,0 F,0,20050,,0.6 S,0,20050,,0.2 F,0,20050,20250,0,0.6 M,0,20050,24440,-51.14286,0,-91.14285,480 P,0,20050,53689,A F,0,24240,24440,0.6,0 F,0,24550,24750,0,0.6 M,0,24550,28161,462.0931,0,405.0931,480 F,0,27961,28161,0.6,0 F,0,28300,28500,0,0.6 M,0,28300,31925,87.36671,0,10.36671,480 F,0,31725,31925,0.6,0 F,0,32300,32500,0,0.6 M,0,32300,36443,421.4701,0,333.4701,480 F,0,36243,36443,0.6,0 F,0,36550,36750,0,0.6 M,0,36550,40151,41.69514,0,-23.30486,480 F,0,39951,40151,0.6,0 F,0,41050,41250,0,0.6 M,0,41050,44867,331.4562,0,257.4562,480 F,0,44667,44867,0.6,0 F,0,45300,45500,0,0.6 M,0,45300,50177,539.3459,0,494.3459,480 F,0,49977,50177,0.6,0 F,0,50300,50500,0,0.6 M,0,50300,53689,463.481,0,387.481,480 F,0,53489,53689,0.6,0
Sprite,Background,Centre,"Glow2.png",0,0 F,0,20300,,0.6 S,0,20300,,0.2 F,0,20300,20500,0,0.6 M,0,20300,25107,28.42405,0,-61.57595,480 P,0,20300,55649,A F,0,24907,25107,0.6,0 F,0,25300,25500,0,0.6 M,0,25300,29632,562.3591,0,470.3591,480 F,0,29432,29632,0.6,0 F,0,29800,30000,0,0.6 M,0,29800,33927,510.9005,0,426.9005,480 F,0,33727,33927,0.6,0 F,0,34050,34250,0,0.6 M,0,34050,37287,694.3869,0,627.3869,480 F,0,37087,37287,0.6,0 F,0,37300,37500,0,0.6 M,0,37300,42132,181.0715,0,129.0715,480 F,0,41932,42132,0.6,0 F,0,42300,42500,0,0.6 M,0,42300,46816,92.7056,0,45.7056,480 F,0,46616,46816,0.6,0 F,0,47550,47750,0,0.6 M,0,47550,51016,192.9209,0,100.9209,480 F,0,50816,51016,0.6,0 F,0,51300,51500,0,0.6 M,0,51300,55649,128.8783,0,86.87825,480 F,0,55449,55649,0.6,0
Sprite,Background,Centre,"Glow2.png",0,0 F,0,20550,,0.6 S,0,20550,,0.2 F,0,20550,20750,0,0.6 M,0,20550,25066,329.6803,0,280.6803,480 P,0,20550,55337,A F,0,24866,25066,0.6,0 F,0,25550,25750,0,0.6 M,0,25550,29733,398.9117,0,357.9117,480 F,0,29533,29733,0.6,0 F,0,30050,30250,0,0.6 M,0,30050,33766,231.8075,0,169.8075,480 F,0,33566,33766,0.6,0 F,0,33800,34000,0,0.6 M,0,33800,37248,212.7499,0,170.7499,480 F,0,37048,37248,0.6,0 F,0,37550,37750,0,0.6 M,0,37550,42318,-56.92776,0,-131.9278,480 F,0,42118,42318,0.6,0 F,0,42550,42750,0,0.6 M,0,42550,47202,714.6575,0,654.6575,480 F,0,47002,47202,0.6,0 F,0,47800,48000,0,0.6 M,0,47800,50886,-61.10122,0,-107.1012,480 F,0,50686,50886,0.6,0 F,0,51800,52000,0,0.6 M,0,51800,55337,165.9661,0,114.9661,480 F,0,55137,55337,0.6,0
Sprite,Background,Centre,"Glow2.png",0,0 F,0,20800,,0.6 S,0,20800,,0.2 F,0,20800,21000,0,0.6 M,0,20800,24968,349.0753,0,309.0753,480 P,0,20800,57071,A F,0,24768,24968,0.6,0 F,0,25050,25250,0,0.6 M,0,25050,30046,6.288832,0,-71.71117,480 F,0,29846,30046,0.6,0 F,0,30300,30500,0,0.6 M,0,30300,34042,644.583,0,554.583,480 F,0,33842,34042,0.6,0 F,0,34550,34750,0,0.6 M,0,34550,39337,514.1021,0,418.1021,480 F,0,39137,39337,0.6,0 F,0,39550,39750,0,0.6 M,0,39550,43698,313.0991,0,246.0991,480 F,0,43498,43698,0.6,0 F,0,44050,44250,0,0.6 M,0,44050,47563,456.0272,0,389.0272,480 F,0,47363,47563,0.6,0 F,0,48050,48250,0,0.6 M,0,48050,52943,117.4246,0,58.42457,480 F,0,52743,52943,0.6,0 F,0,53050,53250,0,0.6 M,0,53050,57071,156.4264,0,72.42638,480 F,0,56871,57071,0.6,0
Sprite,Background,Centre,"Glow2.png",0,0 F,0,21050,,0.6 S,0,21050,,0.2 F,0,21050,21250,0,0.6 M,0,21050,26037,312.2815,0,244.2815,480 P,0,21050,55721,A F,0,25837,26037,0.6,0 F,0,26050,26250,0,0.6 M,0,26050,30527,114.1505,0,51.15048,480 F,0,30327,30527,0.6,0 F,0,30550,30750,0,0.6 M,0,30550,34606,501.9372,0,457.9372,480 F,0,34406,34606,0.6,0 F,0,34800,35000,0,0.6 M,0,34800,38194,-70.18788,0,-107.1879,480 F,0,37994,38194,0.6,0 F,0,38300,38500,0,0.6 M,0,38300,42945,373.032,0,305.032,480 F,0,42745,42945,0.6,0 F,0,43050,43250,0,0.6 M,0,43050,48037,367.7878,0,294.7878,480 F,0,47837,48037,0.6,0 F,0,48300,48500,0,0.6 M,0,48300,51689,758.4027,0,697.4027,480 F,0,51489,51689,0.6,0 F,0,52050,52250,0,0.6 M,0,52050,55721,684.0413,0,642.0413,480 F,0,55521,55721,0.6,0
Sprite,Background,Centre,"Glow2.png",0,0 F,0,21300,,0.6 S,0,21300,,0.2 F,0,21300,21500,0,0.6 M,0,21300,25392,243.6381,0,176.6381,480 P,0,21300,55842,A F,0,25192,25392,0.6,0 F,0,25800,26000,0,0.6 M,0,25800,28818,13.98345,0,-70.01656,480 F,0,28618,28818,0.6,0 F,0,29050,29250,0,0.6 M,0,29050,33680,692.8975,0,634.8975,480 F,0,33480,33680,0.6,0 F,0,35050,35250,0,0.6 M,0,35050,38249,739.7057,0,698.7057,480 F,0,38049,38249,0.6,0 F,0,38550,38750,0,0.6 M,0,38550,42921,273.9356,0,203.9356,480 F,0,42721,42921,0.6,0 F,0,43300,43500,0,0.6 M,0,43300,46741,697.6431,0,630.6431,480 F,0,46541,46741,0.6,0 F,0,46800,47000,0,0.6 M,0,46800,51218,351.0841,0,279.0841,480 F,0,51018,51218,0.6,0 F,0,52800,53000,0,0.6 M,0,52800,55842,495.0194,0,453.0194,480 F,0,55642,55842,0.6,0
Sprite,Background,Centre,"Glow2.png",0,0 F,0,21550,,0.6 S,0,21550,,0.2 F,0,21550,21750,0,0.6 M,0,21550,25139,130.9897,0,63.98969,480 P,0,21550,56353,A F,0,24939,25139,0.6,0 F,0,26300,26500,0,0.6 M,0,26300,30108,152.0029,0,54.00285,480 F,0,29908,30108,0.6,0 F,0,30800,31000,0,0.6 M,0,30800,35281,754.1432,0,710.1432,480 F,0,35081,35281,0.6,0 F,0,35300,35500,0,0.6 M,0,35300,38950,44.45847,0,3.458465,480 F,0,38750,38950,0.6,0 F,0,39300,39500,0,0.6 M,0,39300,43511,688.4254,0,597.4254,480 F,0,43311,43511,0.6,0 F,0,44300,44500,0,0.6 M,0,44300,48221,165.261,0,126.261,480 F,0,48021,48221,0.6,0 F,0,48800,49000,0,0.6 M,0,48800,51927,-71.86989,0,-130.8699,480 F,0,51727,51927,0.6,0 F,0,53300,53500,0,0.6 M,0,53300,56353,358.0398,0,285.0398,480 F,0,56153,56353,0.6,0
Sprite,Background,Centre,"Glow2.png",0,0 F,0,21800,,0.6 S,0,21800,,0.2 F,0,21800,22000,0,0.6 M,0,21800,24927,512.4593,0,419.4593,480 P,0,21800,57517,A F,0,24727,24927,0.6,0 F,0,27300,27500,0,0.6 M,0,27300,30760,34.67855,0,-47.32145,480 F,0,30560,30760,0.6,0 F,0,31300,31500,0,0.6 M,0,31300,35447,559.7356,0,503.7356,480 F,0,35247,35447,0.6,0 F,0,35550,35750,0,0.6 M,0,35550,39945,626.6677,0,564.6677,480 F,0,39745,39945,0.6,0 F,0,40050,40250,0,0.6 M,0,40050,43638,590.2085,0,522.2085,480 F,0,43438,43638,0.6,0 F,0,44800,45000,0,0.6 M,0,44800,49154,468.5884,0,398.5884,480 F,0,48954,49154,0.6,0 F,0,49300,49500,0,0.6 M,0,49300,52984,90.33067,0,37.33067,480 F,0,52784,52984,0.6,0 F,0,53550,53750,0,0.6 M,0,53550,57517,85.30117,0,18.30117,480 F,0,57317,57517,0.6,0
Sprite,Background,Centre,"Glow2.png",0,0 F,0,22050,,0.6 S,0,22050,,0.2 F,0,22050,22250,0,0.6 M,0,22050,26080,286.3778,0,196.3778,480 P,0,22050,53474,A F,0,25880,26080,0.6,0 F,0,27550,27750,0,0.6 M,0,27550,30878,137.1977,0,88.19768,480 F,0,30678,30878,0.6,0 F,0,32550,32750,0,0.6 M,0,32550,36747,663.9595,0,600.9595,480 F,0,36547,36747,0.6,0 F,0,36800,37000,0,0.6 M,0,36800,41085,310.0744,0,231.0744,480 F,0,40885,41085,0.6,0 F,0,41300,41500,0,0.6 M,0,41300,46200,740.2781,0,703.2781,480 F,0,46000,46200,0.6,0 F,0,46300,46500,0,0.6 M,0,46300,49473,225.5347,0,179.5347,480 F,0,49273,49473,0.6,0 F,0,49550,49750,0,0.6 M,0,49550,53474,344.0297,0,295.0297,480 F,0,53274,53474,0.6,0
Sprite,Background,Centre,"Glow2.png",0,0 F,0,22300,,0.6 S,0,22300,,0.2 F,0,22300,22500,0,0.6 M,0,22300,26621,613.2173,0,543.2173,480 P,0,22300,54751,A F,0,26421,26621,0.6,0 F,0,27800,28000,0,0.6 M,0,27800,30921,-15.18688,0,-95.18688,480 F,0,30721,30921,0.6,0 F,0,32800,33000,0,0.6 M,0,32800,36192,738.0235,0,649.0235,480 F,0,35992,36192,0.6,0 F,0,37050,37250,0,0.6 M,0,37050,40701,631.9573,0,544.9573,480 F,0,40501,40701,0.6,0 F,0,41550,41750,0,0.6 M,0,41550,44810,721.7702,0,649.7702,480 F,0,44610,44810,0.6,0 F,0,45550,45750,0,0.6 M,0,45550,48922,596.7648,0,500.7647,480 F,0,48722,48922,0.6,0 F,0,49800,50000,0,0.6 M,0,49800,54751,139.6458,0,81.64577,480 F,0,54551,54751,0.6,0
Sprite,Background,Centre,"Glow2.png",0,0 F,0,22550,,0.6 S,0,22550,,0.2 F,0,22550,22750,0,0.6 M,0,22550,27220,446.4537,0,380.4537,480 P,0,22550,54099,A F,0,27020,27220,0.6,0 F,0,28050,28250,0,0.6 M,0,28050,31912,33.616,0,-63.384,480 F,0,31712,31912,0.6,0 F,0,33050,33250,0,0.6 M,0,33050,36491,465.467,0,378.467,480 F,0,36291,36491,0.6,0 F,0,37800,38000,0,0.6 M,0,37800,42346,471.1094,0,415.1094,480 F,0,42146,42346,0.6,0 F,0,42800,43000,0,0.6 M,0,42800,47039,374.2864,0,291.2864,480 F,0,46839,47039,0.6,0 F,0,50050,50250,0,0.6 M,0,50050,54099,662.3384,0,569.3384,480 F,0,53899,54099,0.6,0
Sprite,Background,Centre,"Glow2.png",0,0 F,0,23550,,0.6 S,0,23550,,0.2 F,0,23550,23750,0,0.6 M,0,23550,28141,528.8766,0,481.8766,480 P,0,23550,54658,A F,0,27941,28141,0.6,0 F,0,28800,29000,0,0.6 M,0,28800,33428,19.44546,0,-70.55454,480 F,0,33228,33428,0.6,0 F,0,33550,33750,0,0.6 M,0,33550,37970,-13.60278,0,-108.6028,480 F,0,37770,37970,0.6,0 F,0,38050,38250,0,0.6 M,0,38050,41731,251.5732,0,156.5732,480 F,0,41531,41731,0.6,0 F,0,41800,42000,0,0.6 M,0,41800,45841,152.7435,0,63.74347,480 F,0,45641,45841,0.6,0 F,0,46050,46250,0,0.6 M,0,46050,49959,699.5167,0,663.5167,480 F,0,49759,49959,0.6,0 F,0,50550,50750,0,0.6 M,0,50550,54658,274.5833,0,182.5832,480 F,0,54458,54658,0.6,0
Sprite,Background,Centre,"Glow2.png",0,0 F,0,24050,,0.6 S,0,24050,,0.2 F,0,24050,24250,0,0.6 M,0,24050,28384,524.0051,0,452.0051,480 P,0,24050,55492,A F,0,28184,28384,0.6,0 F,0,29300,29500,0,0.6 M,0,29300,33018,345.5383,0,268.5383,480 F,0,32818,33018,0.6,0 F,0,33300,33500,0,0.6 M,0,33300,37782,167.115,0,104.115,480 F,0,37582,37782,0.6,0 F,0,38800,39000,0,0.6 M,0,38800,42580,133.3031,0,80.30305,480 F,0,42380,42580,0.6,0 F,0,45800,46000,0,0.6 M,0,45800,50532,740.061,0,677.061,480 F,0,50332,50532,0.6,0 F,0,50800,51000,0,0.6 M,0,50800,55492,42.45481,0,-0.545186,480 F,0,55292,55492,0.6,0
Sprite,Background,Centre,"Glow2.png",0,0 F,0,24300,,0.6 S,0,24300,,0.2 F,0,24300,24500,0,0.6 M,0,24300,29003,-4.153841,0,-55.15384,480 P,0,24300,50513,A F,0,28803,29003,0.6,0 F,0,29550,29750,0,0.6 M,0,29550,33503,133.2609,0,92.26088,480 F,0,33303,33503,0.6,0 F,0,39800,40000,0,0.6 M,0,39800,43627,776.7582,0,721.7582,480 F,0,43427,43627,0.6,0 F,0,46550,46750,0,0.6 M,0,46550,50513,231.8048,0,191.8048,480 F,0,50313,50513,0.6,0
Sprite,Background,Centre,"Glow2.png",0,0 F,0,24800,,0.6 S,0,24800,,0.2 F,0,24800,25000,0,0.6 M,0,24800,28178,254.7683,0,174.7683,480 P,0,24800,46102,A F,0,27978,28178,0.6,0 F,0,42050,42250,0,0.6 M,0,42050,46102,161.1619,0,118.1619,480 F,0,45902,46102,0.6,0
//Storyboard Layer 1 (Fail)
//Storyboard Layer 2 (Pass)
//Storyboard Layer 3 (Foreground)
Sprite,Foreground,Centre,"Glow2.png",0,0 C,0,0,,239,63,107 M,0,0,75,529,104,505.367,101.6577 F,2,0,500,1,0 S,2,0,500,4,0.8 P,0,0,500,A M,0,75,150,505.367,101.6577,481.6603,100.2583 M,0,150,225,481.6603,100.2583,457.9147,100.1344 M,0,225,300,457.9147,100.1344,434.2361,101.853
Sprite,Foreground,Centre,"Glow2.png",320,114 C,0,600,,239,63,107 F,2,600,800,1,0 S,2,600,800,4,0.8 P,0,600,800,A
Sprite,Foreground,Centre,"Glow2.png",0,0 C,0,900,,239,63,107 M,0,900,975,268,215,262.93,238.1908 F,2,900,1250,1,0 S,2,900,1250,4,0.8 P,0,900,1250,A M,0,975,1050,262.93,238.1908,259.5672,261.6871
Sprite,Foreground,Centre,"Glow2.png",391,218 C,0,1350,,239,63,107 F,2,1350,1550,1,0 S,2,1350,1550,4,0.8 P,0,1350,1550,A
Sprite,Foreground,Centre,"Glow2.png",0,0 C,0,1500,,237,221,203 M,0,1500,1575,391,218,394.2462,253.4768 F,2,1500,2000,1,0 S,2,1500,2000,4,0.8 P,0,1500,2000,A M,0,1575,1650,394.2462,253.4768,397.4925,288.9536 M,0,1650,1725,397.4925,288.9536,400.7387,324.4304 M,0,1725,1800,400.7387,324.4304,403.985,359.9072
Sprite,Foreground,Centre,"Glow2.png",290,366 C,0,2100,,237,221,203 F,2,2100,2300,1,0 S,2,2100,2300,4,0.8 P,0,2100,2300,A
Sprite,Foreground,Centre,"Glow2.png",0,0 C,0,2400,,223,133,87 M,0,2400,2475,218,277,194.701,272.5522 F,2,2400,2900,1,0 S,2,2400,2900,4,0.8 P,0,2400,2900,A M,0,2475,2550,194.701,272.5522,171.0446,270.9799 M,0,2550,2625,171.0446,270.9799,147.3794,272.5052 M,0,2625,2700,147.3794,272.5052,124.1066,277.1046
Sprite,Foreground,Centre,"Glow2.png",170,380 C,0,3000,,223,133,87 F,2,3000,3200,1,0 S,2,3000,3200,4,0.8 P,0,3000,3200,A
Sprite,Foreground,Centre,"Glow2.png",0,0 C,0,3300,,223,133,87 M,0,3300,3375,218,277,219.2698,253.3065 F,2,3300,3650,1,0 S,2,3300,3650,4,0.8 P,0,3300,3650,A M,0,3375,3450,219.2698,253.3065,218.0375,229.6194
Sprite,Foreground,Centre,"Glow2.png",0,0 C,0,3600,,223,133,87 M,0,3600,3675,212,169,235.7364,168.1954 F,2,3600,3950,1,0 S,2,3600,3950,4,0.8 P,0,3600,3950,A M,0,3675,3750,235.7364,168.1954,259.4727,167.3907
Sprite,Foreground,Centre,"Glow2.png",0,0 C,0,3900,,239,63,107 M,0,3900,3975,216,88,251.5702,89.97612 F,2,3900,4400,1,0 S,2,3900,4400,4,0.8 P,0,3900,4400,A M,0,3975,4050,251.5702,89.97612,287.1403,91.95224 M,0,4050,4125,287.1403,91.95224,322.7104,93.92836 M,0,4125,4200,322.7104,93.92836,358.2806,95.90448
Sprite,Foreground,Centre,"Glow2.png",359,96 C,0,4500,,239,63,107 F,2,4500,4700,1,0 S,2,4500,4700,4,0.8 P,0,4500,4700,A
Sprite,Foreground,Centre,"Glow2.png",0,0 C,0,4800,,237,221,203 M,0,4800,4875,472,110,466.6483,133.1321 F,2,4800,5300,1,0 S,2,4800,5300,4,0.8 P,0,4800,5300,A M,0,4875,4950,466.6483,133.1321,463.12,156.613 M,0,4950,5025,463.12,156.613,461.2173,180.2824 M,0,5025,5100,461.2173,180.2824,460.748,204.0246
Sprite,Foreground,Centre,"Glow2.png",468,318 C,0,5400,,237,221,203 F,2,5400,5600,1,0 S,2,5400,5600,4,0.8 P,0,5400,5600,A
Sprite,Foreground,Centre,"Glow2.png",0,0 C,0,5700,,237,221,203 M,0,5700,5775,362,275,338.3055,276.6229 F,2,5700,6050,1,0 S,2,5700,6050,4,0.8 P,0,5700,6050,A M,0,5775,5850,338.3055,276.6229,314.611,278.2458
Sprite,Foreground,Centre,"Glow2.png",338,397 C,0,6150,,237,221,203 F,2,6150,6350,1,0 S,2,6150,6350,4,0.8 P,0,6150,6350,A
Sprite,Foreground,Centre,"Glow2.png",0,0 C,0,6300,,223,133,87 M,0,6300,6375,338,397,302.4502,394.6861 F,2,6300,6800,1,0 S,2,6300,6800,4,0.8 P,0,6300,6800,A M,0,6375,6450,302.4502,394.6861,266.9005,392.3722 M,0,6450,6525,266.9005,392.3722,231.3507,390.0583 M,0,6525,6600,231.3507,390.0583,195.8009,387.7444
Sprite,Foreground,Centre,"Glow2.png",125,298 C,0,6900,,223,133,87 F,2,6900,7100,1,0 S,2,6900,7100,4,0.8 P,0,6900,7100,A
Sprite,Foreground,Centre,"Glow2.png",0,0 C,0,7200,,239,63,107 M,0,7200,7275,209,219,212.6744,195.5496 F,2,7200,7700,1,0 S,2,7200,7700,4,0.8 P,0,7200,7700,A M,0,7275,7350,212.6744,195.5496,213.7966,171.8364 M,0,7350,7425,213.7966,171.8364,212.7086,148.1189 M,0,7425,7500,212.7086,148.1189,209.7455,124.56
Sprite,Foreground,Centre,"Glow2.png",105,77 C,0,7800,,239,63,107 F,2,7800,8000,1,0 S,2,7800,8000,4,0.8 P,0,7800,8000,A
Sprite,Foreground,Centre,"Glow2.png",0,0 C,0,8100,,239,63,107 M,0,8100,8175,209,124,232.6387,126.1422 F,2,8100,8450,1,0 S,2,8100,8450,4,0.8 P,0,8100,8450,A M,0,8175,8250,232.6387,126.1422,256.368,126.1894
Sprite,Foreground,Centre,"Glow2.png",0,0 C,0,8400,,239,63,107 M,0,8400,8475,308,90,331.7352,89.16228 F,2,8400,8750,1,0 S,2,8400,8750,4,0.8 P,0,8400,8750,A M,0,8475,8550,331.7352,89.16228,355.4705,88.32457
Sprite,Foreground,Centre,"Glow2.png",0,0 C,0,8700,,237,221,203 M,0,8700,8775,432,88,426.4213,123.1611 F,2,8700,9200,1,0 S,2,8700,9200,4,0.8 P,0,8700,9200,A M,0,8775,8850,426.4213,123.1611,425.1573,158.7435 M,0,8850,8925,425.1573,158.7435,427.791,194.2551 M,0,8925,9000,427.791,194.2551,433.8149,229.3551
Sprite,Foreground,Centre,"Glow2.png",525,297 C,0,9300,,237,221,203 F,2,9300,9500,1,0 S,2,9300,9500,4,0.8 P,0,9300,9500,A
Sprite,Foreground,Centre,"Glow2.png",525,297 C,0,9450,,237,221,203 F,2,9450,9650,1,0 S,2,9450,9650,4,0.8 P,0,9450,9650,A
Sprite,Foreground,Centre,"Glow2.png",0,0 C,0,9600,,223,133,87 M,0,9600,9675,525,297,528.2172,320.5141 F,2,9600,10100,1,0 S,2,9600,10100,4,0.8 P,0,9600,10100,A M,0,9675,9750,528.2172,320.5141,528.4399,344.2478 M,0,9750,9825,528.4399,344.2478,525.8825,367.8471 M,0,9825,9900,525.8825,367.8471,520.866,391.0513
Sprite,Foreground,Centre,"Glow2.png",0,0 C,0,10200,,223,133,87 M,0,10200,10275,419,341,395.3161,339.2292 F,2,10200,10700,1,0 S,2,10200,10700,4,0.8 P,0,10200,10700,A M,0,10275,10350,395.3161,339.2292,371.6322,337.4585 M,0,10350,10425,371.6322,337.4585,347.9483,335.6877 M,0,10425,10500,347.9483,335.6877,324.2644,333.917
Sprite,Foreground,Centre,"Glow2.png",324,333 C,0,10650,,223,133,87 F,2,10650,10850,1,0 S,2,10650,10850,4,0.8 P,0,10650,10850,A
Sprite,Foreground,Centre,"Glow2.png",216,372 C,0,10950,,223,133,87 F,2,10950,11150,1,0 S,2,10950,11150,4,0.8 P,0,10950,11150,A
Sprite,Foreground,Centre,"Glow2.png",0,0 C,0,11100,,239,63,107 M,0,11100,11175,216,372,213.2677,336.4799 F,2,11100,11600,1,0 S,2,11100,11600,4,0.8 P,0,11100,11600,A M,0,11175,11250,213.2677,336.4799,210.5354,300.9599 M,0,11250,11325,210.5354,300.9599,207.8031,265.4398 M,0,11325,11400,207.8031,265.4398,205.0708,229.9197
Sprite,Foreground,Centre,"Glow2.png",297,162 C,0,11700,,239,63,107 F,2,11700,11900,1,0 S,2,11700,11900,4,0.8 P,0,11700,11900,A
Sprite,Foreground,Centre,"Glow2.png",0,0 C,0,12000,,237,221,203 M,0,12000,12075,194,112,170.6505,115.7453 F,2,12000,12500,1,0 S,2,12000,12500,4,0.8 P,0,12000,12500,A M,0,12075,12150,170.6505,115.7453,148.7413,124.5511 M,0,12150,12225,148.7413,124.5511,129.518,138.3052 M,0,12225,12300,129.518,138.3052,114.0724,156.2458
Sprite,Foreground,Centre,"Glow2.png",205,229 C,0,12600,,237,221,203 F,2,12600,12800,1,0 S,2,12600,12800,4,0.8 P,0,12600,12800,A
Sprite,Foreground,Centre,"Glow2.png",0,0 C,0,12900,,237,221,203 M,0,12900,12975,297,162,320.5938,159.3888 F,2,12900,13250,1,0 S,2,12900,13250,4,0.8 P,0,12900,13250,A M,0,12975,13050,320.5938,159.3888,344.3163,158.7021
Sprite,Foreground,Centre,"Glow2.png",0,0 C,0,13200,,237,221,203 M,0,13200,13275,401,162,399.3546,185.6929 F,2,13200,13550,1,0 S,2,13200,13550,4,0.8 P,0,13200,13550,A M,0,13275,13350,399.3546,185.6929,397.7093,209.3859
Sprite,Foreground,Centre,"Glow2.png",0,0 C,0,13500,,223,133,87 M,0,13500,13575,477,181,480.2031,216.4807 F,2,13500,14000,1,0 S,2,13500,14000,4,0.8 P,0,13500,14000,A M,0,13575,13650,480.2031,216.4807,483.4063,251.9614 M,0,13650,13725,483.4063,251.9614,486.6093,287.4421 M,0,13725,13800,486.6093,287.4421,489.8125,322.9229
Sprite,Foreground,Centre,"Glow2.png",489,322 C,0,14100,,223,133,87 F,2,14100,14300,1,0 S,2,14100,14300,4,0.8 P,0,14100,14300,A
Sprite,Foreground,Centre,"Glow2.png",0,0 C,0,14400,,239,63,107 M,0,14400,14475,375,315,351.398,312.4386 F,2,14400,14900,1,0 S,2,14400,14900,4,0.8 P,0,14400,14900,A M,0,14475,14550,351.398,312.4386,327.659,312.1707 M,0,14550,14625,327.659,312.1707,304.0013,314.1602 M,0,14625,14700,304.0013,314.1602,280.6222,318.2967
Sprite,Foreground,Centre,"Glow2.png",0,0 C,0,15000,,239,63,107 M,0,15000,15075,168,344,171.2884,320.481 F,2,15000,15500,1,0 S,2,15000,15500,4,0.8 P,0,15000,15500,A M,0,15075,15150,171.2884,320.481,173.4682,296.8335 M,0,15150,15225,173.4682,296.8335,174.5416,273.1099 M,0,15225,15300,174.5416,273.1099,174.5171,249.3621
Sprite,Foreground,Centre,"Glow2.png",0,0 C,0,15450,,239,63,107 M,0,15450,15525,142,201,138.7116,177.481 F,2,15450,15950,1,0 S,2,15450,15950,4,0.8 P,0,15450,15950,A M,0,15525,15600,138.7116,177.481,136.5318,153.8335 M,0,15600,15675,136.5318,153.8335,135.4584,130.1099 M,0,15675,15750,135.4584,130.1099,135.4829,106.3621
Sprite,Foreground,Centre,"Glow2.png",0,0 C,0,15900,,237,221,203 M,0,15900,15975,212,100,247.5585,102.1734 F,2,15900,16400,1,0 S,2,15900,16400,4,0.8 P,0,15900,16400,A M,0,15975,16050,247.5585,102.1734,283.1365,103.9987 M,0,16050,16125,283.1365,103.9987,318.7306,105.4758 M,0,16125,16200,318.7306,105.4758,354.3373,106.6122
Sprite,Foreground,Centre,"Glow2.png",428,193 C,0,16500,,237,221,203 F,2,16500,16700,1,0 S,2,16500,16700,4,0.8 P,0,16500,16700,A
Sprite,Foreground,Centre,"Glow2.png",0,0 C,0,16800,,223,133,87 M,0,16800,16875,365,288,346.3723,273.4117 F,2,16800,17300,1,0 S,2,16800,17300,4,0.8 P,0,16800,17300,A M,0,16875,16950,346.3723,273.4117,331.2286,255.2757 M,0,16950,17025,331.2286,255.2757,320.5107,234.2008 M,0,17025,17100,320.5107,234.2008,314.715,211.243
Sprite,Foreground,Centre,"Glow2.png",354,106 C,0,17400,,223,133,87 F,2,17400,17600,1,0 S,2,17400,17600,4,0.8 P,0,17400,17600,A
Sprite,Foreground,Centre,"Glow2.png",0,0 C,0,17700,,223,133,87 M,0,17700,17775,467,97,490.5882,97.98989 F,2,17700,18050,1,0 S,2,17700,18050,4,0.8 P,0,17700,18050,A M,0,17775,17850,490.5882,97.98989,513.0577,105.07
Sprite,Foreground,Centre,"Glow2.png",0,0 C,0,18000,,223,133,87 M,0,18000,18075,551,147,549.7517,170.7172 F,2,18000,18350,1,0 S,2,18000,18350,4,0.8 P,0,18000,18350,A M,0,18075,18150,549.7517,170.7172,548.5034,194.4343
Sprite,Foreground,Centre,"Glow2.png",0,0 C,0,18300,,239,63,107 M,0,18300,18375,463,196,467.3994,231.3465 F,2,18300,18800,1,0 S,2,18300,18800,4,0.8 P,0,18300,18800,A M,0,18375,18450,467.3994,231.3465,469.8307,266.8815 M,0,18450,18525,469.8307,266.8815,470.305,302.4964 M,0,18525,18600,470.305,302.4964,468.7398,338.0803
Sprite,Foreground,Centre,"Glow2.png",361,336 C,0,18900,,239,63,107 F,2,18900,19100,1,0 S,2,18900,19100,4,0.8 P,0,18900,19100,A
Sprite,Foreground,Centre,"Glow2.png",361,336 C,0,19050,,239,63,107 F,2,19050,19250,1,0 S,2,19050,19250,4,0.8 P,0,19050,19250,A
Sprite,Foreground,Centre,"Glow2.png",0,0 C,0,19200,,237,221,203 M,0,19200,19275,361,336,335.5822,341.9564 F,2,19200,19700,1,0 S,2,19200,19700,4,0.8 P,0,19200,19700,A M,0,19275,19350,335.5822,341.9564,309.5961,344.4353 M,0,19350,19425,309.5961,344.4353,283.5168,343.3005 M,0,19425,19500,283.5168,343.3005,257.8235,338.6762
Sprite,Foreground,Centre,"Glow2.png",137,304 C,0,19800,,237,221,203 F,2,19800,20000,1,0 S,2,19800,20000,4,0.8 P,0,19800,20000,A
Sprite,Foreground,Centre,"Glow2.png",0,0 C,0,20100,,237,221,203 M,0,20100,20175,225,215,251.0843,213.8556 F,2,20100,20450,1,0 S,2,20100,20450,4,0.8 P,0,20100,20450,A M,0,20175,20250,251.0843,213.8556,277.1423,215.4248
Sprite,Foreground,Centre,"Glow2.png",187,107 C,0,20550,,237,221,203 F,2,20550,20750,1,0 S,2,20550,20750,4,0.8 P,0,20550,20750,A
Sprite,Foreground,Centre,"Glow2.png",0,0 C,0,20700,,223,133,87 M,0,20700,20775,187,107,222.6243,106.9415 F,2,20700,21200,1,0 S,2,20700,21200,4,0.8 P,0,20700,21200,A M,0,20775,20850,222.6243,106.9415,258.2422,107.6191 M,0,20850,20925,258.2422,107.6191,293.8395,109.0088 M,0,20925,21000,293.8395,109.0088,329.4033,111.088
Sprite,Foreground,Centre,"Glow2.png",452,136 C,0,21300,,223,133,87 F,2,21300,21500,1,0 S,2,21300,21500,4,0.8 P,0,21300,21500,A
Sprite,Foreground,Centre,"Glow2.png",0,0 C,0,21600,,239,63,107 M,0,21600,21675,540,224,519.6414,240.2865 F,2,21600,22100,1,0 S,2,21600,22100,4,0.8 P,0,21600,22100,A M,0,21675,21750,519.6414,240.2865,496.4467,252.1664 M,0,21750,21825,496.4467,252.1664,471.3539,259.1637 M,0,21825,21900,471.3539,259.1637,445.3763,260.9993
Sprite,Foreground,Centre,"Glow2.png",0,0 C,0,22200,,239,63,107 M,0,22200,22275,320,243,322.7479,268.9801 F,2,22200,22700,1,0 S,2,22200,22700,4,0.8 P,0,22200,22700,A M,0,22275,22350,322.7479,268.9801,325.4958,294.9601 M,0,22350,22425,325.4958,294.9601,328.2437,320.9402 M,0,22425,22500,328.2437,320.9402,330.9916,346.9203
Sprite,Foreground,Centre,"Glow2.png",338,409 C,0,22650,,239,63,107 F,2,22650,22850,1,0 S,2,22650,22850,4,0.8 P,0,22650,22850,A
Sprite,Foreground,Centre,"Glow2.png",0,0 C,0,22800,,239,63,107 M,0,22800,22875,338,409,311.8838,409.6783 F,2,22800,23150,1,0 S,2,22800,23150,4,0.8 P,0,22800,23150,A M,0,22875,22950,311.8838,409.6783,285.7676,410.3567
Sprite,Foreground,Centre,"Glow2.png",0,0 C,0,23100,,237,221,203 M,0,23100,23175,200,411,196.1191,375.587 F,2,23100,23600,1,0 S,2,23100,23600,4,0.8 P,0,23100,23600,A M,0,23175,23250,196.1191,375.587,192.2383,340.174 M,0,23250,23325,192.2383,340.174,188.3574,304.761 M,0,23325,23400,188.3574,304.761,184.4765,269.3481
Sprite,Foreground,Centre,"Glow2.png",185,269 C,0,23700,,237,221,203 F,2,23700,23900,1,0 S,2,23700,23900,4,0.8 P,0,23700,23900,A
Sprite,Foreground,Centre,"Glow2.png",0,0 C,0,24000,,223,133,87 M,0,24000,24075,174,144,200.1074,143.0419 F,2,24000,24500,1,0 S,2,24000,24500,4,0.8 P,0,24000,24500,A M,0,24075,24150,200.1074,143.0419,226.2148,142.0839 M,0,24150,24225,226.2148,142.0839,252.3223,141.1258 M,0,24225,24300,252.3223,141.1258,278.4297,140.1677
Sprite,Foreground,Centre,"Glow2.png",385,74 C,0,24600,,223,133,87 F,2,24600,24800,1,0 S,2,24600,24800,4,0.8 P,0,24600,24800,A
Sprite,Foreground,Centre,"Glow2.png",0,0 C,0,24900,,223,133,87 M,0,24900,24975,399,198,406.6576,222.9505 F,2,24900,25250,1,0 S,2,24900,25250,4,0.8 P,0,24900,25250,A M,0,24975,25050,406.6576,222.9505,417.644,246.6175
Sprite,Foreground,Centre,"Glow2.png",289,256 C,0,25350,,223,133,87 F,2,25350,25550,1,0 S,2,25350,25550,4,0.8 P,0,25350,25550,A
Sprite,Foreground,Centre,"Glow2.png",0,0 C,0,25500,,239,63,107 M,0,25500,25575,289,256,291.347,291.5129 F,2,25500,26000,1,0 S,2,25500,26000,4,0.8 P,0,25500,26000,A M,0,25575,25650,291.347,291.5129,288.1629,326.9576 M,0,25650,25725,288.1629,326.9576,279.3127,361.4241 M,0,25725,25800,279.3127,361.4241,264.8696,393.944
Sprite,Foreground,Centre,"Glow2.png",391,367 C,0,26100,,239,63,107 F,2,26100,26300,1,0 S,2,26100,26300,4,0.8 P,0,26100,26300,A
Sprite,Foreground,Centre,"Glow2.png",0,0 C,0,26400,,237,221,203 M,0,26400,26475,512,396,504.4565,371.0194 F,2,26400,26900,1,0 S,2,26400,26900,4,0.8 P,0,26400,26900,A M,0,26475,26550,504.4565,371.0194,501.0057,345.1493 M,0,26550,26625,501.0057,345.1493,501.2737,319.0451 M,0,26625,26700,501.2737,319.0451,504.6961,293.1589
Sprite,Foreground,Centre,"Glow2.png",0,0 C,0,27000,,237,221,203 M,0,27000,27075,539,172,515.8026,183.9886 F,2,27000,27500,1,0 S,2,27000,27500,4,0.8 P,0,27000,27500,A M,0,27075,27150,515.8026,183.9886,491.4307,193.36 M,0,27150,27225,491.4307,193.36,466.1736,199.9859 M,0,27225,27300,466.1736,199.9859,440.3511,203.8695
Sprite,Foreground,Centre,"Glow2.png",382,217 C,0,27450,,237,221,203 F,2,27450,27650,1,0 S,2,27450,27650,4,0.8 P,0,27450,27650,A
Sprite,Foreground,Centre,"Glow2.png",0,0 C,0,27600,,237,221,203 M,0,27600,27675,382,217,379.6767,190.9785 F,2,27600,27950,1,0 S,2,27600,27950,4,0.8 P,0,27600,27950,A M,0,27675,27750,379.6767,190.9785,377.3533,164.957
Sprite,Foreground,Centre,"Glow2.png",0,0 C,0,27900,,223,133,87 M,0,27900,27975,367,79,331.5576,75.43309 F,2,27900,28400,1,0 S,2,27900,28400,4,0.8 P,0,27900,28400,A M,0,27975,28050,331.5576,75.43309,295.9905,73.44644 M,0,28050,28125,295.9905,73.44644,260.3738,72.75645 M,0,28125,28200,260.3738,72.75645,224.7522,73.15363
Sprite,Foreground,Centre,"Glow2.png",116,128 C,0,28500,,223,133,87 F,2,28500,28700,1,0 S,2,28500,28700,4,0.8 P,0,28500,28700,A
Sprite,Foreground,Centre,"Glow2.png",116,128 C,0,28650,,223,133,87 F,2,28650,28850,1,0 S,2,28650,28850,4,0.8 P,0,28650,28850,A
Sprite,Foreground,Centre,"Glow2.png",0,0 C,0,28800,,239,63,107 M,0,28800,28875,116,128,118.9498,153.9579 F,2,28800,29300,1,0 S,2,28800,29300,4,0.8 P,0,28800,29300,A M,0,28875,28950,118.9498,153.9579,121.8995,179.9159 M,0,28950,29025,121.8995,179.9159,124.8493,205.8738 M,0,29025,29100,124.8493,205.8738,127.7991,231.8318
Sprite,Foreground,Centre,"Glow2.png",234,294 C,0,29400,,239,63,107 F,2,29400,29600,1,0 S,2,29400,29600,4,0.8 P,0,29400,29600,A
Sprite,Foreground,Centre,"Glow2.png",0,0 C,0,29700,,239,63,107 M,0,29700,29775,131,365,105.352,369.9331 F,2,29700,30050,1,0 S,2,29700,30050,4,0.8 P,0,29700,30050,A M,0,29775,29850,105.352,369.9331,79.40714,372.9293
Sprite,Foreground,Centre,"Glow2.png",248,417 C,0,30150,,239,63,107 F,2,30150,30350,1,0 S,2,30150,30350,4,0.8 P,0,30150,30350,A
Sprite,Foreground,Centre,"Glow2.png",0,0 C,0,30300,,237,221,203 M,0,30300,30375,248,417,282.8881,409.9254 F,2,30300,30800,1,0 S,2,30300,30800,4,0.8 P,0,30300,30800,A M,0,30375,30450,282.8881,409.9254,318.4047,407.481 M,0,30450,30525,318.4047,407.481,353.958,409.3952 M,0,30525,30600,353.958,409.3952,389.0926,415.1898
Sprite,Foreground,Centre,"Glow2.png",463,314 C,0,30900,,237,221,203 F,2,30900,31100,1,0 S,2,30900,31100,4,0.8 P,0,30900,31100,A
Sprite,Foreground,Centre,"Glow2.png",0,0 C,0,31200,,223,133,87 M,0,31200,31275,348,259,338.6699,234.622 F,2,31200,31700,1,0 S,2,31200,31700,4,0.8 P,0,31200,31700,A M,0,31275,31350,338.6699,234.622,332.821,209.1807 M,0,31350,31425,332.821,209.1807,330.2602,183.1976 M,0,31425,31500,330.2602,183.1976,330.6248,157.0871
Sprite,Foreground,Centre,"Glow2.png",0,0 C,0,31800,,223,133,87 M,0,31800,31875,454,178,463.214,153.5758 F,2,31800,32300,1,0 S,2,31800,32300,4,0.8 P,0,31800,32300,A M,0,31875,31950,463.214,153.5758,469.0658,128.1339 M,0,31950,32025,469.0658,128.1339,471.703,102.158 M,0,32025,32100,471.703,102.158,471.4352,76.04641
Sprite,Foreground,Centre,"Glow2.png",407,83 C,0,32250,,223,133,87 F,2,32250,32450,1,0 S,2,32250,32450,4,0.8 P,0,32250,32450,A
Sprite,Foreground,Centre,"Glow2.png",0,0 C,0,32400,,223,133,87 M,0,32400,32475,407,83,381.1761,86.89452 F,2,32400,32750,1,0 S,2,32400,32750,4,0.8 P,0,32400,32750,A M,0,32475,32550,381.1761,86.89452,355.1178,88.60027
Sprite,Foreground,Centre,"Glow2.png",0,0 C,0,32700,,239,63,107 M,0,32700,32775,268,87,232.7979,87.94762 F,2,32700,33200,1,0 S,2,32700,33200,4,0.8 P,0,32700,33200,A M,0,32775,32850,232.7979,87.94762,202.124,105.0865 M,0,32850,32925,202.124,105.0865,182.9383,134.4636 M,0,32925,33000,182.9383,134.4636,179.1567,169.4256
Sprite,Foreground,Centre,"Glow2.png",180,170 C,0,33300,,239,63,107 F,2,33300,33500,1,0 S,2,33300,33500,4,0.8 P,0,33300,33500,A
Sprite,Foreground,Centre,"Glow2.png",0,0 C,0,33600,,237,221,203 M,0,33600,33675,260,265,258.5904,291.0497 F,2,33600,34100,1,0 S,2,33600,34100,4,0.8 P,0,33600,34100,A M,0,33675,33750,258.5904,291.0497,252.4501,316.4063 M,0,33750,33825,252.4501,316.4063,242.0786,340.3534 M,0,33825,33900,242.0786,340.3534,228.293,362.5217
Sprite,Foreground,Centre,"Glow2.png",0,0 C,0,34200,,237,221,203 M,0,34200,34275,348,395,349.4096,368.9503 F,2,34200,34700,1,0 S,2,34200,34700,4,0.8 P,0,34200,34700,A M,0,34275,34350,349.4096,368.9503,355.5499,343.5938 M,0,34350,34425,355.5499,343.5938,365.9214,319.6466 M,0,34425,34500,365.9214,319.6466,379.7069,297.4783
Sprite,Foreground,Centre,"Glow2.png",380,297 C,0,34650,,237,221,203 F,2,34650,34850,1,0 S,2,34650,34850,4,0.8 P,0,34650,34850,A
Sprite,Foreground,Centre,"Glow2.png",473,378 C,0,34950,,237,221,203 F,2,34950,35150,1,0 S,2,34950,35150,4,0.8 P,0,34950,35150,A
Sprite,Foreground,Centre,"Glow2.png",0,0 C,0,35100,,223,133,87 M,0,35100,35175,472,378,486.9195,345.6976 F,2,35100,35600,1,0 S,2,35100,35600,4,0.8 P,0,35100,35600,A M,0,35175,35250,486.9195,345.6976,495.7051,311.2304 M,0,35250,35325,495.7051,311.2304,497.6041,275.7137 M,0,35325,35400,497.6041,275.7137,492.8098,240.461
Sprite,Foreground,Centre,"Glow2.png",383,183 C,0,35700,,223,133,87 F,2,35700,35900,1,0 S,2,35700,35900,4,0.8 P,0,35700,35900,A
Sprite,Foreground,Centre,"Glow2.png",0,0 C,0,36000,,239,63,107 M,0,36000,36075,273,244,247.3227,248.7183 F,2,36000,36500,1,0 S,2,36000,36500,4,0.8 P,0,36000,36500,A M,0,36075,36150,247.3227,248.7183,221.2518,250.074 M,0,36150,36225,221.2518,250.074,195.2244,248.0402 M,0,36225,36300,195.2244,248.0402,169.6456,242.8042
Sprite,Foreground,Centre,"Glow2.png",109,130 C,0,36600,,239,63,107 F,2,36600,36800,1,0 S,2,36600,36800,4,0.8 P,0,36600,36800,A
Sprite,Foreground,Centre,"Glow2.png",234,125 C,0,36900,,239,63,107 F,2,36900,37100,1,0 S,2,36900,37100,4,0.8 P,0,36900,37100,A
Sprite,Foreground,Centre,"Glow2.png",0,0 C,0,37050,,239,63,107 M,0,37050,37125,234,125,260.0792,123.4529 F,2,37050,37550,1,0 S,2,37050,37550,4,0.8 P,0,37050,37550,A M,0,37125,37200,260.0792,123.4529,286.1583,121.9059 M,0,37200,37275,286.1583,121.9059,312.2375,120.3588 M,0,37275,37350,312.2375,120.3588,338.3166,118.8117
Sprite,Foreground,Centre,"Glow2.png",0,0 C,0,37500,,237,221,203 M,0,37500,37575,416,84,451.4137,85.80568 F,2,37500,38000,1,0 S,2,37500,38000,4,0.8 P,0,37500,38000,A M,0,37575,37650,451.4137,85.80568,484.63,98.12543 M,0,37650,37725,484.63,98.12543,512.615,119.8185 M,0,37725,37800,512.615,119.8185,532.9922,148.8002
Sprite,Foreground,Centre,"Glow2.png",425,214 C,0,38100,,237,221,203 F,2,38100,38300,1,0 S,2,38100,38300,4,0.8 P,0,38100,38300,A
Sprite,Foreground,Centre,"Glow2.png",0,0 C,0,38400,,223,133,87 M,0,38400,38475,533,277,528.3547,302.7081 F,2,38400,38900,1,0 S,2,38400,38900,4,0.8 P,0,38400,38900,A M,0,38475,38550,528.3547,302.7081,524.2506,328.5079 M,0,38550,38625,524.2506,328.5079,520.6895,354.3881 M,0,38625,38700,520.6895,354.3881,517.6728,380.3373
Sprite,Foreground,Centre,"Glow2.png",404,326 C,0,39000,,223,133,87 F,2,39000,39200,1,0 S,2,39000,39200,4,0.8 P,0,39000,39200,A
Sprite,Foreground,Centre,"Glow2.png",294,386 C,0,39300,,223,133,87 F,2,39300,39500,1,0 S,2,39300,39500,4,0.8 P,0,39300,39500,A
Sprite,Foreground,Centre,"Glow2.png",294,386 C,0,39450,,223,133,87 F,2,39450,39650,1,0 S,2,39450,39650,4,0.8 P,0,39450,39650,A
Sprite,Foreground,Centre,"Glow2.png",181,330 C,0,39750,,223,133,87 F,2,39750,39950,1,0 S,2,39750,39950,4,0.8 P,0,39750,39950,A
Sprite,Foreground,Centre,"Glow2.png",0,0 C,0,39900,,239,63,107 M,0,39900,39975,181,330,170.6412,295.941 F,2,39900,40400,1,0 S,2,39900,40400,4,0.8 P,0,39900,40400,A M,0,39975,40050,170.6412,295.941,164.8958,260.8095 M,0,40050,40125,164.8958,260.8095,163.8346,225.2254 M,0,40125,40200,163.8346,225.2254,167.2207,189.7833
Sprite,Foreground,Centre,"Glow2.png",214,73 C,0,40500,,239,63,107 F,2,40500,40700,1,0 S,2,40500,40700,4,0.8 P,0,40500,40700,A
Sprite,Foreground,Centre,"Glow2.png",0,0 C,0,40800,,237,221,203 M,0,40800,40875,296,167,294.246,140.9427 F,2,40800,41300,1,0 S,2,40800,41300,4,0.8 P,0,40800,41300,A M,0,40875,40950,294.246,140.9427,295.0529,114.8429 M,0,40950,41025,295.0529,114.8429,298.9017,89.02094 M,0,41025,41100,298.9017,89.02094,306.2183,63.96555
Sprite,Foreground,Centre,"Glow2.png",0,0 C,0,41400,,237,221,203 M,0,41400,41475,427,98,433.2055,121.8097 F,2,41400,41900,1,0 S,2,41400,41900,4,0.8 P,0,41400,41900,A M,0,41475,41550,433.2055,121.8097,437.1582,147.6223 M,0,41550,41625,437.1582,147.6223,438.4962,173.7017 M,0,41625,41700,438.4962,173.7017,437.131,199.7788
Sprite,Foreground,Centre,"Glow2.png",380,226 C,0,41850,,237,221,203 F,2,41850,42050,1,0 S,2,41850,42050,4,0.8 P,0,41850,42050,A
Sprite,Foreground,Centre,"Glow2.png",0,0 C,0,42000,,237,221,203 M,0,42000,42075,380,226,376.9458,251.8361 F,2,42000,42350,1,0 S,2,42000,42350,4,0.8 P,0,42000,42350,A M,0,42075,42150,376.9458,251.8361,381.1493,277.4824
Sprite,Foreground,Centre,"Glow2.png",0,0 C,0,42300,,223,133,87 M,0,42300,42375,307,308,293.4772,340.6631 F,2,42300,42800,1,0 S,2,42300,42800,4,0.8 P,0,42300,42800,A M,0,42375,42450,293.4772,340.6631,268.702,365.804 M,0,42450,42525,268.702,365.804,236.3743,380.035 M,0,42525,42600,236.3743,380.035,201.0086,380.7088
Sprite,Foreground,Centre,"Glow2.png",202,381 C,0,42900,,223,133,87 F,2,42900,43100,1,0 S,2,42900,43100,4,0.8 P,0,42900,43100,A
Sprite,Foreground,Centre,"Glow2.png",0,0 C,0,43200,,239,63,107 M,0,43200,43275,191,256,174.6953,235.6302 F,2,43200,44000,1,0 S,2,43200,44000,4,0.8 P,0,43200,44000,A M,0,43275,43350,174.6953,235.6302,155.1369,218.3575 M,0,43350,43425,155.1369,218.3575,133.0601,204.4358 M,0,43425,43500,133.0601,204.4358,109.2561,193.7148 M,0,43500,43575,109.2561,193.7148,133.0601,204.4358 M,0,43575,43650,133.0601,204.4358,155.1369,218.3575 M,0,43650,43725,155.1369,218.3575,174.6953,235.6302 M,0,43725,43800,174.6953,235.6302,191,256
Sprite,Foreground,Centre,"Glow2.png",0,0 C,0,44100,,239,63,107 M,0,44100,44175,291,180,298.9836,155.1687 F,2,44100,44450,1,0 S,2,44100,44450,4,0.8 P,0,44100,44450,A M,0,44175,44250,298.9836,155.1687,311.4588,132.2678
Sprite,Foreground,Centre,"Glow2.png",432,164 C,0,44550,,239,63,107 F,2,44550,44750,1,0 S,2,44550,44750,4,0.8 P,0,44550,44750,A
Sprite,Foreground,Centre,"Glow2.png",0,0 C,0,44700,,237,221,203 M,0,44700,44775,432,164,437.9865,199.0046 F,2,44700,45200,1,0 S,2,44700,45200,4,0.8 P,0,44700,45200,A M,0,44775,44850,437.9865,199.0046,452.5325,231.3787 M,0,44850,44925,452.5325,231.3787,474.7078,259.0723 M,0,44925,45000,474.7078,259.0723,503.1015,280.3315
Sprite,Foreground,Centre,"Glow2.png",435,386 C,0,45300,,237,221,203 F,2,45300,45500,1,0 S,2,45300,45500,4,0.8 P,0,45300,45500,A
Sprite,Foreground,Centre,"Glow2.png",0,0 C,0,45600,,223,133,87 M,0,45600,45675,328,319,302.123,315.4868 F,2,45600,46100,1,0 S,2,45600,46100,4,0.8 P,0,45600,46100,A M,0,45675,45750,302.123,315.4868,276.0257,314.5408 M,0,45750,45825,276.0257,314.5408,249.9583,316.1179 M,0,45825,45900,249.9583,316.1179,224.1446,320.0815
Sprite,Foreground,Centre,"Glow2.png",107,366 C,0,46200,,223,133,87 F,2,46200,46400,1,0 S,2,46200,46400,4,0.8 P,0,46200,46400,A
Sprite,Foreground,Centre,"Glow2.png",0,0 C,0,46500,,223,133,87 M,0,46500,46575,124,241,98.03511,238.2862 F,2,46500,46850,1,0 S,2,46500,46850,4,0.8 P,0,46500,46850,A M,0,46575,46650,98.03511,238.2862,71.93552,238.6422
Sprite,Foreground,Centre,"Glow2.png",0,0 C,0,46800,,223,133,87 M,0,46800,46875,127,170,152.9649,167.2862 F,2,46800,47150,1,0 S,2,46800,47150,4,0.8 P,0,46800,47150,A M,0,46875,46950,152.9649,167.2862,179.0645,167.6422
Sprite,Foreground,Centre,"Glow2.png",0,0 C,0,47100,,239,63,107 M,0,47100,47175,132,95,167.5181,92.46045 F,2,47100,47600,1,0 S,2,47100,47600,4,0.8 P,0,47100,47600,A M,0,47175,47250,167.5181,92.46045,203.1156,93.46301 M,0,47250,47325,203.1156,93.46301,238.4845,97.63721 M,0,47325,47400,238.4845,97.63721,273.4162,104.59
Sprite,Foreground,Centre,"Glow2.png",376,177 C,0,47700,,239,63,107 F,2,47700,47900,1,0 S,2,47700,47900,4,0.8 P,0,47700,47900,A
Sprite,Foreground,Centre,"Glow2.png",376,177 C,0,47850,,239,63,107 F,2,47850,48050,1,0 S,2,47850,48050,4,0.8 P,0,47850,48050,A
Sprite,Foreground,Centre,"Glow2.png",0,0 C,0,48000,,237,221,203 M,0,48000,48075,376,177,374.2882,202.9617 F,2,48000,48500,1,0 S,2,48000,48500,4,0.8 P,0,48000,48500,A M,0,48075,48150,374.2882,202.9617,379.912,228.3407 M,0,48150,48225,379.912,228.3407,392.4104,251.1108 M,0,48225,48300,392.4104,251.1108,410.7761,269.4566
Sprite,Foreground,Centre,"Glow2.png",0,0 C,0,48600,,237,221,203 M,0,48600,48675,499,330,483.4151,350.8406 F,2,48600,49100,1,0 S,2,48600,49100,4,0.8 P,0,48600,49100,A M,0,48675,48750,483.4151,350.8406,462.8097,366.6951 M,0,48750,48825,462.8097,366.6951,438.7118,376.402 M,0,48825,48900,438.7118,376.402,412.9037,379.2527
Sprite,Foreground,Centre,"Glow2.png",412,379 C,0,49050,,237,221,203 F,2,49050,49250,1,0 S,2,49050,49250,4,0.8 P,0,49050,49250,A
Sprite,Foreground,Centre,"Glow2.png",289,352 C,0,49350,,237,221,203 F,2,49350,49550,1,0 S,2,49350,49550,4,0.8 P,0,49350,49550,A
Sprite,Foreground,Centre,"Glow2.png",0,0 C,0,49500,,223,133,87 M,0,49500,49575,289,352,253.3925,351.5619 F,2,49500,50000,1,0 S,2,49500,50000,4,0.8 P,0,49500,50000,A M,0,49575,49650,253.3925,351.5619,217.9538,354.9922 M,0,49650,49725,217.9538,354.9922,183.2384,362.8692 M,0,49725,49800,183.2384,362.8692,149.9925,375.5783
Sprite,Foreground,Centre,"Glow2.png",86,267 C,0,50100,,223,133,87 F,2,50100,50300,1,0 S,2,50100,50300,4,0.8 P,0,50100,50300,A
Sprite,Foreground,Centre,"Glow2.png",0,0 C,0,50400,,239,63,107 M,0,50400,50475,192,201,207.1087,179.8275 F,2,50400,51200,1,0 S,2,50400,51200,4,0.8 P,0,50400,51200,A M,0,50475,50550,207.1087,179.8275,215.1187,155.0979 M,0,50550,50625,215.1187,155.0979,215.2919,129.1189 M,0,50625,50700,215.2919,129.1189,207.6207,104.312 M,0,50700,50775,207.6207,104.312,215.2919,129.1189 M,0,50775,50850,215.2919,129.1189,215.1187,155.0979 M,0,50850,50925,215.1187,155.0979,207.1087,179.8275 M,0,50925,51000,207.1087,179.8275,192,201
Sprite,Foreground,Centre,"Glow2.png",0,0 C,0,51300,,239,63,107 M,0,51300,51375,289,278,314.7483,282.1179 F,2,51300,51650,1,0 S,2,51300,51650,4,0.8 P,0,51300,51650,A M,0,51375,51450,314.7483,282.1179,340.8024,282.1556
Sprite,Foreground,Centre,"Glow2.png",0,0 C,0,51600,,239,63,107 M,0,51600,51675,336,213,362.069,211.6198 F,2,51600,51950,1,0 S,2,51600,51950,4,0.8 P,0,51600,51950,A M,0,51675,51750,362.069,211.6198,387.7327,206.8435
Sprite,Foreground,Centre,"Glow2.png",0,0 C,0,51900,,237,221,203 M,0,51900,51975,362,141,396.7769,133.3974 F,2,51900,52400,1,0 S,2,51900,52400,4,0.8 P,0,51900,52400,A M,0,51975,52050,396.7769,133.3974,430.1717,121.0763 M,0,52050,52125,430.1717,121.0763,461.5079,104.1911 M,0,52125,52200,461.5079,104.1911,490.2786,83.22501
Sprite,Foreground,Centre,"Glow2.png",490,83 C,0,52500,,237,221,203 F,2,52500,52700,1,0 S,2,52500,52700,4,0.8 P,0,52500,52700,A
Sprite,Foreground,Centre,"Glow2.png",0,0 C,0,52800,,223,133,87 M,0,52800,52875,570,180,568.1851,206.0608 F,2,52800,53300,1,0 S,2,52800,53300,4,0.8 P,0,52800,53300,A M,0,52875,52950,568.1851,206.0608,565.6309,232.0599 M,0,52950,53025,565.6309,232.0599,562.4508,257.9901 M,0,53025,53100,562.4508,257.9901,558.7344,283.849
Sprite,Foreground,Centre,"Glow2.png",0,0 C,0,53400,,223,133,87 M,0,53400,53475,485,386,458.9111,384.6269 F,2,53400,53900,1,0 S,2,53400,53900,4,0.8 P,0,53400,53900,A M,0,53475,53550,458.9111,384.6269,432.8222,383.2538 M,0,53550,53625,432.8222,383.2538,406.7333,381.8807 M,0,53625,53700,406.7333,381.8807,380.6444,380.5076
Sprite,Foreground,Centre,"Glow2.png",0,0 C,0,53850,,223,133,87 M,0,53850,53925,359,321,332.9111,322.3731 F,2,53850,54350,1,0 S,2,53850,54350,4,0.8 P,0,53850,54350,A M,0,53925,54000,332.9111,322.3731,306.8222,323.7462 M,0,54000,54075,306.8222,323.7462,280.7333,325.1193 M,0,54075,54150,280.7333,325.1193,254.6444,326.4924
Sprite,Foreground,Centre,"Glow2.png",0,0 C,0,54300,,239,63,107 M,0,54300,54375,175,359,175.7962,323.3875 F,2,54300,54800,1,0 S,2,54300,54800,4,0.8 P,0,54300,54800,A M,0,54375,54450,175.7962,323.3875,174.6836,287.785 M,0,54450,54525,174.6836,287.785,171.3273,252.3255 M,0,54525,54600,171.3273,252.3255,165.3306,217.2189
Sprite,Foreground,Centre,"Glow2.png",138,94 C,0,54900,,239,63,107 F,2,54900,55100,1,0 S,2,54900,55100,4,0.8 P,0,54900,55100,A
Sprite,Foreground,Centre,"Glow2.png",0,0 C,0,55200,,237,221,203 M,0,55200,55275,257,132,282.4291,137.8676 F,2,55200,55700,1,0 S,2,55200,55700,4,0.8 P,0,55200,55700,A M,0,55275,55350,282.4291,137.8676,308.4282,140.0512 M,0,55350,55425,308.4282,140.0512,334.4678,138.508 M,0,55425,55500,334.4678,138.508,360.0179,133.2705
Sprite,Foreground,Centre,"Glow2.png",0,0 C,0,55800,,223,133,87 M,0,55800,55875,482,83,480.3448,104.3108 F,2,55800,56299,1,0 S,2,55800,56299,4,0.8 P,0,55800,56299,A M,0,55875,55950,480.3448,104.3108,478.6896,125.6216 M,0,55950,56025,478.6896,125.6216,477.0344,146.9324 M,0,56025,56099,477.0344,146.9324,475.3792,168.2433
Sprite,Foreground,Centre,"Glow2.png",0,0 C,0,56400,,239,63,107 M,0,56400,56475,407,235,408.3618,251.5691 F,2,56400,56899,1,0 S,2,56400,56899,4,0.8 P,0,56400,56899,A M,0,56475,56550,408.3618,251.5691,409.7237,268.1382 M,0,56550,56625,409.7237,268.1382,411.0855,284.7074 M,0,56625,56699,411.0855,284.7074,412.4474,301.2765
Sprite,Foreground,Centre,"Glow2.png",0,0 C,0,57000,,237,221,203 M,0,57000,57075,504,329,502.5921,340.7912 F,2,57000,57500,1,0 S,2,57000,57500,4,0.8 P,0,57000,57500,A M,0,57075,57150,502.5921,340.7912,501.1842,352.5825 M,0,57150,57225,501.1842,352.5825,499.7763,364.3737 M,0,57225,57300,499.7763,364.3737,498.3683,376.165
Sprite,Foreground,Centre,"Glow2.png",0,0 C,0,57600,,223,133,87 M,0,57600,57675,412,391,400.5092,388.0113 F,2,57600,62000,1,0 S,2,57600,62000,4,0.8 P,0,57600,62000,A M,0,57675,57750,400.5092,388.0113,388.8398,385.8276 M,0,57750,57825,388.8398,385.8276,377.0267,384.6622 M,0,57825,57900,377.0267,384.6622,365.1584,384.7433 M,0,57900,57975,365.1584,384.7433,353.383,386.2214 M,0,57975,58050,353.383,386.2214,341.8492,389.0252 M,0,58050,58125,341.8492,389.0252,330.5814,392.7686 M,0,58125,58200,330.5814,392.7686,319.4206,396.8246 M,0,58200,58275,319.4206,396.8246,308.13,400.4976 M,0,58275,58350,308.13,400.4976,296.5727,403.203 M,0,58350,58425,296.5727,403.203,284.7883,404.6122 M,0,58425,58500,284.7883,404.6122,272.9193,404.6872 M,0,58500,58575,272.9193,404.6872,261.1003,403.5786 M,0,58575,58650,261.1003,403.5786,249.4117,401.4988 M,0,58650,58725,249.4117,401.4988,237.8866,398.6448 M,0,58725,58800,237.8866,398.6448,226.5307,395.1759 M,0,58800,58875,226.5307,395.1759,227.8235,383.8331 M,0,58875,58950,227.8235,383.8331,229.1557,372.0344 M,0,58950,59025,229.1557,372.0344,229.8943,360.1836 M,0,59025,59100,229.8943,360.1836,230.0473,348.3108 M,0,59100,59175,230.0473,348.3108,229.6281,336.4443 M,0,59175,59250,229.6281,336.4443,228.6543,324.6104 M,0,59250,59325,228.6543,324.6104,227.1477,312.8323 M,0,59325,59400,227.1477,312.8323,225.1322,301.1305 M,0,59400,59475,225.1322,301.1305,222.6342,289.522 M,0,59475,59550,222.6342,289.522,219.6806,278.021 M,0,59550,59625,219.6806,278.021,216.2987,266.6384 M,0,59625,59700,216.2987,266.6384,212.5155,255.3828 M,0,59700,59775,212.5155,255.3828,208.3573,244.2602 M,0,59775,59850,208.3573,244.2602,203.8491,233.2748 M,0,59850,59925,203.8491,233.2748,199.0149,222.4288 M,0,59925,60000,199.0149,222.4288,197.4369,214.7114 M,0,60000,60075,197.4369,214.7114,208.8821,217.8763 M,0,60075,60150,208.8821,217.8763,220.3999,220.7659 M,0,60150,60225,220.3999,220.7659,231.9849,223.373 M,0,60225,60300,231.9849,223.373,243.6316,225.6882 M,0,60300,60375,243.6316,225.6882,255.3344,227.7014 M,0,60375,60450,255.3344,227.7014,267.0868,229.4009 M,0,60450,60525,267.0868,229.4009,278.8818,230.7737 M,0,60525,60600,278.8818,230.7737,290.7114,231.8058 M,0,60600,60675,290.7114,231.8058,302.5667,232.4815 M,0,60675,60750,302.5667,232.4815,314.4373,232.7843 M,0,60750,60825,314.4373,232.7843,326.3114,232.6966 M,0,60825,60900,326.3114,232.6966,338.1754,232.1994 M,0,60900,60975,338.1754,232.1994,350.0135,231.2734 M,0,60975,61050,350.0135,231.2734,361.8079,229.8989 M,0,61050,61125,361.8079,229.8989,373.5381,228.0551 M,0,61125,61200,373.5381,228.0551,385.181,225.7232 M,0,61200,61275,385.181,225.7232,396.7104,222.8835 M,0,61275,61350,396.7104,222.8835,408.098,219.5201 M,0,61350,61425,408.098,219.5201,419.3121,215.6174 M,0,61425,61500,419.3121,215.6174,430.3196,211.1655 M,0,61500,61575,430.3196,211.1655,441.0851,206.1566 M,0,61575,61650,441.0851,206.1566,451.5728,200.5897 M,0,61650,61725,451.5728,200.5897,461.7471,194.4689 M,0,61725,61800,461.7471,194.4689,471.5739,187.8044
Sprite,Foreground,Centre,"Glow2.png",0,0 C,0,62400,,239,63,107 M,0,62400,62475,378,121,372.9758,131.7574 F,2,62400,66800,1,0 S,2,62400,66800,4,0.8 P,0,62400,66800,A M,0,62475,62550,372.9758,131.7574,368.7257,142.8427 M,0,62550,62625,368.7257,142.8427,365.3735,154.231 M,0,62625,62700,365.3735,154.231,363.0425,165.8706 M,0,62700,62775,363.0425,165.8706,361.8447,177.6801 M,0,62775,62850,361.8447,177.6801,361.8599,189.5496 M,0,62850,62925,361.8599,189.5496,363.1154,201.3526 M,0,62925,63000,363.1154,201.3526,365.5784,212.9642 M,0,63000,63075,365.5784,212.9642,369.1579,224.2823 M,0,63075,63150,369.1579,224.2823,373.7205,235.2421 M,0,63150,63225,373.7205,235.2421,379.1115,245.82 M,0,63225,63300,379.1115,245.82,385.1688,256.032 M,0,63300,63375,385.1688,256.032,391.7295,265.929 M,0,63375,63450,391.7295,265.929,398.6257,275.596 M,0,63450,63525,398.6257,275.596,405.664,285.1604 M,0,63525,63600,405.664,285.1604,412.571,294.8195 M,0,63600,63675,412.571,294.8195,418.825,304.9073 M,0,63675,63750,418.825,304.9073,422.9953,315.9732 M,0,63750,63825,422.9953,315.9732,411.4424,313.396 M,0,63825,63900,411.4424,313.396,399.7796,311.1646 M,0,63900,63975,399.7796,311.1646,388.0425,309.3652 M,0,63975,64050,388.0425,309.3652,376.2406,308.0582 M,0,64050,64125,376.2406,308.0582,364.3908,307.3041 M,0,64125,64200,364.3908,307.3041,352.5181,307.1637 M,0,64200,64275,352.5181,307.1637,340.6561,307.6837 M,0,64275,64350,340.6561,307.6837,328.8435,308.8839 M,0,64350,64425,328.8435,308.8839,317.1155,310.7378 M,0,64425,64500,317.1155,310.7378,305.4909,313.1586 M,0,64500,64575,305.4909,313.1586,293.9595,315.9931 M,0,64575,64650,293.9595,315.9931,282.4798,319.0314 M,0,64650,64725,282.4798,319.0314,270.9895,322.029 M,0,64725,64800,270.9895,322.029,259.4282,324.7379 M,0,64800,64875,259.4282,324.7379,247.7608,326.9417 M,0,64875,64950,247.7608,326.9417,235.9883,328.4841 M,0,64950,65025,235.9883,328.4841,224.1422,329.2819 M,0,65025,65100,224.1422,329.2819,212.2692,329.3234 M,0,65100,65175,212.2692,329.3234,200.4152,328.6457 M,0,65175,65250,200.4152,328.6457,188.6163,327.3155 M,0,65250,65325,188.6163,327.3155,176.8966,325.4082 M,0,65325,65400,176.8966,325.4082,165.2695,322.9986 M,0,65400,65475,165.2695,322.9986,153.7408,320.1539 M,0,65475,65550,153.7408,320.1539,142.3112,316.9337 M,0,65550,65625,142.3112,316.9337,134.0706,310.0916 M,0,65625,65700,134.0706,310.0916,130.1021,298.9005 M,0,65700,65775,130.1021,298.9005,126.6891,287.5279 M,0,65775,65850,126.6891,287.5279,123.8731,275.9931 M,0,65850,65925,123.8731,275.9931,121.694,264.3214 M,0,65925,66000,121.694,264.3214,120.1875,252.544 M,0,66000,66075,120.1875,252.544,119.3831,240.6981 M,0,66075,66150,119.3831,240.6981,119.3015,228.8253 M,0,66150,66225,119.3015,228.8253,119.954,216.9701 M,0,66225,66300,119.954,216.9701,121.3399,205.1782 M,0,66300,66375,121.3399,205.1782,123.4484,193.4938 M,0,66375,66450,123.4484,193.4938,126.2577,181.9577 M,0,66450,66525,126.2577,181.9577,129.7374,170.6057 M,0,66525,66600,129.7374,170.6057,133.8504,159.4674
Sprite,Foreground,Centre,"Glow2.png",0,0 C,0,67200,,237,221,203 M,0,67200,67275,231,99,242.693,96.9645 F,2,67200,68000,1,0 S,2,67200,68000,4,0.8 P,0,67200,68000,A M,0,67275,67350,242.693,96.9645,254.4746,95.54729 M,0,67350,67425,254.4746,95.54729,266.3082,94.67607 M,0,67425,67500,266.3082,94.67607,278.1754,94.64809 M,0,67500,67575,278.1754,94.64809,266.3082,94.67607 M,0,67575,67650,266.3082,94.67607,254.4746,95.54729 M,0,67650,67725,254.4746,95.54729,242.693,96.9645 M,0,67725,67800,242.693,96.9645,231,99
Sprite,Foreground,Centre,"Glow2.png",0,0 C,0,68100,,237,221,203 M,0,68100,68175,202,169,201.9191,180.8726 F,2,68100,69500,1,0 S,2,68100,69500,4,0.8 P,0,68100,69500,A M,0,68175,68250,201.9191,180.8726,201.1552,192.7217 M,0,68250,68325,201.1552,192.7217,199.8611,204.5252 M,0,68325,68400,199.8611,204.5252,198.1441,216.2749 M,0,68400,68475,198.1441,216.2749,196.0807,227.9689 M,0,68475,68550,196.0807,227.9689,193.7283,239.6083 M,0,68550,68625,193.7283,239.6083,191.1302,251.1954 M,0,68625,68700,191.1302,251.1954,188.3206,262.7331 M,0,68700,68775,188.3206,262.7331,197.9309,260.3922 M,0,68775,68850,197.9309,260.3922,209.3458,257.1275 M,0,68850,68925,209.3458,257.1275,220.9479,254.6048 M,0,68925,69000,220.9479,254.6048,232.673,252.7326 M,0,69000,69075,232.673,252.7326,244.4753,251.43 M,0,69075,69150,244.4753,251.43,256.3225,250.6293 M,0,69150,69225,256.3225,250.6293,268.1914,250.2699 M,0,69225,69300,268.1914,250.2699,280.0659,250.302
Sprite,Foreground,Centre,"Glow2.png",0,0 C,0,69600,,223,133,87 M,0,69600,69675,351,277,362.7061,278.9089 F,2,69600,70400,1,0 S,2,69600,70400,4,0.8 P,0,69600,70400,A M,0,69675,69750,362.7061,278.9089,374.5221,279.8724 M,0,69750,69825,374.5221,279.8724,386.3766,280.0393 M,0,69825,69900,386.3766,280.0393,398.1781,278.8896 M,0,69900,69975,398.1781,278.8896,386.3766,280.0393 M,0,69975,70050,386.3766,280.0393,374.5221,279.8724 M,0,70050,70125,374.5221,279.8724,362.7061,278.9089 M,0,70125,70200,362.7061,278.9089,351,277
Sprite,Foreground,Centre,"Glow2.png",0,0 C,0,70500,,223,133,87 M,0,70500,70575,377,205,388.5833,202.3889 F,2,70500,71900,1,0 S,2,70500,71900,4,0.8 P,0,70500,71900,A M,0,70575,70650,388.5833,202.3889,400.2733,200.3067 M,0,70650,70725,400.2733,200.3067,412.0435,198.7397 M,0,70725,70800,412.0435,198.7397,423.8694,197.6701 M,0,70800,70875,423.8694,197.6701,435.7288,197.0778 M,0,70875,70950,435.7288,197.0778,447.6023,196.9419 M,0,70950,71025,447.6023,196.9419,459.4729,197.2394 M,0,71025,71100,459.4729,197.2394,471.3262,197.9482 M,0,71100,71175,471.3262,197.9482,475.6969,208.569 M,0,71175,71250,475.6969,208.569,478.8079,220.0265 M,0,71250,71325,478.8079,220.0265,481.1121,231.6735 M,0,71325,71400,481.1121,231.6735,482.648,243.4467 M,0,71400,71475,482.648,243.4467,483.4646,255.2919 M,0,71475,71550,483.4646,255.2919,483.6134,267.1646 M,0,71550,71625,483.6134,267.1646,483.1502,279.0293 M,0,71625,71700,483.1502,279.0293,482.1262,290.859
Sprite,Foreground,Centre,"Glow2.png",0,0 C,0,72000,,239,63,107 M,0,72000,72075,451,360,449.0911,371.7061 F,2,72000,72800,1,0 S,2,72000,72800,4,0.8 P,0,72000,72800,A M,0,72075,72150,449.0911,371.7061,448.1276,383.5221 M,0,72150,72225,448.1276,383.5221,447.9607,395.3766 M,0,72225,72300,447.9607,395.3766,449.1104,407.1781 M,0,72300,72375,449.1104,407.1781,447.9607,395.3766 M,0,72375,72450,447.9607,395.3766,448.1276,383.5221 M,0,72450,72525,448.1276,383.5221,449.0911,371.7061 M,0,72525,72600,449.0911,371.7061,451,360
Sprite,Foreground,Centre,"Glow2.png",0,0 C,0,72900,,239,63,107 M,0,72900,72975,379,332,367.3856,329.5327 F,2,72900,74300,1,0 S,2,72900,74300,4,0.8 P,0,72900,74300,A M,0,72975,73050,367.3856,329.5327,355.6451,327.7661 M,0,73050,73125,355.6451,327.7661,343.8078,326.8674 M,0,73125,73200,343.8078,326.8674,331.9392,327.0396 M,0,73200,73275,331.9392,327.0396,320.1575,328.4731 M,0,73275,73350,320.1575,328.4731,308.6107,331.2182 M,0,73350,73425,308.6107,331.2182,297.3906,335.0962 M,0,73425,73500,297.3906,335.0962,286.4261,339.6549 M,0,73500,73575,286.4261,339.6549,275.4841,344.2676 M,0,73575,73650,275.4841,344.2676,264.3159,348.2939 M,0,73650,73725,264.3159,348.2939,252.8167,351.2331 M,0,73725,73800,252.8167,351.2331,241.0593,352.8511 M,0,73800,73875,241.0593,352.8511,229.1942,353.1715 M,0,73875,73950,229.1942,353.1715,217.3495,352.3786 M,0,73950,74025,217.3495,352.3786,205.6007,350.6688 M,0,74025,74100,205.6007,350.6688,193.9796,348.2339
Sprite,Foreground,Centre,"Glow2.png",0,0 C,0,74400,,237,221,203 M,0,74400,74475,151,285,149.3913,273.2368 F,2,74400,75200,1,0 S,2,74400,75200,4,0.8 P,0,74400,75200,A M,0,74475,74550,149.3913,273.2368,148.1622,261.4288 M,0,74550,74625,148.1622,261.4288,147.2594,249.5914 M,0,74625,74700,147.2594,249.5914,146.8792,237.7254 M,0,74700,74775,146.8792,237.7254,147.2594,249.5914 M,0,74775,74850,147.2594,249.5914,148.1622,261.4288 M,0,74850,74925,148.1622,261.4288,149.3913,273.2368 M,0,74925,75000,149.3913,273.2368,151,285
Sprite,Foreground,Centre,"Glow2.png",0,0 C,0,75300,,237,221,203 M,0,75300,75375,224,256,223.6801,244.1308 F,2,75300,76700,1,0 S,2,75300,76700,4,0.8 P,0,75300,76700,A M,0,75375,75450,223.6801,244.1308,222.7211,232.296 M,0,75450,75525,222.7211,232.296,221.1288,220.5297 M,0,75525,75600,221.1288,220.5297,218.9164,208.864 M,0,75600,75675,218.9164,208.864,216.1031,197.3284 M,0,75675,75750,216.1031,197.3284,212.7127,185.9489 M,0,75750,75825,212.7127,185.9489,208.7747,174.7471 M,0,75825,75900,208.7747,174.7471,204.3202,163.7404 M,0,75900,75975,204.3202,163.7404,212.1923,155.5605 M,0,75975,76050,212.1923,155.5605,221.5204,148.216 M,0,76050,76125,221.5204,148.216,231.3446,141.5494 M,0,76125,76200,231.3446,141.5494,241.597,135.5618 M,0,76200,76275,241.597,135.5618,252.2113,130.2415 M,0,76275,76350,252.2113,130.2415,263.1254,125.5663 M,0,76350,76425,263.1254,125.5663,274.2828,121.505 M,0,76425,76500,274.2828,121.505,285.6346,118.0229
Sprite,Foreground,Centre,"ring.png",361,336 C,0,19200,,237,221,203 F,1,19200,21200,1,0 S,1,19200,21200,0.2,1 P,0,19200,21500,A
Sprite,Foreground,Centre,"ring.png",533,277 C,0,38400,,223,133,87 F,1,38400,40400,1,0 S,1,38400,40400,0.2,1 P,0,38400,40700,A
//Storyboard Sound Samples

[TimingPoints]
0,600,4,2,1,70,1,0
1500,-66.6666666666667,4,2,1,70,0,0
1800,-100,4,2,1,70,0,0
3900,-66.6666666666667,4,2,1,70,0,0
4200,-100,4,2,1,70,0,0
6300,-66.6666666666667,4,2,1,70,0,0
6600,-100,4,2,1,70,0,0
8700,-66.6666666666667,4,2,1,70,0,0
9000,-100,4,2,1,70,0,0
11100,-66.6666666666667,4,2,1,70,0,0
11400,-100,4,2,1,70,0,0
13500,-66.6666666666667,4,2,1,70,0,0
13800,-100,4,2,1,70,0,0
15900,-66.6666666666667,4,2,1,70,0,0
16200,-100,4,2,1,70,0,0
18300,-66.6666666666667,4,2,1,70,0,0
18600,-100,4,2,1,70,0,0
19200,-90.9090909090909,4,2,1,70,0,0
20700,-66.6666666666667,4,2,1,70,0,0
21000,-90.9090909090909,4,2,1,70,0,0
23100,-66.6666666666667,4,2,1,70,0,0
23400,-90.9090909090909,4,2,1,70,0,0
25500,-66.6666666666667,4,2,1,70,0,0
25800,-90.9090909090909,4,2,1,70,0,0
27900,-66.6666666666667,4,2,1,70,0,0
28200,-90.9090909090909,4,2,1,70,0,0
30300,-66.6666666666667,4,2,1,70,0,0
30600,-90.9090909090909,4,2,1,70,0,0
32700,-66.6666666666667,4,2,1,70,0,0
33000,-90.9090909090909,4,2,1,70,0,0
35100,-66.6666666666667,4,2,1,70,0,0
35400,-90.9090909090909,4,2,1,70,0,0
37500,-66.6666666666667,4,2,1,70,0,0
37800,-90.9090909090909,4,2,1,70,0,0
39900,-66.6666666666667,4,2,1,70,0,0
40200,-90.9090909090909,4,2,1,70,0,0
42300,-66.6666666666667,4,2,1,70,0,0
42600,-90.9090909090909,4,2,1,70,0,0
44700,-66.6666666666667,4,2,1,70,0,0
45000,-90.9090909090909,4,2,1,70,0,0
47100,-66.6666666666667,4,2,1,70,0,0
47400,-90.9090909090909,4,2,1,70,0,0
49500,-66.6666666666667,4,2,1,70,0,0
49800,-90.9090909090909,4,2,1,70,0,0
51900,-66.6666666666667,4,2,1,70,0,0
52200,-90.9090909090909,4,2,1,70,0,0
54300,-66.6666666666667,4,2,1,70,0,0
54600,-90.9090909090909,4,2,1,70,0,0
55800,-111.111111111111,4,2,1,50,0,0
56400,-142.857142857143,4,2,1,20,0,0
57000,-200,4,2,1,10,0,0
57600,-200,4,2,1,10,0,0
57637,-200,4,2,1,20,0,0
67200,-200,4,2,1,30,0,0
78000,-200,4,2,1,30,0,0
78300,-200,4,2,1,20,0,0
79500,-200,4,2,1,30,0,0
80100,-200,4,2,1,20,0,0
80700,-200,4,2,1,10,0,0
81600,-200,4,2,3,5,0,0

[Colours]
Combo1 : 223,133,87
Combo2 : 239,63,107
Combo3 : 237,221,203

[HitObjects]
465,48,0,6,0,B|396:40|357:48|357:48,1,95,2|0,0:0|0:0,0:0:0:0:
256,58,600,1,8,0:0:0:0:
204,159,900,2,0,P|196:201|194:238,1,47.5
327,162,1350,1,0,0:0:0:0:
327,162,1500,6,0,L|341:315,1,142.500005435944,2|8,0:0|0:0,0:0:0:0:
226,310,2100,1,0,0:0:0:0:
154,221,2400,6,0,P|99:215|37:229,1,95,2|0,0:0|0:0,0:0:0:0:
106,324,3000,1,8,0:0:0:0:
154,221,3300,2,0,P|155:183|149:145,1,47.5
148,113,3600,2,0,L|207:111,1,47.5,2|0,0:3|0:0,0:0:0:0:
152,32,3900,6,0,L|314:41,1,142.500005435944,2|8,0:0|0:0,0:0:0:0:
295,40,4500,1,2,0:0:0:0:
408,54,4800,6,0,B|395:101|397:160|397:160,1,95,2|0,0:0|0:0,0:0:0:0:
404,262,5400,1,8,0:0:0:0:
298,219,5700,2,0,L|225:224,1,47.5
274,341,6150,1,0,0:0:0:0:
274,341,6300,6,0,L|105:330,1,142.500005435944,2|8,0:0|0:0,0:0:0:0:
61,242,6900,1,0,0:0:0:0:
145,163,7200,6,0,B|157:108|139:36|139:36,1,95,2|0,0:0|0:0,0:0:0:0:
41,21,7800,1,8,0:0:0:0:
145,68,8100,2,0,P|198:70|217:68,1,47.5
244,34,8400,2,0,L|329:31,1,47.5,2|0,0:3|0:0,0:0:0:0:
368,32,8700,6,0,B|352:103|373:187|373:187,1,142.500005435944,2|8,0:0|0:0,0:0:0:0:
461,241,9300,1,2,0:0:0:0:
461,241,9450,1,2,0:3:0:0:
461,241,9600,6,0,B|471:290|454:345|454:345,1,95,2|0,0:0|0:0,0:0:0:0:
355,285,10200,2,0,L|248:277,1,95,8|0,0:0|0:0,0:0:0:0:
260,277,10650,1,0,0:0:0:0:
152,316,10950,1,0,0:0:0:0:
152,316,11100,6,0,L|139:147,1,142.500005435944,2|8,0:0|0:0,0:0:0:0:
233,106,11700,1,0,0:0:0:0:
130,56,12000,6,0,P|69:79|42:115,1,95,2|0,0:0|0:0,0:0:0:0:
141,173,12600,1,8,0:0:0:0:
233,106,12900,2,0,P|292:103|313:105,1,47.5
337,106,13200,2,0,L|332:178,1,47.5,2|0,0:3|0:0,0:0:0:0:
413,125,13500,6,0,L|426:269,1,142.500005435944,2|8,0:0|0:0,0:0:0:0:
425,266,14100,1,2,0:0:0:0:
311,259,14400,6,0,B|254:250|195:268|195:268,1,95,2|0,0:0|0:0,0:0:0:0:
104,288,15000,2,0,B|114:227|109:164|109:164,1,95,8|0,0:0|0:0,0:0:0:0:
78,145,15450,2,0,B|68:84|73:21|73:21,1,95
148,44,15900,6,0,P|219:48|306:51,1,142.500005435944,2|8,0:0|0:0,0:0:0:0:
364,137,16500,1,0,0:0:0:0:
301,232,16800,6,0,P|260:187|250:148,1,95,2|0,0:0|0:0,0:0:0:0:
290,50,17400,1,8,0:0:0:0:
403,41,17700,2,0,P|437:44|460:55,1,47.5
487,91,18000,2,0,L|483:167,1,47.5,2|0,0:3|0:0,0:0:0:0:
399,140,18300,6,0,P|406:214|404:292,1,142.500005435944,2|8,0:0|0:0,0:0:0:0:
297,280,18900,1,2,0:0:0:0:
297,280,19050,1,2,0:3:0:0:
297,280,19200,6,0,B|241:297|184:280|184:280,1,104.500003189087,6|0,0:0|0:0,0:0:0:0:
73,248,19800,1,8,0:0:0:0:
161,159,20100,2,0,P|210:159|249:166,1,52.2500015945435
123,51,20550,1,0,0:0:0:0:
123,51,20700,6,0,B|205:50|291:57|291:57,1,142.500005435944,2|8,0:0|0:0,0:0:0:0:
388,80,21300,1,0,0:0:0:0:
476,168,21600,6,0,P|414:202|361:203,1,104.500003189087,2|0,0:0|0:0,0:0:0:0:
256,187,22200,2,0,L|267:291,1,104.500003189087,8|0,0:0|0:0,0:0:0:0:
274,353,22650,1,0,0:0:0:0:
274,353,22800,2,0,L|197:355,1,52.2500015945435,2|0,0:3|0:0,0:0:0:0:
136,355,23100,6,0,L|120:209,1,142.500005435944,2|8,0:0|0:0,0:0:0:0:
121,213,23700,1,2,0:0:0:0:
110,88,24000,6,0,L|219:84,1,104.500003189087,2|0,0:0|0:0,0:0:0:0:
321,18,24600,1,8,0:0:0:0:
335,142,24900,2,0,P|356:195|365:209,1,52.2500015945435
225,200,25350,1,0,0:0:0:0:
225,200,25500,6,0,B|233:256|221:315|184:364|184:364,1,142.500005435944,2|8,0:0|0:0,0:0:0:0:
327,311,26100,1,0,0:0:0:0:
448,340,26400,6,0,B|427:287|445:218|445:218,1,104.500003189087,2|0,0:0|0:0,0:0:0:0:
475,116,27000,2,0,B|429:143|375:148|375:148,1,104.500003189087,8|0,0:0|0:0,0:0:0:0:
318,161,27450,1,0,0:0:0:0:
318,161,27600,2,0,L|313:105,1,52.2500015945435,2|0,0:3|0:0,0:0:0:0:
303,23,27900,6,0,B|224:13|115:19|115:19,1,142.500005435944,2|8,0:0|0:0,0:0:0:0:
52,72,28500,1,2,0:0:0:0:
52,72,28650,1,2,0:3:0:0:
52,72,28800,6,0,L|67:204,1,104.500003189087,2|0,0:0|0:0,0:0:0:0:
170,238,29400,1,8,0:0:0:0:
67,309,29700,2,0,P|34:315|-9:318,1,52.2500015945435
184,361,30150,1,0,0:0:0:0:
184,361,30300,6,0,B|257:341|341:363|341:363,1,142.500005435944,2|8,0:0|0:0,0:0:0:0:
399,258,30900,1,0,0:0:0:0:
284,203,31200,6,0,B|262:156|267:96|267:96,1,104.500003189087,2|0,0:0|0:0,0:0:0:0:
390,122,31800,2,0,B|412:74|407:14|407:14,1,104.500003189087,8|0,0:0|0:0,0:0:0:0:
343,27,32250,1,0,0:0:0:0:
343,27,32400,2,0,P|305:32|251:31,1,52.2500015945435,2|0,0:3|0:0,0:0:0:0:
204,31,32700,6,0,P|126:63|127:144,1,142.500005435944,0|8,0:0|0:0,0:0:0:0:
116,114,33300,1,2,0:0:0:0:
196,209,33600,6,0,B|198:262|161:311|161:311,1,104.500003189087,2|0,0:0|0:0,0:0:0:0:
284,339,34200,2,0,B|282:286|319:237|319:237,1,104.500003189087,8|0,0:0|0:0,0:0:0:0:
316,241,34650,1,0,0:0:0:0:
409,322,34950,1,0,0:0:0:0:
408,322,35100,6,0,B|446:255|428:181|428:181,1,142.500005435944,2|8,0:0|0:0,0:0:0:0:
319,127,35700,1,0,0:0:0:0:
209,188,36000,6,0,B|145:204|79:178|79:178,1,104.500003189087,2|0,0:0|0:0,0:0:0:0:
45,74,36600,1,8,0:0:0:0:
170,69,36900,1,0,0:0:0:0:
170,69,37050,2,0,L|288:62,1,104.500003189087
352,28,37500,6,0,P|426:45|479:123,1,142.500005435944,2|8,0:0|0:0,0:0:0:0:
361,158,38100,1,0,0:0:0:0:
469,221,38400,6,0,P|459:281|452:341,1,104.500003189087,6|0,0:0|0:0,0:0:0:0:
340,270,39000,1,8,0:0:0:0:
230,330,39300,1,0,0:0:0:0:
230,330,39450,1,0,0:0:0:0:
117,274,39750,1,0,0:0:0:0:
117,274,39900,6,0,B|91:205|104:129|104:129,1,142.500005435944,2|8,0:0|0:0,0:0:0:0:
150,17,40500,1,0,0:0:0:0:
232,111,40800,6,0,B|225:48|245:1|245:1,1,104.500003189087,2|0,0:0|0:0,0:0:0:0:
363,42,41400,2,0,B|360:35|380:82|373:145,1,104.500003189087,8|0,0:0|0:0,0:0:0:0:
316,170,41850,1,0,0:0:0:0:
316,170,42000,2,0,P|314:209|330:248,1,52.2500015945435,2|0,0:3|0:0,0:0:0:0:
243,252,42300,6,0,P|193:317|133:324,1,142.500005435944,2|8,0:0|0:0,0:0:0:0:
138,325,42900,1,0,0:0:0:0:
127,200,43200,6,0,B|93:149|21:130|21:130,2,104.500003189087,2|0|8,0:0|0:0|0:0,0:0:0:0:
227,124,44100,2,0,P|255:66|263:57,1,52.2500015945435
368,108,44550,1,0,0:0:0:0:
368,108,44700,6,0,P|394:184|462:235,1,142.500005435944,2|8,0:0|0:0,0:0:0:0:
371,330,45300,1,0,0:0:0:0:
264,263,45600,6,0,B|205:252|143:268|143:268|143:268,1,104.500003189087,2|0,0:0|0:0,0:0:0:0:
43,310,46200,1,8,0:0:0:0:
60,185,46500,2,0,P|24:182|-6:184,1,52.2500015945435
63,114,46800,2,0,P|99:111|129:113,1,52.2500015945435,2|0,0:3|0:0,0:0:0:0:
68,39,47100,6,0,B|140:30|223:52|223:52,1,142.500005435944,2|8,0:0|0:0,0:0:0:0:
312,121,47700,1,2,0:0:0:0:
312,121,47850,1,2,0:3:0:0:
312,121,48000,6,0,P|332:200|364:224,1,104.500003189087,2|0,0:0|0:0,0:0:0:0:
435,274,48600,2,0,P|395:313|322:319,1,104.500003189087,8|0,0:0|0:0,0:0:0:0:
348,323,49050,1,0,0:0:0:0:
225,296,49350,1,0,0:0:0:0:
225,296,49500,6,0,B|143:291|81:322|81:322,1,142.500005435944,2|8,0:0|0:0,0:0:0:0:
22,211,50100,1,0,0:0:0:0:
128,145,50400,6,0,P|152:93|131:29,2,104.500003189087,2|0|8,0:0|0:0|0:0,0:0:0:0:
225,222,51300,2,0,P|281:226|303:222,1,52.2500015945435
272,157,51600,2,0,P|327:150|348:143,1,52.2500015945435,2|0,0:3|0:0,0:0:0:0:
298,85,51900,6,0,B|378:73|439:16|439:16,1,142.500005435944,2|8,0:0|0:0,0:0:0:0:
426,27,52500,1,2,0:0:0:0:
506,124,52800,6,0,B|503:180|491:251|491:251,1,104.500003189087,2|0,0:0|0:0,0:0:0:0:
421,330,53400,2,0,L|288:323,1,104.500003189087,8|0,0:0|0:0,0:0:0:0:
295,265,53850,2,0,L|162:272,1,104.500003189087
111,303,54300,6,0,B|115:217|99:151|99:151,1,142.500005435944,2|8,0:0|0:0,0:0:0:0:
74,38,54900,1,0,0:0:0:0:
193,76,55200,6,0,P|275:82|322:68,1,104.500003189087,2|0,0:0|0:0,0:0:0:0:
418,27,55800,6,0,L|410:130,1,85.4999973907472,8|0,0:0|0:0,0:0:0:0:
343,179,56400,6,0,L|349:252,1,66.4999979705811,2|2,0:0|0:0,0:0:0:0:
440,273,57000,6,0,L|432:340,1,47.5,8|2,0:0|0:0,0:0:0:0:
348,335,57600,6,0,B|259:309|261:372|162:339|162:339|178:254|131:158|131:158|226:186|339:189|419:123,1,665,4|0,0:0|0:0,0:0:0:0:
314,65,62400,6,0,B|280:132|295:190|354:231|359:260|359:260|218:226|215:304|72:259|72:259|38:175|73:96,1,665
167,43,67200,6,0,P|195:39|225:39,2,47.5,2|0|0,0:1|0:0|0:0,0:0:0:0:
138,113,68100,2,0,B|139:149|124:208|124:208|166:191|234:195,1,190,2|0,0:1|0:0,0:0:0:0:
287,221,69600,6,0,P|325:224|354:219,2,47.5,2|0|0,0:1|0:0|0:0,0:0:0:0:
313,149,70500,2,0,B|357:138|408:142|408:142|424:183|418:236,1,190,2|0,0:1|0:0,0:0:0:0:
387,304,72000,6,0,P|384:342|389:371,2,47.5,2|0|0,0:1|0:0|0:0,0:0:0:0:
315,276,72900,2,0,B|219:253|224:315|129:292,1,190,2|0,0:1|0:0,0:0:0:0:
87,229,74400,6,0,P|83:189|83:162,2,47.5,2|0|0,0:1|0:0|0:0,0:0:0:0:
160,200,75300,2,0,B|160:153|140:107|140:107|177:71|238:58,1,190,2|0,0:1|0:0,0:0:0:0:
256,192,76800,12,0,82800,0:0:0:0:
