osu file format v14

[General]
AudioFilename: 1-02 Coffee.mp3
AudioLeadIn: 0
PreviewTime: 0
Countdown: 0
SampleSet: Soft
StackLeniency: 0.3
Mode: 0
LetterboxInBreaks: 1
WidescreenStoryboard: 1

[Editor]
Bookmarks: 19200,38400,57600,76800
DistanceSpacing: 1.2
BeatDivisor: 4
GridSize: 16
TimelineZoom: 1

[Metadata]
Title:Coffee
TitleUnicode:Coffee
Artist:Wisp X
ArtistUnicode:Wisp X
Creator:Sinnoh
Version:Easy
Source:
Tags:featured artist mirai wispx chill chillstep piano
BeatmapID:1546828
BeatmapSetID:733211

[Difficulty]
HPDrainRate:2
CircleSize:2.2
OverallDifficulty:3
ApproachRate:4
SliderMultiplier:1.4
SliderTickRate:1

[Events]
//Background and Video events
0,0,"bg.jpg",0,0
//Break Periods
2,57799,65880
//Storyboard Layer 0 (Background)
Sprite,Background,Centre,"Glow2.png",0,0 M,0,0,6452,620.9958,0,536.9958,480 F,0,0,200,0,0.6 F,0,6252,6452,0.6,0 M,0,6857,12150,112.0028,0,51.00279,480 F,0,6857,7057,0,0.6 F,0,11950,12150,0.6,0 M,0,12428,19046,600.7603,0,516.7603,480 F,0,12428,12628,0,0.6 F,0,18846,19046,0.6,0 M,0,19285,25277,645.8388,0,571.8388,480 F,0,19285,19485,0,0.6 F,0,25077,25277,0.6,0 M,0,25285,30586,304.6525,0,240.6525,480 F,0,25285,25485,0,0.6 F,0,30386,30586,0.6,0 M,0,30857,36380,188.0501,0,138.0501,480 F,0,30857,31057,0,0.6 F,0,36180,36380,0.6,0 M,0,36428,42713,412.3203,0,362.3203,480 F,0,36428,36628,0,0.6 F,0,42513,42713,0.6,0 M,0,42857,48926,358.5143,0,273.5143,480 F,0,42857,43057,0,0.6 F,0,48726,48926,0.6,0 M,0,49285,54883,504.1547,0,447.1547,480 F,0,49285,49485,0,0.6 F,0,54683,54883,0.6,0 F,0,0,,0.6 S,0,0,,0.2 P,0,0,54883,A
Sprite,Background,Centre,"Glow2.png",0,0 M,0,428,6544,98.95232,0,27.95231,480 F,0,428,628,0,0.6 F,0,6344,6544,0.6,0 M,0,7285,13722,452.3351,0,386.3351,480 F,0,7285,7485,0,0.6 F,0,13522,13722,0.6,0 M,0,14142,19279,456.4278,0,376.4278,480 F,0,14142,14342,0,0.6 F,0,19079,19279,0.6,0 M,0,19714,24922,556.949,0,495.949,480 F,0,19714,19914,0,0.6 F,0,24722,24922,0.6,0 M,0,25714,30753,255.0675,0,167.0675,480 F,0,25714,25914,0,0.6 F,0,30553,30753,0.6,0 M,0,31285,37853,36.63321,0,-37.36679,480 F,0,31285,31485,0,0.6 F,0,37653,37853,0.6,0 M,0,38142,44436,776.1511,0,702.1511,480 F,0,38142,38342,0,0.6 F,0,44236,44436,0.6,0 M,0,44571,50709,314.0951,0,215.0951,480 F,0,44571,44771,0,0.6 F,0,50509,50709,0.6,0 M,0,50999,56653,83.57022,0,32.57022,480 F,0,50999,51199,0,0.6 F,0,56453,56653,0.6,0 F,0,428,,0.6 S,0,428,,0.2 P,0,428,56653,A
Sprite,Background,Centre,"Glow2.png",0,0 M,0,857,7669,300.6199,0,202.6199,480 F,0,857,1057,0,0.6 F,0,7469,7669,0.6,0 M,0,7714,13103,672.9755,0,584.9755,480 F,0,7714,7914,0,0.6 F,0,12903,13103,0.6,0 M,0,13285,19611,207.031,0,154.031,480 F,0,13285,13485,0,0.6 F,0,19411,19611,0.6,0 M,0,20142,27008,34.61638,0,-45.38362,480 F,0,20142,20342,0,0.6 F,0,26808,27008,0.6,0 M,0,27428,34362,424.9748,0,339.9748,480 F,0,27428,27628,0,0.6 F,0,34162,34362,0.6,0 M,0,34714,39717,762.8465,0,665.8465,480 F,0,34714,34914,0,0.6 F,0,39517,39717,0.6,0 M,0,39857,45615,662.7073,0,606.7073,480 F,0,39857,40057,0,0.6 F,0,45415,45615,0.6,0 M,0,45857,51384,-65.90813,0,-128.9081,480 F,0,45857,46057,0,0.6 F,0,51184,51384,0.6,0 M,0,51428,57658,425.9135,0,331.9135,480 F,0,51428,51628,0,0.6 F,0,57458,57658,0.6,0 F,0,857,,0.6 S,0,857,,0.2 P,0,857,57658,A
Sprite,Background,Centre,"Glow2.png",0,0 M,0,1285,6832,172.288,0,107.288,480 F,0,1285,1485,0,0.6 F,0,6632,6832,0.6,0 M,0,8142,14612,655.9192,0,576.9192,480 F,0,8142,8342,0,0.6 F,0,14412,14612,0.6,0 M,0,15000,21857,-20.19056,0,-113.1906,480 F,0,15000,15200,0,0.6 F,0,21657,21857,0.6,0 M,0,21857,27994,-22.8251,0,-74.8251,480 F,0,21857,22057,0,0.6 F,0,27794,27994,0.6,0 M,0,28285,35056,753.8457,0,702.8457,480 F,0,28285,28485,0,0.6 F,0,34856,35056,0.6,0 M,0,35142,40456,582.5074,0,542.5074,480 F,0,35142,35342,0,0.6 F,0,40256,40456,0.6,0 M,0,40714,46796,369.2242,0,324.2242,480 F,0,40714,40914,0,0.6 F,0,46596,46796,0.6,0 M,0,47142,54032,650.3824,0,557.3824,480 F,0,47142,47342,0,0.6 F,0,53832,54032,0.6,0 F,0,1285,,0.6 S,0,1285,,0.2 P,0,1285,54032,A
Sprite,Background,Centre,"Glow2.png",0,0 M,0,1714,7979,323.9631,0,225.9632,480 F,0,1714,1914,0,0.6 F,0,7779,7979,0.6,0 M,0,8571,14820,109.5194,0,16.51939,480 F,0,8571,8771,0,0.6 F,0,14620,14820,0.6,0 M,0,15428,21785,3.257246,0,-40.74275,480 F,0,15428,15628,0,0.6 F,0,21585,21785,0.6,0 M,0,22285,28970,408.1454,0,332.1454,480 F,0,22285,22485,0,0.6 F,0,28770,28970,0.6,0 M,0,29142,35907,388.1373,0,302.1373,480 F,0,29142,29342,0,0.6 F,0,35707,35907,0.6,0 M,0,35999,42464,10.04298,0,-78.95702,480 F,0,35999,36199,0,0.6 F,0,42264,42464,0.6,0 M,0,43285,49249,9.431193,0,-53.56881,480 F,0,43285,43485,0,0.6 F,0,49049,49249,0.6,0 M,0,49714,55647,605.5667,0,556.5667,480 F,0,49714,49914,0,0.6 F,0,55447,55647,0.6,0 F,0,1714,,0.6 S,0,1714,,0.2 P,0,1714,55647,A
Sprite,Background,Centre,"Glow2.png",0,0 M,0,2142,7202,659.4641,0,560.4641,480 F,0,2142,2342,0,0.6 F,0,7002,7202,0.6,0 M,0,9000,15792,-3.06078,0,-92.06078,480 F,0,9000,9200,0,0.6 F,0,15592,15792,0.6,0 M,0,15857,21070,443.8292,0,347.8292,480 F,0,15857,16057,0,0.6 F,0,20870,21070,0.6,0 M,0,21428,27646,137.1391,0,38.13907,480 F,0,21428,21628,0,0.6 F,0,27446,27646,0.6,0 M,0,27857,33505,282.0432,0,184.0432,480 F,0,27857,28057,0,0.6 F,0,33305,33505,0.6,0 M,0,33857,40132,196.0342,0,138.0342,480 F,0,33857,34057,0,0.6 F,0,39932,40132,0.6,0 M,0,40285,46858,367.0458,0,279.0458,480 F,0,40285,40485,0,0.6 F,0,46658,46858,0.6,0 M,0,47571,53504,644.0661,0,586.0661,480 F,0,47571,47771,0,0.6 F,0,53304,53504,0.6,0 F,0,2142,,0.6 S,0,2142,,0.2 P,0,2142,53504,A
Sprite,Background,Centre,"Glow2.png",0,0 M,0,2571,8925,191.6614,0,103.6614,480 F,0,2571,2771,0,0.6 F,0,8725,8925,0.6,0 M,0,9428,14768,473.0745,0,385.0745,480 F,0,9428,9628,0,0.6 F,0,14568,14768,0.6,0 M,0,16285,22266,49.44005,0,-29.55995,480 F,0,16285,16485,0,0.6 F,0,22066,22266,0.6,0 M,0,22714,28746,751.4887,0,711.4887,480 F,0,22714,22914,0,0.6 F,0,28546,28746,0.6,0 M,0,29571,35599,223.9355,0,124.9355,480 F,0,29571,29771,0,0.6 F,0,35399,35599,0.6,0 M,0,36857,43531,657.082,0,593.082,480 F,0,36857,37057,0,0.6 F,0,43331,43531,0.6,0 M,0,43714,48952,657.1265,0,586.1265,480 F,0,43714,43914,0,0.6 F,0,48752,48952,0.6,0 M,0,50142,56960,366.7844,0,275.7844,480 F,0,50142,50342,0,0.6 F,0,56760,56960,0.6,0 F,0,2571,,0.6 S,0,2571,,0.2 P,0,2571,56960,A
Sprite,Background,Centre,"Glow2.png",0,0 M,0,2999,9696,770.0845,0,733.0845,480 F,0,2999,3199,0,0.6 F,0,9496,9696,0.6,0 M,0,9857,15295,776.9767,0,710.9767,480 F,0,9857,10057,0,0.6 F,0,15095,15295,0.6,0 M,0,16714,22853,115.4943,0,40.49427,480 F,0,16714,16914,0,0.6 F,0,22653,22853,0.6,0 M,0,23142,29167,56.02358,0,-30.97642,480 F,0,23142,23342,0,0.6 F,0,28967,29167,0.6,0 M,0,29999,35065,513.7352,0,471.7352,480 F,0,29999,30199,0,0.6 F,0,34865,35065,0.6,0 M,0,35571,40952,-23.62283,0,-65.62283,480 F,0,35571,35771,0,0.6 F,0,40752,40952,0.6,0 M,0,41142,47410,395.4619,0,340.4619,480 F,0,41142,41342,0,0.6 F,0,47210,47410,0.6,0 M,0,47999,54102,182.8648,0,120.8648,480 F,0,47999,48199,0,0.6 F,0,53902,54102,0.6,0 F,0,2999,,0.6 S,0,2999,,0.2 P,0,2999,54102,A
Sprite,Background,Centre,"Glow2.png",0,0 M,0,3428,9827,372.4467,0,277.4467,480 F,0,3428,3628,0,0.6 F,0,9627,9827,0.6,0 M,0,10285,16589,537.646,0,450.646,480 F,0,10285,10485,0,0.6 F,0,16389,16589,0.6,0 M,0,17142,22152,231.2419,0,141.2419,480 F,0,17142,17342,0,0.6 F,0,21952,22152,0.6,0 M,0,23571,29856,414.386,0,344.386,480 F,0,23571,23771,0,0.6 F,0,29656,29856,0.6,0 M,0,30428,35817,347.0254,0,275.0254,480 F,0,30428,30628,0,0.6 F,0,35617,35817,0.6,0 M,0,37285,44099,608.9058,0,544.9058,480 F,0,37285,37485,0,0.6 F,0,43899,44099,0.6,0 M,0,44142,50546,470.1349,0,434.1349,480 F,0,44142,44342,0,0.6 F,0,50346,50546,0.6,0 M,0,50571,57470,154.3586,0,87.35856,480 F,0,50571,50771,0,0.6 F,0,57270,57470,0.6,0 F,0,3428,,0.6 S,0,3428,,0.2 P,0,3428,57470,A
Sprite,Background,Centre,"Glow2.png",0,0 M,0,3857,10232,389.9804,0,349.9804,480 F,0,3857,4057,0,0.6 F,0,10032,10232,0.6,0 M,0,10714,15915,545.6463,0,464.6463,480 F,0,10714,10914,0,0.6 F,0,15715,15915,0.6,0 M,0,17571,22695,163.5268,0,83.52676,480 F,0,17571,17771,0,0.6 F,0,22495,22695,0.6,0 M,0,23999,30343,772.3427,0,718.3427,480 F,0,23999,24199,0,0.6 F,0,30143,30343,0.6,0 M,0,31714,37832,482.8989,0,425.8989,480 F,0,31714,31914,0,0.6 F,0,37632,37832,0.6,0 M,0,38571,43750,455.76,0,356.76,480 F,0,38571,38771,0,0.6 F,0,43550,43750,0.6,0 M,0,44999,50243,25.9068,0,-27.0932,480 F,0,44999,45199,0,0.6 F,0,50043,50243,0.6,0 F,0,3857,,0.6 S,0,3857,,0.2 P,0,3857,50243,A
Sprite,Background,Centre,"Glow2.png",0,0 M,0,4285,9659,310.1414,0,256.1414,480 F,0,4285,4485,0,0.6 F,0,9459,9659,0.6,0 M,0,11142,16393,696.0206,0,649.0206,480 F,0,11142,11342,0,0.6 F,0,16193,16393,0.6,0 M,0,18000,24917,767.4458,0,707.4458,480 F,0,18000,18200,0,0.6 F,0,24717,24917,0.6,0 M,0,26142,31547,703.2394,0,667.2394,480 F,0,26142,26342,0,0.6 F,0,31347,31547,0.6,0 M,0,32142,37188,6.082178,0,-85.91782,480 F,0,32142,32342,0,0.6 F,0,36988,37188,0.6,0 M,0,37714,43394,587.5276,0,525.5276,480 F,0,37714,37914,0,0.6 F,0,43194,43394,0.6,0 M,0,45428,51689,605.5855,0,554.5855,480 F,0,45428,45628,0,0.6 F,0,51489,51689,0.6,0 F,0,4285,,0.6 S,0,4285,,0.2 P,0,4285,51689,A
Sprite,Background,Centre,"Glow2.png",0,0 M,0,4714,11691,471.8636,0,387.8636,480 F,0,4714,4914,0,0.6 F,0,11491,11691,0.6,0 M,0,12000,18342,323.0117,0,234.0117,480 F,0,12000,12200,0,0.6 F,0,18142,18342,0.6,0 M,0,18428,24473,162.3978,0,95.39783,480 F,0,18428,18628,0,0.6 F,0,24273,24473,0.6,0 M,0,24857,30289,-15.77708,0,-64.77708,480 F,0,24857,25057,0,0.6 F,0,30089,30289,0.6,0 M,0,32571,38992,684.8867,0,607.8867,480 F,0,32571,32771,0,0.6 F,0,38792,38992,0.6,0 M,0,38999,45745,383.7705,0,340.7705,480 F,0,38999,39199,0,0.6 F,0,45545,45745,0.6,0 M,0,46285,51873,640.1501,0,552.1501,480 F,0,46285,46485,0,0.6 F,0,51673,51873,0.6,0 F,0,4714,,0.6 S,0,4714,,0.2 P,0,4714,51873,A
Sprite,Background,Centre,"Glow2.png",0,0 M,0,5142,10202,248.3779,0,191.3779,480 F,0,5142,5342,0,0.6 F,0,10002,10202,0.6,0 M,0,11571,17524,384.8391,0,328.8391,480 F,0,11571,11771,0,0.6 F,0,17324,17524,0.6,0 M,0,18857,24920,-28.31483,0,-81.31483,480 F,0,18857,19057,0,0.6 F,0,24720,24920,0.6,0 M,0,26571,32589,745.3077,0,646.3077,480 F,0,26571,26771,0,0.6 F,0,32389,32589,0.6,0 M,0,32999,38509,149.1674,0,84.16743,480 F,0,32999,33199,0,0.6 F,0,38309,38509,0.6,0 M,0,39428,44431,399.0755,0,321.0755,480 F,0,39428,39628,0,0.6 F,0,44231,44431,0.6,0 M,0,46714,52775,735.635,0,687.635,480 F,0,46714,46914,0,0.6 F,0,52575,52775,0.6,0 F,0,5142,,0.6 S,0,5142,,0.2 P,0,5142,52775,A
Sprite,Background,Centre,"Glow2.png",0,0 M,0,5571,12485,354.3803,0,273.3803,480 F,0,5571,5771,0,0.6 F,0,12285,12485,0.6,0 M,0,12857,19732,174.9273,0,106.9273,480 F,0,12857,13057,0,0.6 F,0,19532,19732,0.6,0 M,0,20571,26801,632.305,0,553.305,480 F,0,20571,20771,0,0.6 F,0,26601,26801,0.6,0 M,0,26999,32032,481.1049,0,428.1049,480 F,0,26999,27199,0,0.6 F,0,31832,32032,0.6,0 M,0,33428,38819,680.9973,0,614.9973,480 F,0,33428,33628,0,0.6 F,0,38619,38819,0.6,0 M,0,41571,47070,606.7382,0,542.7382,480 F,0,41571,41771,0,0.6 F,0,46870,47070,0.6,0 M,0,48428,54209,283.2096,0,205.2096,480 F,0,48428,48628,0,0.6 F,0,54009,54209,0.6,0 F,0,5571,,0.6 S,0,5571,,0.2 P,0,5571,54209,A
Sprite,Background,Centre,"Glow2.png",0,0 M,0,5999,11237,156.5276,0,63.52757,480 F,0,5999,6199,0,0.6 F,0,11037,11237,0.6,0 M,0,13714,20355,113.0303,0,66.03031,480 F,0,13714,13914,0,0.6 F,0,20155,20355,0.6,0 M,0,21000,27139,70.54355,0,24.54355,480 F,0,21000,21200,0,0.6 F,0,26939,27139,0.6,0 M,0,28714,33978,689.2543,0,643.2543,480 F,0,28714,28914,0,0.6 F,0,33778,33978,0.6,0 M,0,34285,39774,773.0892,0,699.0892,480 F,0,34285,34485,0,0.6 F,0,39574,39774,0.6,0 M,0,41999,48842,211.1371,0,164.1371,480 F,0,41999,42199,0,0.6 F,0,48642,48842,0.6,0 M,0,48857,55058,718.9258,0,624.9258,480 F,0,48857,49057,0,0.6 F,0,54858,55058,0.6,0 F,0,5999,,0.6 S,0,5999,,0.2 P,0,5999,55058,A
Sprite,Background,Centre,"Glow2.png",0,0 M,0,6428,13017,210.9349,0,146.9349,480 F,0,6428,6628,0,0.6 F,0,12817,13017,0.6,0 M,0,14571,20831,715.2023,0,666.2023,480 F,0,14571,14771,0,0.6 F,0,20631,20831,0.6,0 M,0,24428,29556,320.7104,0,254.7104,480 F,0,24428,24628,0,0.6 F,0,29356,29556,0.6,0 M,0,42428,47728,487.786,0,439.786,480 F,0,42428,42628,0,0.6 F,0,47528,47728,0.6,0 F,0,6428,,0.6 S,0,6428,,0.2 P,0,6428,47728,A
Sprite,Background,Centre,"bg.jpg",320,240 S,0,0,,0.4928131 F,0,0,,0 F,0,10,,0
Sprite,Background,Centre,"blur.jpg",320,240 S,0,0,,0.4928131 F,0,0,4800,0,0.6 F,0,55200,57600,0.6,0
Sprite,Background,Centre,"blur.jpg",320,240 S,0,55200,,0.4928131 F,0,55200,65200,0,0.3 F,0,76500,83700,0.3,0
Sprite,Background,Centre,"blur.jpg",320,240 S,0,38400,40900,0.4928131,0.6406571 F,0,38400,,0.4 F,0,38400,41900,0.4,0
Sprite,Background,Centre,"blur.jpg",320,240 S,0,19200,21700,0.4928131,0.6406571 F,0,19200,,0.4 F,0,19200,22700,0.4,0
Sprite,Background,Centre,"Glow2.png",0,0 M,0,19050,22637,518.7344,0,427.7343,480 F,0,19050,19250,0,0.6 F,0,22437,22637,0.6,0 M,0,22800,26673,228.582,0,161.582,480 F,0,22800,23000,0,0.6 F,0,26473,26673,0.6,0 M,0,26800,31304,771.5342,0,730.5342,480 F,0,26800,27000,0,0.6 F,0,31104,31304,0.6,0 M,0,31550,35564,62.64802,0,-28.35198,480 F,0,31550,31750,0,0.6 F,0,35364,35564,0.6,0 M,0,35800,40215,224.4265,0,182.4265,480 F,0,35800,36000,0,0.6 F,0,40015,40215,0.6,0 M,0,40300,43630,626.1592,0,570.1592,480 F,0,40300,40500,0,0.6 F,0,43430,43630,0.6,0 M,0,43800,47129,90.92579,0,28.92579,480 F,0,43800,44000,0,0.6 F,0,46929,47129,0.6,0 M,0,47300,50941,684.5906,0,600.5906,480 F,0,47300,47500,0,0.6 F,0,50741,50941,0.6,0 M,0,51050,55635,168.0249,0,109.0249,480 F,0,51050,51250,0,0.6 F,0,55435,55635,0.6,0 F,0,19050,,0.6 S,0,19050,,0.2 P,0,19050,55635,A
Sprite,Background,Centre,"Glow2.png",0,0 M,0,19300,22696,401.6588,0,355.6588,480 F,0,19300,19500,0,0.6 F,0,22496,22696,0.6,0 M,0,23050,26929,450.6207,0,366.6207,480 F,0,23050,23250,0,0.6 F,0,26729,26929,0.6,0 M,0,27050,32005,763.2393,0,694.2393,480 F,0,27050,27250,0,0.6 F,0,31805,32005,0.6,0 M,0,32050,35776,610.3793,0,526.3793,480 F,0,32050,32250,0,0.6 F,0,35576,35776,0.6,0 M,0,36050,40094,576.9548,0,484.9548,480 F,0,36050,36250,0,0.6 F,0,39894,40094,0.6,0 M,0,40550,44516,562.7041,0,519.7041,480 F,0,40550,40750,0,0.6 F,0,44316,44516,0.6,0 M,0,44550,49006,583.4897,0,515.4897,480 F,0,44550,44750,0,0.6 F,0,48806,49006,0.6,0 M,0,49050,52122,470.7916,0,408.7916,480 F,0,49050,49250,0,0.6 F,0,51922,52122,0.6,0 M,0,52300,56509,419.0179,0,350.0179,480 F,0,52300,52500,0,0.6 F,0,56309,56509,0.6,0 F,0,19300,,0.6 S,0,19300,,0.2 P,0,19300,56509,A
Sprite,Background,Centre,"Glow2.png",0,0 M,0,19550,23050,731.9354,0,674.9354,480 F,0,19550,19750,0,0.6 F,0,22850,23050,0.6,0 M,0,23300,26441,606.2878,0,565.2878,480 F,0,23300,23500,0,0.6 F,0,26241,26441,0.6,0 M,0,26550,30938,547.3751,0,498.3751,480 F,0,26550,26750,0,0.6 F,0,30738,30938,0.6,0 M,0,31050,34089,248.9063,0,178.9063,480 F,0,31050,31250,0,0.6 F,0,33889,34089,0.6,0 M,0,34300,38836,-28.94005,0,-97.94005,480 F,0,34300,34500,0,0.6 F,0,38636,38836,0.6,0 M,0,39050,43344,314.0406,0,232.0406,480 F,0,39050,39250,0,0.6 F,0,43144,43344,0.6,0 M,0,43550,46883,7.595651,0,-50.40435,480 F,0,43550,43750,0,0.6 F,0,46683,46883,0.6,0 M,0,47050,51420,235.2855,0,159.2855,480 F,0,47050,47250,0,0.6 F,0,51220,51420,0.6,0 M,0,51550,56364,453.8587,0,395.8587,480 F,0,51550,51750,0,0.6 F,0,56164,56364,0.6,0 F,0,19550,,0.6 S,0,19550,,0.2 P,0,19550,56364,A
Sprite,Background,Centre,"Glow2.png",0,0 M,0,19800,23559,351.7916,0,264.7916,480 F,0,19800,20000,0,0.6 F,0,23359,23559,0.6,0 M,0,23800,28368,97.66936,0,56.66935,480 F,0,23800,24000,0,0.6 F,0,28168,28368,0.6,0 M,0,28550,31563,485.0666,0,412.0666,480 F,0,28550,28750,0,0.6 F,0,31363,31563,0.6,0 M,0,31800,36132,277.5383,0,228.5383,480 F,0,31800,32000,0,0.6 F,0,35932,36132,0.6,0 M,0,36300,40171,739.5536,0,682.5536,480 F,0,36300,36500,0,0.6 F,0,39971,40171,0.6,0 M,0,40800,44896,4.244221,0,-67.75578,480 F,0,40800,41000,0,0.6 F,0,44696,44896,0.6,0 M,0,45050,48454,542.0757,0,472.0757,480 F,0,45050,45250,0,0.6 F,0,48254,48454,0.6,0 M,0,48550,52486,256.6143,0,178.6143,480 F,0,48550,48750,0,0.6 F,0,52286,52486,0.6,0 M,0,52550,57467,752.2804,0,654.2804,480 F,0,52550,52750,0,0.6 F,0,57267,57467,0.6,0 F,0,19800,,0.6 S,0,19800,,0.2 P,0,19800,57467,A
Sprite,Background,Centre,"Glow2.png",0,0 M,0,20050,24440,-51.14286,0,-91.14285,480 F,0,20050,20250,0,0.6 F,0,24240,24440,0.6,0 M,0,24550,28161,462.0931,0,405.0931,480 F,0,24550,24750,0,0.6 F,0,27961,28161,0.6,0 M,0,28300,31925,87.36671,0,10.36671,480 F,0,28300,28500,0,0.6 F,0,31725,31925,0.6,0 M,0,32300,36443,421.4701,0,333.4701,480 F,0,32300,32500,0,0.6 F,0,36243,36443,0.6,0 M,0,36550,40151,41.69514,0,-23.30486,480 F,0,36550,36750,0,0.6 F,0,39951,40151,0.6,0 M,0,41050,44867,331.4562,0,257.4562,480 F,0,41050,41250,0,0.6 F,0,44667,44867,0.6,0 M,0,45300,50177,539.3459,0,494.3459,480 F,0,45300,45500,0,0.6 F,0,49977,50177,0.6,0 M,0,50300,53689,463.481,0,387.481,480 F,0,50300,50500,0,0.6 F,0,53489,53689,0.6,0 F,0,20050,,0.6 S,0,20050,,0.2 P,0,20050,53689,A
Sprite,Background,Centre,"Glow2.png",0,0 M,0,20300,25107,28.42405,0,-61.57595,480 F,0,20300,20500,0,0.6 F,0,24907,25107,0.6,0 M,0,25300,29632,562.3591,0,470.3591,480 F,0,25300,25500,0,0.6 F,0,29432,29632,0.6,0 M,0,29800,33927,510.9005,0,426.9005,480 F,0,29800,30000,0,0.6 F,0,33727,33927,0.6,0 M,0,34050,37287,694.3869,0,627.3869,480 F,0,34050,34250,0,0.6 F,0,37087,37287,0.6,0 M,0,37300,42132,181.0715,0,129.0715,480 F,0,37300,37500,0,0.6 F,0,41932,42132,0.6,0 M,0,42300,46816,92.7056,0,45.7056,480 F,0,42300,42500,0,0.6 F,0,46616,46816,0.6,0 M,0,47550,51016,192.9209,0,100.9209,480 F,0,47550,47750,0,0.6 F,0,50816,51016,0.6,0 M,0,51300,55649,128.8783,0,86.87825,480 F,0,51300,51500,0,0.6 F,0,55449,55649,0.6,0 F,0,20300,,0.6 S,0,20300,,0.2 P,0,20300,55649,A
Sprite,Background,Centre,"Glow2.png",0,0 M,0,20550,25066,329.6803,0,280.6803,480 F,0,20550,20750,0,0.6 F,0,24866,25066,0.6,0 M,0,25550,29733,398.9117,0,357.9117,480 F,0,25550,25750,0,0.6 F,0,29533,29733,0.6,0 M,0,30050,33766,231.8075,0,169.8075,480 F,0,30050,30250,0,0.6 F,0,33566,33766,0.6,0 M,0,33800,37248,212.7499,0,170.7499,480 F,0,33800,34000,0,0.6 F,0,37048,37248,0.6,0 M,0,37550,42318,-56.92776,0,-131.9278,480 F,0,37550,37750,0,0.6 F,0,42118,42318,0.6,0 M,0,42550,47202,714.6575,0,654.6575,480 F,0,42550,42750,0,0.6 F,0,47002,47202,0.6,0 M,0,47800,50886,-61.10122,0,-107.1012,480 F,0,47800,48000,0,0.6 F,0,50686,50886,0.6,0 M,0,51800,55337,165.9661,0,114.9661,480 F,0,51800,52000,0,0.6 F,0,55137,55337,0.6,0 F,0,20550,,0.6 S,0,20550,,0.2 P,0,20550,55337,A
Sprite,Background,Centre,"Glow2.png",0,0 M,0,20800,24968,349.0753,0,309.0753,480 F,0,20800,21000,0,0.6 F,0,24768,24968,0.6,0 M,0,25050,30046,6.288832,0,-71.71117,480 F,0,25050,25250,0,0.6 F,0,29846,30046,0.6,0 M,0,30300,34042,644.583,0,554.583,480 F,0,30300,30500,0,0.6 F,0,33842,34042,0.6,0 M,0,34550,39337,514.1021,0,418.1021,480 F,0,34550,34750,0,0.6 F,0,39137,39337,0.6,0 M,0,39550,43698,313.0991,0,246.0991,480 F,0,39550,39750,0,0.6 F,0,43498,43698,0.6,0 M,0,44050,47563,456.0272,0,389.0272,480 F,0,44050,44250,0,0.6 F,0,47363,47563,0.6,0 M,0,48050,52943,117.4246,0,58.42457,480 F,0,48050,48250,0,0.6 F,0,52743,52943,0.6,0 M,0,53050,57071,156.4264,0,72.42638,480 F,0,53050,53250,0,0.6 F,0,56871,57071,0.6,0 F,0,20800,,0.6 S,0,20800,,0.2 P,0,20800,57071,A
Sprite,Background,Centre,"Glow2.png",0,0 M,0,21050,26037,312.2815,0,244.2815,480 F,0,21050,21250,0,0.6 F,0,25837,26037,0.6,0 M,0,26050,30527,114.1505,0,51.15048,480 F,0,26050,26250,0,0.6 F,0,30327,30527,0.6,0 M,0,30550,34606,501.9372,0,457.9372,480 F,0,30550,30750,0,0.6 F,0,34406,34606,0.6,0 M,0,34800,38194,-70.18788,0,-107.1879,480 F,0,34800,35000,0,0.6 F,0,37994,38194,0.6,0 M,0,38300,42945,373.032,0,305.032,480 F,0,38300,38500,0,0.6 F,0,42745,42945,0.6,0 M,0,43050,48037,367.7878,0,294.7878,480 F,0,43050,43250,0,0.6 F,0,47837,48037,0.6,0 M,0,48300,51689,758.4027,0,697.4027,480 F,0,48300,48500,0,0.6 F,0,51489,51689,0.6,0 M,0,52050,55721,684.0413,0,642.0413,480 F,0,52050,52250,0,0.6 F,0,55521,55721,0.6,0 F,0,21050,,0.6 S,0,21050,,0.2 P,0,21050,55721,A
Sprite,Background,Centre,"Glow2.png",0,0 M,0,21300,25392,243.6381,0,176.6381,480 F,0,21300,21500,0,0.6 F,0,25192,25392,0.6,0 M,0,25800,28818,13.98345,0,-70.01656,480 F,0,25800,26000,0,0.6 F,0,28618,28818,0.6,0 M,0,29050,33680,692.8975,0,634.8975,480 F,0,29050,29250,0,0.6 F,0,33480,33680,0.6,0 M,0,35050,38249,739.7057,0,698.7057,480 F,0,35050,35250,0,0.6 F,0,38049,38249,0.6,0 M,0,38550,42921,273.9356,0,203.9356,480 F,0,38550,38750,0,0.6 F,0,42721,42921,0.6,0 M,0,43300,46741,697.6431,0,630.6431,480 F,0,43300,43500,0,0.6 F,0,46541,46741,0.6,0 M,0,46800,51218,351.0841,0,279.0841,480 F,0,46800,47000,0,0.6 F,0,51018,51218,0.6,0 M,0,52800,55842,495.0194,0,453.0194,480 F,0,52800,53000,0,0.6 F,0,55642,55842,0.6,0 F,0,21300,,0.6 S,0,21300,,0.2 P,0,21300,55842,A
Sprite,Background,Centre,"Glow2.png",0,0 M,0,21550,25139,130.9897,0,63.98969,480 F,0,21550,21750,0,0.6 F,0,24939,25139,0.6,0 M,0,26300,30108,152.0029,0,54.00285,480 F,0,26300,26500,0,0.6 F,0,29908,30108,0.6,0 M,0,30800,35281,754.1432,0,710.1432,480 F,0,30800,31000,0,0.6 F,0,35081,35281,0.6,0 M,0,35300,38950,44.45847,0,3.458465,480 F,0,35300,35500,0,0.6 F,0,38750,38950,0.6,0 M,0,39300,43511,688.4254,0,597.4254,480 F,0,39300,39500,0,0.6 F,0,43311,43511,0.6,0 M,0,44300,48221,165.261,0,126.261,480 F,0,44300,44500,0,0.6 F,0,48021,48221,0.6,0 M,0,48800,51927,-71.86989,0,-130.8699,480 F,0,48800,49000,0,0.6 F,0,51727,51927,0.6,0 M,0,53300,56353,358.0398,0,285.0398,480 F,0,53300,53500,0,0.6 F,0,56153,56353,0.6,0 F,0,21550,,0.6 S,0,21550,,0.2 P,0,21550,56353,A
Sprite,Background,Centre,"Glow2.png",0,0 M,0,21800,24927,512.4593,0,419.4593,480 F,0,21800,22000,0,0.6 F,0,24727,24927,0.6,0 M,0,27300,30760,34.67855,0,-47.32145,480 F,0,27300,27500,0,0.6 F,0,30560,30760,0.6,0 M,0,31300,35447,559.7356,0,503.7356,480 F,0,31300,31500,0,0.6 F,0,35247,35447,0.6,0 M,0,35550,39945,626.6677,0,564.6677,480 F,0,35550,35750,0,0.6 F,0,39745,39945,0.6,0 M,0,40050,43638,590.2085,0,522.2085,480 F,0,40050,40250,0,0.6 F,0,43438,43638,0.6,0 M,0,44800,49154,468.5884,0,398.5884,480 F,0,44800,45000,0,0.6 F,0,48954,49154,0.6,0 M,0,49300,52984,90.33067,0,37.33067,480 F,0,49300,49500,0,0.6 F,0,52784,52984,0.6,0 M,0,53550,57517,85.30117,0,18.30117,480 F,0,53550,53750,0,0.6 F,0,57317,57517,0.6,0 F,0,21800,,0.6 S,0,21800,,0.2 P,0,21800,57517,A
Sprite,Background,Centre,"Glow2.png",0,0 M,0,22050,26080,286.3778,0,196.3778,480 F,0,22050,22250,0,0.6 F,0,25880,26080,0.6,0 M,0,27550,30878,137.1977,0,88.19768,480 F,0,27550,27750,0,0.6 F,0,30678,30878,0.6,0 M,0,32550,36747,663.9595,0,600.9595,480 F,0,32550,32750,0,0.6 F,0,36547,36747,0.6,0 M,0,36800,41085,310.0744,0,231.0744,480 F,0,36800,37000,0,0.6 F,0,40885,41085,0.6,0 M,0,41300,46200,740.2781,0,703.2781,480 F,0,41300,41500,0,0.6 F,0,46000,46200,0.6,0 M,0,46300,49473,225.5347,0,179.5347,480 F,0,46300,46500,0,0.6 F,0,49273,49473,0.6,0 M,0,49550,53474,344.0297,0,295.0297,480 F,0,49550,49750,0,0.6 F,0,53274,53474,0.6,0 F,0,22050,,0.6 S,0,22050,,0.2 P,0,22050,53474,A
Sprite,Background,Centre,"Glow2.png",0,0 M,0,22300,26621,613.2173,0,543.2173,480 F,0,22300,22500,0,0.6 F,0,26421,26621,0.6,0 M,0,27800,30921,-15.18688,0,-95.18688,480 F,0,27800,28000,0,0.6 F,0,30721,30921,0.6,0 M,0,32800,36192,738.0235,0,649.0235,480 F,0,32800,33000,0,0.6 F,0,35992,36192,0.6,0 M,0,37050,40701,631.9573,0,544.9573,480 F,0,37050,37250,0,0.6 F,0,40501,40701,0.6,0 M,0,41550,44810,721.7702,0,649.7702,480 F,0,41550,41750,0,0.6 F,0,44610,44810,0.6,0 M,0,45550,48922,596.7648,0,500.7647,480 F,0,45550,45750,0,0.6 F,0,48722,48922,0.6,0 M,0,49800,54751,139.6458,0,81.64577,480 F,0,49800,50000,0,0.6 F,0,54551,54751,0.6,0 F,0,22300,,0.6 S,0,22300,,0.2 P,0,22300,54751,A
Sprite,Background,Centre,"Glow2.png",0,0 M,0,22550,27220,446.4537,0,380.4537,480 F,0,22550,22750,0,0.6 F,0,27020,27220,0.6,0 M,0,28050,31912,33.616,0,-63.384,480 F,0,28050,28250,0,0.6 F,0,31712,31912,0.6,0 M,0,33050,36491,465.467,0,378.467,480 F,0,33050,33250,0,0.6 F,0,36291,36491,0.6,0 M,0,37800,42346,471.1094,0,415.1094,480 F,0,37800,38000,0,0.6 F,0,42146,42346,0.6,0 M,0,42800,47039,374.2864,0,291.2864,480 F,0,42800,43000,0,0.6 F,0,46839,47039,0.6,0 M,0,50050,54099,662.3384,0,569.3384,480 F,0,50050,50250,0,0.6 F,0,53899,54099,0.6,0 F,0,22550,,0.6 S,0,22550,,0.2 P,0,22550,54099,A
Sprite,Background,Centre,"Glow2.png",0,0 M,0,23550,28141,528.8766,0,481.8766,480 F,0,23550,23750,0,0.6 F,0,27941,28141,0.6,0 M,0,28800,33428,19.44546,0,-70.55454,480 F,0,28800,29000,0,0.6 F,0,33228,33428,0.6,0 M,0,33550,37970,-13.60278,0,-108.6028,480 F,0,33550,33750,0,0.6 F,0,37770,37970,0.6,0 M,0,38050,41731,251.5732,0,156.5732,480 F,0,38050,38250,0,0.6 F,0,41531,41731,0.6,0 M,0,41800,45841,152.7435,0,63.74347,480 F,0,41800,42000,0,0.6 F,0,45641,45841,0.6,0 M,0,46050,49959,699.5167,0,663.5167,480 F,0,46050,46250,0,0.6 F,0,49759,49959,0.6,0 M,0,50550,54658,274.5833,0,182.5832,480 F,0,50550,50750,0,0.6 F,0,54458,54658,0.6,0 F,0,23550,,0.6 S,0,23550,,0.2 P,0,23550,54658,A
Sprite,Background,Centre,"Glow2.png",0,0 M,0,24050,28384,524.0051,0,452.0051,480 F,0,24050,24250,0,0.6 F,0,28184,28384,0.6,0 M,0,29300,33018,345.5383,0,268.5383,480 F,0,29300,29500,0,0.6 F,0,32818,33018,0.6,0 M,0,33300,37782,167.115,0,104.115,480 F,0,33300,33500,0,0.6 F,0,37582,37782,0.6,0 M,0,38800,42580,133.3031,0,80.30305,480 F,0,38800,39000,0,0.6 F,0,42380,42580,0.6,0 M,0,45800,50532,740.061,0,677.061,480 F,0,45800,46000,0,0.6 F,0,50332,50532,0.6,0 M,0,50800,55492,42.45481,0,-0.545186,480 F,0,50800,51000,0,0.6 F,0,55292,55492,0.6,0 F,0,24050,,0.6 S,0,24050,,0.2 P,0,24050,55492,A
Sprite,Background,Centre,"Glow2.png",0,0 M,0,24300,29003,-4.153841,0,-55.15384,480 F,0,24300,24500,0,0.6 F,0,28803,29003,0.6,0 M,0,29550,33503,133.2609,0,92.26088,480 F,0,29550,29750,0,0.6 F,0,33303,33503,0.6,0 M,0,39800,43627,776.7582,0,721.7582,480 F,0,39800,40000,0,0.6 F,0,43427,43627,0.6,0 M,0,46550,50513,231.8048,0,191.8048,480 F,0,46550,46750,0,0.6 F,0,50313,50513,0.6,0 F,0,24300,,0.6 S,0,24300,,0.2 P,0,24300,50513,A
Sprite,Background,Centre,"Glow2.png",0,0 M,0,24800,28178,254.7683,0,174.7683,480 F,0,24800,25000,0,0.6 F,0,27978,28178,0.6,0 M,0,42050,46102,161.1619,0,118.1619,480 F,0,42050,42250,0,0.6 F,0,45902,46102,0.6,0 F,0,24800,,0.6 S,0,24800,,0.2 P,0,24800,46102,A
//Storyboard Layer 1 (Fail)
//Storyboard Layer 2 (Pass)
//Storyboard Layer 3 (Foreground)
Sprite,Foreground,Centre,"Glow2.png",0,0 S,2,0,800,5,1 F,2,0,800,1,0 P,0,0,800,A C,0,0,,239,63,107 M,0,0,75,198,129,180.6719,126.5732 M,0,75,150,180.6719,126.5732,163.2378,125.0956 M,0,150,225,163.2378,125.0956,145.7497,124.5714 M,0,225,300,145.7497,124.5714,128.2597,125.0022 M,0,300,375,128.2597,125.0022,145.7497,124.5714 M,0,375,450,145.7497,124.5714,163.2378,125.0956 M,0,450,525,163.2378,125.0956,180.6719,126.5732 M,0,525,600,180.6719,126.5732,198,129
Sprite,Foreground,Centre,"Glow2.png",0,0 S,2,900,1700,5,1 F,2,900,1700,1,0 P,0,900,1700,A C,0,900,,239,63,107 M,0,900,975,280,144,279.068,161.4752 M,0,975,1050,279.068,161.4752,278.136,178.9503 M,0,1050,1125,278.136,178.9503,277.204,196.4255 M,0,1125,1200,277.204,196.4255,276.272,213.9007 M,0,1200,1275,276.272,213.9007,275.34,231.3758 M,0,1275,1350,275.34,231.3758,274.408,248.851 M,0,1350,1425,274.408,248.851,273.476,266.3261 M,0,1425,1500,273.476,266.3261,272.5439,283.8013
Sprite,Foreground,Centre,"Glow2.png",268,367 S,2,1800,2000,5,1 F,2,1800,2000,1,0 P,0,1800,2000,A C,0,1800,,239,63,107
Sprite,Foreground,Centre,"Glow2.png",0,0 S,2,2400,3200,5,1 F,2,2400,3200,1,0 P,0,2400,3200,A C,0,2400,,239,63,107 M,0,2400,2475,434,390,450.9103,385.6043 M,0,2475,2550,450.9103,385.6043,466.8773,378.5318 M,0,2550,2625,466.8773,378.5318,481.4814,368.9714 M,0,2625,2700,481.4814,368.9714,494.3394,357.1767 M,0,2700,2775,494.3394,357.1767,505.1138,343.4598 M,0,2775,2850,505.1138,343.4598,513.522,328.1831 M,0,2850,2925,513.522,328.1831,519.3438,311.7496 M,0,2925,3000,519.3438,311.7496,522.4266,294.5925
Sprite,Foreground,Centre,"Glow2.png",0,0 S,2,3600,4100,5,1 F,2,3600,4100,1,0 P,0,3600,4100,A C,0,3600,,239,63,107 M,0,3600,3675,497,128,479.508,127.4699 M,0,3675,3750,479.508,127.4699,462.0161,126.9399 M,0,3750,3825,462.0161,126.9399,444.5241,126.4098 M,0,3825,3900,444.5241,126.4098,427.0321,125.8798
Sprite,Foreground,Centre,"Glow2.png",0,0 S,2,4200,4700,5,1 F,2,4200,4700,1,0 P,0,4200,4700,A C,0,4200,,239,63,107 M,0,4200,4275,347,152,329.508,151.4699 M,0,4275,4350,329.508,151.4699,312.0161,150.9399 M,0,4350,4425,312.0161,150.9399,294.5241,150.4098 M,0,4425,4500,294.5241,150.4098,277.0321,149.8798
Sprite,Foreground,Centre,"Glow2.png",202,110 S,2,4800,5000,5,1 F,2,4800,5000,1,0 P,0,4800,5000,A C,0,4800,,237,221,203
Sprite,Foreground,Centre,"Glow2.png",85,231 S,2,5400,5600,5,1 F,2,5400,5600,1,0 P,0,5400,5600,A C,0,5400,,237,221,203
Sprite,Foreground,Centre,"Glow2.png",0,0 S,2,5700,6500,5,1 F,2,5700,6500,1,0 P,0,5700,6500,A C,0,5700,,237,221,203 M,0,5700,5775,90,314,97.93445,329.5605 M,0,5775,5850,97.93445,329.5605,108.3668,343.5536 M,0,5850,5925,108.3668,343.5536,120.998,355.5841 M,0,5925,6000,120.998,355.5841,135.4676,365.3128 M,0,6000,6075,135.4676,365.3128,151.3637,372.4649 M,0,6075,6150,151.3637,372.4649,168.1816,377.1467 M,0,6150,6225,168.1816,377.1467,185.594,378.5164 M,0,6225,6300,185.594,378.5164,202.9759,376.9373
Sprite,Foreground,Centre,"Glow2.png",285,359 S,2,6600,6800,5,1 F,2,6600,6800,1,0 P,0,6600,6800,A C,0,6600,,237,221,203
Sprite,Foreground,Centre,"Glow2.png",0,0 S,2,7200,8000,5,1 F,2,7200,8000,1,0 P,0,7200,8000,A C,0,7200,,237,221,203 M,0,7200,7275,434,282,436.6292,264.7037 M,0,7275,7350,436.6292,264.7037,438.1012,247.2726 M,0,7350,7425,438.1012,247.2726,438.4098,229.7838 M,0,7425,7500,438.4098,229.7838,437.5539,212.3144 M,0,7500,7575,437.5539,212.3144,435.5372,194.9415 M,0,7575,7650,435.5372,194.9415,432.3688,177.742 M,0,7650,7725,432.3688,177.742,428.1744,160.7597 M,0,7725,7800,428.1744,160.7597,422.7122,144.1398
Sprite,Foreground,Centre,"Glow2.png",0,0 S,2,8400,9200,5,1 F,2,8400,9200,1,0 P,0,8400,9200,A C,0,8400,,237,221,203 M,0,8400,8475,257,112,239.5358,110.8805 M,0,8475,8550,239.5358,110.8805,222.0717,109.761 M,0,8550,8625,222.0717,109.761,204.6075,108.6415 M,0,8625,8700,204.6075,108.6415,187.1434,107.522 M,0,8700,8775,187.1434,107.522,204.6075,108.6415 M,0,8775,8850,204.6075,108.6415,222.0717,109.761 M,0,8850,8925,222.0717,109.761,239.5358,110.8805 M,0,8925,9000,239.5358,110.8805,257,112
Sprite,Foreground,Centre,"Glow2.png",269,195 S,2,9300,9500,5,1 F,2,9300,9500,1,0 P,0,9300,9500,A C,0,9300,,237,221,203
Sprite,Foreground,Centre,"Glow2.png",0,0 S,2,9600,10400,5,1 F,2,9600,10400,1,0 P,0,9600,10400,A C,0,9600,,223,133,87 M,0,9600,9675,281,278,282.9451,295.3916 M,0,9675,9750,282.9451,295.3916,284.8902,312.7831 M,0,9750,9825,284.8902,312.7831,286.8353,330.1747 M,0,9825,9900,286.8353,330.1747,288.7805,347.5663 M,0,9900,9975,288.7805,347.5663,290.7255,364.9578 M,0,9975,10050,290.7255,364.9578,292.6707,382.3494 M,0,10050,10125,292.6707,382.3494,294.6158,399.741 M,0,10125,10200,294.6158,399.741,296.5609,417.1325
Sprite,Foreground,Centre,"Glow2.png",0,0 S,2,10500,11300,5,1 F,2,10500,11300,1,0 P,0,10500,11300,A C,0,10500,,223,133,87 M,0,10500,10575,379,401,396.1636,397.6219 M,0,10575,10650,396.1636,397.6219,413.5415,395.6408 M,0,10650,10725,413.5415,395.6408,431.0205,395.0693 M,0,10725,10800,431.0205,395.0693,448.4868,395.9109 M,0,10800,10875,448.4868,395.9109,465.8267,398.1599 M,0,10875,10950,465.8267,398.1599,482.9274,401.8013 M,0,10950,11025,482.9274,401.8013,499.6776,406.8114 M,0,11025,11100,499.6776,406.8114,516,413
Sprite,Foreground,Centre,"Glow2.png",559,340 S,2,11400,11600,5,1 F,2,11400,11600,1,0 P,0,11400,11600,A C,0,11400,,223,133,87
Sprite,Foreground,Centre,"Glow2.png",0,0 S,2,12000,12800,5,1 F,2,12000,12800,1,0 P,0,12000,12800,A C,0,12000,,223,133,87 M,0,12000,12075,449,212,442.5847,195.7228 M,0,12075,12150,442.5847,195.7228,437.2236,179.0701 M,0,12150,12225,437.2236,179.0701,432.9384,162.1099 M,0,12225,12300,432.9384,162.1099,429.7466,144.9114 M,0,12300,12375,429.7466,144.9114,427.6609,127.5449 M,0,12375,12450,427.6609,127.5449,426.6898,110.0813 M,0,12450,12525,426.6898,110.0813,426.8373,92.59198 M,0,12525,12600,426.8373,92.59198,428.1026,75.14828
Sprite,Foreground,Centre,"Glow2.png",0,0 S,2,13200,13700,5,1 F,2,13200,13700,1,0 P,0,13200,13700,A C,0,13200,,223,133,87 M,0,13200,13275,260,91,242.5434,92.23222 M,0,13275,13350,242.5434,92.23222,225.0869,93.46445 M,0,13350,13425,225.0869,93.46445,207.6303,94.69669 M,0,13425,13500,207.6303,94.69669,190.1737,95.92891
Sprite,Foreground,Centre,"Glow2.png",0,0 S,2,13800,14300,5,1 F,2,13800,14300,1,0 P,0,13800,14300,A C,0,13800,,223,133,87 M,0,13800,13875,128,152,129.2322,169.4566 M,0,13875,13950,129.2322,169.4566,130.4644,186.9131 M,0,13950,14025,130.4644,186.9131,131.6967,204.3697 M,0,14025,14100,131.6967,204.3697,132.9289,221.8263
Sprite,Foreground,Centre,"Glow2.png",0,0 S,2,14400,15200,5,1 F,2,14400,15200,1,0 P,0,14400,15200,A C,0,14400,,239,63,107 M,0,14400,14475,144,304,156.0925,316.6295 M,0,14475,14550,156.0925,316.6295,169.5786,327.7506 M,0,14550,14625,169.5786,327.7506,184.272,337.2112 M,0,14625,14700,184.272,337.2112,199.9701,344.8818 M,0,14700,14775,199.9701,344.8818,216.4567,350.6576 M,0,14775,14850,216.4567,350.6576,233.5045,354.4596 M,0,14850,14925,233.5045,354.4596,250.879,356.236 M,0,14925,15000,250.879,356.236,268.341,355.9625
Sprite,Foreground,Centre,"Glow2.png",350,338 S,2,15300,15500,5,1 F,2,15300,15500,1,0 P,0,15300,15500,A C,0,15300,,239,63,107
Sprite,Foreground,Centre,"Glow2.png",0,0 S,2,15900,16700,5,1 F,2,15900,16700,1,0 P,0,15900,16700,A C,0,15900,,239,63,107 M,0,15900,15975,489,244,505.8361,239.2495 M,0,15975,16050,505.8361,239.2495,522.9916,235.8381 M,0,16050,16125,522.9916,235.8381,540.3602,233.7864 M,0,16125,16200,540.3602,233.7864,557.8348,233.107 M,0,16200,16275,557.8348,233.107,540.3602,233.7864 M,0,16275,16350,540.3602,233.7864,522.9916,235.8381 M,0,16350,16425,522.9916,235.8381,505.8361,239.2495 M,0,16425,16500,505.8361,239.2495,489,244
Sprite,Foreground,Centre,"Glow2.png",0,0 S,2,16800,17600,5,1 F,2,16800,17600,1,0 P,0,16800,17600,A C,0,16800,,239,63,107 M,0,16800,16875,413,207,396.5241,201.115 M,0,16875,16950,396.5241,201.115,379.701,196.3171 M,0,16950,17025,379.701,196.3171,362.6022,192.6266 M,0,17025,17100,362.6022,192.6266,345.3004,190.059 M,0,17100,17175,345.3004,190.059,327.8688,188.625 M,0,17175,17250,327.8688,188.625,310.3815,188.3307 M,0,17250,17325,310.3815,188.3307,292.9128,189.1771 M,0,17325,17400,292.9128,189.1771,275.5367,191.1606
Sprite,Foreground,Centre,"Glow2.png",0,0 S,2,18000,18500,5,1 F,2,18000,18500,1,0 P,0,18000,18500,A C,0,18000,,239,63,107 M,0,18000,18075,144,296,145.1641,313.4612 M,0,18075,18150,145.1641,313.4612,146.3282,330.9225 M,0,18150,18225,146.3282,330.9225,147.4922,348.3837 M,0,18225,18300,147.4922,348.3837,148.6563,365.845
Sprite,Foreground,Centre,"Glow2.png",0,0 S,2,18600,19100,5,1 F,2,18600,19100,1,0 P,0,18600,19100,A C,0,18600,,239,63,107 M,0,18600,18675,232,362,230.395,379.4262 M,0,18675,18750,230.395,379.4262,228.7899,396.8525 M,0,18750,18825,228.7899,396.8525,227.1849,414.2787 M,0,18825,18900,227.1849,414.2787,225.5798,431.705
Sprite,Foreground,Centre,"Glow2.png",0,0 S,2,19200,20000,5,1 F,2,19200,20000,1,0 P,0,19200,20000,A C,0,19200,,237,221,203 M,0,19200,19275,309,431,326.4723,430.0157 M,0,19275,19350,326.4723,430.0157,343.9446,429.0313 M,0,19350,19425,343.9446,429.0313,361.4169,428.0469 M,0,19425,19500,361.4169,428.0469,378.8892,427.0626 M,0,19500,19575,378.8892,427.0626,396.3615,426.0782 M,0,19575,19650,396.3615,426.0782,413.8338,425.0939 M,0,19650,19725,413.8338,425.0939,431.3061,424.1095 M,0,19725,19800,431.3061,424.1095,448.7784,423.1252
Sprite,Foreground,Centre,"Glow2.png",505,361 S,2,20100,20300,5,1 F,2,20100,20300,1,0 P,0,20100,20300,A C,0,20100,,237,221,203
Sprite,Foreground,Centre,"Glow2.png",0,0 S,2,20700,21200,5,1 F,2,20700,21200,1,0 P,0,20700,21200,A C,0,20700,,237,221,203 M,0,20700,20775,539,196,539.6643,178.5343 M,0,20775,20850,539.6643,178.5343,537.7454,161.1679 M,0,20850,20925,537.7454,161.1679,533.287,144.2801 M,0,20925,21000,533.287,144.2801,526.3878,128.2396
Sprite,Foreground,Centre,"Glow2.png",0,0 S,2,21600,22400,5,1 F,2,21600,22400,1,0 P,0,21600,22400,A C,0,21600,,237,221,203 M,0,21600,21675,364,81,347.0981,85.52931 M,0,21675,21750,347.0981,85.52931,330.0312,89.38692 M,0,21750,21825,330.0312,89.38692,312.8257,92.56692 M,0,21825,21900,312.8257,92.56692,295.5083,95.06435 M,0,21900,21975,295.5083,95.06435,278.106,96.8754 M,0,21975,22050,278.106,96.8754,260.6459,97.99724 M,0,22050,22125,260.6459,97.99724,243.1558,98.48206 M,0,22125,22200,243.1558,98.48206,225.6594,98.21946
Sprite,Foreground,Centre,"Glow2.png",0,0 S,2,22800,23600,5,1 F,2,22800,23600,1,0 P,0,22800,23600,A C,0,22800,,237,221,203 M,0,22800,22875,124,232,119.7281,248.9574 M,0,22875,22950,119.7281,248.9574,117.2583,266.2645 M,0,22950,23025,117.2583,266.2645,116.6167,283.7312 M,0,23025,23100,116.6167,283.7312,117.6825,301.1834 M,0,23100,23175,117.6825,301.1834,116.6167,283.7312 M,0,23175,23250,116.6167,283.7312,117.2583,266.2645 M,0,23250,23325,117.2583,266.2645,119.7281,248.9574 M,0,23325,23400,119.7281,248.9574,124,232
Sprite,Foreground,Centre,"Glow2.png",207,223 S,2,23700,23900,5,1 F,2,23700,23900,1,0 P,0,23700,23900,A C,0,23700,,237,221,203
Sprite,Foreground,Centre,"Glow2.png",0,0 S,2,24000,24800,5,1 F,2,24000,24800,1,0 P,0,24000,24800,A C,0,24000,,223,133,87 M,0,24000,24075,279,266,296.1919,269.2589 M,0,24075,24150,296.1919,269.2589,313.5038,271.7987 M,0,24150,24225,313.5038,271.7987,330.9059,273.6153 M,0,24225,24300,330.9059,273.6153,348.368,274.7054 M,0,24300,24375,348.368,274.7054,365.8601,275.0674 M,0,24375,24450,365.8601,275.0674,383.3519,274.7004 M,0,24450,24525,383.3519,274.7004,400.8179,273.6653 M,0,24525,24600,400.8179,273.6653,418.2177,271.8187
Sprite,Foreground,Centre,"Glow2.png",0,0 S,2,24900,25700,5,1 F,2,24900,25700,1,0 P,0,24900,25700,A C,0,24900,,223,133,87 M,0,24900,24975,501,262,497.7411,279.1919 M,0,24975,25050,497.7411,279.1919,495.2013,296.5038 M,0,25050,25125,495.2013,296.5038,493.3847,313.9059 M,0,25125,25200,493.3847,313.9059,492.2945,331.368 M,0,25200,25275,492.2945,331.368,491.9326,348.8601 M,0,25275,25350,491.9326,348.8601,492.2996,366.3519 M,0,25350,25425,492.2996,366.3519,493.3347,383.8179 M,0,25425,25500,493.3347,383.8179,495.1813,401.2177
Sprite,Foreground,Centre,"Glow2.png",408,415 S,2,25800,26000,5,1 F,2,25800,26000,1,0 P,0,25800,26000,A C,0,25800,,223,133,87
Sprite,Foreground,Centre,"Glow2.png",0,0 S,2,26400,27200,5,1 F,2,26400,27200,1,0 P,0,26400,27200,A C,0,26400,,223,133,87 M,0,26400,26475,241,393,223.5536,391.7373 M,0,26475,26550,223.5536,391.7373,206.0662,392.0023 M,0,26550,26625,206.0662,392.0023,188.671,393.7927 M,0,26625,26700,188.671,393.7927,171.5004,397.0945 M,0,26700,26775,171.5004,397.0945,188.671,393.7927 M,0,26775,26850,188.671,393.7927,206.0662,392.0023 M,0,26850,26925,206.0662,392.0023,223.5536,391.7373 M,0,26925,27000,223.5536,391.7373,241,393
Sprite,Foreground,Centre,"Glow2.png",0,0 S,2,27600,28100,5,1 F,2,27600,28100,1,0 P,0,27600,28100,A C,0,27600,,223,133,87 M,0,27600,27675,317,243,318.0523,225.5317 M,0,27675,27750,318.0523,225.5317,319.1046,208.0633 M,0,27750,27825,319.1046,208.0633,320.1569,190.595 M,0,27825,27900,320.1569,190.595,321.2092,173.1267
Sprite,Foreground,Centre,"Glow2.png",0,0 S,2,28200,28700,5,1 F,2,28200,28700,1,0 P,0,28200,28700,A C,0,28200,,223,133,87 M,0,28200,28275,238,160,239.0523,142.5317 M,0,28275,28350,239.0523,142.5317,240.1046,125.0633 M,0,28350,28425,240.1046,125.0633,241.1569,107.595 M,0,28425,28500,241.1569,107.595,242.2092,90.12667
Sprite,Foreground,Centre,"Glow2.png",0,0 S,2,28800,29600,5,1 F,2,28800,29600,1,0 P,0,28800,29600,A C,0,28800,,239,63,107 M,0,28800,28875,323,68,340.3085,65.45498 M,0,28875,28950,340.3085,65.45498,357.7562,64.19656 M,0,28950,29025,357.7562,64.19656,375.2477,64.23138 M,0,29025,29100,375.2477,64.23138,392.6876,65.55907 M,0,29100,29175,392.6876,65.55907,409.9804,68.17217 M,0,29175,29250,409.9804,68.17217,427.0319,72.0563 M,0,29250,29325,427.0319,72.0563,443.7487,77.19009 M,0,29325,29400,443.7487,77.19009,460.0395,83.54536
Sprite,Foreground,Centre,"Glow2.png",521,140 S,2,29700,29900,5,1 F,2,29700,29900,1,0 P,0,29700,29900,A C,0,29700,,239,63,107
Sprite,Foreground,Centre,"Glow2.png",0,0 S,2,30300,31100,5,1 F,2,30300,31100,1,0 P,0,30300,31100,A C,0,30300,,239,63,107 M,0,30300,30375,439,286,436.9621,303.3791 M,0,30375,30450,436.9621,303.3791,435.6494,320.8273 M,0,30450,30525,435.6494,320.8273,435.0641,338.3145 M,0,30525,30600,435.0641,338.3145,435.2073,355.8105 M,0,30600,30675,435.2073,355.8105,435.0641,338.3145 M,0,30675,30750,435.0641,338.3145,435.6494,320.8273 M,0,30750,30825,435.6494,320.8273,436.9621,303.3791 M,0,30825,30900,436.9621,303.3791,439,286
Sprite,Foreground,Centre,"Glow2.png",0,0 S,2,31200,32000,5,1 F,2,31200,32000,1,0 P,0,31200,32000,A C,0,31200,,239,63,107 M,0,31200,31275,363,248,345.8813,244.3717 M,0,31275,31350,345.8813,244.3717,328.6629,241.2532 M,0,31350,31425,328.6629,241.2532,311.3598,238.6471 M,0,31425,31500,311.3598,238.6471,293.9872,236.5558 M,0,31500,31575,293.9872,236.5558,276.5604,234.981 M,0,31575,31650,276.5604,234.981,259.0969,233.8725 M,0,31650,31725,259.0969,233.8725,241.6057,233.3535 M,0,31725,31800,241.6057,233.3535,224.1072,233.3539
Sprite,Foreground,Centre,"Glow2.png",218,401 S,2,32400,32600,5,1 F,2,32400,32600,1,0 P,0,32400,32600,A C,0,32400,,239,63,107
Sprite,Foreground,Centre,"Glow2.png",0,0 S,2,32700,33500,5,1 F,2,32700,33500,1,0 P,0,32700,33500,A C,0,32700,,239,63,107 M,0,32700,32775,299,421,316.4503,422.212 M,0,32775,32850,316.4503,422.212,333.9386,422.0109 M,0,32850,32925,333.9386,422.0109,351.3512,420.3982 M,0,32925,33000,351.3512,420.3982,368.5749,417.3849 M,0,33000,33075,368.5749,417.3849,351.3512,420.3982 M,0,33075,33150,351.3512,420.3982,333.9386,422.0109 M,0,33150,33225,333.9386,422.0109,316.4503,422.212 M,0,33225,33300,316.4503,422.212,299,421
Sprite,Foreground,Centre,"Glow2.png",278,339 S,2,33600,33800,5,1 F,2,33600,33800,1,0 P,0,33600,33800,A C,0,33600,,237,221,203
Sprite,Foreground,Centre,"Glow2.png",306,173 S,2,34200,34400,5,1 F,2,34200,34400,1,0 P,0,34200,34400,A C,0,34200,,237,221,203
Sprite,Foreground,Centre,"Glow2.png",0,0 S,2,34500,35300,5,1 F,2,34500,35300,1,0 P,0,34500,35300,A C,0,34500,,237,221,203 M,0,34500,34575,234,129,216.5654,127.4989 M,0,34575,34650,216.5654,127.4989,199.094,126.5216 M,0,34650,34725,199.094,126.5216,181.6014,126.0688 M,0,34725,34800,181.6014,126.0688,164.1033,126.1409 M,0,34800,34875,164.1033,126.1409,146.6154,126.7378 M,0,34875,34950,146.6154,126.7378,129.1535,127.859 M,0,34950,35025,129.1535,127.859,111.7332,129.5035 M,0,35025,35100,111.7332,129.5035,94.37009,131.6698
Sprite,Foreground,Centre,"Glow2.png",68,211 S,2,35400,35600,5,1 F,2,35400,35600,1,0 P,0,35400,35600,A C,0,35400,,237,221,203
Sprite,Foreground,Centre,"Glow2.png",0,0 S,2,36000,36800,5,1 F,2,36000,36800,1,0 P,0,36000,36800,A C,0,36000,,237,221,203 M,0,36000,36075,197,317,213.0987,323.8617 M,0,36075,36150,213.0987,323.8617,229.1973,330.7234 M,0,36150,36225,229.1973,330.7234,245.296,337.5852 M,0,36225,36300,245.296,337.5852,261.6714,342.6292 M,0,36300,36375,261.6714,342.6292,279.0828,340.8704 M,0,36375,36450,279.0828,340.8704,296.4943,339.1117 M,0,36450,36525,296.4943,339.1117,313.9056,337.353 M,0,36525,36600,313.9056,337.353,331.317,335.5942
Sprite,Foreground,Centre,"Glow2.png",0,0 S,2,36900,37700,5,1 F,2,36900,37700,1,0 P,0,36900,37700,A C,0,36900,,237,221,203 M,0,36900,36975,346,252,362.0987,245.1383 M,0,36975,37050,362.0987,245.1383,378.1973,238.2766 M,0,37050,37125,378.1973,238.2766,394.296,231.4148 M,0,37125,37200,394.296,231.4148,410.6733,226.3522 M,0,37200,37275,410.6733,226.3522,428.0934,228.0227 M,0,37275,37350,428.0934,228.0227,445.5135,229.6931 M,0,37350,37425,445.5135,229.6931,462.9336,231.3635 M,0,37425,37500,462.9336,231.3635,480,233
Sprite,Foreground,Centre,"Glow2.png",563,245 S,2,37800,38000,5,1 F,2,37800,38000,1,0 P,0,37800,38000,A C,0,37800,,237,221,203
Sprite,Foreground,Centre,"Glow2.png",0,0 S,2,38400,39200,5,1 F,2,38400,39200,1,0 P,0,38400,39200,A C,0,38400,,223,133,87 M,0,38400,38475,554,77,536.5198,77.83239 M,0,38475,38550,536.5198,77.83239,519.0396,78.66478 M,0,38550,38625,519.0396,78.66478,501.5594,79.49717 M,0,38625,38700,501.5594,79.49717,484.0792,80.32956 M,0,38700,38775,484.0792,80.32956,466.599,81.16195 M,0,38775,38850,466.599,81.16195,449.1188,81.99434 M,0,38850,38925,449.1188,81.99434,431.6386,82.82673 M,0,38925,39000,431.6386,82.82673,414.1584,83.65912
Sprite,Foreground,Centre,"Glow2.png",0,0 S,2,39300,40100,5,1 F,2,39300,40100,1,0 P,0,39300,40100,A C,0,39300,,223,133,87 M,0,39300,39375,361,149,343.5198,148.1676 M,0,39375,39450,343.5198,148.1676,326.0396,147.3352 M,0,39450,39525,326.0396,147.3352,308.5594,146.5028 M,0,39525,39600,308.5594,146.5028,291.0792,145.6704 M,0,39600,39675,291.0792,145.6704,273.599,144.838 M,0,39675,39750,273.599,144.838,256.1188,144.0057 M,0,39750,39825,256.1188,144.0057,238.6386,143.1733 M,0,39825,39900,238.6386,143.1733,221.1584,142.3409
Sprite,Foreground,Centre,"Glow2.png",165,79 S,2,40200,40400,5,1 F,2,40200,40400,1,0 P,0,40200,40400,A C,0,40200,,223,133,87
Sprite,Foreground,Centre,"Glow2.png",0,0 S,2,40800,41300,5,1 F,2,40800,41300,1,0 P,0,40800,41300,A C,0,40800,,223,133,87 M,0,40800,40875,89,229,86.72002,246.3485 M,0,40875,40950,86.72002,246.3485,85.38188,263.7947 M,0,40950,41025,85.38188,263.7947,84.98948,281.2875 M,0,41025,41100,84.98948,281.2875,85.54394,298.7757
Sprite,Foreground,Centre,"Glow2.png",159,339 S,2,41400,41600,5,1 F,2,41400,41600,1,0 P,0,41400,41600,A C,0,41400,,223,133,87
Sprite,Foreground,Centre,"Glow2.png",0,0 S,2,42000,42800,5,1 F,2,42000,42800,1,0 P,0,42000,42800,A C,0,42000,,223,133,87 M,0,42000,42075,315,278,332.2795,275.2511 M,0,42075,42150,332.2795,275.2511,349.6967,273.5889 M,0,42150,42225,349.6967,273.5889,367.1835,273.0198 M,0,42225,42300,367.1835,273.0198,384.6712,273.5461 M,0,42300,42375,384.6712,273.5461,367.1835,273.0198 M,0,42375,42450,367.1835,273.0198,349.6967,273.5889 M,0,42450,42525,349.6967,273.5889,332.2795,275.2511 M,0,42525,42600,332.2795,275.2511,315,278
Sprite,Foreground,Centre,"Glow2.png",291,358 S,2,42900,43100,5,1 F,2,42900,43100,1,0 P,0,42900,43100,A C,0,42900,,223,133,87
Sprite,Foreground,Centre,"Glow2.png",0,0 S,2,43200,44000,5,1 F,2,43200,44000,1,0 P,0,43200,44000,A C,0,43200,,239,63,107 M,0,43200,43275,340,426,357.3918,427.7687 M,0,43275,43350,357.3918,427.7687,374.8597,427.2836 M,0,43350,43425,374.8597,427.2836,392.1142,424.5544 M,0,43425,43500,392.1142,424.5544,408.8694,419.6275 M,0,43500,43575,408.8694,419.6275,424.8474,412.5856 M,0,43575,43650,424.8474,412.5856,439.7837,403.5461 M,0,43650,43725,439.7837,403.5461,453.4306,392.6592 M,0,43725,43800,453.4306,392.6592,465.7034,380.23
Sprite,Foreground,Centre,"Glow2.png",513,310 S,2,44100,44300,5,1 F,2,44100,44300,1,0 P,0,44100,44300,A C,0,44100,,239,63,107
Sprite,Foreground,Centre,"Glow2.png",0,0 S,2,44700,45200,5,1 F,2,44700,45200,1,0 P,0,44700,45200,A C,0,44700,,239,63,107 M,0,44700,44775,446,155,440.3686,138.4405 M,0,44775,44850,440.3686,138.4405,436.5378,121.3754 M,0,44850,44925,436.5378,121.3754,434.5515,103.9997 M,0,44925,45000,434.5515,103.9997,434.4319,86.51214
Sprite,Foreground,Centre,"Glow2.png",0,0 S,2,45600,47000,5,1 F,2,45600,47000,1,0 P,0,45600,47000,A C,0,45600,,239,63,107 M,0,45600,45675,266,87,248.5063,87.01869 M,0,45675,45750,248.5063,87.01869,231.0635,88.31926 M,0,45750,45825,231.0635,88.31926,213.7648,90.89442 M,0,45825,45900,213.7648,90.89442,196.7027,94.73019 M,0,45900,45975,196.7027,94.73019,179.9686,99.80588 M,0,45975,46050,179.9686,99.80588,163.6007,105.9743 M,0,46050,46125,163.6007,105.9743,147.8026,113.4868 M,0,46125,46200,147.8026,113.4868,132.5997,122.1357 M,0,46200,46275,132.5997,122.1357,147.8026,113.4868 M,0,46275,46350,147.8026,113.4868,163.6007,105.9743 M,0,46350,46425,163.6007,105.9743,179.9686,99.80588 M,0,46425,46500,179.9686,99.80588,196.7027,94.73019 M,0,46500,46575,196.7027,94.73019,213.7648,90.89442 M,0,46575,46650,213.7648,90.89442,231.0635,88.31926 M,0,46650,46725,231.0635,88.31926,248.5063,87.01869 M,0,46725,46800,248.5063,87.01869,266,87
Sprite,Foreground,Centre,"Glow2.png",0,0 S,2,47100,47900,5,1 F,2,47100,47900,1,0 P,0,47100,47900,A C,0,47100,,239,63,107 M,0,47100,47175,326,146,343.3619,148.0259 M,0,47175,47250,343.3619,148.0259,360.8225,148.4074 M,0,47250,47325,360.8225,148.4074,378.2222,146.8997 M,0,47325,47400,378.2222,146.8997,395.3572,143.5206 M,0,47400,47475,395.3572,143.5206,378.2222,146.8997 M,0,47475,47550,378.2222,146.8997,360.8225,148.4074 M,0,47550,47625,360.8225,148.4074,343.3619,148.0259 M,0,47625,47700,343.3619,148.0259,326,146
Sprite,Foreground,Centre,"Glow2.png",263,202 S,2,48000,48200,5,1 F,2,48000,48200,1,0 P,0,48000,48200,A C,0,48000,,237,221,203
Sprite,Foreground,Centre,"Glow2.png",213,362 S,2,48600,48800,5,1 F,2,48600,48800,1,0 P,0,48600,48800,A C,0,48600,,237,221,203
Sprite,Foreground,Centre,"Glow2.png",0,0 S,2,48900,49700,5,1 F,2,48900,49700,1,0 P,0,48900,49700,A C,0,48900,,237,221,203 M,0,48900,48975,270,423,287.4838,423.752 M,0,48975,49050,287.4838,423.752,304.9677,424.504 M,0,49050,49125,304.9677,424.504,322.4515,425.256 M,0,49125,49200,322.4515,425.256,339.9353,426.008 M,0,49200,49275,339.9353,426.008,357.4192,426.76 M,0,49275,49350,357.4192,426.76,373.8238,422.0211 M,0,49350,49425,373.8238,422.0211,389.7224,414.7077 M,0,49425,49500,389.7224,414.7077,405.6209,407.3944
Sprite,Foreground,Centre,"Glow2.png",478,365 S,2,49800,50000,5,1 F,2,49800,50000,1,0 P,0,49800,50000,A C,0,49800,,237,221,203
Sprite,Foreground,Centre,"Glow2.png",0,0 S,2,50400,51200,5,1 F,2,50400,51200,1,0 P,0,50400,51200,A C,0,50400,,237,221,203 M,0,50400,50475,441,201,423.562,199.528 M,0,50475,50550,423.562,199.528,406.1241,198.0559 M,0,50550,50625,406.1241,198.0559,388.6861,196.5839 M,0,50625,50700,388.6861,196.5839,371.2481,195.1118 M,0,50700,50775,371.2481,195.1118,353.8101,193.6398 M,0,50775,50850,353.8101,193.6398,336.3721,192.1678 M,0,50850,50925,336.3721,192.1678,318.9341,190.6957 M,0,50925,51000,318.9341,190.6957,301.4962,189.2237
Sprite,Foreground,Centre,"Glow2.png",0,0 S,2,51600,52400,5,1 F,2,51600,52400,1,0 P,0,51600,52400,A C,0,51600,,237,221,203 M,0,51600,51675,133,203,115.5445,204.2468 M,0,51675,51750,115.5445,204.2468,98.08894,205.4937 M,0,51750,51825,98.08894,205.4937,80.63342,206.7405 M,0,51825,51900,80.63342,206.7405,63.17789,207.9873 M,0,51900,51975,63.17789,207.9873,80.63342,206.7405 M,0,51975,52050,80.63342,206.7405,98.08894,205.4937 M,0,52050,52125,98.08894,205.4937,115.5445,204.2468 M,0,52125,52200,115.5445,204.2468,133,203
Sprite,Foreground,Centre,"Glow2.png",0,0 S,2,52800,53600,5,1 F,2,52800,53600,1,0 P,0,52800,53600,A C,0,52800,,223,133,87 M,0,52800,52875,251,84,268.438,82.52796 M,0,52875,52950,268.438,82.52796,285.876,81.05592 M,0,52950,53025,285.876,81.05592,303.3139,79.58389 M,0,53025,53100,303.3139,79.58389,320.7519,78.11185 M,0,53100,53175,320.7519,78.11185,338.1899,76.63982 M,0,53175,53250,338.1899,76.63982,355.6279,75.16778 M,0,53250,53325,355.6279,75.16778,373.0659,73.69574 M,0,53325,53400,373.0659,73.69574,390.5038,72.2237
Sprite,Foreground,Centre,"Glow2.png",469,99 S,2,53700,53900,5,1 F,2,53700,53900,1,0 P,0,53700,53900,A C,0,53700,,223,133,87
Sprite,Foreground,Centre,"Glow2.png",0,0 S,2,54300,54800,5,1 F,2,54300,54800,1,0 P,0,54300,54800,A C,0,54300,,223,133,87 M,0,54300,54375,508,262,506.7273,279.4537 M,0,54375,54450,506.7273,279.4537,505.4547,296.9073 M,0,54450,54525,505.4547,296.9073,504.182,314.361 M,0,54525,54600,504.182,314.361,502.9094,331.8146
Sprite,Foreground,Centre,"Glow2.png",0,0 S,2,55200,56000,5,1 F,2,55200,56000,1,0 P,0,55200,56000,A C,0,55200,,223,133,87 M,0,55200,55275,341,378,324.0806,382.0131 M,0,55275,55350,324.0806,382.0131,306.7923,380.5713 M,0,55350,55425,306.7923,380.5713,290.8404,373.8388 M,0,55425,55500,290.8404,373.8388,277.7939,362.4971 M,0,55500,55575,277.7939,362.4971,268.9329,347.6776 M,0,55575,55650,268.9329,347.6776,265.1247,330.8504 M,0,55650,55725,265.1247,330.8504,266.7399,313.6806 M,0,55725,55800,266.7399,313.6806,273.2312,297.6436
Sprite,Foreground,Centre,"Glow2.png",0,0 S,2,56400,57800,5,1 F,2,56400,57800,1,0 P,0,56400,57800,A C,0,56400,,223,133,87 M,0,56400,56475,320,136,308.6011,122.7641 M,0,56475,56550,308.6011,122.7641,295.194,111.5867 M,0,56550,56625,295.194,111.5867,280.1424,102.7667 M,0,56625,56700,280.1424,102.7667,263.8538,96.53975 M,0,56700,56775,263.8538,96.53975,246.7681,93.07225 M,0,56775,56850,246.7681,93.07225,229.3374,92.1966 M,0,56850,56925,229.3374,92.1966,212.0359,94.5608 M,0,56925,57000,212.0359,94.5608,195.3681,99.72942 M,0,57000,57075,195.3681,99.72942,212.0359,94.5608 M,0,57075,57150,212.0359,94.5608,229.3374,92.1966 M,0,57150,57225,229.3374,92.1966,246.7681,93.07225 M,0,57225,57300,246.7681,93.07225,263.8538,96.53975 M,0,57300,57375,263.8538,96.53975,280.1424,102.7667 M,0,57375,57450,280.1424,102.7667,295.194,111.5867 M,0,57450,57525,295.194,111.5867,308.6011,122.7641 M,0,57525,57600,308.6011,122.7641,320,136
Sprite,Foreground,Centre,"Glow2.png",0,0 S,2,67200,69200,5,1 F,2,67200,69200,1,0 P,0,67200,69200,A C,0,67200,,239,63,107 M,0,67200,67275,518,129,504.2611,126.312 M,0,67275,67350,504.2611,126.312,490.4398,124.0874 M,0,67350,67425,490.4398,124.0874,476.5429,122.3997 M,0,67425,67500,476.5429,122.3997,462.5847,121.3372 M,0,67500,67575,462.5847,121.3372,448.5909,120.9865 M,0,67575,67650,448.5909,120.9865,434.6008,121.451 M,0,67650,67725,434.6008,121.451,420.6698,122.8114 M,0,67725,67800,420.6698,122.8114,406.864,125.118 M,0,67800,67875,406.864,125.118,393.2477,128.3616 M,0,67875,67950,393.2477,128.3616,379.8564,132.4384 M,0,67950,68025,379.8564,132.4384,366.6754,137.154 M,0,68025,68100,366.6754,137.154,353.6276,142.2284 M,0,68100,68175,353.6276,142.2284,340.5938,147.3392 M,0,68175,68250,340.5938,147.3392,327.4502,152.1585 M,0,68250,68325,327.4502,152.1585,314.1084,156.3951 M,0,68325,68400,314.1084,156.3951,300.54,159.8347 M,0,68400,68475,300.54,159.8347,286.7713,162.3529 M,0,68475,68550,286.7713,162.3529,272.8625,163.9234 M,0,68550,68625,272.8625,163.9234,258.8805,164.5853 M,0,68625,68700,258.8805,164.5853,244.8834,164.4148 M,0,68700,68775,244.8834,164.4148,230.9142,163.5108 M,0,68775,68850,230.9142,163.5108,217.0008,161.9657 M,0,68850,68925,217.0008,161.9657,203.1602,159.8653 M,0,68925,69000,203.1602,159.8653,189.4002,157.2876
Sprite,Foreground,Centre,"Glow2.png",0,0 S,2,69600,71600,5,1 F,2,69600,71600,1,0 P,0,69600,71600,A C,0,69600,,239,63,107 M,0,69600,69675,87,245,85.47131,258.9151 M,0,69675,69750,85.47131,258.9151,84.24039,272.859 M,0,69750,69825,84.24039,272.859,83.36962,286.8307 M,0,69825,69900,83.36962,286.8307,82.93227,300.8226 M,0,69900,69975,82.93227,300.8226,82.81702,314.82 M,0,69975,70050,82.81702,314.82,83.06293,328.8162 M,0,70050,70125,83.06293,328.8162,83.66988,342.8022 M,0,70125,70200,83.66988,342.8022,84.72066,356.7614 M,0,70200,70275,84.72066,356.7614,86.08165,370.6931 M,0,70275,70350,86.08165,370.6931,87.80167,384.5856 M,0,70350,70425,87.80167,384.5856,89.87968,398.4299 M,0,70425,70500,89.87968,398.4299,92.40674,412.1987 M,0,70500,70575,92.40674,412.1987,89.87968,398.4299 M,0,70575,70650,89.87968,398.4299,87.80167,384.5856 M,0,70650,70725,87.80167,384.5856,86.08165,370.6931 M,0,70725,70800,86.08165,370.6931,84.72066,356.7614 M,0,70800,70875,84.72066,356.7614,83.66988,342.8022 M,0,70875,70950,83.66988,342.8022,83.06293,328.8162 M,0,70950,71025,83.06293,328.8162,82.81702,314.82 M,0,71025,71100,82.81702,314.82,82.93227,300.8226 M,0,71100,71175,82.93227,300.8226,83.36962,286.8307 M,0,71175,71250,83.36962,286.8307,84.24039,272.859 M,0,71250,71325,84.24039,272.859,85.47131,258.9151 M,0,71325,71400,85.47131,258.9151,87,245
Sprite,Foreground,Centre,"Glow2.png",0,0 S,2,72000,74000,5,1 F,2,72000,74000,1,0 P,0,72000,74000,A C,0,72000,,239,63,107 M,0,72000,72075,205,309,217.7201,314.826 M,0,72075,72150,217.7201,314.826,230.7546,319.8975 M,0,72150,72225,230.7546,319.8975,244.1199,324.0366 M,0,72225,72300,244.1199,324.0366,257.7897,327.013 M,0,72300,72375,257.7897,327.013,271.6129,329.1304 M,0,72375,72450,271.6129,329.1304,285.5551,330.2659 M,0,72450,72525,285.5551,330.2659,299.5489,330.4133 M,0,72525,72600,299.5489,330.4133,313.4966,329.3188 M,0,72600,72675,313.4966,329.3188,327.3499,327.3978 M,0,72675,72750,327.3499,327.3978,341.0374,324.5015 M,0,72750,72825,341.0374,324.5015,354.4294,320.4553 M,0,72825,72900,354.4294,320.4553,367.5326,315.5703 M,0,72900,72975,367.5326,315.5703,380.2608,309.7701 M,0,72975,73050,380.2608,309.7701,392.5526,303.0819 M,0,73050,73125,392.5526,303.0819,404.2079,295.3434 M,0,73125,73200,404.2079,295.3434,415.3697,286.9172 M,0,73200,73275,415.3697,286.9172,425.9115,277.7203 M,0,73275,73350,425.9115,277.7203,435.6459,267.6727 M,0,73350,73425,435.6459,267.6727,444.709,257.0233 M,0,73425,73500,444.709,257.0233,452.9986,245.7577 M,0,73500,73575,452.9986,245.7577,460.4743,233.9296 M,0,73575,73650,460.4743,233.9296,466.8958,221.5002 M,0,73650,73725,466.8958,221.5002,472.5383,208.7042 M,0,73725,73800,472.5383,208.7042,477.3113,195.551
Sprite,Foreground,Centre,"Glow2.png",0,0 S,2,74400,76400,5,1 F,2,74400,76400,1,0 P,0,74400,76400,A C,0,74400,,239,63,107 M,0,74400,74475,376,106,362.572,102.0503 M,0,74475,74550,362.572,102.0503,349.0168,98.56836 M,0,74550,74625,349.0168,98.56836,335.3263,95.65591 M,0,74625,74700,335.3263,95.65591,321.507,93.43539 M,0,74700,74775,321.507,93.43539,307.6166,91.73165 M,0,74775,74850,307.6166,91.73165,293.6659,90.61009 M,0,74850,74925,293.6659,90.61009,279.6786,90.07275 M,0,74925,75000,279.6786,90.07275,265.6831,90.25706 M,0,75000,75075,265.6831,90.25706,251.7052,90.94484 M,0,75075,75150,251.7052,90.94484,237.7669,92.2166 M,0,75150,75225,237.7669,92.2166,223.8916,94.07036 M,0,75225,75300,223.8916,94.07036,210.1202,96.58186 M,0,75300,75375,210.1202,96.58186,223.8916,94.07036 M,0,75375,75450,223.8916,94.07036,237.7669,92.2166 M,0,75450,75525,237.7669,92.2166,251.7052,90.94484 M,0,75525,75600,251.7052,90.94484,265.6831,90.25706 M,0,75600,75675,265.6831,90.25706,279.6786,90.07275 M,0,75675,75750,279.6786,90.07275,293.6659,90.61009 M,0,75750,75825,293.6659,90.61009,307.6166,91.73165 M,0,75825,75900,307.6166,91.73165,321.507,93.43539 M,0,75900,75975,321.507,93.43539,335.3263,95.65591 M,0,75975,76050,335.3263,95.65591,349.0168,98.56836 M,0,76050,76125,349.0168,98.56836,362.572,102.0503 M,0,76125,76200,362.572,102.0503,376,106
Sprite,Foreground,Centre,"ring.png",309,431 S,1,19200,21200,0.2,1 F,1,19200,21200,1,0 P,0,19200,21800,A C,0,19200,,237,221,203
Sprite,Foreground,Centre,"ring.png",554,77 S,1,38400,40400,0.2,1 F,1,38400,40400,1,0 P,0,38400,41000,A C,0,38400,,223,133,87
//Storyboard Sound Samples

[TimingPoints]
0,600,4,2,1,70,1,0
55800,-100,4,2,1,50,0,0
56400,-100,4,2,1,20,0,0
57000,-100,4,2,1,15,0,0
57600,-100,4,2,1,10,0,0
67200,-125,4,2,1,40,0,0
78000,-125,4,2,1,30,0,0
78300,-125,4,2,1,20,0,0
79500,-125,4,2,1,30,0,0
80100,-125,4,2,1,20,0,0
80700,-125,4,2,1,10,0,0
81600,-125,4,2,3,5,0,0

[Colours]
Combo1 : 223,133,87
Combo2 : 239,63,107
Combo3 : 237,221,203

[HitObjects]
134,73,0,6,0,P|98:69|41:71,2,70,2|0|8,0:0|0:0|0:0,0:0:0:0:
216,88,900,2,0,L|208:238,1,140,0|2,0:0|0:0,0:0:0:0:
204,311,1800,1,8,0:0:0:0:
370,334,2400,2,0,P|419:312|459:221,1,140,2|8,0:0|0:0,0:0:0:0:
433,72,3600,2,0,L|334:69,1,70,0|2,0:0|0:0,0:0:0:0:
283,96,4200,2,0,L|184:93,1,70,8|2,0:0|0:0,0:0:0:0:
138,54,4800,5,2,0:0:0:0:
21,175,5400,1,8,0:0:0:0:
26,258,5700,2,0,P|67:307|167:312,1,140,0|2,0:0|0:0,0:0:0:0:
221,303,6600,1,8,0:0:0:0:
370,226,7200,2,0,P|374:161|350:67,1,140,2|8,0:0|0:0,0:0:0:0:
193,56,8400,2,0,L|115:51,2,70,2|2|8,0:3|0:0|0:0,0:0:0:0:
205,139,9300,1,2,0:0:0:0:
217,222,9600,6,0,L|234:374,1,140,2|8,0:0|0:0,0:0:0:0:
315,345,10500,2,0,P|362:339|452:357,1,140,0|2,0:0|0:0,0:0:0:0:
495,284,11400,1,8,0:0:0:0:
385,156,12000,2,0,P|368:102|368:-7,1,140,2|8,0:0|0:0,0:0:0:0:
196,35,13200,2,0,L|111:41,1,70,2|2,0:3|0:0,0:0:0:0:
64,96,13800,2,0,L|70:181,1,70,8|2,0:0|0:0,0:0:0:0:
80,248,14400,6,0,P|180:300|221:298,1,140,2|8,0:0|0:0,0:0:0:0:
286,282,15300,1,0,0:0:0:0:
425,188,15900,2,0,P|494:177|515:178,2,70,2|8|0,0:0|0:0|0:0,0:0:0:0:
349,151,16800,2,0,P|301:137|195:138,1,140,2|8,0:0|0:0,0:0:0:0:
80,240,18000,2,0,L|85:315,1,70,2|2,0:3|0:0,0:0:0:0:
168,306,18600,2,0,L|161:382,1,70,8|2,0:0|0:0,0:0:0:0:
245,375,19200,6,0,L|387:367,1,140,6|8,0:0|0:0,0:0:0:0:
441,305,20100,1,0,0:0:0:0:
475,140,20700,2,0,P|470:90|445:47,1,70,2|8,0:0|0:0,0:0:0:0:
300,25,21600,2,0,P|224:40|156:42,1,140,2|8,0:0|0:0,0:0:0:0:
60,176,22800,2,0,P|53:212|54:248,2,70,2|2|8,0:3|0:0|0:0,0:0:0:0:
143,167,23700,1,2,0:0:0:0:
215,210,24000,6,0,P|291:219|384:211,1,140,2|8,0:0|0:0,0:0:0:0:
437,206,24900,2,0,P|428:282|436:375,1,140,0|2,0:0|0:0,0:0:0:0:
344,359,25800,1,8,0:0:0:0:
177,337,26400,2,0,P|141:336|87:347,2,70,2|0|8,0:0|0:0|0:0,0:0:0:0:
253,187,27600,2,0,L|258:104,1,70,2|2,0:3|0:0,0:0:0:0:
174,104,28200,2,0,L|179:21,1,70,8|2,0:0|0:0,0:0:0:0:
259,12,28800,6,0,P|333:10|421:40,1,140,2|8,0:0|0:0,0:0:0:0:
457,84,29700,1,0,0:0:0:0:
375,230,30300,2,0,P|371:292|373:329,2,70,2|8|0,0:0|0:0|0:0,0:0:0:0:
299,192,31200,2,0,P|225:180|139:178,1,140,2|8,0:0|0:0,0:0:0:0:
154,345,32400,1,2,0:3:0:0:
235,365,32700,2,0,P|291:364|315:359,2,70,2|8|2,0:0|0:0|0:0,0:0:0:0:
214,283,33600,5,2,0:0:0:0:
242,117,34200,1,8,0:0:0:0:
170,73,34500,2,0,P|112:70|21:77,1,140,0|2,0:0|0:0,0:0:0:0:
4,155,35400,1,8,0:0:0:0:
133,261,36000,2,0,B|194:287|194:287|293:277,1,140,2|8,0:0|0:0,0:0:0:0:
282,196,36900,2,0,B|343:170|343:170|416:177,1,140,0|2,0:0|0:0,0:0:0:0:
499,189,37800,1,8,0:0:0:0:
490,21,38400,6,0,L|343:28,1,140,6|8,0:0|0:0,0:0:0:0:
297,93,39300,2,0,L|150:86,1,140,0|2,0:0|0:0,0:0:0:0:
101,23,40200,1,8,0:0:0:0:
25,173,40800,2,0,P|21:228|24:268,1,70,2|0,0:0|0:0,0:0:0:0:
95,283,41400,1,8,0:0:0:0:
251,222,42000,2,0,P|304:217|337:219,2,70,2|2|8,0:3|0:0|0:0,0:0:0:0:
227,302,42900,1,2,0:0:0:0:
276,370,43200,6,0,P|335:367|411:312,1,140,2|8,0:0|0:0,0:0:0:0:
449,254,44100,1,0,0:0:0:0:
382,99,44700,2,0,P|371:54|372:14,1,70,2|8,0:0|0:0,0:0:0:0:
202,31,45600,2,0,P|121:42|51:78,2,140,2|8|2,0:0|0:0|0:3,0:0:0:0:
262,90,47100,2,0,P|307:92|341:85,2,70,2|8|2,0:0|0:0|0:0,0:0:0:0:
199,146,48000,5,2,0:0:0:0:
149,306,48600,1,8,0:0:0:0:
206,367,48900,2,0,B|299:371|299:371|349:348,1,140,0|2,0:0|0:0,0:0:0:0:
414,309,49800,1,8,0:0:0:0:
377,145,50400,2,0,L|223:132,1,140,2|8,0:0|0:0,0:0:0:0:
69,147,51600,2,0,L|-1:152,2,70,2|2|8,0:3|0:0|0:0,0:0:0:0:
187,28,52800,6,0,L|341:15,1,140,2|8,0:0|0:0,0:0:0:0:
405,43,53700,1,0,0:0:0:0:
444,206,54300,2,0,L|437:302,1,70,2|8,0:0|0:0,0:0:0:0:
277,322,55200,2,0,P|228:319|219:230,1,140,2|8,0:0|0:0,0:0:0:0:
256,80,56400,2,0,P|221:49|113:53,2,140,2|8|4,0:0|0:0|0:0,0:0:0:0:
454,73,67200,6,0,B|284:37|293:136|124:101,1,336
23,189,69600,2,0,P|19:272|34:382,2,168
141,253,72000,2,0,P|271:270|415:134,1,336
312,50,74400,2,0,P|247:36|144:41,2,168
256,192,76500,12,0,82800,0:0:0:0:
