osu file format v14

[General]
AudioFilename: audio.mp3
AudioLeadIn: 0
PreviewTime:48637
Countdown: 0
SampleSet: Normal
StackLeniency: 0.7
Mode: 1
LetterboxInBreaks: 0
WidescreenStoryboard: 1

[Editor]
Bookmarks: 521,8313,14547,19222,20781,27014,33248,39482,42599,47274,48833,55066,61300,67534,73768,78443,80001,87014
DistanceSpacing: 1.3
BeatDivisor: 2
GridSize: 32
TimelineZoom: 1

[Metadata]
Title:Wiseman no Thema (TV Size)
TitleUnicode:ワイズマンのテーマ (TV Size)
Artist:Wiseman (CV: Sayaka Harada & Akari Kito & Ayumi Mano)
ArtistUnicode:ワイズマン(CV:原田彩楓 & 鬼頭明里 & 真野あゆみ)
Creator:Hivie
Version:Futsuu
Source:ラストピリオド -終わりなき螺旋の物語-
Tags:phob anime theme japanese waizuman no teema Last Period Happy Elements ラスピリ mizaru kikazaru iwazaru
BeatmapID:2465121
BeatmapSetID:1182359

[Difficulty]
HPDrainRate:7
CircleSize:2
OverallDifficulty:4
ApproachRate:9
SliderMultiplier:1.4
SliderTickRate:1

[Events]
//Background and Video events
0,0,"bg.jpg",0,100
//Break Periods
//Storyboard Layer 0 (Background)
//Storyboard Layer 1 (Fail)
//Storyboard Layer 2 (Pass)
//Storyboard Layer 3 (Foreground)
//Storyboard Layer 4 (Overlay)
//Storyboard Sound Samples

[TimingPoints]
521,389.61038961039,4,1,0,100,1,0
521,-100,4,1,0,100,0,0
8313,-90.9090909090909,4,1,0,100,0,1
19222,-90.9090909090909,4,1,0,100,0,0
19806,-90.9090909090909,4,1,0,100,0,0
20780,-100,4,1,0,100,0,0
48832,-90.9090909090909,4,1,0,100,0,1
73378,-90.9090909090909,4,1,0,100,0,0
73767,-90.9090909090909,4,1,0,100,0,1
78443,-90.9090909090909,4,1,0,100,0,0
79904,-100,4,1,0,100,0,0

[HitObjects]
256,96,521,5,12,0:0:0:0:
256,192,910,1,0,0:0:0:0:
256,192,1105,1,8,0:0:0:0:
256,192,1495,1,8,0:0:0:0:
256,192,1689,1,0,0:0:0:0:
256,96,2079,1,12,0:0:0:0:
256,192,2469,1,8,0:0:0:0:
256,192,2663,1,8,0:0:0:0:
256,192,3053,1,8,0:0:0:0:
256,192,3248,1,0,0:0:0:0:
256,96,3637,1,12,0:0:0:0:
256,96,4222,1,4,0:0:0:0:
256,96,4806,1,12,0:0:0:0:
256,192,5196,1,8,0:0:0:0:
256,192,5391,1,8,0:0:0:0:
256,192,5585,1,0,0:0:0:0:
256,192,5975,1,0,0:0:0:0:
256,192,6170,1,0,0:0:0:0:
256,96,6365,1,12,0:0:0:0:
256,96,7923,1,12,0:0:0:0:
256,192,8313,1,0,0:0:0:0:
256,192,8702,1,0,0:0:0:0:
256,192,8995,1,8,0:0:0:0:
256,192,9287,1,8,0:0:0:0:
256,192,9482,1,0,0:0:0:0:
256,192,9871,1,8,0:0:0:0:
256,192,10261,1,0,0:0:0:0:
256,192,10553,1,0,0:0:0:0:
256,192,10845,1,8,0:0:0:0:
256,192,11040,1,8,0:0:0:0:
256,192,11430,1,0,0:0:0:0:
256,192,12209,1,8,0:0:0:0:
256,192,12598,1,0,0:0:0:0:
256,192,12988,1,8,0:0:0:0:
256,192,13183,1,0,0:0:0:0:
256,192,13378,1,8,0:0:0:0:
256,192,13767,1,0,0:0:0:0:
256,192,13962,1,8,0:0:0:0:
256,192,14157,1,0,0:0:0:0:
256,192,14546,1,8,0:0:0:0:
256,192,14936,1,0,0:0:0:0:
256,192,15228,1,8,0:0:0:0:
256,192,15521,1,8,0:0:0:0:
256,192,15715,1,0,0:0:0:0:
256,192,16105,1,8,0:0:0:0:
256,192,16495,1,0,0:0:0:0:
256,192,16787,1,0,0:0:0:0:
256,192,17079,1,8,0:0:0:0:
256,192,17274,1,8,0:0:0:0:
256,192,17663,1,0,0:0:0:0:
256,192,18443,1,0,0:0:0:0:
256,192,18637,1,8,0:0:0:0:
256,192,18832,1,0,0:0:0:0:
256,192,19222,1,8,0:0:0:0:
256,192,19514,1,8,0:0:0:0:
256,192,20001,1,0,0:0:0:0:
256,96,20391,1,12,0:0:0:0:
256,96,20780,1,4,0:0:0:0:
256,192,21559,1,8,0:0:0:0:
256,192,21949,1,0,0:0:0:0:
256,96,22339,1,12,0:0:0:0:
256,192,23118,1,0,0:0:0:0:
256,192,23508,1,0,0:0:0:0:
256,96,23897,1,12,0:0:0:0:
256,96,24676,1,12,0:0:0:0:
256,96,25456,1,12,0:0:0:0:
256,96,26040,1,4,0:0:0:0:
256,192,26624,1,8,0:0:0:0:
256,96,27014,1,4,0:0:0:0:
256,192,27793,1,0,0:0:0:0:
256,192,28183,1,0,0:0:0:0:
256,96,28572,1,12,0:0:0:0:
256,192,29352,1,8,0:0:0:0:
256,192,29741,1,0,0:0:0:0:
256,96,30131,1,12,0:0:0:0:
256,96,30910,1,12,0:0:0:0:
256,96,31689,1,12,0:0:0:0:
256,96,32274,1,4,0:0:0:0:
256,192,32858,1,0,0:0:0:0:
256,96,33248,1,12,0:0:0:0:
256,192,33637,1,8,0:0:0:0:
256,192,33930,1,0,0:0:0:0:
256,192,34417,1,8,0:0:0:0:
256,192,34806,1,0,0:0:0:0:
256,192,35196,1,0,0:0:0:0:
256,192,35488,1,8,0:0:0:0:
256,192,35975,1,8,0:0:0:0:
256,192,36365,1,0,0:0:0:0:
256,192,37144,1,8,0:0:0:0:
256,192,37923,1,8,0:0:0:0:
256,192,38313,1,8,0:0:0:0:
256,192,38702,1,0,0:0:0:0:
256,192,39092,1,0,0:0:0:0:
256,96,39482,1,12,0:0:0:0:
256,192,40261,1,8,0:0:0:0:
256,192,40456,1,0,0:0:0:0:
256,192,40650,1,8,0:0:0:0:
256,192,41040,1,0,0:0:0:0:
256,192,41430,1,8,0:0:0:0:
256,192,41624,1,8,0:0:0:0:
256,192,41819,1,0,0:0:0:0:
256,192,42598,1,8,0:0:0:0:
256,192,43183,1,0,0:0:0:0:
256,192,43572,1,0,0:0:0:0:
256,192,43767,1,8,0:0:0:0:
256,192,44157,1,8,0:0:0:0:
256,192,44741,1,8,0:0:0:0:
256,192,45131,1,0,0:0:0:0:
256,192,45326,1,0,0:0:0:0:
256,192,45715,1,8,0:0:0:0:
256,192,46300,1,0,0:0:0:0:
256,192,46689,1,0,0:0:0:0:
256,192,46884,1,8,0:0:0:0:
256,192,47274,1,8,0:0:0:0:
256,192,47663,1,0,0:0:0:0:
256,96,48443,1,12,0:0:0:0:
256,192,48832,1,0,0:0:0:0:
256,192,49221,1,0,0:0:0:0:
256,192,49514,1,8,0:0:0:0:
256,192,49806,1,8,0:0:0:0:
256,192,50001,1,0,0:0:0:0:
256,192,50390,1,8,0:0:0:0:
256,192,50780,1,0,0:0:0:0:
256,192,51072,1,0,0:0:0:0:
256,192,51364,1,8,0:0:0:0:
256,192,51559,1,8,0:0:0:0:
256,192,51949,1,0,0:0:0:0:
256,192,52728,1,8,0:0:0:0:
256,192,53117,1,0,0:0:0:0:
256,192,53507,1,8,0:0:0:0:
256,192,53702,1,0,0:0:0:0:
256,192,53897,1,8,0:0:0:0:
256,192,54286,1,0,0:0:0:0:
256,192,54481,1,8,0:0:0:0:
256,192,54676,1,0,0:0:0:0:
256,192,55065,1,8,0:0:0:0:
256,192,55455,1,0,0:0:0:0:
256,192,55747,1,8,0:0:0:0:
256,192,56040,1,8,0:0:0:0:
256,192,56234,1,0,0:0:0:0:
256,192,56624,1,8,0:0:0:0:
256,192,57014,1,0,0:0:0:0:
256,192,57306,1,0,0:0:0:0:
256,192,57598,1,8,0:0:0:0:
256,192,57793,1,8,0:0:0:0:
256,192,58182,1,0,0:0:0:0:
256,192,58962,1,0,0:0:0:0:
256,192,59351,1,0,0:0:0:0:
256,192,59741,1,8,0:0:0:0:
256,192,59936,1,8,0:0:0:0:
256,192,60131,1,0,0:0:0:0:
256,192,60326,1,0,0:0:0:0:
256,192,60521,1,8,0:0:0:0:
256,96,60910,1,12,0:0:0:0:
256,192,61300,1,0,0:0:0:0:
256,192,61689,1,0,0:0:0:0:
256,192,61982,1,8,0:0:0:0:
256,192,62274,1,8,0:0:0:0:
256,192,62469,1,0,0:0:0:0:
256,192,62858,1,8,0:0:0:0:
256,192,63248,1,0,0:0:0:0:
256,192,63540,1,0,0:0:0:0:
256,192,63832,1,8,0:0:0:0:
256,192,64027,1,8,0:0:0:0:
256,192,64417,1,0,0:0:0:0:
256,192,65196,1,8,0:0:0:0:
256,192,65585,1,0,0:0:0:0:
256,192,65975,1,8,0:0:0:0:
256,192,66170,1,0,0:0:0:0:
256,192,66365,1,8,0:0:0:0:
256,192,66754,1,0,0:0:0:0:
256,192,66949,1,8,0:0:0:0:
256,192,67144,1,0,0:0:0:0:
256,192,67533,1,8,0:0:0:0:
256,192,67923,1,0,0:0:0:0:
256,192,68215,1,8,0:0:0:0:
256,192,68508,1,8,0:0:0:0:
256,192,68702,1,0,0:0:0:0:
256,192,69092,1,8,0:0:0:0:
256,192,69482,1,0,0:0:0:0:
256,192,69774,1,0,0:0:0:0:
256,192,70066,1,8,0:0:0:0:
256,192,70261,1,8,0:0:0:0:
256,192,70650,1,0,0:0:0:0:
256,192,71430,1,0,0:0:0:0:
256,192,71624,1,8,0:0:0:0:
256,192,71819,1,0,0:0:0:0:
256,192,72209,1,8,0:0:0:0:
256,192,72598,5,8,0:0:0:0:
256,192,72988,1,0,0:0:0:0:
256,192,73183,1,0,0:0:0:0:
256,96,73378,1,12,0:0:0:0:
256,192,73767,1,0,0:0:0:0:
256,192,74546,1,8,0:0:0:0:
256,192,74936,1,8,0:0:0:0:
256,192,75131,1,0,0:0:0:0:
256,192,75521,1,0,0:0:0:0:
256,192,75715,1,8,0:0:0:0:
256,192,75910,1,0,0:0:0:0:
256,192,76105,1,8,0:0:0:0:
256,192,76495,1,8,0:0:0:0:
256,192,76884,1,0,0:0:0:0:
256,192,77176,1,0,0:0:0:0:
256,192,77469,1,0,0:0:0:0:
256,192,77761,1,0,0:0:0:0:
256,192,78053,1,8,0:0:0:0:
256,192,78248,1,8,0:0:0:0:
256,96,80001,5,12,0:0:0:0:
256,192,80391,1,0,0:0:0:0:
256,192,80585,1,8,0:0:0:0:
256,192,80975,1,8,0:0:0:0:
256,192,81170,1,0,0:0:0:0:
256,96,81559,1,12,0:0:0:0:
256,192,81949,1,8,0:0:0:0:
256,192,82144,1,8,0:0:0:0:
256,192,82533,1,8,0:0:0:0:
256,192,82728,1,0,0:0:0:0:
256,96,83118,1,12,0:0:0:0:
256,96,83702,1,4,0:0:0:0:
256,96,84287,1,12,0:0:0:0:
256,192,84676,1,8,0:0:0:0:
256,192,84871,1,8,0:0:0:0:
256,192,85066,1,0,0:0:0:0:
256,192,85456,1,0,0:0:0:0:
256,192,85650,5,0,0:0:0:0:
256,96,85845,1,12,0:0:0:0:
256,96,86235,5,12,0:0:0:0:
256,96,86527,1,4,0:0:0:0:
256,96,86819,1,12,0:0:0:0:
