osu file format v14

[General]
AudioFilename: audio.mp3
AudioLeadIn: 0
PreviewTime: 17943
Countdown: 0
SampleSet: Normal
StackLeniency: 0.7
Mode: 1
LetterboxInBreaks: 0
WidescreenStoryboard: 1

[Editor]
Bookmarks: 160,5703,14978,18589,19109,19689,20239,20801,21350,25262,25742,26933,28073,31384,32525,33656,34786,35856,36407,36957,38087,38697,39258
DistanceSpacing: 2
BeatDivisor: 4
GridSize: 4
TimelineZoom: 1

[Metadata]
Title:Brazil
TitleUnicode:Brazil
Artist:Wire
ArtistUnicode:Wire
Creator:Yasuho
Version:Kantan
Source:
Tags:hivie english rock post-punk punk pink flag
BeatmapID:4538637
BeatmapSetID:2153935

[Difficulty]
HPDrainRate:10
CircleSize:5
OverallDifficulty:3
ApproachRate:5
SliderMultiplier:1.2
SliderTickRate:1

[Events]
//Background and Video events
0,0,"salute.jpg",0,50
//Break Periods
//Storyboard Layer 0 (Background)
//Storyboard Layer 1 (Fail)
//Storyboard Layer 2 (Pass)
//Storyboard Layer 3 (Foreground)
//Storyboard Layer 4 (Overlay)
//Storyboard Sound Samples

[TimingPoints]
160,273.972602739726,4,1,0,74,1,0
160,-100,4,1,0,74,0,0
1255,277.777777777778,4,1,0,74,1,0
1255,-98.6301369863013,4,1,0,74,0,0
2366,276.179516685846,4,1,0,74,1,0
2366,-99.2009132420091,4,1,0,74,0,0
3470,284.090909090909,4,1,0,74,1,0
3470,-96.4383561643836,4,1,0,74,0,0
4606,278.810408921933,4,1,0,74,1,0
4606,-98.2648401826484,4,1,0,74,0,0
5442,266.666666666667,4,1,0,74,1,8
5442,-102.739726027397,4,1,0,74,0,8
5708,299.40119760479,4,1,0,74,1,0
5708,-91.5068493150686,4,1,0,74,0,0
6007,277.008310249308,4,1,0,74,1,8
6007,-98.9041095890409,4,1,0,74,0,8
6838,276.497695852535,4,1,0,74,1,0
6838,-99.0867579908674,4,1,0,74,0,0
7943,278.422273781903,4,1,0,74,1,0
7943,-98.4018264840181,4,1,0,74,0,0
10170,280.112044817927,4,1,0,74,1,0
10170,-97.8082191780822,4,1,0,74,0,0
11290,279.72027972028,4,1,0,74,1,0
11290,-97.9452054794519,4,1,0,74,0,0
12408,281.030444964871,4,1,0,74,1,0
12408,-97.4885844748859,4,1,0,74,0,0
13532,282.021151586369,4,1,0,74,1,0
13532,-97.1461187214612,4,1,0,74,0,0
14660,282.021151586369,4,1,0,74,1,0
14660,-97.1461187214612,4,1,0,74,0,0
14942,274.599542334096,4,1,0,74,1,8
14942,-99.7716894977169,4,1,0,74,0,8
15765,281.359906213365,4,1,0,74,1,0
15765,-97.3744292237442,4,1,0,74,0,0
18015,285.714285714286,4,1,0,74,1,0
18015,-95.890410958904,4,1,0,74,0,0
18586,280.373831775701,4,1,0,74,1,8
18586,-97.7168949771689,4,1,0,74,0,8
19146,284.36018957346,4,1,0,74,1,0
19146,-96.3470319634702,4,1,0,74,0,0
19999,269.662921348315,4,1,0,74,1,8
19999,-101.598173515982,4,1,0,74,0,8
20268,283.687943262411,4,1,0,74,1,0
20268,-96.5753424657536,4,1,0,74,0,0
21119,266.666666666667,4,1,0,74,1,8
21119,-102.739726027397,4,1,0,74,0,8
21385,274.599542334096,4,1,0,74,1,0
21385,-99.7716894977169,4,1,0,74,0,0
22483,282.85209192693,4,1,0,74,1,0
22483,-96.8607305936073,4,1,0,74,0,0
24745,277.777777777778,4,1,0,74,1,0
24745,-98.6301369863013,4,1,0,74,0,0
25300,283.018867924528,4,1,0,74,1,8
25300,-96.8036529680366,4,1,0,74,0,8
25583,324.324324324324,4,1,0,74,1,8
25583,-84.474885844749,4,1,0,74,0,8
25745,304.568527918782,4,1,0,74,1,0
25745,-89.9543378995433,4,1,0,74,0,0
26364,291.26213592233,4,1,0,74,1,8
26364,-94.0639269406393,4,1,0,74,0,8
26936,285.714285714286,4,1,0,74,1,0
26936,-95.890410958904,4,1,0,74,0,0
27793,266.666666666667,4,1,0,74,1,8
27793,-102.739726027397,4,1,0,74,0,8
28059,280.373831775701,4,1,0,74,1,0
28059,-97.7168949771689,4,1,0,74,0,0
29180,279.394644935972,4,1,0,74,1,0
29180,-98.0593607305936,4,1,0,74,0,0
30297,281.69014084507,4,1,0,74,1,0
30297,-97.2602739726029,4,1,0,74,0,0
31142,291.26213592233,4,1,0,74,1,8
31142,-94.0639269406393,4,1,0,74,0,8
31433,276.497695852535,4,1,0,74,1,0
31433,-99.0867579908674,4,1,0,74,0,0
32262,270.27027027027,4,1,0,74,1,8
32262,-101.369863013699,4,1,0,74,0,8
32532,281.69014084507,4,1,0,74,1,0
32532,-97.2602739726029,4,1,0,74,0,0
33377,270.002700027,4,1,0,74,1,8
33377,-101.470319634703,4,1,0,74,0,8
33647,281.359906213365,4,1,0,74,1,0
33647,-97.3744292237442,4,1,0,74,0,0
34491,267.857142857143,4,1,0,74,1,8
34491,-102.283105022831,4,1,0,74,0,8
34758,282.752120640905,4,1,0,74,1,0
34758,-96.8949771689497,4,1,0,74,0,0
35606,270.27027027027,4,1,0,74,1,8
35606,-101.369863013699,4,1,0,74,0,8
35876,277.777777777778,4,1,0,84,1,0
35876,-98.6301369863013,4,1,0,84,0,0
36431,288.461538461538,4,1,0,84,1,8
36431,-94.9771689497719,4,1,0,84,0,8
37007,286.396181384248,4,1,0,84,1,0
37007,-95.6621004566211,4,1,0,84,0,0
38152,295.566502463054,4,1,0,84,1,0
38152,-92.6940639269407,4,1,0,84,0,0
38743,285.442435775452,4,1,0,84,1,8
38743,-95.9817351598173,4,1,0,84,0,8
39313,300,4,1,0,74,1,0
39313,-91.324200913242,4,1,0,74,0,0

[HitObjects]
128,161,160,5,8,0:0:0:0:
224,216,707,1,0,0:0:0:0:
224,216,1255,1,8,0:0:0:0:
224,216,1532,1,0,0:0:0:0:
224,216,1810,1,0,0:0:0:0:
236,168,2366,1,8,0:0:0:0:
232,154,2918,1,0,0:0:0:0:
232,154,3470,1,8,0:0:0:0:
232,154,3754,1,8,0:0:0:0:
232,154,4038,1,0,0:0:0:0:
210,154,4606,1,8,0:0:0:0:
210,154,5163,1,0,0:0:0:0:
210,154,5708,1,8,0:0:0:0:
210,154,6007,1,0,0:0:0:0:
210,154,6284,1,0,0:0:0:0:
210,154,6838,1,8,0:0:0:0:
203,157,7390,1,0,0:0:0:0:
203,157,7943,1,8,0:0:0:0:
203,157,8221,1,8,0:0:0:0:
203,157,8499,1,0,0:0:0:0:
225,159,9056,1,8,0:0:0:0:
203,165,9474,1,0,0:0:0:0:
225,159,10170,1,8,0:0:0:0:
197,142,10590,1,0,0:0:0:0:
237,143,11290,1,0,0:0:0:0:
211,132,11849,1,0,0:0:0:0:
211,132,12408,1,8,0:0:0:0:
213,133,13532,1,8,0:0:0:0:
213,133,13955,1,8,0:0:0:0:
213,133,14660,1,0,0:0:0:0:
217,132,15079,1,8,0:0:0:0:
222,131,15765,1,8,0:0:0:0:
222,131,16327,1,0,0:0:0:0:
222,131,16890,1,8,0:0:0:0:
220,130,18015,1,8,0:0:0:0:
220,130,18586,1,8,0:0:0:0:
220,130,19146,1,0,0:0:0:0:
220,130,19430,1,0,0:0:0:0:
220,130,19714,1,8,0:0:0:0:
220,130,20268,1,8,0:0:0:0:
220,130,20835,1,0,0:0:0:0:
220,134,21252,1,8,0:0:0:0:
156,136,22483,1,4,0:0:0:0:
156,136,23048,1,8,0:0:0:0:
156,136,23614,1,0,0:0:0:0:
196,148,23897,1,0,0:0:0:0:
156,136,24180,1,8,0:0:0:0:
156,136,24745,1,8,0:0:0:0:
156,136,25300,1,8,0:0:0:0:
156,136,25745,1,4,0:0:0:0:
244,178,26936,1,12,0:0:0:0:
239,179,27507,1,8,0:0:0:0:
239,179,28059,1,0,0:0:0:0:
231,181,28339,1,0,0:0:0:0:
228,182,28619,1,8,0:0:0:0:
231,181,29180,1,4,0:0:0:0:
231,181,29738,1,8,0:0:0:0:
231,181,30297,1,0,0:0:0:0:
231,181,30578,1,0,0:0:0:0:
231,181,30860,1,8,0:0:0:0:
231,181,31433,1,4,0:0:0:0:
231,181,31985,1,8,0:0:0:0:
231,181,32532,1,0,0:0:0:0:
231,181,32813,1,0,0:0:0:0:
231,181,33095,1,8,0:0:0:0:
231,181,33647,1,0,0:0:0:0:
166,190,34209,1,8,0:0:0:0:
166,190,34758,1,0,0:0:0:0:
166,190,35040,1,0,0:0:0:0:
166,190,35323,1,8,0:0:0:0:
166,190,35876,1,0,0:0:0:0:
166,190,36431,1,8,0:0:0:0:
161,161,37007,1,0,0:0:0:0:
177,122,37293,1,0,0:0:0:0:
165,165,37579,1,0,0:0:0:0:
159,166,38152,1,8,0:0:0:0:
188,131,38447,1,8,0:0:0:0:
159,166,38743,1,8,0:0:0:0:
159,166,39313,1,0,0:0:0:0:
