osu file format v14

[General]
AudioFilename: audio.mp3
AudioLeadIn: 0
PreviewTime: 83460
Countdown: 0
SampleSet: Drum
StackLeniency: 0.5
Mode: 0
LetterboxInBreaks: 0
WidescreenStoryboard: 1

[Editor]
Bookmarks: 37833,122707
DistanceSpacing: 0.7
BeatDivisor: 4
GridSize: 16
TimelineZoom: 3.887999

[Metadata]
Title:Winter Madness
TitleUnicode:Winter Madness
Artist:Wintersun
ArtistUnicode:Wintersun
Creator:Zoli
Version:The Realm of Eternal Ice
Source:
Tags:metal stream death atmospheric english symphonic folk melodic melodeath wintersun 2.0 finland
BeatmapID:2137635
BeatmapSetID:1021672

[Difficulty]
HPDrainRate:4
CircleSize:4.3
OverallDifficulty:9.3
ApproachRate:9.6
SliderMultiplier:1.8
SliderTickRate:1

[Events]
//Background and Video events
0,0,"winter rik.jpg",0,0
//Break Periods
2,167503,169936
//Storyboard Layer 0 (Background)
//Storyboard Layer 1 (Fail)
//Storyboard Layer 2 (Pass)
//Storyboard Layer 3 (Foreground)
//Storyboard Layer 4 (Overlay)
//Storyboard Sound Samples

[TimingPoints]
130,280.373831775701,3,3,3,55,1,0
130,-66.6666666666667,3,3,3,55,0,0
690,-200,3,3,3,55,0,0
971,-66.6666666666667,3,3,3,55,0,0
1531,-200,3,3,3,55,0,0
1812,291.26213592233,3,3,3,55,1,0
1812,-66.6666666666667,3,3,3,55,0,0
2394,-200,3,3,3,55,0,0
2685,288.461538461538,3,3,3,55,1,0
2685,-200,3,3,3,55,0,0
3261,-66.6666666666667,3,3,3,55,0,0
3838,-200,3,3,3,55,0,0
4127,-200,3,3,3,55,0,0
4415,280.373831775701,3,3,3,55,1,0
4415,-66.6666666666667,3,3,3,55,0,0
4975,-200,3,3,3,55,0,0
5256,-50,3,3,3,55,0,0
5536,285.306704707561,3,3,2,55,1,0
5821,-100,3,3,1,55,0,0
5963,-100,3,3,2,55,0,0
6106,285.306704707561,3,3,2,55,1,0
6106,-100,3,3,1,55,0,0
6391,-100,3,3,1,45,0,0
6676,-100,3,3,6,35,0,0
6962,285.85040495474,3,3,2,55,1,0
6962,-50,3,3,3,55,0,0
7533,-200,3,3,3,55,0,0
7819,-66.6666666666667,3,3,3,55,0,0
8391,-200,3,3,3,55,0,0
8677,-66.6666666666667,3,3,3,55,0,0
9248,-200,3,3,3,55,0,0
9534,295.566502463054,3,3,3,55,1,0
9534,-66.6666666666667,3,3,3,55,0,0
10125,281.69014084507,3,3,3,55,1,0
10125,-100,3,3,3,55,0,0
10406,281.293952180028,3,3,3,55,1,0
10406,-66.6666666666667,3,3,3,55,0,0
10968,-200,3,3,3,55,0,0
11249,285.85040495474,3,3,3,55,1,0
11249,-66.6666666666667,3,3,3,55,0,0
11820,-200,3,3,3,55,0,0
12392,312.5,3,3,2,55,1,0
12392,-100,3,3,6,55,0,0
12704,260.869565217391,3,3,2,55,1,0
12704,-100,3,3,1,55,0,0
12964,285.85040495474,3,3,2,55,1,0
13249,297.029702970297,3,3,2,55,1,0
13249,-133.333333333333,3,3,2,55,0,0
13843,282.485875706215,5,3,2,55,1,0
13843,-100,5,3,3,55,0,0
16667,288.461538461538,3,3,3,55,1,0
18397,285.918513223731,5,3,3,55,1,0
24115,287.907869481766,3,3,3,55,1,0
24546,-142.857142857143,6,3,3,55,0,0
24978,-142.857142857143,6,3,1,55,0,0
25266,-142.857142857143,6,3,6,45,0,0
25554,-200,6,3,6,35,0,0
25842,281.69014084507,5,3,2,55,1,0
25842,-83.3333333333333,5,3,2,55,0,0
28095,293.398533007335,5,3,2,55,1,0
28095,-83.3333333333333,5,3,2,55,0,0
28681,283.018867924528,3,3,3,55,1,0
29530,292.682926829268,5,3,3,55,1,0
30408,285.374554102259,5,3,3,55,1,0
31834,-83.3333333333333,5,3,2,55,0,0
34688,286.73835125448,3,3,3,55,1,0
36408,285.714285714286,5,3,2,55,1,0
36408,-142.857142857143,6,3,2,55,0,0
36979,-142.857142857143,6,3,6,55,0,0
37265,-142.857142857143,6,3,2,55,0,0
37833,285.714285714286,3,3,2,55,1,0
37833,-83.3333333333333,3,3,2,55,0,0
38047,-83.3333333333333,3,3,2,5,0,0
38118,-83.3333333333333,3,3,2,55,0,0
43475,-83.3333333333333,3,3,2,5,0,0
43546,-83.3333333333333,3,3,2,55,0,0
44689,285.714285714286,4,3,2,55,1,0
44689,-66.6666666666667,5,3,2,55,0,0
46689,284.832660811773,4,3,2,55,1,0
46689,-66.6666666666667,3,3,2,55,0,0
48967,288.461538461538,3,3,2,55,1,0
49183,-83.3333333333333,3,3,2,5,0,0
49254,-83.3333333333333,3,3,2,55,0,0
49832,-66.6666666666667,3,3,2,55,0,0
50048,-66.6666666666667,3,3,2,5,0,0
50120,285.714285714286,3,3,2,55,1,0
50691,285.714285714286,3,3,2,55,1,0
50691,-166.666666666667,3,3,1,45,0,0
51262,-166.666666666667,3,3,6,35,0,0
51548,-125,3,3,2,55,0,0
51833,-100,3,3,3,55,0,0
57262,-100,3,3,1,55,0,0
57691,-100,3,3,3,55,0,0
57762,-100,3,3,1,45,0,0
58119,266.666666666667,3,3,3,55,1,0
58119,-125,3,3,6,35,0,0
58385,286.73835125448,3,3,3,55,1,0
58385,-125,3,3,3,55,0,0
58672,-100,3,3,3,55,0,0
63833,-100,3,3,1,45,0,0
64406,-100,3,3,6,35,0,0
65266,285.714285714286,3,3,2,55,1,0
68694,285.714285714286,4,3,2,55,1,0
69265,-100,4,3,3,55,0,0
69836,-100,4,3,3,65,0,1
72694,-83.3333333333333,3,3,3,55,0,0
73265,-83.3333333333333,3,3,1,55,0,0
73694,-83.3333333333333,3,3,2,55,0,0
73765,-83.3333333333333,3,3,1,55,0,0
73979,-83.3333333333333,3,3,6,35,0,0
74408,-66.6666666666667,6,3,3,65,0,1
77551,-200,6,3,4,65,0,1
77622,-200,6,3,3,65,0,1
77694,-200,6,3,4,65,0,1
77765,-200,6,3,3,65,0,1
78122,-200,6,3,4,55,0,1
78193,-200,6,3,3,65,0,1
78265,-200,6,3,4,55,0,1
78336,-200,6,3,3,65,0,1
78694,-200,6,3,4,45,0,1
78765,-200,6,3,3,65,0,1
78837,-200,6,3,4,45,0,1
78908,-200,6,3,3,65,0,1
78979,-66.6666666666667,6,3,3,65,0,1
80408,298.507462686567,4,3,3,65,1,1
81303,285.714285714286,4,3,3,65,1,1
81303,-66.6666666666667,6,3,2,55,0,0
81588,275.229357798165,4,3,2,55,1,0
81588,-66.6666666666667,6,3,2,55,0,0
81863,279.06976744186,4,3,2,55,1,0
82142,282.752120640905,4,3,2,55,1,0
82142,-125,6,3,2,55,0,0
82424,282.752120640905,4,3,2,55,1,0
82424,-100,6,3,2,55,0,0
82706,-83.3333333333333,6,3,1,55,0,0
82989,-90.9090909090909,6,3,2,55,0,0
83552,285.714285714286,4,3,2,55,1,0
83552,-66.6666666666667,6,3,2,55,0,1
87194,-66.6666666666667,6,3,2,5,0,1
87266,-66.6666666666667,6,3,2,55,0,1
87909,-66.6666666666667,6,3,2,5,0,1
87981,-66.6666666666667,6,3,2,55,0,1
92123,-66.6666666666667,6,3,1,55,0,1
92409,-66.6666666666667,6,3,6,55,0,1
92694,-66.6666666666667,6,3,2,55,0,1
92909,-66.6666666666667,6,3,2,5,0,1
92981,-66.6666666666667,6,3,2,55,0,1
99266,-166.666666666667,4,3,2,55,0,0
99552,290.556900726392,4,3,1,55,1,0
99987,-100,4,3,1,45,0,0
100423,-100,4,3,6,35,0,0
100714,285.714285714286,3,3,2,55,1,0
100714,-66.6666666666667,3,3,2,55,0,0
100928,-66.6666666666667,6,3,2,5,0,0
101000,-66.6666666666667,6,3,2,55,0,0
101571,281.69014084507,3,3,2,55,1,0
101571,-83.3333333333333,3,3,2,55,0,0
102416,285.714285714286,3,3,2,55,1,0
102416,-83.3333333333333,3,3,2,55,0,0
105844,276.497695852535,3,3,2,55,1,0
105844,-83.3333333333333,3,3,2,55,0,0
106396,293.398533007335,3,3,1,55,1,0
106689,287.907869481766,3,3,6,45,1,0
107264,-83.3333333333333,3,3,2,55,0,0
108416,285.714285714286,3,3,2,55,1,0
108416,-83.3333333333333,3,3,2,55,0,0
110130,289.855072463768,3,3,2,55,1,0
110130,-83.3333333333333,3,3,2,55,0,0
110999,285.714285714286,3,3,2,55,1,0
110999,-83.3333333333333,3,3,2,55,0,0
111213,-83.3333333333333,3,3,2,5,0,0
111284,-83.3333333333333,3,3,2,55,0,0
112927,-83.3333333333333,3,3,2,5,0,0
112999,-83.3333333333333,3,3,6,55,0,0
113284,-83.3333333333333,3,3,1,55,0,0
113856,-83.3333333333333,3,3,6,35,0,0
114141,-83.3333333333333,3,3,2,35,0,0
114422,285.714285714286,5,3,2,55,1,0
114707,-142.857142857143,5,3,3,55,0,0
117279,285.714285714286,3,3,2,55,1,0
117279,-66.6666666666667,5,3,2,55,0,0
117493,-66.6666666666667,5,3,2,5,0,0
117564,-66.6666666666667,5,3,2,55,0,0
118136,-166.666666666667,3,3,3,55,0,0
118985,-100,5,3,2,55,0,0
118993,285.714285714286,5,3,3,55,1,0
119564,-125,5,3,1,55,0,0
120135,-125,5,3,2,55,0,0
120707,-142.857142857143,5,3,3,55,0,0
122135,-66.6666666666667,5,3,2,55,0,0
122421,-142.857142857143,5,3,3,55,0,0
123278,285.714285714286,3,3,2,55,1,0
123278,-66.6666666666667,5,3,2,55,0,0
123492,-66.6666666666667,5,3,2,5,0,0
123563,-66.6666666666667,5,3,2,55,0,0
124135,-166.666666666667,5,3,3,55,0,0
124706,-66.6666666666667,5,3,2,55,0,0
124992,-100,5,3,2,55,0,0
125135,-66.6666666666667,5,3,2,55,0,0
125420,-100,5,3,2,55,0,0
125563,295.566502463054,3,3,2,55,1,0
126154,-100,3,3,1,55,0,0
126449,285.714285714286,3,3,2,55,1,0
126449,-142.857142857143,3,3,2,45,0,0
126639,-142.857142857143,3,3,2,5,0,0
126734,-142.857142857143,3,3,6,45,0,0
127020,-142.857142857143,3,3,1,45,0,0
127306,-142.857142857143,3,3,4,45,0,0
127591,-142.857142857143,3,3,6,45,0,0
127877,-142.857142857143,3,3,1,45,0,0
128163,279.06976744186,3,3,2,45,1,0
128163,-142.857142857143,3,3,2,45,0,0
128442,-142.857142857143,3,3,6,45,0,0
128721,-142.857142857143,3,3,1,45,0,0
129000,285.714285714286,3,3,2,45,1,0
129000,-142.857142857143,3,3,4,45,0,0
129285,-142.857142857143,3,3,1,45,0,0
129571,-200,3,3,2,45,0,0
129785,-200,3,3,2,5,0,0
129857,-200,3,3,3,55,0,0
132142,294.117647058824,3,3,2,55,1,0
132289,-100,3,3,1,55,0,0
132436,283.419933868682,3,3,2,55,1,0
132577,-100,3,3,6,55,0,0
132861,-100,3,3,6,35,0,0
133214,-100,3,3,6,5,0,0
133286,285.714285714286,3,3,2,55,1,0
133286,-142.857142857143,3,3,2,45,0,0
133571,-142.857142857143,3,3,6,45,0,0
133857,-142.857142857143,3,3,1,45,0,0
134143,291.26213592233,3,3,2,45,1,0
134143,-142.857142857143,3,3,4,45,0,0
134434,-142.857142857143,3,3,6,45,0,0
134725,-142.857142857143,3,3,1,45,0,0
135021,281.425891181989,3,3,2,45,1,0
135021,-142.857142857143,3,3,2,45,0,0
135302,-100,3,3,1,45,0,0
135583,-142.857142857143,3,3,4,45,0,0
135862,-125,3,3,2,45,0,0
136076,-125,3,3,2,5,0,0
136146,-125,3,3,6,45,0,0
136704,290.838584585555,3,3,2,45,1,0
136922,-100,3,3,2,5,0,0
136994,-100,3,3,3,55,0,0
138449,275.862068965517,3,3,2,55,1,0
138449,-100,3,3,1,55,0,0
139276,288.461538461538,3,3,2,55,1,0
139276,-100,3,3,6,55,0,0
139564,-100,3,3,6,35,0,0
140141,286.123032904149,4,3,2,55,1,0
140141,-66.6666666666667,3,3,2,55,0,0
143574,-100,3,3,2,55,0,0
144718,-100,3,3,3,55,0,0
147007,294.117647058824,4,3,2,55,1,0
147007,-66.6666666666667,5,3,2,55,0,0
147227,-66.6666666666667,5,3,2,5,0,0
147301,301.507537688442,4,3,2,55,1,0
147602,275.229357798165,4,3,2,55,1,0
147877,284.36018957346,4,3,2,55,1,0
148161,283.822138126774,4,3,2,55,1,0
148161,-66.6666666666667,5,3,2,55,0,0
149863,285.035629453682,4,3,2,55,1,0
149863,-66.6666666666667,4,3,2,55,0,1
150076,-66.6666666666667,4,3,2,5,0,1
150148,-66.6666666666667,4,3,2,55,0,1
151359,-66.6666666666667,4,3,2,5,0,1
151431,-66.6666666666667,4,3,2,55,0,1
153497,-66.6666666666667,4,3,2,5,0,1
153569,-66.6666666666667,4,3,2,55,0,1
154423,286.73835125448,4,3,2,55,1,0
154423,-66.6666666666667,5,3,2,55,0,1
154638,-66.6666666666667,4,3,2,5,0,1
154710,-66.6666666666667,4,3,2,55,0,1
156645,-66.6666666666667,4,3,2,5,0,1
156717,-66.6666666666667,4,3,2,55,0,1
158437,-66.6666666666667,6,3,1,55,0,1
158723,-66.6666666666667,6,3,6,55,0,1
159008,-66.6666666666667,6,3,2,55,0,1
160157,285.238887568339,4,3,2,55,1,1
160157,-66.6666666666667,4,3,2,55,0,1
161511,-66.6666666666667,4,3,2,5,0,1
161583,-66.6666666666667,4,3,2,55,0,1
164720,287.35632183908,4,3,2,55,1,0
165007,-100,4,3,1,55,0,0
165294,-166.666666666667,4,3,6,35,0,0
165869,-166.666666666667,4,3,5,55,0,0
166731,-166.666666666667,4,3,6,35,0,0
167018,285.306704707561,4,3,2,55,1,0
167018,-100,4,3,2,55,0,0
167303,-100,4,3,2,5,0,0
169300,304.568527918782,4,3,2,55,1,0
169604,280.373831775701,4,3,2,55,1,0
170445,290.416263310745,4,3,2,55,1,0
170445,-100,4,3,2,45,0,0
171025,-100,4,3,6,45,0,0
171606,-166.666666666667,4,3,2,45,0,0
172187,281.69014084507,4,3,2,45,1,0
172187,-166.666666666667,4,3,2,45,0,0
172750,276.497695852535,4,3,2,45,1,0
172750,-166.666666666667,4,3,2,45,0,0
173579,289.855072463768,4,3,2,45,1,0
173579,-166.666666666667,4,3,2,45,0,0
173868,286.669851887243,4,3,2,45,1,0
173868,-166.666666666667,4,3,2,45,0,0
174728,295.566502463054,4,3,2,45,1,0
174728,-166.666666666667,4,3,2,45,0,0
175023,282.352941176471,4,3,2,45,1,0
175023,-100,4,3,1,45,0,0
175305,291.26213592233,4,3,1,45,1,0
175450,-100,4,3,1,15,0,0
175523,-100,4,3,1,25,0,0
175596,-100,4,3,1,35,0,0
175741,-100,4,3,1,25,0,0
175887,-100,4,3,1,45,0,0
176178,294.117647058824,4,3,2,45,1,0
176178,-166.666666666667,4,3,2,45,0,0
176766,271.493212669683,4,3,2,45,1,0
176766,-166.666666666667,4,3,2,45,0,0
177308,272.727272727273,4,3,2,45,1,0
177308,-100,4,3,1,45,0,0
177580,287.081339712919,4,3,1,45,1,0
177867,-100,4,3,2,45,0,0
178010,-166.666666666667,4,3,2,45,0,0
178441,294.117647058824,4,3,2,45,1,0
178441,-166.666666666667,4,3,2,45,0,0
178588,-166.666666666667,4,3,6,45,0,0
178882,-166.666666666667,4,3,2,45,0,0
179029,273.348519362187,4,3,2,45,1,0
179302,284.36018957346,4,3,2,45,1,0
179302,-166.666666666667,4,3,2,45,0,0
179870,285.714285714286,4,3,2,45,1,0
180155,281.69014084507,4,3,2,45,1,0
180155,-166.666666666667,4,3,2,45,0,0
180718,-166.666666666667,4,3,2,45,0,0
181000,291.26213592233,4,3,2,45,1,0
181000,-166.666666666667,4,3,2,45,0,0
181873,289.855072463768,4,3,2,45,1,0
181873,-166.666666666667,4,3,2,45,0,0
183032,283.018867924528,4,3,2,45,1,0
183032,-166.666666666667,4,3,2,45,0,0
184447,289.855072463768,4,3,2,45,1,0
184447,-125,4,3,2,45,0,0
184736,270.27027027027,3,3,2,55,1,0
184736,-125,3,3,2,55,0,0
185006,310.880829015544,3,3,2,55,1,0
185316,304.568527918782,4,3,2,45,1,0
185316,-250,4,3,2,55,0,0
185925,283.018867924528,4,3,2,55,1,0
185925,-125,4,3,2,55,0,0
186208,269.058295964126,4,3,2,55,1,0
186208,-142.857142857143,4,3,2,55,0,0
186477,276.497695852535,4,3,2,55,1,0
186477,-100,4,3,7,65,0,1
187306,285.306704707561,4,3,7,65,1,1
187591,285.306704707561,4,3,7,65,1,1
189302,-52.6315789473684,4,3,7,65,0,1
189588,-100,4,3,7,65,0,1
189873,292.682926829268,4,3,7,65,1,1
190751,285.714285714286,4,3,7,65,1,1
191036,283.018867924528,4,3,7,65,1,1
191036,-66.6666666666667,4,3,7,65,0,1
192168,285.646274696501,4,3,7,65,1,1
193881,-90.9090909090909,4,3,7,65,0,1
194453,-83.3333333333333,4,3,7,65,0,1
195310,-125,4,3,7,65,0,1
196738,-100,4,3,7,65,0,1
197880,283.018867924528,4,3,7,65,1,1
198729,-83.3333333333333,4,3,7,65,0,1
199012,287.769784172662,4,3,7,65,1,1
199012,-83.3333333333333,4,3,7,65,0,1
200738,298.507462686567,4,3,7,65,1,1
201036,279.06976744186,4,3,7,65,1,1
201315,284.36018957346,4,3,7,65,1,1
201315,-100,4,3,1,65,0,1
202452,-100,4,3,6,35,0,1
203021,-100,4,3,6,55,0,1
203589,283.687943262411,4,3,7,65,1,1
203589,-90.9090909090909,4,3,7,65,0,1
205574,303.030303030303,4,3,7,65,1,1
205877,288.461538461538,4,3,7,65,1,1
207030,280.373831775701,4,3,7,65,1,1
207030,-83.3333333333333,4,3,7,65,0,1
208151,291.120815138282,4,3,7,65,1,1
208151,-83.3333333333333,4,3,7,65,0,1
209315,285.714285714286,4,3,7,65,1,1
209315,-83.3333333333333,4,3,7,65,0,1
210172,298.507462686567,4,3,7,65,1,1
210470,285.714285714286,4,3,7,65,1,1
211327,277.777777777778,4,3,7,65,1,1
211604,283.018867924528,4,3,7,65,1,1
212453,288.461538461538,4,3,7,65,1,1
212741,286.464550011936,4,3,7,65,1,1
212741,-83.3333333333333,4,3,7,65,0,1
217324,285.714285714286,4,3,7,65,1,1
218467,283.018867924528,4,3,7,65,1,1
219599,285.714285714286,4,3,7,65,1,1
220456,-125,4,3,7,65,0,1
220741,-125,4,3,1,65,0,1
221313,-100,4,3,7,65,0,1
222456,-90.9090909090909,4,3,7,65,0,1
223218,-90.9090909090909,4,3,1,65,0,1
223789,-100,3,3,6,65,0,1
224172,287.081339712919,4,3,7,65,1,1
225320,292.682926829268,4,3,7,65,1,1
225320,-100,4,3,7,55,0,0
225905,275.229357798165,4,3,7,55,1,0
226455,289.715113471753,4,3,7,55,1,0
226455,-100,4,3,7,65,0,1
228772,277.136258660508,4,3,7,65,1,1
229326,291.26213592233,3,3,7,55,1,0
229909,279.459711224965,4,3,7,65,1,1
229909,-90.9090909090909,4,3,7,65,0,1
230467,-133.333333333333,4,3,7,65,0,1
231025,306.122448979592,4,3,7,65,1,1
231025,-90.9090909090909,4,3,7,65,0,1
231331,284.36018957346,4,3,7,65,1,1
232184,284.36018957346,4,3,1,65,1,1
232942,-100,4,3,6,65,0,1
233321,-100,4,3,7,65,0,1
236733,306.122448979592,4,3,7,65,1,1
237039,289.017341040462,4,3,7,65,1,1
237039,-100,4,3,1,65,0,1
237328,-200,4,3,7,65,0,1
237906,288.461538461538,4,3,7,65,1,1
239059,279.06976744186,4,3,7,65,1,1
239617,-66.6666666666667,3,3,7,65,0,1
240175,288.461538461538,4,3,1,65,1,1
241328,-100,4,3,6,65,0,1
241905,-125,3,3,6,55,0,1
242194,-125,3,3,6,45,0,1
242482,276.497695852535,4,3,2,65,1,1
242482,-66.6666666666667,3,3,2,55,0,0
243034,-66.6666666666667,3,3,1,55,0,0
243311,-100,3,3,6,35,0,0
243587,270.27027027027,4,3,6,55,1,0
243857,294.406280667321,3,3,2,55,1,0
244151,-100,3,3,1,55,0,0
244740,285.85040495474,4,3,2,55,1,0
245883,287.081339712919,4,3,2,55,1,0
247031,-83.3333333333333,4,3,2,55,0,0
248964,-83.3333333333333,4,3,2,5,0,0
249040,303.030303030303,4,3,2,55,1,0
249344,285.306704707561,4,3,2,55,1,0
249344,-66.6666666666667,4,3,2,55,0,0
253052,-66.6666666666667,4,3,6,35,0,0
253338,-66.6666666666667,4,3,1,35,0,0
253623,-100,4,3,1,55,0,0
253908,-83.3333333333333,4,3,2,55,0,0
257617,-66.6666666666667,4,3,6,55,0,0
257903,-66.6666666666667,4,3,2,55,0,0
258259,-66.6666666666667,4,3,2,5,0,0
258331,-66.6666666666667,4,3,2,55,0,0
262896,288.461538461538,3,3,2,55,1,0
262896,-66.6666666666667,3,3,2,55,0,0
263328,283.687943262411,3,3,1,55,1,0
264179,285.714285714286,4,3,2,55,1,0
264179,-133.333333333333,4,3,2,55,0,0
264393,-133.333333333333,4,3,2,5,0,0
264464,-71.4285714285714,4,3,3,70,0,1
272464,-125,3,3,3,55,0,0
272750,-125,3,3,1,55,0,0
273321,-100,3,3,2,55,0,0
273607,-71.4285714285714,3,3,3,70,0,1
278179,-71.4285714285714,3,3,3,70,0,1
280179,281.030444964871,4,3,1,70,1,0
281303,-100,4,3,5,70,0,0
281584,288.461538461538,4,3,2,55,1,0
281584,-100,4,3,6,45,0,0
281872,-100,4,3,6,35,0,0
282160,-100,4,3,1,55,0,0
282449,290.9796314258,4,3,2,55,1,0
282449,-66.6666666666667,4,3,2,55,0,1
282667,-66.6666666666667,4,3,2,5,0,1
282739,-66.6666666666667,4,3,2,55,0,1
283612,285.714285714286,4,3,2,55,1,0
283612,-66.6666666666667,4,3,2,55,0,1
286112,-66.6666666666667,4,3,2,5,0,1
286184,-66.6666666666667,4,3,2,55,0,1
287254,-66.6666666666667,4,3,2,5,0,1
287326,-66.6666666666667,4,3,2,55,0,1
288397,-66.6666666666667,4,3,2,5,0,1
288469,-66.6666666666667,4,3,2,55,0,1
289254,-66.6666666666667,4,3,2,5,0,1
289326,-66.6666666666667,4,3,2,55,0,1
290683,-66.6666666666667,4,3,2,5,0,1
290754,-66.6666666666667,4,3,1,55,0,1
291612,-66.6666666666667,4,3,2,55,0,1
294112,-66.6666666666667,4,3,2,5,0,1
294184,-66.6666666666667,4,3,2,55,0,1
297325,288.461538461538,4,3,2,55,1,1
298478,285.442435775452,4,3,2,55,1,1
298478,-100,4,3,2,55,0,0
299048,-100,4,3,1,55,0,0
299334,-166.666666666667,4,3,1,35,0,0
299619,-100,4,3,2,55,0,0
300000,-100,4,3,2,55,0,0
300190,-100,4,3,1,55,0,0
300476,-166.666666666667,4,3,1,35,0,0
300761,-166.666666666667,4,3,1,70,0,1
301904,295.566502463054,4,3,1,70,1,1
303086,285.714285714286,4,3,1,70,1,1
303086,-100,4,3,1,55,0,0
304228,-125,4,3,2,5,0,0

[Colours]
Combo1 : 107,107,107
Combo2 : 165,239,236
Combo3 : 166,96,32
Combo4 : 47,223,219

[HitObjects]
31,289,130,6,0,B|87:261|87:261|257:242,1,202.500007724762,6|8,2:2|2:2,2:2:0:0:
300,202,410,1,2,3:2:0:0:
316,203,480,1,10,2:2:0:0:
333,204,550,1,2,3:2:0:0:
350,205,620,1,10,2:2:0:0:
367,206,690,2,0,B|354:153|354:153|343:182,1,67.5,2|8,3:2|2:2,3:2:0:0:
226,245,971,6,0,L|87:262,1,135.000005149842,2|0,3:2|3:2,3:2:0:0:
7,159,1251,1,2,3:2:0:0:
14,144,1321,1,10,2:2:0:0:
24,131,1391,1,2,3:2:0:0:
38,121,1461,1,10,2:2:0:0:
53,115,1531,2,0,B|74:142|74:142|85:174,1,67.5,2|8,3:2|2:2,3:2:0:0:
91,261,1812,6,0,P|123:203|184:177,1,135.000005149842,2|0,3:2|3:2,3:2:0:0:
277,223,2103,1,2,3:2:0:0:
308,234,2176,1,10,2:2:0:0:
341,239,2248,1,2,3:2:0:0:
375,238,2321,1,10,2:2:0:0:
408,230,2394,2,0,B|410:199|410:199|420:189|420:189|424:155,1,67.5,2|8,3:2|2:2,3:2:0:0:
478,260,2685,2,0,B|480:229|480:229|490:219|490:219|492:196,1,67.5,2|8,3:2|2:2,3:2:0:0:
483,109,2973,5,2,3:2:0:0:
479,92,3045,1,10,2:2:0:0:
475,76,3117,1,2,3:2:0:0:
472,58,3189,1,10,2:2:0:0:
468,42,3261,2,0,B|446:4|446:4|419:143,1,135.000005149842,2|0,3:2|3:2,3:2:0:0:
408,230,3550,6,0,B|380:209|380:209|262:192,1,135.000005149842,2|0,3:2|3:2,3:2:0:0:
210,90,3838,1,2,3:2:0:0:
196,82,3910,1,10,2:2:0:0:
179,79,3983,1,2,3:2:0:0:
162,80,4055,1,10,2:2:0:0:
146,87,4127,2,0,B|149:120|149:120|182:152,1,67.5,2|8,3:2|2:2,3:2:0:0:
250,214,4415,6,0,B|265:157|265:157|278:143|278:143|292:87,1,135.000005149842,2|0,3:2|3:2,3:2:0:0:
451,201,4695,1,2,3:2:0:0:
437,194,4765,1,10,2:2:0:0:
421,187,4835,1,2,3:2:0:0:
406,180,4905,1,10,2:2:0:0:
390,173,4975,2,0,B|370:204|370:204|326:204,1,67.5,2|8,3:2|2:2,3:2:0:0:
353,347,5256,6,0,B|344:313|344:313|346:303|346:303|335:267|335:267|312:247|312:247|298:178|298:178|331:157|331:157|342:225,1,270,6|8,3:2|2:2,3:2:0:0:
404,245,5536,1,8,3:2:0:0:
456,205,5607,1,8,3:2:0:0:
453,154,5678,1,8,3:2:0:0:
425,118,5749,1,8,3:2:0:0:
414,103,5821,1,8,3:2:0:0:
413,85,5892,1,8,3:2:0:0:
411,65,5963,5,8,3:2:0:0:
353,72,6035,1,0,3:2:0:0:
293,77,6106,1,8,3:2:0:0:
270,74,6177,1,8,3:2:0:0:
247,72,6248,1,8,3:2:0:0:
224,69,6319,1,8,3:2:0:0:
191,93,6391,5,8,3:2:0:0:
168,96,6462,1,8,3:2:0:0:
145,98,6533,1,8,3:2:0:0:
122,101,6605,1,8,3:2:0:0:
88,77,6676,5,4,3:3:0:0:
77,66,6747,1,4,3:3:0:0:
76,55,6819,1,4,3:3:0:0:
81,49,6890,1,4,3:3:0:0:
89,46,6962,6,0,B|81:133|81:133|91:146|91:146|78:256,1,180,12|0,3:2|3:2,3:2:0:0:
91,329,7247,1,2,3:2:0:0:
106,330,7319,1,10,2:2:0:0:
123,328,7390,1,2,3:2:0:0:
138,320,7462,1,10,2:2:0:0:
150,309,7533,2,0,B|182:297|182:297|216:299,1,67.5,2|8,3:2|2:2,3:2:0:0:
292,355,7819,6,0,P|256:297|247:231,1,135.000005149842,2|0,3:2|3:2,3:2:0:0:
369,104,8105,1,2,3:2:0:0:
352,104,8176,1,10,2:2:0:0:
336,110,8248,1,2,3:2:0:0:
322,120,8319,1,10,2:2:0:0:
312,133,8391,2,0,L|330:215,1,67.5,2|8,3:2|2:2,3:2:0:0:
422,262,8677,6,0,B|377:264|377:264|364:275|364:275|291:277,1,135.000005149842,2|0,3:2|3:2,3:2:0:0:
203,354,8962,1,2,3:2:0:0:
175,336,9034,1,10,2:2:0:0:
144,326,9105,1,2,3:2:0:0:
110,322,9177,1,10,2:2:0:0:
75,323,9248,2,0,B|76:355|76:355|104:379,1,67.5,2|8,3:2|2:2,3:2:0:0:
207,347,9534,6,0,B|219:306|219:306|196:206,1,135.000005149842,6|0,3:2|3:2,3:2:0:0:
116,88,9829,1,2,3:2:0:0:
112,104,9903,1,10,2:2:0:0:
108,120,9977,1,2,3:2:0:0:
104,136,10051,1,10,2:2:0:0:
100,153,10125,2,0,B|153:144,1,45,10|8,3:2|2:2,3:2:0:0:
198,216,10265,2,0,B|242:223,1,45,10|8,3:2|2:2,3:2:0:0:
384,310,10406,6,0,B|364:330|364:330|334:231|346:138,1,202.500007724762,6|8,3:2|2:2,3:2:0:0:
404,89,10687,1,2,3:2:0:0:
421,93,10757,1,10,2:2:0:0:
437,97,10827,1,2,3:2:0:0:
454,100,10898,1,10,2:2:0:0:
470,104,10968,2,0,B|446:126|446:126|414:136,1,67.5,2|8,3:2|2:2,3:2:0:0:
318,89,11249,6,0,P|262:55|193:51,1,135.000005149842,2|0,3:2|3:2,3:2:0:0:
235,274,11534,1,2,3:2:0:0:
254,272,11606,1,10,2:2:0:0:
273,265,11677,1,2,3:2:0:0:
289,254,11749,1,10,2:2:0:0:
302,243,11820,2,0,B|300:206|300:206|294:200|294:200|293:158,1,67.5,2|8,3:2|2:2,3:2:0:0:
411,36,12106,5,10,3:2:0:0:
365,61,12178,1,8,3:2:0:0:
353,102,12249,1,8,3:2:0:0:
366,131,12320,1,8,3:2:0:0:
382,138,12392,5,6,3:3:0:0:
370,117,12470,1,4,3:3:0:0:
324,102,12548,1,4,3:3:0:0:
272,104,12626,1,4,3:3:0:0:
224,136,12704,5,10,3:2:0:0:
228,114,12769,1,8,3:2:0:0:
233,92,12834,1,0,3:2:0:0:
237,69,12899,1,0,3:2:0:0:
202,34,12964,5,10,3:2:0:0:
202,87,13035,1,8,3:2:0:0:
203,140,13106,1,0,3:2:0:0:
203,194,13178,1,0,3:2:0:0:
166,261,13249,6,0,B|135:291|135:291|36:300,1,135.000005149842,14|0,3:2|3:2,3:2:0:0:
43,299,13843,5,0,3:2:0:0:
68,277,13913,1,8,2:2:0:0:
107,270,13984,1,0,3:2:0:0:
156,274,14054,1,8,2:2:0:0:
198,301,14125,1,0,3:2:0:0:
251,306,14196,1,8,2:2:0:0:
307,294,14266,1,0,3:2:0:0:
346,250,14337,1,8,2:2:0:0:
357,205,14407,1,0,3:2:0:0:
349,174,14478,1,8,2:2:0:0:
335,161,14549,1,0,3:2:0:0:
323,160,14619,1,8,2:2:0:0:
315,166,14690,6,0,L|322:218,3,45,0|8|0|8,3:2|2:2|3:2|2:2,3:2:0:0:
427,157,14972,2,0,L|434:105,3,45,0|8|0|8,3:2|2:2|3:2|2:2,3:2:0:0:
334,36,15255,5,2,3:2:0:0:
279,41,15326,1,8,2:2:0:0:
238,76,15396,1,0,3:2:0:0:
197,97,15467,1,8,2:2:0:0:
160,101,15537,1,0,3:2:0:0:
134,91,15608,1,8,2:2:0:0:
126,79,15679,1,0,3:2:0:0:
126,69,15749,1,8,2:2:0:0:
129,63,15820,2,0,P|155:65|173:77,3,45,0|8|0|8,3:2|2:2|3:2|2:2,3:2:0:0:
48,116,16102,5,2,3:2:0:0:
41,133,16173,1,8,2:2:0:0:
38,164,16244,1,0,3:2:0:0:
58,199,16314,1,8,2:2:0:0:
96,213,16385,1,0,3:2:0:0:
134,246,16455,1,8,2:2:0:0:
151,296,16526,1,0,3:2:0:0:
129,345,16597,1,8,2:2:0:0:
73,367,16667,6,0,P|61:340|57:315,1,45,2|8,3:2|2:2,3:2:0:0:
159,297,16811,2,0,P|176:273|193:262,1,45,2|8,3:2|2:2,3:2:0:0:
322,299,16955,1,0,3:2:0:0:
343,321,17027,1,8,2:2:0:0:
391,327,17099,1,0,3:2:0:0:
435,305,17171,1,8,2:2:0:0:
452,263,17243,5,2,3:2:0:0:
447,241,17316,1,8,2:2:0:0:
443,218,17388,1,0,3:2:0:0:
439,195,17460,1,8,2:2:0:0:
404,168,17532,1,2,3:2:0:0:
409,146,17604,1,8,2:2:0:0:
413,123,17676,1,0,3:2:0:0:
417,100,17748,1,8,2:2:0:0:
455,84,17820,2,0,L|445:13,3,45,2|8|2|8,3:2|2:2|3:2|2:2,3:2:0:0:
335,114,18109,5,2,3:2:0:0:
296,137,18181,1,8,2:2:0:0:
251,131,18253,1,0,3:2:0:0:
212,106,18325,1,8,2:2:0:0:
172,89,18397,1,0,3:2:0:0:
129,95,18468,1,8,2:2:0:0:
80,95,18539,5,2,3:2:0:0:
113,128,18611,1,8,2:2:0:0:
118,171,18682,1,2,3:2:0:0:
100,198,18754,1,8,2:2:0:0:
76,202,18825,1,2,3:2:0:0:
64,195,18897,1,8,2:2:0:0:
63,186,18968,6,0,L|111:182,1,45,6|8,3:2|2:2,3:2:0:0:
173,230,19111,2,0,L|221:234,1,45,0|8,3:2|2:2,3:2:0:0:
270,152,19254,2,0,L|318:148,1,45,0|8,3:2|2:2,3:2:0:0:
368,277,19397,2,0,L|416:281,1,45,0|8,3:2|2:2,3:2:0:0:
500,136,19540,5,0,3:2:0:0:
495,74,19612,1,8,2:2:0:0:
447,48,19683,1,0,3:2:0:0:
402,57,19755,1,8,2:2:0:0:
382,90,19826,6,0,P|397:105|417:115,3,45,2|8|0|8,3:2|2:2|3:2|2:2,3:2:0:0:
394,196,20112,2,0,P|415:197|437:192,3,45,2|8|2|8,3:2|2:2|3:2|2:2,3:2:0:0:
486,262,20398,5,0,3:2:0:0:
487,271,20469,1,8,2:2:0:0:
488,280,20541,1,0,3:2:0:0:
489,289,20612,1,8,2:2:0:0:
510,314,20684,5,2,3:2:0:0:
465,309,20755,1,8,2:2:0:0:
421,321,20827,1,0,3:2:0:0:
382,344,20898,1,8,2:2:0:0:
347,344,20970,1,2,3:2:0:0:
323,336,21041,1,8,2:2:0:0:
306,336,21113,1,2,3:2:0:0:
292,342,21184,1,8,2:2:0:0:
284,348,21256,6,0,L|273:297,1,45,2|8,3:2|2:2,3:2:0:0:
173,199,21399,1,0,3:2:0:0:
173,199,21470,1,8,2:2:0:0:
173,199,21542,2,0,P|195:217|204:243,1,45,2|8,3:2|2:2,3:2:0:0:
190,351,21685,1,0,3:2:0:0:
190,351,21756,1,8,2:2:0:0:
190,351,21828,2,0,P|169:361|147:360,1,45,2|8,3:2|2:2,3:2:0:0:
65,295,21970,2,0,P|67:272|78:253,1,45,2|8,3:2|2:2,3:2:0:0:
255,160,22113,5,0,3:2:0:0:
298,152,22185,1,8,2:2:0:0:
341,163,22256,1,0,3:2:0:0:
377,189,22328,1,8,2:2:0:0:
395,230,22399,1,6,3:2:0:0:
406,199,22471,1,8,2:2:0:0:
427,183,22542,1,0,3:2:0:0:
444,177,22614,1,8,2:2:0:0:
459,178,22685,6,0,L|470:231,1,45,2|8,3:2|2:2,3:2:0:0:
295,280,22828,2,0,L|304:235,1,45,2|8,3:2|2:2,3:2:0:0:
193,106,22971,1,0,3:2:0:0:
151,88,23043,1,8,2:2:0:0:
114,92,23114,1,2,3:2:0:0:
91,106,23186,1,8,2:2:0:0:
68,109,23257,2,0,P|48:105|26:88,3,45,2|8|0|8,3:2|2:2|3:2|2:2,3:2:0:0:
140,169,23543,6,0,P|150:194|154:211,1,45,2|8,3:2|2:2,3:2:0:0:
73,251,23686,2,0,P|65:277|56:292,1,45,0|8,3:2|2:2,3:2:0:0:
246,233,23829,2,0,P|235:258|231:275,1,45,0|8,3:2|2:2,3:2:0:0:
313,315,23972,2,0,P|320:341|329:356,1,45,0|8,3:2|2:2,3:2:0:0:
487,311,24115,5,14,3:2:0:0:
453,282,24186,1,8,2:2:0:0:
409,280,24258,1,8,3:2:0:0:
378,263,24330,1,8,2:2:0:0:
362,237,24402,1,8,3:2:0:0:
369,215,24474,1,8,2:2:0:0:
381,206,24546,2,0,P|397:213|409:227,1,31.4999990386963,14|0,3:2|2:2,3:2:0:0:
303,311,24690,5,8,3:2:0:0:
259,301,24762,1,8,2:2:0:0:
216,309,24834,2,0,L|199:255,1,31.4999990386963,8|0,3:2|2:2,3:2:0:0:
231,143,24978,5,14,3:2:0:0:
248,136,25050,1,8,2:2:0:0:
266,136,25122,1,8,3:2:0:0:
283,143,25194,1,8,2:2:0:0:
297,156,25266,1,4,3:3:0:0:
302,170,25338,1,4,2:3:0:0:
300,180,25410,1,4,3:3:0:0:
295,186,25482,1,4,2:3:0:0:
288,189,25554,2,4,L|279:162,3,22.5,4|4|4|4,3:3|2:3|3:3|2:3,3:3:0:0:
153,128,25842,6,0,L|46:144,1,107.999996704102,6|0,3:2|3:2,3:2:0:0:
144,247,26123,1,2,3:2:0:0:
227,51,26264,2,0,L|333:67,1,107.999996704102,2|0,3:2|3:2,3:2:0:0:
398,182,26546,1,2,3:2:0:0:
262,359,26687,2,0,P|236:322|241:249,1,107.999996704102,2|0,3:2|3:2,3:2:0:0:
483,170,26968,2,0,P|478:214|428:267,1,107.999996704102,2|0,3:2|3:2,3:2:0:0:
179,163,27250,6,0,B|139:160|139:160|54:196,1,107.999996704102,2|0,3:2|3:2,3:2:0:0:
121,318,27532,1,2,3:2:0:0:
312,288,27672,2,0,B|345:298|345:298|327:96,1,215.999993408203,2|0,3:2|3:2,3:2:0:0:
104,182,28095,2,0,P|150:234|209:230,1,107.999996704102,2|0,3:2|3:2,3:2:0:0:
411,55,28388,2,0,L|434:173,1,107.999996704102,2|0,3:2|3:2,3:2:0:0:
512,279,28681,5,2,3:2:0:0:
500,294,28751,1,8,2:2:0:0:
477,303,28822,1,0,3:2:0:0:
440,302,28893,1,8,2:2:0:0:
404,284,28964,1,0,3:2:0:0:
356,267,29034,1,8,2:2:0:0:
306,270,29105,1,0,3:2:0:0:
263,294,29176,1,8,2:2:0:0:
240,338,29247,1,0,3:2:0:0:
256,370,29317,1,8,2:2:0:0:
287,374,29388,1,0,3:2:0:0:
304,364,29459,1,8,2:2:0:0:
313,348,29530,5,2,3:2:0:0:
299,313,29603,1,8,2:2:0:0:
252,295,29676,1,0,3:2:0:0:
203,301,29749,1,8,2:2:0:0:
158,324,29822,1,0,3:2:0:0:
109,324,29895,1,8,2:2:0:0:
63,304,29969,1,0,3:2:0:0:
37,261,30042,1,8,2:2:0:0:
34,215,30115,5,2,3:2:0:0:
50,184,30188,1,8,2:2:0:0:
52,159,30261,1,0,3:2:0:0:
47,139,30334,1,8,2:2:0:0:
37,125,30408,6,0,P|19:150|16:178,1,45,2|8,3:2|2:2,3:2:0:0:
158,316,30550,1,2,3:2:0:0:
157,266,30622,1,8,2:2:0:0:
157,217,30693,1,2,3:2:0:0:
171,206,30764,1,8,2:2:0:0:
186,197,30836,1,0,3:2:0:0:
201,187,30907,1,8,2:2:0:0:
207,156,30978,5,2,3:2:0:0:
228,178,31050,1,8,2:2:0:0:
265,193,31121,1,0,3:2:0:0:
317,190,31192,1,8,2:2:0:0:
358,158,31264,1,0,3:2:0:0:
365,99,31335,1,8,2:2:0:0:
340,46,31406,1,0,3:2:0:0:
283,30,31478,1,8,2:2:0:0:
228,49,31549,1,0,3:2:0:0:
178,81,31620,1,8,2:2:0:0:
120,87,31692,1,0,3:2:0:0:
69,58,31763,1,8,2:2:0:0:
45,0,31834,6,0,B|29:109,1,107.999996704102,2|0,3:2|3:2,3:2:0:0:
159,171,32120,1,2,3:2:0:0:
103,369,32262,2,0,B|87:260,1,107.999996704102,2|0,3:2|3:2,3:2:0:0:
123,94,32548,1,2,3:2:0:0:
287,221,32690,2,0,P|244:252|191:259,1,107.999996704102,2|0,3:2|3:2,3:2:0:0:
0,330,32976,2,0,P|53:332|97:362,1,107.999996704102,2|0,3:2|3:2,3:2:0:0:
358,278,33261,6,0,L|337:387,1,107.999996704102,2|0,3:2|3:2,3:2:0:0:
464,280,33547,1,2,3:2:0:0:
258,116,33689,2,0,L|279:225,1,107.999996704102,2|0,3:2|3:2,3:2:0:0:
173,326,33975,1,2,3:2:0:0:
64,147,34117,2,0,B|81:111|81:111|170:99,1,107.999996704102,2|0,3:2|3:2,3:2:0:0:
373,209,34403,2,0,B|344:236|344:236|256:217,1,107.999996704102,2|0,3:2|3:2,3:2:0:0:
51,145,34688,5,6,3:2:0:0:
39,129,34759,1,8,2:2:0:0:
37,100,34831,1,0,3:2:0:0:
58,73,34903,1,8,2:2:0:0:
106,62,34974,1,0,3:2:0:0:
151,82,35046,1,8,2:2:0:0:
169,127,35118,1,2,3:2:0:0:
165,176,35189,1,8,2:2:0:0:
138,217,35261,1,2,3:2:0:0:
100,248,35333,1,8,2:2:0:0:
80,281,35404,1,0,3:2:0:0:
85,316,35476,1,8,2:2:0:0:
101,331,35548,5,2,3:2:0:0:
139,318,35619,1,8,2:2:0:0:
188,318,35691,1,0,3:2:0:0:
228,347,35763,1,8,2:2:0:0:
275,360,35834,1,0,3:2:0:0:
324,355,35906,1,8,2:2:0:0:
361,322,35978,1,0,3:2:0:0:
367,272,36050,1,8,2:2:0:0:
350,230,36121,5,2,3:2:0:0:
323,218,36193,1,8,2:2:0:0:
301,226,36265,1,0,3:2:0:0:
293,240,36336,1,8,2:2:0:0:
295,253,36408,2,0,P|315:266|343:273,1,31.4999990386963,10|0,3:2|2:2,3:2:0:0:
436,222,36550,5,8,3:2:0:0:
436,222,36622,1,8,2:2:0:0:
436,222,36693,1,10,3:2:0:0:
478,203,36765,1,10,2:2:0:0:
500,162,36836,1,10,3:2:0:0:
487,115,36908,1,10,2:2:0:0:
451,84,36979,2,4,P|437:101|434:121,3,31.4999990386963,4|4|4|4,3:3|2:3|3:3|2:3,3:3:0:0:
369,40,37265,5,8,3:2:0:0:
322,44,37336,1,8,2:2:0:0:
275,48,37408,1,8,3:2:0:0:
227,52,37479,1,8,2:2:0:0:
180,57,37550,1,8,3:2:0:0:
171,62,37833,6,0,B|156:100|156:100|191:224,1,161.999995056153,10|0,3:2|3:2,3:2:0:0:
265,227,38118,1,0,3:2:0:0:
233,334,38261,1,8,3:2:0:0:
125,283,38404,1,2,3:2:0:0:
361,233,38547,1,10,3:2:0:0:
98,113,38690,6,0,P|146:145|199:145,1,107.999996704102,2|8,3:2|3:2,3:2:0:0:
317,35,38975,1,2,3:2:0:0:
265,227,39118,1,10,3:2:0:0:
171,62,39261,1,2,3:2:0:0:
168,260,39404,5,8,3:2:0:0:
168,260,39475,1,0,3:2:0:0:
168,260,39547,2,0,P|216:228|269:228,1,107.999996704102,2|8,3:2|3:2,3:2:0:0:
455,130,39833,1,2,3:2:0:0:
487,233,39975,1,10,3:2:0:0:
455,117,40118,5,2,3:2:0:0:
401,304,40261,1,10,3:2:0:0:
245,307,40404,1,2,3:2:0:0:
479,237,40547,1,10,3:2:0:0:
305,149,40690,1,2,3:2:0:0:
484,321,40833,1,10,3:2:0:0:
293,285,40975,2,0,P|264:294|229:323,1,53.9999983520508,2|0,3:2|3:2,3:2:0:0:
153,366,41118,1,8,3:2:0:0:
153,366,41190,1,0,3:2:0:0:
153,366,41261,6,0,B|167:341|167:341|137:247,1,107.999996704102,2|8,3:2|3:2,3:2:0:0:
37,165,41547,1,2,3:2:0:0:
69,321,41690,1,10,3:2:0:0:
263,201,41833,2,0,P|263:245|237:318,1,107.999996704102,2|8,3:2|3:2,3:2:0:0:
75,315,42118,5,2,3:2:0:0:
269,281,42260,1,10,3:2:0:0:
112,110,42403,1,2,3:2:0:0:
153,366,42546,1,10,3:2:0:0:
198,147,42689,1,2,3:2:0:0:
152,289,42832,1,8,3:2:0:0:
152,289,42903,1,0,3:2:0:0:
152,289,42975,2,0,P|131:244|134:176,1,107.999996704102,2|8,3:2|3:2,3:2:0:0:
320,8,43260,6,0,P|316:76|275:164,1,161.999995056153,2|0,3:2|3:2,3:2:0:0:
203,156,43546,1,0,3:2:0:0:
317,120,43689,1,10,3:2:0:0:
248,273,43832,1,2,3:2:0:0:
137,91,43975,1,10,3:2:0:0:
47,247,44118,2,0,P|91:230|155:235,1,107.999996704102,2|8,3:2|3:2,3:2:0:0:
302,380,44403,2,0,P|259:382|199:355,1,107.999996704102,2|8,3:2|3:2,3:2:0:0:
452,331,44689,6,0,L|438:176,1,135.000005149842,2|8,3:2|3:2,3:2:0:0:
437,183,44903,1,0,3:2:0:0:
433,170,44974,1,2,3:2:0:0:
356,306,45117,1,10,3:2:0:0:
225,116,45260,2,0,P|268:104|345:162,1,135.000005149842,2|8,3:2|3:2,3:2:0:0:
281,347,45546,1,2,3:2:0:0:
318,229,45689,1,10,3:2:0:0:
200,361,45831,1,2,3:2:0:0:
161,189,45974,1,10,3:2:0:0:
0,345,46117,6,0,B|39:327|39:327|142:318,1,135.000005149842,2|10,3:2|3:2,3:2:0:0:
142,312,46331,1,0,3:2:0:0:
152,303,46403,1,2,3:2:0:0:
72,238,46546,1,8,3:2:0:0:
231,44,46689,6,0,B|283:84|254:162|254:162|228:235|284:291,1,270.000010299683,6|2,3:2|3:2,3:2:0:0:
433,274,47116,1,10,3:2:0:0:
232,186,47258,1,2,3:2:0:0:
382,132,47401,1,10,3:2:0:0:
362,336,47543,1,2,3:2:0:0:
179,312,47685,5,8,3:2:0:0:
179,312,47757,1,0,3:2:0:0:
179,312,47828,2,0,P|214:282|309:284,1,135.000005149842,2|8,3:2|3:2,3:2:0:0:
503,163,48113,2,0,P|436:167|381:131,1,135.000005149842,2|8,3:2|3:2,3:2:0:0:
392,0,48397,5,2,3:2:0:0:
419,183,48540,1,10,3:2:0:0:
390,10,48682,1,2,3:2:0:0:
325,198,48825,1,10,3:2:0:0:
188,44,48967,6,0,P|255:50|316:90,1,135,2|0,3:2|3:2,3:2:0:0:
387,93,49255,1,2,3:2:0:0:
225,137,49399,1,10,3:2:0:0:
387,263,49543,1,2,3:2:0:0:
219,130,49688,1,10,3:2:0:0:
130,349,49832,6,0,B|152:315|152:315|336:290,1,202.500007724762,2|8,3:2|3:2,3:2:0:0:
388,256,50120,1,2,3:2:0:0:
263,376,50262,1,10,3:2:0:0:
166,193,50405,1,2,3:2:0:0:
339,74,50548,5,8,3:2:0:0:
353,93,50620,1,0,3:2:0:0:
357,117,50691,2,0,P|354:128|346:141,3,26.9999991760254,2|0|0|0,3:2|3:2|3:2|3:2,3:2:0:0:
315,216,50976,2,0,P|303:218|288:219,3,26.9999991760254,0|0|0|0,3:2|3:2|3:2|3:2,3:2:0:0:
166,193,51262,1,4,3:3:0:0:
142,198,51333,1,4,3:3:0:0:
118,203,51405,1,4,3:3:0:0:
94,208,51476,1,4,3:3:0:0:
71,212,51548,6,0,B|50:187|50:187|32:280,1,108,12|0,3:2|3:2,3:2:0:0:
69,373,51833,1,2,3:2:0:0:
87,358,51905,1,8,2:2:0:0:
116,352,51976,1,0,3:2:0:0:
164,355,52048,1,8,2:2:0:0:
203,376,52119,1,2,3:2:0:0:
247,380,52191,1,8,2:2:0:0:
288,364,52262,1,0,3:2:0:0:
320,332,52333,1,8,2:2:0:0:
321,286,52405,5,2,3:2:0:0:
299,259,52476,1,8,2:2:0:0:
276,250,52548,1,0,3:2:0:0:
253,253,52619,1,8,2:2:0:0:
241,261,52691,1,0,3:2:0:0:
235,271,52762,1,8,2:2:0:0:
236,280,52833,1,0,3:2:0:0:
240,286,52905,1,8,2:2:0:0:
246,289,52976,5,2,3:2:0:0:
212,277,53048,1,8,2:2:0:0:
176,275,53119,1,0,3:2:0:0:
140,282,53191,1,8,2:2:0:0:
111,303,53262,5,2,3:2:0:0:
70,286,53333,1,8,2:2:0:0:
58,239,53405,1,0,3:2:0:0:
82,193,53476,1,8,2:2:0:0:
127,175,53548,1,2,3:2:0:0:
162,145,53619,1,8,2:2:0:0:
178,106,53691,1,0,3:2:0:0:
174,74,53762,1,8,2:2:0:0:
156,58,53833,5,2,3:2:0:0:
190,67,53905,1,8,2:2:0:0:
230,60,53976,1,0,3:2:0:0:
261,37,54048,1,8,2:2:0:0:
299,24,54119,6,0,P|319:32|336:46,3,45,2|8|0|8,3:2|2:2|3:2|2:2,3:2:0:0:
303,114,54405,2,0,P|313:133|317:155,3,45,2|8|0|8,3:2|2:2|3:2|2:2,3:2:0:0:
212,207,54691,2,0,P|234:197|256:197,1,45,2|8,3:2|2:2,3:2:0:0:
361,216,54833,2,0,P|379:230|401:236,1,45,0|8,3:2|2:2,3:2:0:0:
487,114,54976,5,0,3:2:0:0:
489,141,55048,1,8,2:2:0:0:
477,165,55119,1,0,3:2:0:0:
455,182,55191,1,8,2:2:0:0:
418,164,55262,5,2,3:2:0:0:
435,206,55333,1,10,2:2:0:0:
419,250,55405,1,2,3:2:0:0:
436,294,55476,1,10,2:2:0:0:
415,340,55548,6,0,P|394:319|372:312,1,45,2|8,3:2|2:2,3:2:0:0:
322,259,55691,2,0,P|293:256|272:265,1,45,2|8,3:2|2:2,3:2:0:0:
160,308,55833,2,0,P|137:288|128:268,1,45,2|8,3:2|2:2,3:2:0:0:
36,282,55976,2,0,P|30:253|37:230,1,45,2|8,3:2|2:2,3:2:0:0:
120,152,56119,5,2,3:2:0:0:
140,116,56191,1,10,2:2:0:0:
133,75,56262,1,2,3:2:0:0:
155,41,56333,1,10,2:2:0:0:
152,0,56405,2,0,B|131:15|107:9|107:9|126:30|125:71,1,90,2|0,3:2|3:2,3:2:0:0:
268,181,56691,2,0,B|236:168|204:168|204:168|225:147,1,90,2|0,3:2|3:2,3:2:0:0:
41,272,56976,5,2,3:2:0:0:
43,279,57048,1,2,3:2:0:0:
45,287,57119,1,2,3:2:0:0:
48,295,57191,1,2,3:2:0:0:
38,318,57262,5,10,3:2:0:0:
91,321,57333,1,8,3:2:0:0:
143,325,57405,1,8,3:2:0:0:
197,330,57476,1,8,3:2:0:0:
250,333,57548,5,10,3:2:0:0:
237,319,57619,1,8,3:2:0:0:
230,303,57691,1,10,3:2:0:0:
231,290,57762,1,8,3:2:0:0:
236,281,57833,1,8,3:2:0:0:
243,277,57905,1,8,3:2:0:0:
249,275,57976,1,8,3:2:0:0:
257,277,58048,1,8,3:2:0:0:
262,281,58119,2,4,L|303:282,3,36,4|4|4|4,3:3|3:3|3:3|3:3,3:3:0:0:
229,352,58385,6,0,L|216:240,1,108,12|0,3:2|3:2,3:2:0:0:
282,107,58671,1,2,3:2:0:0:
304,114,58743,1,8,2:2:0:0:
320,136,58815,1,0,3:2:0:0:
311,173,58886,1,8,2:2:0:0:
265,187,58958,1,2,3:2:0:0:
215,170,59030,1,8,2:2:0:0:
175,135,59101,1,0,3:2:0:0:
123,121,59173,1,8,2:2:0:0:
72,130,59245,5,2,3:2:0:0:
93,165,59316,1,8,2:2:0:0:
96,204,59388,1,0,3:2:0:0:
87,243,59460,1,8,2:2:0:0:
78,280,59531,1,0,3:2:0:0:
86,314,59603,1,8,2:2:0:0:
95,333,59675,1,0,3:2:0:0:
107,344,59747,1,8,2:2:0:0:
104,377,59818,5,2,3:2:0:0:
135,361,59890,1,8,2:2:0:0:
185,349,59962,1,0,3:2:0:0:
238,359,60033,1,8,2:2:0:0:
280,381,60105,1,2,3:2:0:0:
329,382,60177,1,8,2:2:0:0:
363,360,60248,1,0,3:2:0:0:
375,328,60320,1,8,2:2:0:0:
366,291,60392,5,2,3:2:0:0:
400,305,60463,1,8,2:2:0:0:
448,295,60535,1,0,3:2:0:0:
479,259,60607,1,8,2:2:0:0:
492,210,60678,5,2,3:2:0:0:
469,164,60750,1,8,2:2:0:0:
441,134,60822,1,0,3:2:0:0:
439,98,60893,1,8,2:2:0:0:
458,76,60965,6,0,P|466:96|469:122,5,45,2|8|0|8|0|8,3:2|2:2|3:2|2:2|3:2|2:2,3:2:0:0:
407,204,61395,2,0,L|341:192,1,45,0|8,3:2|2:2,3:2:0:0:
334,36,61539,2,0,P|359:38|377:50,1,45,2|8,3:2|2:2,3:2:0:0:
285,221,61682,2,0,P|265:232|243:233,1,45,0|8,3:2|2:2,3:2:0:0:
144,139,61825,5,0,3:2:0:0:
123,120,61897,1,8,2:2:0:0:
96,112,61969,1,0,3:2:0:0:
69,116,62040,1,8,2:2:0:0:
32,92,62112,5,2,3:2:0:0:
38,138,62184,1,10,2:2:0:0:
12,176,62255,1,2,3:2:0:0:
17,222,62327,1,10,2:2:0:0:
0,270,62399,6,0,P|26:258|49:259,1,45,2|8,3:2|2:2,3:2:0:0:
89,330,62542,2,0,P|108:340|131:342,1,45,2|8,3:2|2:2,3:2:0:0:
213,279,62686,2,0,P|232:268|255:266,1,45,2|8,3:2|2:2,3:2:0:0:
330,360,62829,2,0,P|349:370|372:372,1,45,2|8,3:2|2:2,3:2:0:0:
447,195,62972,5,2,3:2:0:0:
456,159,63044,1,8,2:2:0:0:
464,124,63116,1,2,3:2:0:0:
475,92,63187,1,8,2:2:0:0:
485,55,63259,5,2,3:2:0:0:
455,70,63331,1,8,2:2:0:0:
421,70,63402,1,2,3:2:0:0:
389,58,63474,1,8,2:2:0:0:
365,34,63546,5,6,3:2:0:0:
320,55,63617,1,0,2:2:0:0:
314,103,63689,1,0,3:2:0:0:
341,144,63761,1,0,2:2:0:0:
367,186,63833,5,8,3:2:0:0:
375,206,63904,1,8,3:2:0:0:
376,228,63976,1,8,3:2:0:0:
370,249,64048,1,8,3:2:0:0:
354,262,64119,5,8,3:2:0:0:
339,253,64191,1,8,3:2:0:0:
323,251,64263,1,8,3:2:0:0:
306,255,64334,1,8,3:2:0:0:
276,263,64406,6,4,L|286:213,3,45,4|4|4|4,3:3|3:3|3:3|3:3,3:3:0:0:
386,296,64693,2,4,L|376:246,3,45,4|4|4|4,3:3|3:3|3:3|3:3,3:3:0:0:
473,253,64979,2,4,L|479:203,3,45,4|4|4|4,3:3|3:3|3:3|3:3,3:3:0:0:
512,323,65266,5,2,3:2:0:0:
484,123,65408,1,0,2:2:0:0:
279,214,65551,1,2,3:2:0:0:
481,253,65694,1,2,3:2:0:0:
348,79,65837,5,2,3:2:0:0:
343,53,65908,1,8,2:2:0:0:
339,27,65980,1,2,3:2:0:0:
402,219,66123,1,2,3:2:0:0:
398,245,66194,1,8,2:2:0:0:
393,271,66266,1,2,3:2:0:0:
327,327,66408,5,2,3:2:0:0:
508,315,66551,1,2,3:2:0:0:
264,261,66694,5,2,3:2:0:0:
239,256,66766,1,8,2:2:0:0:
212,252,66837,1,2,3:2:0:0:
432,132,66980,1,2,3:2:0:0:
457,127,67051,1,8,2:2:0:0:
484,123,67123,1,2,3:2:0:0:
505,46,67266,5,2,3:2:0:0:
402,219,67408,1,2,3:2:0:0:
250,74,67551,5,2,3:2:0:0:
245,48,67623,1,8,2:2:0:0:
241,22,67694,1,2,3:2:0:0:
169,130,67837,5,2,3:2:0:0:
369,57,67980,1,2,3:2:0:0:
141,41,68123,1,2,3:2:0:0:
346,167,68266,1,2,3:2:0:0:
141,277,68408,5,2,3:2:0:0:
136,251,68480,1,8,2:2:0:0:
132,225,68551,1,2,3:2:0:0:
339,280,68694,1,2,3:2:0:0:
335,306,68765,1,8,2:2:0:0:
330,332,68836,1,2,3:2:0:0:
249,372,68979,5,2,3:2:0:0:
213,205,69122,1,2,3:2:0:0:
360,131,69265,5,2,3:2:0:0:
381,126,69336,1,8,2:2:0:0:
401,121,69408,1,0,3:2:0:0:
422,116,69479,1,8,2:2:0:0:
413,94,69551,5,2,3:2:0:0:
398,90,69622,1,8,2:2:0:0:
384,87,69694,1,0,3:2:0:0:
369,83,69765,1,8,2:2:0:0:
388,51,69836,5,6,3:2:0:0:
413,94,69908,1,8,2:2:0:0:
397,145,69979,1,0,3:2:0:0:
352,175,70051,1,8,2:2:0:0:
299,164,70122,1,0,3:2:0:0:
244,164,70194,1,8,2:2:0:0:
196,188,70265,1,0,3:2:0:0:
179,239,70336,1,8,2:2:0:0:
191,291,70408,1,0,3:2:0:0:
234,322,70479,1,8,2:2:0:0:
287,319,70551,1,0,3:2:0:0:
332,288,70622,1,8,2:2:0:0:
382,268,70694,1,0,3:2:0:0:
436,267,70765,1,8,2:2:0:0:
475,303,70836,1,0,3:2:0:0:
471,357,70908,1,8,2:2:0:0:
424,383,70979,1,0,3:2:0:0:
371,369,71051,1,8,2:2:0:0:
350,319,71122,1,0,3:2:0:0:
355,264,71194,1,8,2:2:0:0:
372,218,71265,1,0,3:2:0:0:
380,181,71336,1,8,2:2:0:0:
384,148,71408,1,0,3:2:0:0:
377,116,71479,1,8,2:2:0:0:
363,95,71551,5,2,3:2:0:0:
320,59,71622,1,8,2:2:0:0:
267,59,71694,1,0,3:2:0:0:
222,87,71765,1,8,2:2:0:0:
202,136,71836,1,0,3:2:0:0:
217,187,71908,1,8,2:2:0:0:
258,221,71979,1,0,3:2:0:0:
311,224,72051,1,8,2:2:0:0:
354,201,72122,5,2,3:2:0:0:
311,158,72194,1,8,2:2:0:0:
256,140,72265,1,0,3:2:0:0:
199,147,72336,1,8,2:2:0:0:
152,181,72408,1,0,3:2:0:0:
122,231,72479,1,8,2:2:0:0:
120,289,72551,1,0,3:2:0:0:
144,343,72622,1,8,2:2:0:0:
197,365,72694,6,0,P|221:347|236:297,1,53.9999983520508,2|0,3:2|2:2,3:2:0:0:
94,176,72836,2,0,P|97:205|133:243,1,53.9999983520508,2|0,3:2|2:2,3:2:0:0:
309,293,72979,2,0,P|320:265|308:214,1,53.9999983520508,2|0,3:2|2:2,3:2:0:0:
153,53,73122,2,0,P|136:78|139:130,1,53.9999983520508,2|0,3:2|2:2,3:2:0:0:
363,154,73265,5,10,3:2:0:0:
373,151,73336,1,8,3:2:0:0:
386,146,73408,1,10,3:2:0:0:
397,138,73479,1,8,3:2:0:0:
405,129,73551,1,10,3:2:0:0:
410,110,73622,1,8,3:2:0:0:
436,91,73694,5,10,3:2:0:0:
467,83,73765,1,8,3:2:0:0:
495,96,73836,1,10,3:2:0:0:
512,121,73908,1,8,3:2:0:0:
509,155,73979,5,6,3:3:0:0:
503,154,74051,1,4,3:3:0:0:
498,153,74122,1,6,3:3:0:0:
494,149,74194,1,4,3:3:0:0:
489,144,74265,1,6,3:3:0:0:
486,141,74336,1,4,3:3:0:0:
512,121,74408,6,0,B|460:112|460:112|499:296,1,202.500007724762,6|0,3:2|3:2,3:2:0:0:
463,346,74694,1,0,3:2:0:0:
406,310,74765,1,8,2:2:0:0:
348,292,74836,1,0,3:2:0:0:
292,285,74908,1,8,2:2:0:0:
237,291,74979,1,0,3:2:0:0:
188,314,75051,1,8,2:2:0:0:
143,325,75122,1,0,3:2:0:0:
100,324,75194,1,8,2:2:0:0:
60,309,75265,1,0,3:2:0:0:
31,286,75336,1,8,2:2:0:0:
19,254,75408,1,0,3:2:0:0:
25,220,75479,1,8,2:2:0:0:
17,171,75551,5,2,3:2:0:0:
64,195,75622,1,8,2:2:0:0:
115,194,75694,1,0,3:2:0:0:
149,174,75765,1,8,2:2:0:0:
162,144,75836,1,0,3:2:0:0:
154,114,75908,1,8,2:2:0:0:
139,99,75979,1,0,3:2:0:0:
122,95,76051,1,8,2:2:0:0:
110,100,76122,5,2,3:2:0:0:
96,151,76194,1,8,2:2:0:0:
124,196,76265,1,0,3:2:0:0:
176,208,76336,1,8,2:2:0:0:
228,194,76408,1,0,3:2:0:0:
268,158,76479,1,8,2:2:0:0:
312,128,76551,1,0,3:2:0:0:
366,123,76622,1,8,2:2:0:0:
417,137,76694,1,0,3:2:0:0:
455,174,76765,1,8,2:2:0:0:
463,226,76836,1,0,3:2:0:0:
440,275,76908,1,8,2:2:0:0:
389,292,76979,1,0,3:2:0:0:
336,278,77051,1,8,2:2:0:0:
309,230,77122,5,2,3:2:0:0:
357,208,77194,1,8,2:2:0:0:
410,211,77265,1,0,3:2:0:0:
455,240,77336,1,8,2:2:0:0:
478,288,77408,1,0,3:2:0:0:
474,342,77479,1,8,2:2:0:0:
434,373,77551,2,0,P|420:358|412:345,1,22.5,2|8,3:2|2:2,3:2:0:0:
337,300,77694,2,0,P|335:279|338:264,1,22.5,2|8,3:2|2:2,3:2:0:0:
477,168,77836,5,0,3:2:0:0:
490,140,77908,1,8,2:2:0:0:
489,110,77979,1,0,3:2:0:0:
482,90,78051,1,8,2:2:0:0:
472,78,78122,2,0,L|454:107,1,22.5,2|8,3:2|2:2,3:2:0:0:
381,158,78265,2,0,L|379:192,1,22.5,2|8,3:2|2:2,3:2:0:0:
255,315,78408,5,0,3:2:0:0:
238,324,78479,1,8,2:2:0:0:
223,327,78551,1,0,3:2:0:0:
210,324,78622,1,8,2:2:0:0:
202,319,78694,2,0,L|192:290,1,22.5,2|8,3:2|2:2,3:2:0:0:
116,234,78836,2,0,L|126:205,1,22.5,2|8,3:2|2:2,3:2:0:0:
313,105,78979,6,0,B|332:174|332:174|315:217|315:217|340:318,1,202.500007724762,6|0,3:2|3:2,3:2:0:0:
402,326,79265,5,0,3:2:0:0:
440,284,79336,1,8,2:2:0:0:
438,228,79408,1,0,3:2:0:0:
399,189,79479,1,8,2:2:0:0:
367,148,79551,1,0,3:2:0:0:
368,91,79622,1,8,2:2:0:0:
408,53,79694,1,0,3:2:0:0:
463,57,79765,1,8,2:2:0:0:
494,98,79836,1,0,3:2:0:0:
485,152,79908,1,8,2:2:0:0:
437,180,79979,1,0,3:2:0:0:
386,160,80051,1,10,2:2:0:0:
352,113,80122,5,0,3:2:0:0:
298,79,80194,1,8,2:2:0:0:
237,69,80265,1,0,3:2:0:0:
176,83,80336,1,8,2:2:0:0:
142,129,80408,1,0,3:2:0:0:
144,190,80482,1,8,2:2:0:0:
185,237,80557,1,0,3:2:0:0:
245,249,80631,1,8,2:2:0:0:
301,221,80706,1,0,3:2:0:0:
331,165,80781,1,8,2:2:0:0:
322,102,80855,1,0,3:2:0:0:
283,52,80930,1,8,2:2:0:0:
218,30,81005,1,0,3:2:0:0:
152,43,81079,1,8,2:2:0:0:
107,93,81154,1,0,3:2:0:0:
92,159,81228,1,8,2:2:0:0:
100,226,81303,6,0,B|147:191|199:209|199:209|250:227|298:186,1,202.500007724762,4|0,3:2|3:2,3:2:0:0:
328,120,81588,1,2,3:2:0:0:
322,102,81863,1,2,3:2:0:0:
388,188,82142,5,8,3:2:0:0:
406,175,82236,1,8,3:2:0:0:
414,142,82330,1,8,3:2:0:0:
466,93,82424,5,8,3:2:0:0:
450,56,82518,1,8,3:2:0:0:
401,48,82612,1,8,3:2:0:0:
341,6,82706,5,8,3:2:0:0:
326,21,82801,1,8,3:2:0:0:
322,33,82895,1,8,3:2:0:0:
258,72,82989,6,0,B|265:124|265:124|270:130|270:130|276:197,1,99.0000030212403,8|0,3:2|3:2,3:2:0:0:
477,274,83272,2,0,B|484:222|484:222|489:216|489:216|495:149,1,99.0000030212403,8|0,3:2|3:2,3:2:0:0:
360,337,83552,6,0,B|325:372|325:372|281:364|238:384,1,135.000005149842,4|8,3:2|3:2,3:2:0:0:
55,271,83837,2,0,B|32:228|32:228|45:194|45:194|29:94,1,135.000005149842,0|8,3:2|3:2,3:2:0:0:
218,14,84123,1,2,3:2:0:0:
154,206,84266,1,10,3:2:0:0:
8,49,84409,2,0,P|50:99|115:106,1,135.000005149842,2|8,3:2|3:2,3:2:0:0:
402,72,84694,6,0,P|345:74|270:275,1,270.000010299683,2|0,3:2|3:2,3:2:0:0:
458,338,85123,1,8,3:2:0:0:
356,372,85266,2,0,B|329:337|334:284|334:284|327:315|312:327,1,135.000005149842,2|8,3:2|3:2,3:2:0:0:
148,378,85552,1,2,3:2:0:0:
148,378,85623,1,0,3:2:0:0:
148,378,85694,2,0,L|220:368,1,67.5000025749208,8|0,3:2|3:2,3:2:0:0:
335,286,85837,6,0,B|299:271|299:271|201:266,1,135.000005149842,2|8,3:2|3:2,3:2:0:0:
77,300,86123,1,0,3:2:0:0:
198,155,86266,1,8,3:2:0:0:
54,32,86409,6,0,P|62:97|110:143,1,135.000005149842,2|8,3:2|3:2,3:2:0:0:
292,96,86694,1,2,3:2:0:0:
67,31,86837,1,10,3:2:0:0:
392,9,86980,6,0,B|411:85|411:85|396:126|396:126|412:221,1,202.500007724762,2|0,3:2|3:2,3:2:0:0:
497,275,87266,2,0,P|462:228|375:246,1,135.000005149842,2|8,3:2|3:2,3:2:0:0:
190,325,87552,2,0,B|206:346|205:373|140:378|93:349|103:274|103:274|173:192|92:108,1,337.500012874604,2|0,3:2|3:2,3:2:0:0:
36,127,87980,1,10,3:2:0:0:
349,178,88123,6,0,B|310:166|310:166|217:192,1,135.000005149842,6|8,3:2|3:2,3:2:0:0:
185,330,88409,1,0,3:2:0:0:
349,275,88552,1,8,3:2:0:0:
206,47,88694,2,0,P|213:125|260:183,1,135.000005149842,2|8,3:2|3:2,3:2:0:0:
448,205,88980,1,2,3:2:0:0:
451,191,89052,1,0,3:2:0:0:
454,178,89123,1,8,3:2:0:0:
512,269,89266,6,0,B|450:317|382:283|382:283|306:244|243:292,1,270.000010299683,2|0,3:2|3:2,3:2:0:0:
196,378,89694,1,8,3:2:0:0:
362,172,89837,2,0,P|363:100|341:38,1,135.000005149842,2|8,3:2|3:2,3:2:0:0:
182,240,90123,2,0,B|230:259|281:258|281:258|257:274|247:292,1,135.000005149842,2|8,3:2|3:2,3:2:0:0:
33,325,90409,6,0,B|57:269|20:214|20:214|33:180|33:180|-2:129|13:49,1,270.000010299683,6|0,3:2|3:2,3:2:0:0:
105,209,90837,1,10,3:2:0:0:
240,41,90980,2,0,B|295:35|295:35|374:56,1,135.000005149842,2|8,3:2|3:2,3:2:0:0:
474,218,91266,1,0,3:2:0:0:
479,230,91337,1,0,3:2:0:0:
484,242,91409,1,8,3:2:0:0:
188,328,91552,6,0,P|196:256|241:204,1,135.000005149842,2|8,3:2|3:2,3:2:0:0:
462,112,91837,2,0,P|395:140|327:127,1,135.000005149842,2|8,3:2|3:2,3:2:0:0:
160,32,92123,5,10,3:2:0:0:
170,42,92194,1,8,3:2:0:0:
178,53,92266,1,8,3:2:0:0:
184,65,92337,1,8,3:2:0:0:
209,78,92409,5,4,3:3:0:0:
193,106,92480,1,4,3:3:0:0:
149,124,92552,1,4,3:3:0:0:
95,110,92623,1,4,3:3:0:0:
51,61,92694,6,0,B|68:62|88:50|88:50|49:136|51:272,1,202.500007724762,4|0,3:2|3:2,3:2:0:0:
0,278,92980,1,2,3:2:0:0:
141,209,93123,1,8,3:2:0:0:
180,353,93266,5,2,3:2:0:0:
251,166,93409,1,8,3:2:0:0:
323,323,93552,1,0,3:2:0:0:
424,100,93694,1,10,3:2:0:0:
512,253,93837,6,0,P|442:251|356:288,1,135.000005149842,2|8,3:2|3:2,3:2:0:0:
255,174,94123,1,0,3:2:0:0:
314,325,94266,1,8,3:2:0:0:
430,149,94409,2,0,P|394:203|381:298,1,135.000005149842,2|8,3:2|3:2,3:2:0:0:
443,51,94694,2,0,P|380:70|309:134,1,135.000005149842,2|8,3:2|3:2,3:2:0:0:
142,336,94980,6,0,P|196:301|176:80,1,270.000010299683,2|0,3:2|3:2,3:2:0:0:
67,132,95409,1,10,3:2:0:0:
256,368,95552,2,0,B|282:346|282:346|330:367|400:357,1,135.000005149842,2|8,3:2|3:2,3:2:0:0:
506,190,95837,2,0,B|480:168|480:168|431:187|362:179,1,135.000005149842,2|8,3:2|3:2,3:2:0:0:
84,48,96123,6,0,B|62:80|69:130|69:130|150:75|260:90,1,270.000010299683,6|0,3:2|3:2,3:2:0:0:
368,144,96552,1,8,3:2:0:0:
248,280,96694,2,0,P|195:239|181:174,1,135.000005149842,0|8,3:2|3:2,3:2:0:0:
336,59,96980,1,2,3:2:0:0:
290,357,97123,1,10,3:2:0:0:
149,313,97266,5,2,3:2:0:0:
332,227,97409,1,8,3:2:0:0:
398,351,97552,1,2,3:2:0:0:
246,287,97694,1,10,3:2:0:0:
381,143,97837,5,2,3:2:0:0:
323,320,97980,1,10,3:2:0:0:
389,137,98123,1,2,3:2:0:0:
401,345,98266,1,10,3:2:0:0:
512,249,98409,6,0,B|465:256|465:256|381:232,1,135.000005149842,2|8,3:2|3:2,3:2:0:0:
212,237,98694,1,2,3:2:0:0:
315,69,98837,1,10,3:2:0:0:
216,117,98980,1,2,3:2:0:0:
286,195,99123,1,10,3:2:0:0:
209,244,99266,2,0,L|218:279,1,26.9999991760254,2|0,3:2|3:2,3:2:0:0:
134,213,99409,2,0,L|140:186,1,26.9999991760254,2|0,3:2|3:2,3:2:0:0:
163,55,99552,5,8,3:2:0:0:
143,15,99624,1,8,3:2:0:0:
101,4,99697,1,8,3:2:0:0:
65,29,99769,1,8,3:2:0:0:
60,73,99842,1,8,3:2:0:0:
90,105,99915,1,8,3:2:0:0:
133,118,99987,5,8,3:2:0:0:
128,76,100060,1,8,3:2:0:0:
92,52,100133,1,8,3:2:0:0:
50,62,100205,1,8,3:2:0:0:
32,102,100278,1,8,3:2:0:0:
49,141,100351,1,8,3:2:0:0:
58,185,100423,5,4,3:3:0:0:
55,207,100496,1,4,3:3:0:0:
48,228,100568,1,4,3:3:0:0:
37,248,100641,1,4,3:3:0:0:
22,265,100714,6,0,B|4:242|4:242|185:261,1,202.500007724762,6|0,2:2|2:2,2:2:0:0:
247,304,100999,1,8,3:2:0:0:
277,307,101071,1,0,2:2:0:0:
306,298,101142,1,0,2:2:0:0:
330,278,101214,1,0,2:2:0:0:
342,248,101285,5,0,3:2:0:0:
382,356,101428,1,8,2:2:0:0:
497,229,101571,2,0,P|444:222|401:190,1,107.999996704102,0|8,3:2|2:2,2:2:0:0:
335,42,101852,1,0,3:2:0:0:
330,72,101923,1,0,2:2:0:0:
326,102,101993,1,8,2:2:0:0:
321,133,102063,1,0,2:2:0:0:
314,163,102134,2,0,B|271:159|233:175|233:175|246:163|249:151,1,107.999996704102,0|8,3:2|2:2,2:2:0:0:
79,40,102416,6,0,P|101:97|107:170,1,107.999996704102,0|8,3:2|2:2,2:2:0:0:
48,312,102701,1,0,3:2:0:0:
69,289,102773,1,0,2:2:0:0:
98,278,102844,1,8,2:2:0:0:
129,279,102916,1,0,2:2:0:0:
157,291,102987,5,0,3:2:0:0:
232,350,103130,1,8,2:2:0:0:
354,237,103273,1,0,3:2:0:0:
240,265,103416,1,8,2:2:0:0:
423,356,103558,1,0,3:2:0:0:
434,325,103630,1,0,2:2:0:0:
444,294,103701,1,8,2:2:0:0:
455,263,103773,1,0,2:2:0:0:
465,232,103844,5,0,3:2:0:0:
512,328,103987,1,8,2:2:0:0:
341,328,104130,1,0,3:2:0:0:
403,159,104273,1,8,2:2:0:0:
284,114,104416,1,0,3:2:0:0:
251,110,104487,1,0,2:2:0:0:
221,122,104558,1,8,2:2:0:0:
203,149,104630,1,0,2:2:0:0:
198,181,104701,2,0,B|223:204|208:236|208:236|178:241|157:208,1,107.999996704102,0|8,3:2|2:2,2:2:0:0:
29,97,104987,6,0,P|73:69|162:85,1,107.999996704102,0|8,3:2|2:2,2:2:0:0:
286,206,105273,1,0,3:2:0:0:
315,218,105344,1,0,2:2:0:0:
347,218,105416,1,8,2:2:0:0:
379,212,105487,1,0,2:2:0:0:
408,197,105558,5,0,3:2:0:0:
330,303,105701,1,8,2:2:0:0:
242,105,105844,2,0,P|308:116|344:146,1,107.999996704102,0|8,3:2|2:2,2:2:0:0:
262,351,106120,1,0,3:2:0:0:
230,346,106189,1,0,2:2:0:0:
198,339,106258,1,8,2:2:0:0:
166,332,106327,1,0,2:2:0:0:
135,355,106396,5,14,3:2:0:0:
154,312,106469,1,8,3:2:0:0:
155,262,106542,1,8,3:2:0:0:
150,227,106616,1,8,3:2:0:0:
132,202,106689,5,6,3:3:0:0:
152,208,106760,1,4,3:3:0:0:
173,208,106832,1,4,3:3:0:0:
194,202,106904,1,4,3:3:0:0:
211,189,106976,1,12,3:3:0:0:
217,179,107048,1,4,3:3:0:0:
219,172,107120,1,4,3:3:0:0:
218,166,107192,1,4,3:3:0:0:
216,161,107264,6,0,L|203:90,1,53.9999983520508,10|0,3:2|3:2,3:2:0:0:
68,29,107408,1,2,3:2:0:0:
37,56,107480,1,0,3:2:0:0:
32,104,107552,6,0,P|92:98|147:39,1,107.999996704102,4|8,3:2|2:2,2:2:0:0:
307,41,107840,1,0,3:2:0:0:
338,33,107912,1,0,2:2:0:0:
368,42,107984,1,8,2:2:0:0:
391,64,108056,1,0,2:2:0:0:
400,95,108128,2,0,B|406:118|399:140|399:140|387:182|433:226,1,107.999996704102,0|8,3:2|2:2,2:2:0:0:
482,325,108416,5,0,3:2:0:0:
353,255,108558,1,8,2:2:0:0:
266,335,108701,1,0,3:2:0:0:
285,360,108773,1,0,2:2:0:0:
314,373,108844,1,8,2:2:0:0:
390,334,108987,1,0,3:2:0:0:
364,172,109130,1,8,2:2:0:0:
447,258,109273,1,0,3:2:0:0:
480,138,109416,1,8,2:2:0:0:
308,82,109558,6,0,P|287:112|274:220,1,107.999996704102,0|8,3:2|2:2,2:2:0:0:
266,335,109844,1,0,3:2:0:0:
242,313,109916,1,0,2:2:0:0:
212,299,109987,1,8,2:2:0:0:
179,294,110058,1,0,2:2:0:0:
146,300,110130,5,0,3:2:0:0:
301,259,110274,1,8,2:2:0:0:
139,119,110419,2,0,P|119:174|114:224,1,107.999996704102,0|8,3:2|2:2,2:2:0:0:
266,335,110709,2,0,B|274:298|251:258|251:258|250:277|232:289,1,107.999996704102,4|8,3:2|2:2,2:2:0:0:
430,90,110999,6,0,P|416:195|361:239,1,161.999995056153,4|0,3:2|2:2,2:2:0:0:
292,184,111284,1,0,3:2:0:0:
276,155,111356,1,0,2:2:0:0:
274,117,111427,1,8,2:2:0:0:
284,80,111499,1,0,2:2:0:0:
312,54,111570,5,0,3:2:0:0:
359,143,111713,1,8,2:2:0:0:
197,191,111856,1,0,3:2:0:0:
350,305,111999,1,8,2:2:0:0:
141,384,112141,1,0,3:2:0:0:
156,349,112213,1,0,2:2:0:0:
157,311,112284,1,8,2:2:0:0:
148,273,112356,1,0,2:2:0:0:
127,240,112427,5,0,3:2:0:0:
21,271,112570,1,8,2:2:0:0:
233,358,112713,2,0,P|298:348|365:271,1,161.999995056153,0|0,3:2|2:2,2:2:0:0:
330,195,112999,5,6,3:3:0:0:
327,179,113070,1,4,3:3:0:0:
320,164,113141,1,4,3:3:0:0:
310,150,113213,1,4,3:3:0:0:
276,120,113284,5,10,3:2:0:0:
332,124,113356,1,8,3:2:0:0:
390,130,113427,1,8,3:2:0:0:
448,137,113499,1,8,3:2:0:0:
504,144,113570,5,10,3:2:0:0:
506,134,113641,1,8,3:2:0:0:
509,124,113713,1,8,3:2:0:0:
511,114,113784,1,8,3:2:0:0:
468,88,113856,5,6,3:3:0:0:
459,84,113927,1,4,3:3:0:0:
452,76,113999,1,6,3:3:0:0:
448,68,114070,1,4,3:3:0:0:
448,59,114141,5,2,3:2:0:0:
512,16,114284,1,2,3:2:0:0:
276,120,114422,5,0,3:2:0:0:
237,148,114493,1,0,2:2:0:0:
198,150,114564,1,0,3:2:0:0:
171,139,114636,1,0,2:2:0:0:
162,123,114707,6,0,L|150:172,3,31.4999990386963,0|8|0|8,3:2|2:2|3:2|2:2,3:2:0:0:
243,49,114993,2,0,L|236:19,3,31.4999990386963,0|8|0|8,3:2|2:2|3:2|2:2,3:2:0:0:
304,195,115279,2,0,L|292:244,3,31.4999990386963,0|8|0|8,3:2|2:2|3:2|2:2,3:2:0:0:
132,265,115564,5,2,3:2:0:0:
134,277,115636,1,2,2:2:0:0:
136,289,115707,1,2,3:2:0:0:
139,301,115779,1,2,2:2:0:0:
135,342,115850,5,2,3:2:0:0:
165,319,115922,1,2,2:2:0:0:
214,309,115993,1,2,3:2:0:0:
273,315,116064,1,2,2:2:0:0:
332,348,116136,6,0,P|344:327|351:299,3,31.4999990386963,0|8|0|8,3:2|2:2|3:2|2:2,3:2:0:0:
436,295,116422,2,0,P|424:274|417:246,3,31.4999990386963,0|8|0|8,3:2|2:2|3:2|2:2,3:2:0:0:
379,186,116707,2,0,P|391:165|398:137,3,31.4999990386963,0|8|0|8,3:2|2:2|3:2|2:2,3:2:0:0:
290,215,116993,5,2,3:2:0:0:
260,205,117064,1,2,2:2:0:0:
229,197,117136,1,2,3:2:0:0:
198,190,117207,1,2,2:2:0:0:
153,215,117279,6,0,B|183:213|203:226|203:226|165:159|162:69,1,202.500007724762,2|0,3:2|3:2,3:2:0:0:
207,27,117564,1,2,3:2:0:0:
90,164,117707,1,2,3:2:0:0:
254,286,117850,2,0,P|223:342|110:330,1,135.000005149842,2|0,3:2|3:2,3:2:0:0:
65,268,118136,6,0,P|70:255|77:244,3,26.9999991760254,2|8|0|8,3:2|2:2|3:2|2:2,3:2:0:0:
168,210,118421,1,0,3:2:0:0:
183,218,118493,1,8,2:2:0:0:
206,220,118564,1,0,3:2:0:0:
239,211,118636,1,8,2:2:0:0:
264,176,118707,5,6,3:2:0:0:
287,192,118779,1,8,2:2:0:0:
334,200,118850,1,0,3:2:0:0:
385,182,118921,1,8,2:2:0:0:
411,131,118993,1,0,3:2:0:0:
394,69,119064,1,8,2:2:0:0:
339,38,119135,5,2,3:2:0:0:
319,87,119207,1,8,2:2:0:0:
337,137,119278,1,0,3:2:0:0:
369,180,119350,1,8,2:2:0:0:
385,230,119421,1,0,3:2:0:0:
370,282,119493,1,8,2:2:0:0:
327,318,119564,6,8,P|307:319|290:317,3,36,8|8|8|8,3:2|2:2|3:2|2:2,3:2:0:0:
225,363,119850,1,0,0:0:0:0:
282,358,119921,1,0,2:0:0:0:
340,356,119993,1,0,0:0:0:0:
397,353,120064,1,0,2:0:0:0:
453,346,120135,2,0,B|464:329|450:309|450:309|446:334|428:347,1,72,12|0,3:2|3:2,3:2:0:0:
490,128,120421,5,2,3:2:0:0:
447,100,120493,1,2,3:2:0:0:
409,106,120564,1,2,3:2:0:0:
393,132,120635,1,2,3:2:0:0:
402,151,120707,6,0,P|420:148|441:131,3,31.4999990386963,0|8|0|8,3:2|2:2|3:2|2:2,3:2:0:0:
334,62,120993,2,0,P|316:59|295:42,3,31.4999990386963,0|8|0|8,3:2|2:2|3:2|2:2,3:2:0:0:
221,109,121278,2,0,P|205:111|191:118,3,31.4999990386963,0|8|0|8,3:2|2:2|3:2|2:2,3:2:0:0:
55,57,121564,5,2,3:2:0:0:
66,63,121635,1,2,2:2:0:0:
77,67,121707,1,2,3:2:0:0:
90,68,121778,1,2,2:2:0:0:
122,48,121850,5,2,3:2:0:0:
147,87,121921,1,2,2:2:0:0:
154,151,121993,1,2,3:2:0:0:
125,215,122064,1,2,2:2:0:0:
69,258,122135,6,0,B|106:244|106:244|170:263|170:263|205:253,1,135.000005149842,6|0,3:2|3:2,3:2:0:0:
460,340,122421,2,0,L|466:309,3,31.4999990386963,0|8|0|8,3:2|2:2|3:2|2:2,3:2:0:0:
374,266,122707,2,0,L|367:235,3,31.4999990386963,0|8|0|8,3:2|2:2|3:2|2:2,3:2:0:0:
489,44,122993,5,0,3:2:0:0:
484,87,123064,1,8,2:2:0:0:
478,130,123135,1,0,3:2:0:0:
473,174,123207,1,8,2:2:0:0:
465,223,123278,6,0,P|376:219|273:269,1,202.500007724762,14|0,3:2|3:2,3:2:0:0:
263,344,123563,1,10,3:2:0:0:
336,146,123706,1,2,3:2:0:0:
171,367,123849,2,0,P|152:308|103:247,1,135.000005149842,10|0,3:2|3:2,3:2:0:0:
24,111,124135,6,0,P|11:118|-3:121,3,26.9999991760254,2|8|0|8,3:2|2:2|3:2|2:2,3:2:0:0:
110,151,124420,1,8,3:2:0:0:
147,149,124492,1,8,2:2:0:0:
182,118,124563,1,8,3:2:0:0:
185,67,124635,1,8,2:2:0:0:
141,30,124706,6,0,P|141:93|163:164,1,135.000005149842,6|0,3:2|3:2,3:2:0:0:
296,280,124992,2,0,P|313:267|336:260,1,45,2|0,3:2|3:2,3:2:0:0:
268,142,125135,2,0,P|232:208|220:269,1,135.000005149842,6|0,3:2|3:2,3:2:0:0:
398,326,125420,2,0,P|419:323|442:329,1,45,2|0,3:2|3:2,3:2:0:0:
492,254,125563,6,8,L|486:192,2,60,8|8|8,3:2|3:2|3:2,3:2:0:0:
397,166,125858,2,8,L|403:104,2,60,8|8|8,3:2|3:2|3:2,3:2:0:0:
487,13,126154,1,8,3:2:0:0:
485,42,126252,1,8,3:2:0:0:
469,67,126351,1,8,3:2:0:0:
403,107,126449,6,0,P|343:96|317:82,1,83.9999974365235,8|0,3:2|3:2,3:2:0:0:
203,96,126734,5,4,3:3:0:0:
189,131,126829,1,4,3:3:0:0:
207,167,126925,1,4,3:3:0:0:
174,209,127020,1,8,3:2:0:0:
256,352,127306,1,10,3:2:0:0:
18,302,127591,5,4,3:3:0:0:
49,271,127687,1,4,3:3:0:0:
106,276,127782,1,4,3:3:0:0:
147,342,127877,1,8,3:2:0:0:
111,151,128163,1,12,3:2:0:0:
345,238,128442,5,4,3:3:0:0:
325,266,128535,1,4,3:3:0:0:
281,236,128628,1,4,3:3:0:0:
312,173,128721,1,8,3:2:0:0:
272,384,129000,1,10,3:2:0:0:
491,269,129285,5,8,3:2:0:0:
460,267,129357,1,8,3:2:0:0:
442,248,129428,1,8,3:2:0:0:
444,229,129500,1,8,3:2:0:0:
455,220,129571,2,0,P|466:186|473:148,1,67.5,8|0,3:2|3:2,3:2:0:0:
433,90,129857,5,6,3:2:0:0:
414,72,129928,1,8,2:2:0:0:
374,66,130000,1,0,3:2:0:0:
331,90,130071,1,8,2:2:0:0:
329,144,130142,5,2,3:2:0:0:
381,135,130214,1,8,2:2:0:0:
407,88,130285,1,0,3:2:0:0:
390,36,130357,1,8,2:2:0:0:
338,18,130428,1,0,3:2:0:0:
295,31,130500,1,8,2:2:0:0:
274,57,130571,1,0,3:2:0:0:
252,71,130642,1,8,2:2:0:0:
233,76,130714,1,0,3:2:0:0:
217,73,130785,1,8,2:2:0:0:
208,66,130857,1,0,3:2:0:0:
205,60,130928,1,8,2:2:0:0:
181,28,131000,5,2,3:2:0:0:
191,80,131071,1,8,2:2:0:0:
202,132,131142,1,0,3:2:0:0:
214,184,131214,1,8,2:2:0:0:
226,236,131285,5,2,3:2:0:0:
249,213,131357,1,8,2:2:0:0:
270,207,131428,1,0,3:2:0:0:
286,209,131500,1,8,2:2:0:0:
327,223,131571,5,2,3:2:0:0:
320,255,131642,1,8,2:2:0:0:
273,278,131714,1,0,3:2:0:0:
209,264,131785,1,8,2:2:0:0:
161,223,131857,1,0,3:2:0:0:
101,200,131928,1,8,2:2:0:0:
40,213,132000,1,0,3:2:0:0:
2,272,132071,1,8,2:2:0:0:
11,341,132142,1,0,3:2:0:0:
67,384,132215,1,0,2:2:0:0:
148,377,132289,5,8,3:2:0:0:
148,377,132362,1,8,3:2:0:0:
148,377,132436,2,0,B|143:325,1,45,8|0,3:2|3:2,3:2:0:0:
90,281,132577,1,4,3:3:0:0:
90,281,132648,1,4,3:3:0:0:
90,281,132719,2,0,L|95:222,1,45,4|0,3:3|3:2,3:2:0:0:
190,140,132861,1,4,3:3:0:0:
190,140,132931,1,4,3:3:0:0:
190,140,133002,2,0,P|208:181|149:162,1,135,4|0,3:3|3:3,3:3:0:0:
129,77,133286,6,0,B|152:57|152:57|213:49,1,83.9999974365235,6|0,3:2|3:2,3:2:0:0:
296,87,133571,5,4,3:3:0:0:
318,99,133666,1,4,3:3:0:0:
330,136,133762,1,4,3:3:0:0:
286,190,133857,1,8,3:2:0:0:
505,157,134143,1,4,3:2:0:0:
133,200,134434,5,4,3:3:0:0:
98,178,134531,1,4,3:3:0:0:
54,202,134628,1,4,3:3:0:0:
4,146,134725,1,2,3:2:0:0:
244,172,135021,1,2,3:2:0:0:
213,303,135302,5,8,3:2:0:0:
201,288,135372,1,8,3:2:0:0:
196,274,135443,1,8,3:2:0:0:
194,262,135513,1,8,3:2:0:0:
195,253,135583,1,2,3:2:0:0:
333,155,135865,6,4,B|321:197|321:197|326:209|326:209|315:265,1,108,6|0,3:2|3:2,3:2:0:0:
369,315,136146,1,4,3:3:0:0:
397,303,136217,1,4,3:3:0:0:
428,299,136287,1,4,3:3:0:0:
459,303,136357,1,4,3:3:0:0:
488,312,136428,2,0,L|499:209,1,72,4|0,3:3|3:2,3:2:0:0:
444,110,136704,6,0,P|399:157|333:155,1,135,6|0,3:2|3:2,3:2:0:0:
267,120,136994,5,0,3:2:0:0:
242,113,137067,1,8,2:2:0:0:
204,128,137140,1,0,3:2:0:0:
187,170,137212,1,8,2:2:0:0:
202,222,137285,1,0,3:2:0:0:
227,269,137358,1,8,2:2:0:0:
224,322,137431,1,0,3:2:0:0:
187,362,137503,1,8,2:2:0:0:
132,355,137576,5,2,3:2:0:0:
155,306,137649,1,8,2:2:0:0:
203,281,137721,1,0,3:2:0:0:
257,283,137794,1,8,2:2:0:0:
307,302,137867,1,0,3:2:0:0:
358,319,137940,1,8,2:2:0:0:
411,313,138012,1,0,3:2:0:0:
458,287,138085,1,8,2:2:0:0:
477,235,138158,2,0,P|467:208|451:175,3,45,0|8|0|8,3:2|2:2|3:2|2:2,3:2:0:0:
332,143,138449,5,10,3:2:0:0:
338,186,138517,1,8,3:2:0:0:
344,230,138586,1,8,3:2:0:0:
350,276,138655,1,8,3:2:0:0:
358,319,138724,6,0,P|331:300|293:292,1,45,0|0,3:2|3:2,3:2:0:0:
209,240,138862,1,8,3:2:0:0:
209,240,138931,1,8,3:2:0:0:
209,240,139000,2,0,P|188:248|169:261,1,45,0|0,3:2|3:2,3:2:0:0:
69,304,139138,1,8,3:2:0:0:
69,304,139207,1,8,3:2:0:0:
69,304,139276,6,0,P|48:295|29:282,1,45,0|0,3:3|3:3,3:3:0:0:
37,148,139420,1,4,3:3:0:0:
52,124,139492,1,4,3:3:0:0:
73,115,139564,1,4,3:3:0:0:
91,116,139636,1,4,3:3:0:0:
102,120,139708,1,4,3:3:0:0:
110,126,139780,1,4,3:3:0:0:
114,134,139852,2,0,P|103:186|91:227,1,90,6|0,3:3|3:2,3:2:0:0:
231,371,140141,6,0,P|213:319|210:225,1,135.000005149842,6|10,3:2|3:2,3:2:0:0:
364,125,140427,1,2,3:2:0:0:
306,332,140570,1,10,3:2:0:0:
446,203,140713,1,2,3:2:0:0:
477,326,140856,1,10,3:2:0:0:
139,362,140999,5,2,3:2:0:0:
396,295,141142,1,10,3:2:0:0:
128,232,141285,1,2,3:2:0:0:
311,340,141428,1,8,3:2:0:0:
354,121,141571,1,2,3:2:0:0:
256,270,141714,1,10,3:2:0:0:
175,19,141857,5,2,3:2:0:0:
259,280,142000,1,8,3:2:0:0:
48,206,142143,1,2,3:2:0:0:
360,118,142286,1,8,3:2:0:0:
55,7,142429,6,0,P|70:56|85:154,1,135.000005149842,2|8,3:2|3:2,3:2:0:0:
12,384,142716,1,2,3:2:0:0:
174,127,142859,1,10,3:2:0:0:
150,365,143002,5,2,3:2:0:0:
98,73,143145,1,10,3:2:0:0:
69,319,143288,1,2,3:2:0:0:
168,7,143431,1,10,3:2:0:0:
230,257,143574,6,0,P|249:254|272:242,1,45,2|0,3:2|3:2,3:2:0:0:
375,312,143717,2,0,P|355:301|333:297,1,45,10|0,3:2|3:2,3:2:0:0:
205,220,143860,6,0,P|224:223|247:234,1,45,2|0,3:2|3:2,3:2:0:0:
390,164,144003,2,0,P|370:174|348:178,1,45,10|0,3:2|3:2,3:2:0:0:
169,271,144146,6,0,P|188:268|211:256,1,45,2|0,3:2|3:2,3:2:0:0:
453,287,144289,2,0,P|441:267|423:253,1,45,10|0,3:2|3:2,3:2:0:0:
135,209,144432,6,0,P|154:212|177:223,1,45,2|0,3:2|3:2,3:2:0:0:
501,150,144575,2,0,P|489:169|471:183,1,45,10|0,3:2|3:2,3:2:0:0:
255,334,144718,5,6,3:2:0:0:
241,345,144790,1,8,2:2:0:0:
224,352,144862,1,0,3:2:0:0:
205,354,144933,1,8,2:2:0:0:
187,350,145005,1,0,3:2:0:0:
171,340,145076,1,8,2:2:0:0:
160,325,145148,1,0,3:2:0:0:
159,306,145219,1,8,2:2:0:0:
163,288,145291,1,0,3:2:0:0:
173,273,145362,1,8,2:2:0:0:
177,255,145434,1,0,3:2:0:0:
171,237,145505,1,8,2:2:0:0:
156,226,145577,5,0,3:2:0:0:
182,204,145648,1,8,2:2:0:0:
228,194,145720,1,0,3:2:0:0:
279,201,145791,1,8,2:2:0:0:
321,235,145863,5,0,3:2:0:0:
379,240,145934,1,8,2:2:0:0:
434,221,146006,1,0,3:2:0:0:
462,167,146078,1,8,2:2:0:0:
455,110,146149,5,2,3:2:0:0:
432,94,146221,1,8,2:2:0:0:
389,95,146292,1,0,3:2:0:0:
354,122,146364,1,8,2:2:0:0:
341,174,146435,5,2,3:2:0:0:
357,225,146507,1,8,2:2:0:0:
355,278,146578,1,2,3:2:0:0:
319,318,146650,1,8,2:2:0:0:
268,332,146721,6,0,P|242:311|208:296,1,45,2|0,3:2|2:2,3:2:0:0:
431,257,146864,2,0,P|457:236|491:221,1,45,2|0,3:2|2:2,3:2:0:0:
279,90,147007,2,0,P|297:164|347:280,1,202.500007724762,14|0,3:2|3:2,3:2:0:0:
404,333,147301,1,2,3:2:0:0:
409,340,147602,1,2,3:2:0:0:
350,203,147877,5,2,3:2:0:0:
42,241,148019,1,2,3:2:0:0:
256,32,148161,2,0,B|295:89|295:89|271:152,1,135.000005149842,10|0,3:2|3:2,3:2:0:0:
121,283,148444,5,2,3:2:0:0:
486,228,148586,1,2,3:2:0:0:
256,32,148728,2,0,B|216:89|216:89|240:152,1,135.000005149842,10|0,3:2|3:2,3:2:0:0:
451,303,149012,5,2,3:2:0:0:
42,241,149154,1,2,3:2:0:0:
256,32,149296,2,0,B|256:192,1,135.000005149842,10|0,3:2|3:2,3:2:0:0:
312,343,149580,5,2,3:2:0:0:
301,361,149722,1,2,3:2:0:0:
468,335,149863,6,0,B|422:299|365:320|365:320|312:336|268:297,1,202.500007724762,6|0,3:2|3:2,3:2:0:0:
197,298,150148,2,0,P|161:227|170:148,1,135.000005149842,0|8,3:2|3:2,3:2:0:0:
289,13,150433,1,0,3:2:0:0:
327,244,150575,1,8,3:2:0:0:
99,120,150718,1,0,3:2:0:0:
393,46,150860,1,8,3:2:0:0:
487,271,151003,6,0,B|513:314|490:366|490:366|427:303|345:295|345:295|379:311|403:346,1,337.500012874604,2|0,3:2|3:2,3:2:0:0:
325,371,151430,1,8,3:2:0:0:
414,232,151573,1,2,3:2:0:0:
237,384,151715,1,8,3:2:0:0:
347,129,151858,1,2,3:2:0:0:
141,351,152000,6,0,P|110:321|106:288,1,67.5000025749208,10|0,3:2|3:2,3:2:0:0:
199,224,152143,2,0,B|141:227|141:227|135:222|135:222|53:229,1,135.000005149842,6|8,3:2|3:2,3:2:0:0:
0,106,152428,1,2,3:2:0:0:
105,298,152570,1,10,3:2:0:0:
390,214,152713,6,0,P|429:160|425:93,1,135.000005149842,2|8,3:2|3:2,3:2:0:0:
227,0,152998,1,2,3:2:0:0:
303,267,153140,1,10,3:2:0:0:
512,58,153283,6,0,B|436:77|436:77|395:62|395:62|303:81,1,202.500007724762,2|0,3:2|3:2,3:2:0:0:
226,130,153568,2,0,P|212:168|216:213,1,67.5000025749208,2|0,3:2|3:2,3:2:0:0:
380,264,153710,2,0,P|380:223|361:182,1,67.5000025749208,10|0,3:2|3:2,3:2:0:0:
122,284,153853,2,0,B|120:263|102:239|102:239|168:288|268:298,1,202.500007724762,2|0,3:2|3:2,3:2:0:0:
306,250,154138,1,2,3:2:0:0:
28,328,154281,1,10,3:2:0:0:
110,85,154423,6,0,B|121:161|121:161|155:195|155:195|173:302,1,202.500007724762,6|0,3:2|3:2,3:2:0:0:
150,357,154709,1,0,3:2:0:0:
226,130,154853,1,8,3:2:0:0:
392,259,154996,2,0,P|365:319|288:337,1,135.000005149842,2|8,3:2|3:2,3:2:0:0:
122,284,155283,1,2,3:2:0:0:
125,270,155354,1,0,3:2:0:0:
128,257,155426,1,8,3:2:0:0:
39,102,155569,6,0,B|11:61|37:25|37:25|150:44|133:196,1,270.000010299683,2|0,3:2|3:2,3:2:0:0:
31,270,156000,1,8,3:2:0:0:
265,344,156143,2,0,B|215:325|215:325|108:375,1,135.000005149842,2|8,3:2|3:2,3:2:0:0:
352,373,156430,2,0,P|351:317|430:153,1,202.500007724762,2|0,3:2|3:2,3:2:0:0:
483,133,156716,6,0,B|496:123|520:123|520:123|457:93|418:139|418:139|370:187|297:156,1,270.000010299683,6|0,3:2|3:2,3:2:0:0:
201,49,157147,1,8,3:2:0:0:
173,297,157290,2,0,P|228:260|294:247,1,135.000005149842,2|8,3:2|3:2,3:2:0:0:
468,213,157577,1,2,3:2:0:0:
480,217,157648,1,0,3:2:0:0:
492,222,157720,1,8,3:2:0:0:
428,383,157863,6,2,B|402:339|402:339|387:233,1,135.000005149842,0|8,3:2|3:2,3:2:0:0:
288,27,158150,2,0,B|299:77|299:77|275:181,1,135.000005149842,2|8,3:2|3:2,3:2:0:0:
173,297,158437,1,10,3:2:0:0:
163,287,158509,1,8,3:2:0:0:
155,276,158580,1,8,3:2:0:0:
149,264,158652,1,8,3:2:0:0:
131,233,158724,5,4,3:3:0:0:
180,232,158795,1,4,3:3:0:0:
229,268,158867,1,4,3:3:0:0:
242,328,158939,1,4,3:3:0:0:
204,384,159010,6,0,P|129:368|70:366,1,135.000005149842,6|8,3:2|3:2,3:2:0:0:
0,233,159297,1,0,3:2:0:0:
254,190,159440,1,8,3:2:0:0:
67,285,159584,5,2,3:2:0:0:
248,332,159727,1,8,3:2:0:0:
133,142,159871,1,2,3:2:0:0:
72,373,160014,1,8,3:2:0:0:
373,291,160157,6,0,P|303:301|225:352,1,135.000005149842,2|8,3:2|3:2,3:2:0:0:
380,205,160442,1,0,3:2:0:0:
331,383,160584,1,8,3:2:0:0:
216,122,160727,6,0,P|271:163|266:236,1,135.000005149842,2|8,3:2|3:2,3:2:0:0:
28,298,161012,2,0,B|71:288|71:288|181:319,1,135.000005149842,2|8,3:2|3:2,3:2:0:0:
431,270,161297,6,0,B|477:232|459:172|459:172|441:114|491:66,1,202.500007724762,6|0,3:2|3:2,3:2:0:0:
416,37,161583,1,0,3:2:0:0:
406,20,161654,1,0,3:2:0:0:
406,0,161725,1,8,3:2:0:0:
380,205,161868,2,0,B|319:197|319:197|305:205|305:205|219:195,1,135.000005149842,2|8,3:2|3:2,3:2:0:0:
21,359,162153,2,0,B|81:351|81:351|95:359|95:359|181:349,1,135.000005149842,2|8,3:2|3:2,3:2:0:0:
215,54,162438,6,0,P|90:33|38:147,1,270.000010299683,6|0,3:2|3:2,3:2:0:0:
121,271,162866,1,8,3:2:0:0:
226,144,163009,2,0,P|297:124|372:120,1,135.000005149842,0|8,3:2|3:2,3:2:0:0:
467,240,163294,1,2,3:2:0:0:
143,162,163437,1,10,3:2:0:0:
459,239,163579,5,2,3:2:0:0:
306,207,163722,1,10,3:2:0:0:
225,342,163865,1,2,3:2:0:0:
237,338,163936,1,2,3:2:0:0:
247,329,164007,1,10,3:2:0:0:
253,316,164079,1,2,3:2:0:0:
254,302,164150,1,2,3:2:0:0:
179,251,164292,1,8,3:2:0:0:
175,62,164435,5,2,3:2:0:0:
178,74,164506,1,2,3:2:0:0:
181,87,164578,1,10,3:2:0:0:
184,99,164649,1,2,3:2:0:0:
174,134,164720,5,6,3:2:0:0:
202,112,164791,1,0,3:2:0:0:
237,112,164863,1,0,3:2:0:0:
272,118,164935,1,0,3:2:0:0:
308,143,165007,5,10,3:2:0:0:
353,151,165079,1,8,3:2:0:0:
404,132,165151,1,10,3:2:0:0:
428,80,165222,1,8,3:2:0:0:
407,25,165294,6,4,P|393:28|378:32,3,26.9999991760254,14|4|6|4,3:3|3:3|3:3|3:3,3:3:0:0:
485,140,165582,2,0,P|499:143|514:147,3,26.9999991760254,8|0|2|0,3:3|3:3|3:3|3:3,3:3:0:0:
362,157,165869,5,10,3:2:0:0:
351,200,165941,1,8,3:2:0:0:
339,243,166013,1,8,3:2:0:0:
327,286,166084,1,8,3:2:0:0:
313,327,166156,5,10,3:2:0:0:
277,299,166228,1,8,3:2:0:0:
232,292,166300,1,8,3:2:0:0:
187,301,166372,1,8,3:2:0:0:
152,330,166444,5,10,3:2:0:0:
128,292,166515,1,8,3:2:0:0:
88,270,166587,1,8,3:2:0:0:
42,263,166659,1,8,3:2:0:0:
0,281,166731,5,6,3:3:0:0:
26,244,166803,1,4,3:3:0:0:
31,219,166875,1,4,3:3:0:0:
25,203,166947,1,4,3:3:0:0:
14,194,167018,6,0,B|-11:233|-11:233|22:374,1,180,14|0,3:2|3:2,3:2:0:0:
358,22,170445,5,8,3:2:0:0:
120,73,170590,1,8,3:2:0:0:
336,142,170735,1,8,3:2:0:0:
172,132,170880,1,8,3:2:0:0:
299,77,171025,1,4,3:3:0:0:
199,91,171171,1,4,3:3:0:0:
266,108,171316,1,4,3:3:0:0:
241,85,171461,1,4,3:3:0:0:
87,157,171606,6,0,B|67:147|67:147|81:198|80:252,1,107.999996704102,14|0,3:2|3:2,3:2:0:0:
43,328,172042,1,10,3:2:0:0:
167,213,172187,2,0,P|195:224|219:226,1,53.9999983520508,0|0,3:2|3:2,3:2:0:0:
93,160,172468,1,0,3:2:0:0:
172,341,172609,5,8,3:2:0:0:
185,337,172679,1,8,3:2:0:0:
198,332,172750,2,0,L|218:224,1,107.999996704102,10|0,3:2|3:2,3:2:0:0:
339,291,173164,2,0,P|306:298|278:317,1,53.9999983520508,2|0,3:2|3:2,3:2:0:0:
306,205,173441,1,8,3:2:0:0:
441,278,173579,2,0,L|433:333,1,53.9999983520508,10|0,3:2|3:2,3:2:0:0:
381,155,173868,6,8,P|373:129|373:101,1,53.9999983520508,2|0,3:2|3:2,3:2:0:0:
456,195,174154,1,0,3:2:0:0:
409,30,174298,1,8,3:2:0:0:
291,126,174441,2,0,P|271:107|257:83,1,53.9999983520508,2|0,3:2|3:2,3:2:0:0:
79,134,174728,2,0,L|174:143,1,80.9999975280763,10|0,3:2|3:2,3:2:0:0:
169,137,175023,1,2,3:2:0:0:
106,217,175164,1,10,3:2:0:0:
225,336,175305,5,8,3:2:0:0:
217,258,175450,1,8,3:2:0:0:
217,258,175523,1,8,3:2:0:0:
217,258,175596,1,10,3:2:0:0:
192,363,175741,1,8,3:2:0:0:
239,178,175887,1,8,3:2:0:0:
297,384,176033,1,8,3:2:0:0:
485,300,176178,6,0,P|466:337|383:355,1,107.999996704102,2|0,3:2|3:2,3:2:0:0:
470,218,176619,1,10,3:2:0:0:
313,275,176766,2,0,P|319:307|338:345,1,53.9999983520508,8|8,3:2|3:2,3:2:0:0:
406,146,177037,2,0,P|415:120|420:94,1,53.9999983520508,2|8,3:2|3:2,3:2:0:0:
471,211,177308,5,10,3:2:0:0:
324,190,177444,1,8,3:2:0:0:
311,184,177512,1,8,3:2:0:0:
298,178,177580,1,10,3:2:0:0:
223,231,177723,1,8,3:2:0:0:
194,94,177867,1,2,3:2:0:0:
79,166,178010,2,0,P|86:203|100:230,1,53.9999983520508,10|0,3:2|3:2,3:2:0:0:
201,348,178297,5,0,3:2:0:0:
201,348,178369,1,0,3:2:0:0:
201,348,178441,2,0,L|134:338,1,53.9999983520508,0|8,3:2|3:3,3:2:0:0:
134,344,178661,1,8,3:3:0:0:
121,348,178735,1,8,3:3:0:0:
281,299,178882,6,0,P|289:323|294:355,1,53.9999983520508,2|0,3:2|3:2,3:2:0:0:
425,286,179165,1,8,3:2:0:0:
438,280,179234,1,8,3:2:0:0:
451,274,179302,1,2,3:2:0:0:
377,359,179444,1,8,3:2:0:0:
338,237,179586,1,0,3:2:0:0:
477,160,179728,6,0,L|460:271,1,107.999996704102,10|8,3:2|3:2,3:2:0:0:
375,349,180155,1,2,3:2:0:0:
261,279,180295,2,0,P|237:283|209:295,1,53.9999983520508,8|0,3:2|3:2,3:2:0:0:
60,224,180577,5,2,3:2:0:0:
85,192,180647,1,2,3:2:0:0:
136,178,180718,2,0,P|157:197|165:220,1,53.9999983520508,2|0,3:2|3:2,3:2:0:0:
230,373,181000,2,0,P|203:378|178:370,1,53.9999983520508,2|0,3:2|3:2,3:2:0:0:
68,306,181291,1,2,3:2:0:0:
258,268,181436,1,8,3:2:0:0:
220,177,181582,1,0,3:2:0:0:
350,93,181728,6,0,P|331:114|318:137,1,53.9999983520508,2|8,3:2|3:2,3:2:0:0:
419,148,182017,1,0,3:2:0:0:
419,148,182162,1,8,3:2:0:0:
346,262,182307,1,0,3:2:0:0:
247,100,182452,2,0,P|235:72|228:30,1,53.9999983520508,2|0,3:2|3:2,3:2:0:0:
427,152,182742,2,0,P|439:124|446:82,1,53.9999983520508,2|0,3:2|3:2,3:2:0:0:
444,87,182959,1,8,3:2:0:0:
442,73,183032,1,8,3:2:0:0:
506,181,183173,5,0,3:2:0:0:
362,97,183315,1,0,3:2:0:0:
236,225,183456,2,0,P|215:202|194:165,1,53.9999983520508,10|0,3:2|3:2,3:2:0:0:
369,91,183739,5,10,3:2:0:0:
338,265,183881,1,10,3:2:0:0:
173,92,184022,2,0,P|121:97|77:119,1,80.9999975280763,6|0,3:2|3:2,3:2:0:0:
90,116,184305,1,10,3:2:0:0:
46,280,184447,6,8,P|48:316|64:346,2,48,8|8|8,3:2|3:2|3:2,3:2:0:0:
136,310,184736,2,8,P|134:286|121:254,2,48,8|8|8,3:2|3:2|3:2,3:2:0:0:
213,335,185006,5,0,3:2:0:0:
235,326,185083,1,0,3:2:0:0:
257,327,185161,1,0,3:2:0:0:
270,330,185239,1,0,0:0:0:0:
279,338,185316,6,0,B|303:344|303:344|287:296|288:236,1,120,10|0,3:2|3:2,3:2:0:0:
426,317,185925,6,0,P|407:331|385:339,2,48,0|0|0,3:2|3:2|3:2,3:2:0:0:
317,157,186208,2,0,P|337:159|357:165,2,41.9999987182618,0|0|0,3:2|3:2|3:2,3:2:0:0:
433,29,186477,6,0,L|452:150,1,120,0|0,3:2|3:2,3:2:0:0:
425,217,186753,1,8,3:2:0:0:
385,244,186845,1,0,3:2:0:0:
337,248,186937,1,0,3:2:0:0:
320,282,187029,1,0,3:2:0:0:
274,272,187122,1,0,3:2:0:0:
242,278,187214,1,0,3:2:0:0:
218,248,187306,5,10,3:2:0:0:
214,236,187401,1,0,3:2:0:0:
215,227,187496,1,0,3:2:0:0:
222,215,187591,5,2,3:2:0:0:
241,215,187686,1,0,3:2:0:0:
259,259,187781,1,0,3:2:0:0:
240,303,187876,1,8,3:2:0:0:
194,329,187971,1,0,3:2:0:0:
136,312,188066,1,0,3:2:0:0:
105,253,188161,5,2,3:2:0:0:
116,240,188256,1,0,3:2:0:0:
123,225,188351,1,0,3:2:0:0:
127,213,188446,1,8,3:2:0:0:
129,202,188542,1,0,3:2:0:0:
130,194,188637,1,0,3:2:0:0:
130,188,188732,6,0,B|167:180|191:197|191:197|213:215|258:210,1,120,2|0,3:2|3:2,3:2:0:0:
336,251,189017,1,10,3:2:0:0:
369,255,189112,1,2,3:2:0:0:
404,228,189207,1,2,3:2:0:0:
413,175,189302,2,0,B|421:161|444:160|444:160|414:129|367:127|367:127|334:180|283:186,1,227.999993911743,2|0,3:2|3:2,3:2:0:0:
270,185,189588,2,0,B|250:161|250:161|260:249|219:275,1,120,8|0,3:2|3:2,3:2:0:0:
198,314,189873,5,2,2:2:0:0:
187,334,189970,1,0,2:2:0:0:
152,347,190068,1,0,2:2:0:0:
109,327,190165,1,8,2:2:0:0:
79,298,190263,1,0,2:2:0:0:
40,301,190360,1,0,2:2:0:0:
18,340,190458,5,2,2:2:0:0:
0,303,190555,1,0,2:2:0:0:
33,255,190653,1,0,2:2:0:0:
95,253,190751,1,8,2:2:0:0:
126,227,190846,1,0,2:2:0:0:
132,200,190941,1,0,2:2:0:0:
120,184,191036,2,0,B|136:128|202:111|202:111|226:138|266:138|266:138|312:89|233:46|233:46|181:89|223:188,1,405.000015449525,6|0,2:2|2:2,2:2:0:0:
226,326,191602,5,2,2:2:0:0:
281,316,191696,1,0,2:2:0:0:
328,363,191790,1,0,2:2:0:0:
397,363,191885,1,8,2:2:0:0:
442,340,191979,1,0,2:2:0:0:
475,352,192073,1,0,2:2:0:0:
512,342,192168,2,0,B|464:334|433:376|433:376|365:305|389:207|389:207|395:229|411:251,1,300,6|0,2:2|3:2,3:2:0:0:
475,183,192739,5,2,2:2:0:0:
482,172,192834,1,0,2:2:0:0:
490,150,192929,1,0,2:2:0:0:
462,112,193024,1,8,2:2:0:0:
398,113,193120,1,0,2:2:0:0:
342,149,193215,1,0,2:2:0:0:
274,141,193310,5,2,2:2:0:0:
315,170,193405,1,0,2:2:0:0:
288,215,193501,1,0,2:2:0:0:
326,253,193596,1,8,2:2:0:0:
289,309,193691,1,0,2:2:0:0:
329,370,193786,1,0,2:2:0:0:
251,381,193881,2,0,B|191:403|152:366|152:366|118:329|65:340,1,198.000006042481,2|8,2:2|3:2,3:2:0:0:
7,285,194262,5,0,2:2:0:0:
1,264,194357,1,0,2:2:0:0:
1,240,194453,2,0,P|66:227|109:132,1,143.999995605469,6|0,2:2|3:2,3:2:0:0:
180,95,194738,2,0,P|152:72|137:39,2,71.9999978027344,8|0|0,2:2|2:2|2:2,2:2:0:0:
169,243,195024,5,2,2:2:0:0:
188,250,195095,1,0,2:2:0:0:
205,264,195167,1,0,2:2:0:0:
217,280,195238,1,0,2:2:0:0:
227,307,195310,2,0,P|252:282|277:277,2,48,8|0|0,2:2|2:2|2:2,2:2:0:0:
323,134,195595,5,6,2:2:0:0:
311,123,195667,1,0,2:2:0:0:
299,118,195738,1,0,2:2:0:0:
287,121,195809,1,0,2:2:0:0:
290,138,195881,1,8,2:2:0:0:
306,158,195952,1,0,2:2:0:0:
330,167,196024,1,0,2:2:0:0:
358,161,196095,1,0,2:2:0:0:
380,144,196167,6,0,L|393:68,2,48,2|0|0,2:2|2:2|2:2,2:2:0:0:
446,52,196452,1,8,2:2:0:0:
474,55,196547,1,0,2:2:0:0:
485,69,196643,1,0,2:2:0:0:
507,153,196738,6,0,B|487:144|487:144|378:150,1,120,6|0,2:2|3:2,3:2:0:0:
286,60,197023,2,0,B|303:43|303:43|319:150,1,120,8|0,2:2|2:2,2:2:0:0:
271,288,197309,1,2,2:2:0:0:
224,299,197404,1,0,2:2:0:0:
179,281,197500,1,0,2:2:0:0:
163,235,197595,2,0,P|216:210|284:206,1,120,12|0,2:2|2:2,2:2:0:0:
178,207,197880,2,0,P|139:161|83:145,1,120,6|0,2:2|2:2,2:2:0:0:
42,233,198163,5,8,2:2:0:0:
96,223,198257,1,0,2:2:0:0:
116,174,198351,1,0,2:2:0:0:
88,107,198446,6,0,P|96:71|131:31,2,60,2|0|0,2:2|2:2|2:2,2:2:0:0:
197,33,198729,1,8,2:2:0:0:
180,35,198823,1,0,2:2:0:0:
188,46,198917,1,0,2:2:0:0:
183,123,199012,6,0,B|197:175|197:175|182:228|182:228|194:281,1,143.999995605469,2|0,2:2|2:2,2:2:0:0:
265,310,199299,1,8,2:2:0:0:
273,326,199395,1,0,2:2:0:0:
267,339,199491,1,0,2:2:0:0:
259,344,199587,5,2,2:2:0:0:
240,314,199683,1,0,2:2:0:0:
266,268,199779,1,0,2:2:0:0:
325,248,199875,1,8,2:2:0:0:
388,278,199971,1,0,2:2:0:0:
456,265,200067,1,0,2:2:0:0:
483,200,200163,2,0,B|399:178|399:178|256:241|256:241|163:215,1,323.999990112305,6|0,2:2|2:2,2:2:0:0:
63,16,200738,5,2,2:2:0:0:
74,23,200837,1,0,2:2:0:0:
85,38,200937,1,0,2:2:0:0:
98,71,201036,1,8,2:2:0:0:
86,119,201129,1,0,2:2:0:0:
51,154,201222,1,0,2:2:0:0:
39,210,201315,5,8,2:2:0:0:
82,188,201409,1,8,2:2:0:0:
135,204,201504,1,8,2:2:0:0:
172,265,201599,1,8,2:2:0:0:
136,334,201694,1,8,2:2:0:0:
60,354,201788,1,8,2:2:0:0:
0,306,201883,5,0,2:2:0:0:
15,287,201978,1,8,2:2:0:0:
26,257,202073,1,8,2:2:0:0:
25,208,202168,1,8,2:2:0:0:
0,166,202262,1,8,2:2:0:0:
11,117,202357,1,8,2:2:0:0:
64,94,202452,5,12,2:3:0:0:
75,102,202547,1,4,2:3:0:0:
87,108,202642,1,4,2:3:0:0:
101,111,202736,1,4,2:3:0:0:
115,111,202831,1,4,2:3:0:0:
128,107,202926,1,4,2:3:0:0:
164,128,203021,5,12,2:3:0:0:
192,98,203115,1,4,2:3:0:0:
252,87,203210,1,4,2:3:0:0:
316,119,203305,5,12,2:3:0:0:
322,122,203589,5,6,2:2:0:0:
301,148,203683,1,0,2:2:0:0:
306,182,203778,1,0,2:2:0:0:
337,206,203872,1,8,2:2:0:0:
389,207,203967,1,0,2:2:0:0:
439,237,204061,1,0,2:2:0:0:
446,299,204156,5,2,2:2:0:0:
380,300,204250,1,0,2:2:0:0:
341,245,204345,1,0,2:2:0:0:
350,179,204440,2,0,P|357:110|348:90,2,66.0000020141602,8|0|0,2:2|2:2|2:2,2:2:0:0:
275,86,204723,5,2,2:2:0:0:
203,68,204818,1,0,2:2:0:0:
159,127,204912,1,0,2:2:0:0:
186,193,205007,5,8,2:2:0:0:
252,170,205102,1,0,2:2:0:0:
316,198,205196,1,0,2:2:0:0:
341,260,205291,5,2,2:2:0:0:
279,241,205385,1,0,2:2:0:0:
222,271,205480,1,0,2:2:0:0:
211,336,205574,1,8,2:2:0:0:
149,360,205675,1,0,2:2:0:0:
89,332,205776,1,0,2:2:0:0:
93,272,205877,6,0,P|85:235|61:207,2,60,2|0|0,2:2|2:2|2:2,2:2:0:0:
196,135,206165,2,0,P|184:171|191:207,2,60,8|0|0,2:2|2:2|2:2,2:2:0:0:
115,79,206453,5,2,2:2:0:0:
143,52,206550,1,0,2:2:0:0:
191,39,206646,1,0,2:2:0:0:
245,47,206742,1,8,2:2:0:0:
310,76,206838,1,0,2:2:0:0:
379,56,206934,1,0,2:2:0:0:
454,72,207030,6,0,B|466:124|433:167|433:167|452:203|452:203|422:241|430:298,1,215.999993408203,2|8,2:2|2:2,2:2:0:0:
316,278,207403,1,0,2:2:0:0:
295,289,207497,1,0,2:2:0:0:
273,292,207590,2,0,B|230:280|230:280|263:322|272:382,1,143.999995605469,2|0,2:2|2:2,2:2:0:0:
391,250,207871,2,0,B|373:212|373:212|264:181,1,143.999995605469,12|0,2:2|2:2,2:2:0:0:
143,73,208151,5,2,2:2:0:0:
117,107,208248,1,0,2:2:0:0:
116,150,208345,1,0,2:2:0:0:
135,188,208442,2,0,P|172:183|202:152,2,71.9999978027344,8|0|0,2:2|2:2|2:2,2:2:0:0:
26,241,208733,5,2,2:2:0:0:
68,251,208830,1,0,2:2:0:0:
95,280,208927,1,0,2:2:0:0:
104,311,209024,2,0,P|78:336|43:342,2,71.9999978027344,8|0|0,2:2|2:2|2:2,2:2:0:0:
193,279,209315,5,6,2:2:0:0:
217,258,209410,1,0,2:2:0:0:
237,256,209505,1,0,2:2:0:0:
259,260,209600,2,0,P|257:297|229:330,2,71.9999978027344,8|0|0,2:2|2:2|2:2,2:2:0:0:
67,247,209886,5,2,2:2:0:0:
123,291,209981,1,0,2:2:0:0:
193,279,210076,1,0,2:2:0:0:
235,220,210172,1,12,2:2:0:0:
278,162,210271,1,0,2:2:0:0:
349,158,210371,1,0,2:2:0:0:
416,180,210470,6,0,P|449:175|473:163,2,60,6|0|0,2:2|2:2|2:2,2:2:0:0:
276,77,210755,2,0,P|243:82|219:94,2,60,8|0|0,2:2|2:2|2:2,2:2:0:0:
326,248,211041,2,0,P|326:277|318:306,2,60,6|0|0,2:2|2:2|2:2,2:2:0:0:
415,96,211327,2,0,P|415:66|407:37,2,60,8|0|0,2:2|2:2|2:2,2:2:0:0:
473,253,211604,5,6,2:2:0:0:
491,266,211698,1,0,2:2:0:0:
493,308,211792,1,0,2:2:0:0:
450,332,211887,1,8,2:2:0:0:
410,301,211981,1,0,2:2:0:0:
427,242,212075,1,0,2:2:0:0:
472,207,212170,1,2,2:2:0:0:
489,148,212264,1,0,2:2:0:0:
449,117,212358,1,0,2:2:0:0:
406,141,212453,1,8,2:2:0:0:
408,183,212549,1,0,2:2:0:0:
426,196,212645,1,0,2:2:0:0:
438,193,212741,6,0,P|446:172|447:117,7,53.9999983520508,6|0|0|0|8|0|0|0,2:2|2:2|2:2|2:2|2:2|2:2|2:2|2:2,2:2:0:0:
331,113,213313,5,2,2:2:0:0:
313,115,213385,1,0,2:2:0:0:
295,118,213457,1,0,2:2:0:0:
277,121,213529,1,0,2:2:0:0:
256,153,213600,5,8,2:2:0:0:
223,147,213672,1,0,2:2:0:0:
191,142,213743,1,0,2:2:0:0:
158,138,213815,1,0,2:2:0:0:
138,104,213887,5,2,2:2:0:0:
132,105,213958,1,0,2:2:0:0:
126,106,214030,1,0,2:2:0:0:
120,108,214101,1,0,2:2:0:0:
89,126,214173,6,0,L|74:189,3,53.9999983520508,8|0|0|0,2:2|2:2|2:2|2:2,2:2:0:0:
166,229,214459,2,0,L|179:285,3,53.9999983520508,2|0|0|0,2:2|2:2|2:2|2:2,2:2:0:0:
331,194,214746,2,0,L|311:252,3,53.9999983520508,8|0|0|0,2:2|2:2|2:2|2:2,2:2:0:0:
456,202,215031,5,6,2:2:0:0:
459,210,215103,1,0,2:2:0:0:
462,218,215175,1,0,2:2:0:0:
465,226,215246,1,0,2:2:0:0:
438,252,215318,5,8,2:2:0:0:
431,290,215390,1,0,2:2:0:0:
440,314,215461,1,0,2:2:0:0:
451,327,215533,1,0,2:2:0:0:
462,327,215604,5,6,2:2:0:0:
422,291,215676,1,0,2:2:0:0:
368,283,215748,1,0,2:2:0:0:
321,309,215819,1,0,2:2:0:0:
279,343,215891,1,8,2:2:0:0:
233,340,215962,1,0,2:2:0:0:
205,322,216034,1,0,2:2:0:0:
195,298,216106,1,0,2:2:0:0:
199,278,216178,6,0,P|219:251|224:209,2,71.9999978027344,6|0|0,2:2|2:2|2:2,2:2:0:0:
318,302,216465,5,8,2:2:0:0:
322,290,216560,1,0,2:2:0:0:
326,279,216656,1,0,2:2:0:0:
300,208,216751,5,6,2:2:0:0:
296,195,216846,1,0,2:2:0:0:
292,183,216942,1,0,2:2:0:0:
357,127,217037,5,8,2:2:0:0:
361,110,217133,1,0,2:2:0:0:
366,95,217228,1,0,2:2:0:0:
295,51,217324,5,6,2:2:0:0:
275,17,217419,1,0,2:2:0:0:
228,10,217514,1,0,2:2:0:0:
179,30,217609,1,8,2:2:0:0:
163,85,217704,1,0,2:2:0:0:
112,124,217800,1,0,2:2:0:0:
43,109,217895,5,2,2:2:0:0:
35,37,217990,1,0,2:2:0:0:
62,14,218085,1,0,2:2:0:0:
82,20,218181,1,8,2:2:0:0:
91,34,218276,1,0,2:2:0:0:
86,43,218371,1,0,2:2:0:0:
39,101,218467,5,2,2:2:0:0:
69,138,218561,1,0,2:2:0:0:
64,185,218655,1,0,2:2:0:0:
136,181,218750,5,8,2:2:0:0:
135,217,218844,1,0,2:2:0:0:
109,243,218938,1,0,2:2:0:0:
153,300,219033,5,2,2:2:0:0:
135,320,219127,1,0,2:2:0:0:
107,322,219221,1,0,2:2:0:0:
37,286,219316,6,0,P|7:276|27:260,2,60,8|0|0,2:2|2:2|2:2,2:2:0:0:
158,228,219599,5,6,2:2:0:0:
193,231,219671,1,0,2:2:0:0:
223,249,219742,1,0,2:2:0:0:
249,273,219814,1,0,2:2:0:0:
263,297,219885,1,8,2:2:0:0:
280,315,219957,1,0,2:2:0:0:
300,320,220028,1,0,2:2:0:0:
318,314,220099,1,0,2:2:0:0:
327,304,220171,1,2,2:2:0:0:
332,289,220242,1,0,2:2:0:0:
333,274,220314,1,0,2:2:0:0:
339,261,220385,1,0,2:2:0:0:
350,251,220456,2,0,P|373:260|390:277,3,36,8|0|0|0,2:2|2:2|2:2|2:2,2:2:0:0:
414,180,220741,5,6,2:2:0:0:
383,161,220837,1,8,2:2:0:0:
323,163,220932,1,8,2:2:0:0:
270,191,221027,1,8,2:2:0:0:
210,188,221122,1,8,2:2:0:0:
163,149,221218,1,8,2:2:0:0:
164,89,221313,2,0,B|166:103|191:108|191:108|145:126|86:108|69:38|69:38|39:87|56:138,1,300,2|0,3:2|3:2,3:2:0:0:
39,237,221884,5,6,2:2:0:0:
69,219,221979,1,0,2:2:0:0:
109,236,222075,1,0,2:2:0:0:
124,274,222170,1,8,2:2:0:0:
115,318,222265,1,0,2:2:0:0:
129,345,222360,1,0,2:2:0:0:
152,353,222456,6,0,B|208:316|272:351|272:351|257:314|279:278,1,198.000006042481,2|8,2:2|3:2,3:2:0:0:
343,324,222837,1,0,3:2:0:0:
360,320,222932,1,0,3:2:0:0:
376,316,223027,2,0,P|373:278|359:252,1,66.0000020141602,14|0,3:2|3:2,3:2:0:0:
243,131,223218,5,8,2:2:0:0:
217,139,223313,1,8,2:2:0:0:
210,174,223408,1,8,2:2:0:0:
243,206,223503,1,8,2:2:0:0:
294,204,223599,2,0,P|317:181|327:150,1,66.0000020141602,12|0,2:2|3:2,3:2:0:0:
209,82,223789,2,4,P|205:113|216:139,3,60,4|4|4|4,3:3|3:3|3:3|3:3,3:3:0:0:
174,244,224172,6,0,B|149:229|149:229|38:219,1,120,14|0,3:2|3:2,3:2:0:0:
0,335,224459,1,0,3:2:0:0:
22,307,224554,1,0,3:2:0:0:
70,309,224650,1,2,3:2:0:0:
111,347,224746,2,0,B|138:373|172:361|172:361|212:350|242:375,1,120,8|0,2:2|3:2,3:2:0:0:
277,297,225033,2,0,B|304:271|338:283|338:283|378:294|408:268,1,120,8|0,3:2|3:2,3:2:0:0:
468,311,225320,6,0,P|489:335|491:366,5,60,8|0|0|0|0|0,2:2|2:2|2:2|2:2|2:2|2:2,2:2:0:0:
358,207,225905,2,0,P|357:174|375:148,5,60,8|0|0|0|0|0,2:2|2:2|2:2|2:2|2:2|2:2,2:2:0:0:
277,297,226455,5,8,2:2:0:0:
225,271,226551,1,0,2:2:0:0:
169,285,226648,1,0,2:2:0:0:
120,316,226744,1,0,2:2:0:0:
62,308,226841,1,0,2:2:0:0:
26,263,226937,1,0,2:2:0:0:
47,181,227034,5,8,2:2:0:0:
86,140,227131,1,0,2:2:0:0:
142,129,227227,1,0,2:2:0:0:
194,148,227324,1,0,2:2:0:0:
229,193,227420,1,0,2:2:0:0:
234,250,227517,1,0,2:2:0:0:
220,334,227613,5,8,2:2:0:0:
272,368,227710,1,0,2:2:0:0:
334,373,227807,1,0,2:2:0:0:
395,364,227903,1,0,2:2:0:0:
450,336,228000,1,0,2:2:0:0:
512,336,228096,1,0,2:2:0:0:
481,257,228193,5,8,2:2:0:0:
451,201,228289,1,0,2:2:0:0:
461,139,228386,1,0,2:2:0:0:
487,82,228483,1,0,2:2:0:0:
469,22,228579,1,0,2:2:0:0:
409,1,228676,1,0,2:2:0:0:
353,64,228772,5,8,2:2:0:0:
305,110,228864,1,0,2:2:0:0:
242,86,228956,1,0,2:2:0:0:
181,116,229049,1,0,2:2:0:0:
117,93,229141,1,0,2:2:0:0:
65,136,229233,1,0,2:2:0:0:
12,70,229326,5,8,2:2:0:0:
78,64,229423,1,0,2:2:0:0:
123,112,229520,1,0,2:2:0:0:
125,178,229617,1,0,2:2:0:0:
156,237,229714,1,0,2:2:0:0:
223,246,229811,1,0,2:2:0:0:
292,206,229909,6,0,B|332:211|332:211|364:256|351:319,1,148.50000453186,6|0,3:2|3:2,3:2:0:0:
262,336,230188,2,0,P|238:335|215:343,3,49.5000015106202,2|0|0|0,2:2|2:2|2:2|2:2,2:2:0:0:
154,273,230467,1,2,2:2:0:0:
144,261,230537,1,0,2:2:0:0:
134,250,230607,5,0,2:2:0:0:
80,255,230677,1,0,2:2:0:0:
47,298,230747,1,8,2:2:0:0:
63,349,230817,1,0,2:2:0:0:
103,366,230887,1,0,2:2:0:0:
127,360,230956,1,0,2:2:0:0:
138,349,231025,6,0,B|153:282|153:282|146:258|146:258|166:185,1,148.50000453186,6|0,3:2|3:2,3:2:0:0:
211,146,231331,1,8,2:2:0:0:
207,132,231402,1,0,2:2:0:0:
207,118,231473,1,0,2:2:0:0:
211,105,231544,1,0,2:2:0:0:
248,84,231615,5,2,2:2:0:0:
273,151,231710,1,0,2:2:0:0:
236,212,231804,1,0,2:2:0:0:
164,221,231899,2,0,P|135:203|106:198,2,60,8|2|2,3:2|3:2|3:2,3:2:0:0:
249,76,232184,6,0,P|279:64|317:63,1,60,6|0,3:2|3:2,3:2:0:0:
379,129,232373,1,8,3:2:0:0:
421,171,232468,1,8,3:2:0:0:
417,230,232562,1,8,3:2:0:0:
391,264,232657,1,8,3:2:0:0:
377,297,232752,1,2,3:2:0:0:
391,329,232847,1,8,3:2:0:0:
406,345,232942,5,4,3:3:0:0:
356,337,233037,1,4,3:3:0:0:
309,357,233131,1,4,3:3:0:0:
259,347,233226,1,4,3:3:0:0:
189,377,233321,6,0,B|173:370|173:370|157:273,1,60,6|0,3:2|3:2,3:2:0:0:
208,230,233511,1,0,2:2:0:0:
218,215,233605,1,0,2:2:0:0:
209,201,233700,1,0,2:2:0:0:
227,183,233795,1,0,2:2:0:0:
228,159,233890,1,0,2:2:0:0:
253,153,233984,1,0,2:2:0:0:
254,123,234079,1,0,2:2:0:0:
321,164,234174,5,0,2:2:0:0:
363,154,234269,1,0,2:2:0:0:
385,123,234364,1,0,2:2:0:0:
386,96,234458,5,0,2:2:0:0:
420,109,234553,1,0,2:2:0:0:
440,147,234648,1,0,2:2:0:0:
427,196,234743,5,0,2:2:0:0:
379,189,234838,1,0,2:2:0:0:
335,209,234932,1,0,2:2:0:0:
312,251,235027,5,0,2:2:0:0:
335,278,235122,1,0,2:2:0:0:
367,278,235217,1,0,2:2:0:0:
388,265,235311,5,0,2:2:0:0:
369,302,235406,1,0,2:2:0:0:
320,315,235501,1,0,2:2:0:0:
275,290,235596,5,0,2:2:0:0:
226,263,235691,1,0,2:2:0:0:
169,273,235785,1,0,2:2:0:0:
136,327,235880,5,0,2:2:0:0:
154,348,235975,1,0,2:2:0:0:
179,351,236070,1,0,2:2:0:0:
194,346,236165,5,0,2:2:0:0:
227,312,236259,1,0,2:2:0:0:
226,263,236354,1,0,2:2:0:0:
188,232,236449,5,0,2:2:0:0:
148,187,236544,1,0,2:2:0:0:
165,129,236638,1,0,2:2:0:0:
217,105,236733,5,0,2:2:0:0:
264,60,236835,1,0,2:2:0:0:
238,0,236937,1,0,2:2:0:0:
164,23,237039,5,8,2:2:0:0:
182,99,237135,1,8,2:2:0:0:
202,175,237231,1,8,2:2:0:0:
166,260,237328,2,0,B|108:250|108:250|79:280|79:280|2:268,1,150,0|0,3:2|3:2,3:2:0:0:
11,383,237906,5,2,2:2:0:0:
32,384,237978,1,0,2:2:0:0:
54,377,238050,1,0,2:2:0:0:
72,362,238122,1,0,2:2:0:0:
80,340,238194,5,2,2:2:0:0:
118,314,238266,1,0,2:2:0:0:
163,305,238338,1,0,2:2:0:0:
207,317,238410,1,0,2:2:0:0:
241,345,238482,5,2,2:2:0:0:
265,348,238555,1,0,2:2:0:0:
287,341,238627,1,0,2:2:0:0:
303,324,238699,1,0,2:2:0:0:
311,303,238771,5,2,2:2:0:0:
348,265,238843,1,0,2:2:0:0:
407,261,238915,1,0,2:2:0:0:
467,303,238987,1,0,2:2:0:0:
428,375,239059,6,0,P|394:325|393:274,1,90,10|0,3:2|3:2,3:2:0:0:
512,189,239338,1,8,3:2:0:0:
212,101,239477,1,8,3:2:0:0:
373,14,239617,2,0,B|384:65|437:89|437:89|419:129|437:170|437:170|411:135|347:135,1,270.000010299683,14|0,3:2|3:2,3:2:0:0:
464,242,240175,5,10,3:2:0:0:
459,301,240271,1,8,3:2:0:0:
427,350,240367,1,8,3:2:0:0:
367,351,240463,5,10,3:2:0:0:
383,293,240559,1,8,3:2:0:0:
369,236,240655,1,8,3:2:0:0:
321,198,240751,5,10,3:2:0:0:
287,247,240848,1,8,3:2:0:0:
234,273,240944,1,8,3:2:0:0:
174,262,241040,5,10,3:2:0:0:
140,212,241136,1,8,3:2:0:0:
87,186,241232,1,8,3:2:0:0:
39,192,241328,5,6,3:3:0:0:
75,162,241425,1,4,3:3:0:0:
122,166,241521,1,4,3:3:0:0:
155,199,241617,1,4,3:3:0:0:
157,246,241713,1,4,3:3:0:0:
128,284,241809,1,4,3:3:0:0:
79,289,241905,6,4,P|53:280|25:255,2,48,4|4|4,3:3|3:3|3:3,3:3:0:0:
30,191,242194,2,4,P|20:165|21:127,2,48,6|4|4,3:3|3:3|3:3,3:3:0:0:
81,298,242482,2,0,B|129:292|129:292|155:307|155:307|244:293,1,135.000005149842,14|0,3:2|3:2,3:2:0:0:
398,317,242758,5,10,3:2:0:0:
411,316,242827,1,8,3:2:0:0:
423,320,242896,1,8,3:2:0:0:
434,327,242965,1,8,3:2:0:0:
455,346,243034,5,12,3:2:0:0:
451,302,243104,1,8,3:2:0:0:
447,257,243173,1,8,3:2:0:0:
444,213,243242,1,8,3:2:0:0:
438,169,243311,2,0,L|385:162,3,45,4|0|0|0,3:3|3:2|3:2|3:2,3:2:0:0:
332,72,243587,5,4,3:3:0:0:
326,103,243654,1,4,3:3:0:0:
320,134,243722,1,4,3:3:0:0:
314,165,243789,1,4,3:3:0:0:
306,194,243857,5,4,3:3:0:0:
237,200,243930,1,4,3:3:0:0:
169,205,244004,1,4,3:3:0:0:
101,212,244077,1,4,3:3:0:0:
32,221,244151,5,10,3:2:0:0:
27,241,244225,1,8,3:2:0:0:
33,259,244298,1,8,3:2:0:0:
41,273,244372,1,8,3:2:0:0:
50,280,244445,5,14,3:2:0:0:
35,288,244519,1,8,3:2:0:0:
21,305,244593,1,8,3:2:0:0:
12,335,244666,1,8,3:2:0:0:
38,381,244740,5,6,3:2:0:0:
128,288,244882,1,0,1:2:0:0:
252,339,245025,1,0,3:2:0:0:
263,180,245168,5,2,1:2:0:0:
169,365,245311,1,0,3:2:0:0:
0,215,245454,1,2,1:2:0:0:
293,259,245597,5,2,3:2:0:0:
114,138,245740,1,2,1:2:0:0:
287,271,245883,1,2,3:2:0:0:
143,25,246026,1,2,1:2:0:0:
191,286,246169,5,2,3:2:0:0:
312,5,246313,1,2,1:2:0:0:
432,274,246456,1,2,3:2:0:0:
208,107,246600,1,2,1:2:0:0:
309,383,246743,5,2,3:2:0:0:
443,75,246887,1,2,1:2:0:0:
509,325,247031,6,0,P|462:299|409:295,1,107.999996704102,2|0,3:2|1:2,3:2:0:0:
194,384,247318,1,2,3:2:0:0:
24,180,247461,2,0,P|90:180|146:154,1,107.999996704102,2|0,1:2|3:2,3:2:0:0:
230,0,247748,1,0,1:2:0:0:
296,251,247892,1,2,3:2:0:0:
61,98,248035,1,2,1:2:0:0:
359,31,248179,6,0,B|391:61|391:61|376:161,1,107.999996704102,2|0,3:2|1:2,3:2:0:0:
141,279,248466,2,0,B|191:308|191:308|241:309,1,107.999996704102,2|0,3:2|1:2,3:2:0:0:
503,240,248753,2,0,B|453:221|453:221|393:243|381:341,1,161.999995056153,2|0,3:2|3:2,3:2:0:0:
439,364,249039,1,0,3:2:0:0:
451,354,249191,1,8,3:2:0:0:
338,126,249344,6,0,B|281:135|281:135|262:125|262:125|204:135,1,135.000005149842,6|8,3:2|3:2,3:2:0:0:
383,190,249629,1,2,3:2:0:0:
118,255,249771,2,0,B|136:215|134:155|134:155|143:181|154:191,1,135.000005149842,10|0,3:2|3:2,3:2:0:0:
157,324,250057,1,10,3:2:0:0:
341,262,250200,1,0,3:2:0:0:
345,295,250271,1,0,3:2:0:0:
350,328,250342,1,8,3:2:0:0:
84,369,250484,5,2,3:2:0:0:
243,343,250627,1,10,3:2:0:0:
7,328,250770,1,2,3:2:0:0:
210,259,250912,1,10,3:2:0:0:
134,168,251055,1,2,3:2:0:0:
83,280,251198,1,10,3:2:0:0:
36,36,251340,1,2,3:2:0:0:
94,277,251483,1,10,3:2:0:0:
296,277,251626,6,0,L|458:285,1,135.000005149842,2|8,3:2|3:2,3:2:0:0:
263,381,251911,1,0,3:2:0:0:
219,144,252054,2,0,L|57:152,1,135.000005149842,10|0,3:2|3:2,3:2:0:0:
244,41,252339,1,8,3:2:0:0:
116,272,252482,2,0,B|92:257|92:257|82:134,1,135.000005149842,2|8,3:2|3:2,3:2:0:0:
28,313,252767,1,2,3:2:0:0:
209,245,252909,1,10,3:2:0:0:
124,70,253052,6,4,P|97:57|59:51,3,67.5000025749208,4|4|4|4,3:3|3:3|3:3|3:3,3:3:0:0:
169,146,253337,1,8,3:2:0:0:
192,156,253409,1,8,3:2:0:0:
233,157,253480,1,8,3:2:0:0:
283,138,253551,1,8,3:2:0:0:
331,113,253623,2,0,P|362:118|388:135,1,45,14|0,3:2|3:2,3:2:0:0:
419,261,253765,1,8,3:2:0:0:
409,271,253837,1,8,3:2:0:0:
398,278,253908,6,0,P|351:243|343:185,1,107.999996704102,2|0,3:2|1:2,3:2:0:0:
461,101,254193,1,0,3:2:0:0:
422,360,254336,2,0,P|363:363|320:324,1,107.999996704102,2|0,1:2|3:2,3:2:0:0:
421,178,254621,1,0,1:2:0:0:
264,242,254764,1,2,3:2:0:0:
398,278,254907,1,2,1:2:0:0:
233,157,255049,5,2,3:2:0:0:
216,367,255192,1,2,1:2:0:0:
130,98,255335,1,2,3:2:0:0:
237,384,255477,1,2,1:2:0:0:
332,171,255620,5,2,3:2:0:0:
40,308,255763,1,2,1:2:0:0:
224,22,255905,1,2,3:2:0:0:
273,296,256048,1,2,1:2:0:0:
421,30,256191,5,0,3:2:0:0:
421,30,256262,1,0,3:2:0:0:
421,30,256333,1,0,1:2:0:0:
194,206,256476,1,2,3:2:0:0:
490,292,256618,2,0,L|510:144,1,107.999996704102,2|0,1:2|3:2,3:2:0:0:
303,0,256904,5,2,1:2:0:0:
369,223,257046,1,2,3:2:0:0:
124,149,257189,1,2,1:2:0:0:
182,378,257332,2,0,P|229:353|249:304,1,107.999996704102,2|0,3:2|1:2,3:2:0:0:
41,158,257617,5,0,0:0:0:0:
31,153,257689,1,0,0:0:0:0:
27,131,257760,1,0,0:0:0:0:
49,104,257831,1,0,0:0:0:0:
49,60,257903,2,0,B|46:46|37:25|37:25|104:36|160:66|160:66|172:45|172:45|207:65|263:70|263:70|232:74|215:97,1,337.500012874604,2|0,3:2|3:2,3:2:0:0:
273,150,258331,1,8,3:2:0:0:
139,353,258474,6,0,B|117:217,1,135.000005149842,6|8,3:2|3:2,3:2:0:0:
273,63,258759,1,0,3:2:0:0:
330,276,258901,2,0,B|362:143,1,135.000005149842,10|0,3:2|3:2,3:2:0:0:
487,256,259187,1,8,3:2:0:0:
402,364,259330,1,0,3:2:0:0:
368,367,259401,1,0,3:2:0:0:
334,371,259473,1,8,3:2:0:0:
209,296,259615,5,2,3:2:0:0:
382,221,259758,1,10,3:2:0:0:
174,220,259901,1,2,3:2:0:0:
401,342,260043,1,10,3:2:0:0:
299,72,260186,5,2,3:2:0:0:
212,289,260328,1,10,3:2:0:0:
464,199,260471,2,0,P|416:144|353:135,1,135.000005149842,2|8,3:2|3:2,3:2:0:0:
126,266,260756,2,0,P|173:211|236:202,1,135.000005149842,2|8,3:2|3:2,3:2:0:0:
335,365,261042,1,0,3:2:0:0:
126,360,261184,2,0,L|93:187,1,135.000005149842,10|0,3:2|3:2,3:2:0:0:
30,379,261470,5,8,3:2:0:0:
235,156,261612,2,0,L|211:291,1,135.000005149842,2|8,3:2|3:2,3:2:0:0:
108,73,261898,1,0,3:2:0:0:
322,74,262040,2,0,L|346:218,1,135.000005149842,10|0,3:2|3:2,3:2:0:0:
450,12,262326,1,8,3:2:0:0:
512,231,262468,2,0,P|476:264|379:271,1,135.000005149842,2|8,3:2|3:2,3:2:0:0:
459,4,262753,1,0,3:2:0:0:
320,345,262896,6,0,B|302:238|302:238|326:187|326:187|299:58,1,270.000010299683,14|0,3:2|3:2,3:2:0:0:
210,245,263328,5,8,3:2:0:0:
210,245,263398,1,8,3:2:0:0:
210,245,263469,2,0,L|168:262,1,45,8|0,3:2|3:2,3:2:0:0:
41,305,263611,1,8,3:2:0:0:
41,305,263682,1,8,3:2:0:0:
41,305,263753,2,0,L|48:261,1,45,8|0,3:2|3:2,3:2:0:0:
73,128,263895,1,8,3:2:0:0:
73,128,263966,1,8,3:2:0:0:
73,128,264037,2,0,L|132:182,1,45,8|0,3:2|3:2,3:2:0:0:
210,245,264179,6,0,B|233:262|233:262|311:249,1,101.250003862381,14|0,3:2|3:2,3:2:0:0:
336,185,264465,1,0,3:2:0:0:
349,167,264535,1,8,2:2:0:0:
351,144,264608,1,0,3:2:0:0:
330,111,264678,1,8,2:2:0:0:
280,101,264751,1,0,3:2:0:0:
245,138,264821,1,8,2:2:0:0:
245,188,264893,1,0,3:2:0:0:
272,230,264964,1,8,2:2:0:0:
309,262,265036,1,0,3:2:0:0:
323,310,265108,1,8,2:2:0:0:
309,358,265179,1,0,3:2:0:0:
264,381,265251,1,8,2:2:0:0:
213,373,265322,5,2,3:2:0:0:
225,324,265393,1,8,2:2:0:0:
270,291,265465,1,0,3:2:0:0:
326,283,265536,1,8,2:2:0:0:
379,300,265608,1,0,3:2:0:0:
435,299,265679,1,8,2:2:0:0:
483,269,265751,1,0,3:2:0:0:
505,216,265822,1,8,2:2:0:0:
498,159,265893,5,2,3:2:0:0:
486,154,265965,1,8,2:2:0:0:
473,154,266036,1,0,3:2:0:0:
461,158,266108,1,8,2:2:0:0:
450,165,266179,5,2,3:2:0:0:
422,122,266251,1,8,2:2:0:0:
373,109,266322,1,0,3:2:0:0:
324,122,266393,1,8,2:2:0:0:
294,165,266465,5,2,3:2:0:0:
254,206,266536,1,8,2:2:0:0:
188,209,266608,1,0,3:2:0:0:
132,174,266679,1,8,2:2:0:0:
115,111,266751,1,0,3:2:0:0:
136,48,266822,1,8,2:2:0:0:
194,21,266893,1,0,3:2:0:0:
258,30,266965,1,8,2:2:0:0:
309,67,267036,6,0,P|320:108|311:162,3,62.9999980773926,2|8|0|8,3:2|2:2|3:2|2:2,3:2:0:0:
362,249,267321,2,0,P|364:210|388:168,3,62.9999980773926,2|8|0|8,3:2|2:2|3:2|2:2,3:2:0:0:
461,278,267608,5,2,3:2:0:0:
441,330,267679,1,8,2:2:0:0:
390,355,267751,1,0,3:2:0:0:
334,342,267822,1,8,2:2:0:0:
287,317,267893,1,2,3:2:0:0:
247,316,267965,1,8,2:2:0:0:
221,324,268036,1,0,3:2:0:0:
211,334,268108,1,8,2:2:0:0:
209,341,268179,5,2,3:2:0:0:
175,304,268251,1,8,2:2:0:0:
127,292,268322,1,0,3:2:0:0:
77,297,268393,1,8,2:2:0:0:
38,329,268465,6,0,L|29:253,1,62.9999980773926,2|8,3:2|2:2,3:2:0:0:
167,224,268608,2,0,L|179:144,1,62.9999980773926,2|8,3:2|2:2,3:2:0:0:
65,33,268751,5,2,3:2:0:0:
48,33,268822,1,8,2:2:0:0:
27,47,268893,1,0,3:2:0:0:
23,95,268965,1,8,2:2:0:0:
64,131,269036,1,0,3:2:0:0:
119,129,269108,1,8,2:2:0:0:
165,99,269179,1,0,3:2:0:0:
197,53,269251,1,8,2:2:0:0:
248,31,269322,5,2,3:2:0:0:
301,30,269393,1,8,2:2:0:0:
347,56,269465,1,0,3:2:0:0:
356,91,269536,1,8,2:2:0:0:
350,120,269608,5,2,3:2:0:0:
339,142,269679,1,8,2:2:0:0:
334,166,269751,1,0,3:2:0:0:
339,180,269822,1,8,2:2:0:0:
350,192,269893,5,2,3:2:0:0:
390,164,269965,1,8,2:2:0:0:
395,115,270036,1,0,3:2:0:0:
366,74,270108,1,8,2:2:0:0:
316,54,270179,1,0,3:2:0:0:
257,55,270251,1,8,2:2:0:0:
208,89,270322,1,0,3:2:0:0:
160,117,270393,1,8,2:2:0:0:
105,110,270464,6,0,P|86:81|81:45,3,62.9999980773926,2|8|0|8,3:2|2:2|3:2|2:2,3:2:0:0:
188,205,270750,2,0,P|183:239|164:270,3,62.9999980773926,2|8|0|8,3:2|2:2|3:2|2:2,3:2:0:0:
252,303,271036,5,2,3:2:0:0:
284,313,271107,1,8,2:2:0:0:
326,292,271179,1,0,3:2:0:0:
359,245,271250,1,8,2:2:0:0:
348,189,271322,1,0,3:2:0:0:
315,143,271393,1,8,2:2:0:0:
270,106,271465,1,0,3:2:0:0:
261,50,271536,1,8,2:2:0:0:
292,1,271608,5,2,3:2:0:0:
333,27,271679,1,8,2:2:0:0:
348,67,271751,1,0,3:2:0:0:
347,101,271822,1,8,2:2:0:0:
330,124,271893,5,2,3:2:0:0:
304,114,271964,1,8,2:2:0:0:
296,92,272036,1,0,3:2:0:0:
299,78,272107,1,8,2:2:0:0:
303,73,272179,5,2,3:2:0:0:
356,52,272251,1,8,2:2:0:0:
410,64,272322,1,0,3:2:0:0:
448,104,272393,1,8,2:2:0:0:
458,160,272464,2,0,P|451:179|436:197,3,36,10|8|0|8,3:2|2:2|3:2|2:2,3:2:0:0:
372,270,272749,5,8,3:2:0:0:
329,266,272821,1,8,2:2:0:0:
286,262,272893,1,8,3:2:0:0:
242,258,272964,1,8,2:2:0:0:
198,255,273035,6,0,L|179:316,1,36,8|0,3:2|3:2,3:2:0:0:
311,186,273178,2,0,L|300:152,1,36,8|0,3:2|3:2,3:2:0:0:
108,94,273321,2,0,P|156:157|227:153,1,135,14|0,3:2|3:2,3:2:0:0:
303,73,273607,5,2,3:2:0:0:
340,40,273678,1,8,2:2:0:0:
389,32,273749,1,0,3:2:0:0:
436,49,273821,1,8,2:2:0:0:
462,91,273892,5,2,3:2:0:0:
445,109,273964,1,8,2:2:0:0:
422,120,274035,1,0,3:2:0:0:
398,124,274107,1,8,2:2:0:0:
372,119,274178,5,2,3:2:0:0:
391,151,274249,1,8,2:2:0:0:
402,187,274321,1,0,3:2:0:0:
401,224,274392,1,8,2:2:0:0:
389,260,274464,5,2,3:2:0:0:
349,228,274535,1,8,2:2:0:0:
300,214,274607,1,0,3:2:0:0:
249,216,274678,1,8,2:2:0:0:
208,229,274749,1,0,3:2:0:0:
179,257,274821,1,8,2:2:0:0:
143,264,274892,1,0,3:2:0:0:
117,252,274964,1,8,2:2:0:0:
108,233,275037,6,0,L|116:171,3,62.9999980773926,2|8|0|8,3:2|2:2|3:2|2:2,3:2:0:0:
14,165,275321,2,0,L|7:103,3,62.9999980773926,2|8|0|8,3:2|2:2|3:2|2:2,3:2:0:0:
80,50,275608,5,2,3:2:0:0:
95,37,275679,1,8,2:2:0:0:
124,31,275750,1,0,3:2:0:0:
157,45,275822,1,8,2:2:0:0:
184,87,275893,1,0,3:2:0:0:
173,144,275965,1,8,2:2:0:0:
127,187,276036,1,0,3:2:0:0:
101,246,276108,1,8,2:2:0:0:
122,305,276179,5,2,3:2:0:0:
180,328,276250,1,8,2:2:0:0:
239,305,276322,1,0,3:2:0:0:
269,250,276393,1,8,2:2:0:0:
318,210,276465,5,2,3:2:0:0:
380,201,276536,1,8,2:2:0:0:
427,219,276608,1,0,3:2:0:0:
450,260,276679,1,8,2:2:0:0:
449,293,276750,5,2,3:2:0:0:
423,290,276822,1,8,2:2:0:0:
394,268,276893,1,0,3:2:0:0:
371,229,276965,1,8,2:2:0:0:
372,185,277036,1,0,3:2:0:0:
389,144,277108,1,8,2:2:0:0:
426,121,277179,1,0,3:2:0:0:
466,104,277250,1,8,2:2:0:0:
499,74,277322,1,0,3:2:0:0:
510,44,277393,1,8,2:2:0:0:
503,25,277465,1,0,3:2:0:0:
494,15,277536,1,8,2:2:0:0:
484,11,277608,6,0,L|407:0,3,62.9999980773926,2|8|0|8,3:2|2:2|3:2|2:2,3:2:0:0:
360,134,277893,2,0,L|437:123,3,62.9999980773926,2|8|0|8,3:2|2:2|3:2|2:2,3:2:0:0:
248,66,278179,6,0,P|270:88|279:127,1,62.9999980773926,2|8,3:2|2:2,3:2:0:0:
132,218,278322,2,0,P|140:186|170:159,1,62.9999980773926,2|8,3:2|2:2,3:2:0:0:
314,261,278465,2,0,P|283:269|244:257,1,62.9999980773926,2|8,3:2|2:2,3:2:0:0:
253,58,278608,2,0,P|274:83|280:126,1,62.9999980773926,2|8,3:2|2:2,3:2:0:0:
125,214,278750,2,0,P|134:184|156:162,1,62.9999980773926,2|8,3:2|2:2,3:2:0:0:
320,257,278893,2,0,P|289:265|259:259,1,62.9999980773926,2|8,3:2|2:2,3:2:0:0:
115,210,279036,5,2,3:2:0:0:
108,160,279108,1,8,2:2:0:0:
102,110,279179,1,0,3:2:0:0:
96,59,279250,1,8,2:2:0:0:
85,9,279322,6,0,L|66:79,1,62.9999980773926,2|8,3:2|2:2,3:2:0:0:
182,78,279465,2,0,L|201:148,1,62.9999980773926,2|8,3:2|2:2,3:2:0:0:
16,134,279608,2,0,L|-3:204,1,62.9999980773926,2|8,3:2|2:2,3:2:0:0:
250,198,279750,2,0,L|269:268,1,62.9999980773926,2|8,3:2|2:2,3:2:0:0:
75,354,279894,5,2,3:2:0:0:
71,366,279964,1,8,2:2:0:0:
53,378,280037,1,2,3:2:0:0:
17,355,280107,1,8,3:2:0:0:
21,304,280179,5,10,3:2:0:0:
62,276,280249,1,8,3:2:0:0:
114,286,280319,1,10,3:2:0:0:
156,319,280390,1,8,3:2:0:0:
210,324,280460,2,8,P|228:317|250:299,3,45,8|8|8|8,3:2|3:2|3:2|3:2,3:2:0:0:
374,292,280741,5,10,3:2:0:0:
330,260,280811,1,8,3:2:0:0:
313,209,280881,1,8,3:2:0:0:
317,154,280950,1,8,3:2:0:0:
343,106,281022,2,8,P|367:132|372:156,3,45,10|8|8|8,3:2|3:2|3:2|3:2,3:2:0:0:
239,179,281303,5,14,3:2:0:0:
185,173,281373,1,0,3:2:0:0:
131,165,281443,1,0,3:2:0:0:
77,156,281512,1,0,3:2:0:0:
23,149,281584,5,6,3:3:0:0:
42,130,281656,1,4,3:3:0:0:
53,110,281728,1,4,3:3:0:0:
57,90,281800,1,4,3:3:0:0:
56,74,281872,5,4,3:3:0:0:
74,78,281944,1,4,3:3:0:0:
92,78,282016,1,4,3:3:0:0:
110,73,282088,1,4,3:3:0:0:
125,62,282161,5,8,3:2:0:0:
132,117,282233,1,8,3:2:0:0:
139,172,282305,1,8,3:2:0:0:
146,228,282377,1,8,3:2:0:0:
167,303,282449,6,0,B|201:279|201:279|387:304,1,202.500007724762,14|0,3:2|3:2,3:2:0:0:
439,347,282739,2,0,P|489:307|486:241,1,135.000005149842,0|8,3:2|3:2,3:2:0:0:
312,141,283030,1,2,3:2:0:0:
339,320,283176,1,8,3:2:0:0:
409,79,283321,1,2,3:2:0:0:
328,335,283467,1,8,3:2:0:0:
59,257,283612,6,0,B|96:257|120:287|120:287|149:225|211:214|211:214|170:248|175:303,1,270.000010299683,2|0,3:2|3:2,3:2:0:0:
228,327,284040,1,8,3:2:0:0:
98,182,284183,1,0,3:2:0:0:
157,369,284326,1,8,3:2:0:0:
213,137,284469,1,2,3:2:0:0:
379,291,284612,6,0,P|345:287|313:296,1,67.5000025749208,8|0,3:2|3:2,3:2:0:0:
459,377,284754,2,0,B|465:320|465:320|471:315|471:315|479:233,1,135.000005149842,6|8,3:2|3:2,3:2:0:0:
347,145,285040,1,0,3:2:0:0:
347,145,285112,1,0,3:2:0:0:
347,145,285183,1,8,3:2:0:0:
456,6,285326,6,0,B|470:42|470:42|445:153,1,135.000005149842,2|8,3:2|3:2,3:2:0:0:
265,187,285612,1,0,3:2:0:0:
225,182,285684,1,0,3:2:0:0:
185,178,285755,1,8,3:2:0:0:
26,304,285897,6,0,B|102:285|102:285|143:300|143:300|235:281,1,202.500007724762,2|0,3:2|3:2,3:2:0:0:
327,336,286183,2,0,L|343:270,1,67.5000025749208,0|0,3:2|3:2,3:2:0:0:
178,110,286326,2,0,L|184:177,1,67.5000025749208,10|0,3:2|3:2,3:2:0:0:
454,264,286469,2,0,P|489:185|423:127,1,135.000005149842,2|8,3:2|3:2,3:2:0:0:
316,28,286754,1,2,3:2:0:0:
363,332,286897,1,10,3:2:0:0:
117,137,287040,6,0,B|132:211|132:211|166:245|166:245|184:352,1,202.500007724762,6|8,3:2|3:2,3:2:0:0:
123,384,287326,1,0,3:2:0:0:
208,158,287469,1,8,3:2:0:0:
6,204,287611,2,0,P|33:264|110:282,1,135.000005149842,2|8,3:2|3:2,3:2:0:0:
260,351,287897,1,2,3:2:0:0:
300,347,287969,1,0,3:2:0:0:
339,343,288040,1,8,3:2:0:0:
488,219,288183,6,0,B|475:169|475:169|427:312,1,202.500007724762,2|0,3:2|3:2,3:2:0:0:
477,371,288469,1,0,3:2:0:0:
311,263,288611,1,8,3:2:0:0:
471,86,288754,2,0,B|421:105|421:105|314:55,1,135.000005149842,2|8,3:2|3:2,3:2:0:0:
85,233,289040,2,0,B|160:251|160:251|290:186,1,202.500007724762,2|0,3:2|3:2,3:2:0:0:
330,145,289327,6,0,B|352:121|329:84|329:84|275:129|300:183|300:183|323:247|264:300,1,270.000010299683,6|0,3:2|3:2,3:2:0:0:
148,333,289755,1,8,3:2:0:0:
21,174,289898,2,0,B|32:109|32:109|50:92|50:92|60:24,1,135.000005149842,2|8,3:2|3:2,3:2:0:0:
210,126,290184,1,0,3:2:0:0:
178,152,290255,1,0,3:2:0:0:
137,155,290327,1,8,3:2:0:0:
358,73,290470,6,0,B|399:93|399:93|369:286,1,202.500007724762,2|0,3:2|3:2,3:2:0:0:
303,296,290755,1,8,3:2:0:0:
292,313,290827,1,8,3:2:0:0:
291,333,290898,1,8,3:2:0:0:
304,348,290970,1,8,3:2:0:0:
320,359,291041,5,8,3:2:0:0:
344,344,291112,1,8,3:2:0:0:
382,331,291184,1,8,3:2:0:0:
422,335,291255,1,8,3:2:0:0:
459,351,291327,1,8,3:2:0:0:
501,337,291398,1,8,3:2:0:0:
506,278,291470,1,8,3:2:0:0:
453,241,291541,1,8,3:2:0:0:
384,252,291612,6,0,P|368:177|366:118,1,135.000005149842,6|8,3:2|3:2,3:2:0:0:
485,0,291897,1,0,3:2:0:0:
290,92,292040,1,8,3:2:0:0:
469,95,292183,5,2,3:2:0:0:
202,11,292326,1,8,3:2:0:0:
245,189,292469,1,0,3:2:0:0:
189,6,292611,1,8,3:2:0:0:
458,197,292754,6,0,P|388:207|310:258,1,135.000005149842,0|8,3:2|3:2,3:2:0:0:
298,384,293040,1,0,3:2:0:0:
457,288,293183,1,8,3:2:0:0:
206,366,293326,2,0,P|185:325|182:221,1,135.000005149842,2|8,3:2|3:2,3:2:0:0:
36,34,293611,2,0,P|57:97|123:118,1,135.000005149842,2|8,3:2|3:2,3:2:0:0:
338,99,293897,6,0,B|329:188|329:188|304:210|304:210|293:323,1,202.500007724762,6|0,3:2|3:2,3:2:0:0:
333,361,294183,1,0,3:2:0:0:
373,358,294254,1,0,3:2:0:0:
394,323,294326,1,8,3:2:0:0:
249,143,294469,6,0,P|188:170|190:244,1,135.000005149842,2|8,3:2|3:2,3:2:0:0:
394,323,294754,2,0,P|387:258|327:234,1,135.000005149842,2|8,3:2|3:2,3:2:0:0:
44,361,295040,6,0,P|150:322|339:336,1,270.000010299683,6|0,3:2|3:2,3:2:0:0:
462,197,295469,1,8,3:2:0:0:
327,234,295611,2,0,P|315:181|312:99,1,135.000005149842,0|8,3:2|3:2,3:2:0:0:
459,0,295897,1,2,3:2:0:0:
421,307,296040,1,10,3:2:0:0:
152,221,296183,6,0,B|132:196|132:196|183:195|244:166,1,135.000005149842,6|8,3:2|3:2,3:2:0:0:
406,227,296469,1,2,2:2:0:0:
427,192,296540,1,2,2:2:0:0:
430,151,296611,1,10,2:2:0:0:
415,112,296683,1,2,2:2:0:0:
381,89,296754,1,2,2:2:0:0:
431,314,296897,1,10,2:2:0:0:
203,257,297040,5,2,2:2:0:0:
235,249,297111,1,2,2:2:0:0:
267,250,297183,1,10,2:2:0:0:
296,265,297254,1,2,2:2:0:0:
316,289,297326,1,2,2:2:0:0:
183,175,297470,1,8,2:2:0:0:
73,306,297614,5,2,2:2:0:0:
84,319,297684,1,2,2:2:0:0:
100,326,297757,1,10,2:2:0:0:
117,329,297829,1,2,2:2:0:0:
134,328,297901,1,2,2:2:0:0:
24,243,298046,1,10,2:2:0:0:
112,175,298191,1,2,2:2:0:0:
51,101,298335,1,8,2:2:0:0:
231,17,298478,5,14,3:2:0:0:
285,3,298573,1,8,3:2:0:0:
345,25,298668,1,8,3:2:0:0:
389,80,298763,1,8,3:2:0:0:
444,103,298858,1,8,3:2:0:0:
487,98,298953,1,8,3:2:0:0:
509,76,299048,5,8,3:2:0:0:
512,60,299144,1,8,3:2:0:0:
507,53,299239,1,8,3:2:0:0:
499,52,299334,2,0,P|491:69|489:92,2,35.9999989013672,0|8|8,3:2|3:2|3:2,3:2:0:0:
437,0,299619,6,0,L|463:230,1,180,12|0,3:2|3:2,3:2:0:0:
498,248,300000,1,8,3:2:0:0:
482,307,300095,1,8,3:2:0:0:
437,325,300191,5,8,3:2:0:0:
394,325,300285,1,8,3:2:0:0:
372,309,300380,1,8,3:2:0:0:
370,290,300476,2,0,P|375:269|386:253,2,35.9999989013672,8|8|8,3:2|3:2|3:2,3:2:0:0:
241,159,300761,5,12,3:2:0:0:
174,185,300856,1,8,3:2:0:0:
153,254,300951,1,8,3:2:0:0:
192,314,301046,1,8,3:2:0:0:
261,332,301142,1,8,3:2:0:0:
323,296,301237,1,8,3:2:0:0:
331,223,301332,5,12,3:2:0:0:
289,164,301427,1,8,3:2:0:0:
260,97,301522,1,8,3:2:0:0:
285,29,301617,1,8,3:2:0:0:
354,9,301713,1,8,3:2:0:0:
420,35,301808,1,8,3:2:0:0:
443,102,301904,5,12,3:2:0:0:
404,162,302002,1,8,3:2:0:0:
331,160,302101,1,8,3:2:0:0:
264,132,302199,1,8,3:2:0:0:
192,135,302298,1,8,3:2:0:0:
133,177,302396,1,8,3:2:0:0:
121,248,302495,5,8,3:2:0:0:
158,309,302593,1,8,3:2:0:0:
225,284,302692,1,8,3:2:0:0:
277,332,302790,1,8,3:2:0:0:
335,290,302889,1,8,3:2:0:0:
389,337,302987,1,8,3:2:0:0:
453,305,303086,5,14,3:2:0:0:
256,192,303181,12,0,304228,3:2:0:0:
