osu file format v14

[General]
AudioFilename: Winter Madness.mp3
AudioLeadIn: 0
PreviewTime: 82923
Countdown: 1
SampleSet: Normal
StackLeniency: 0.7
Mode: 0
LetterboxInBreaks: 0
WidescreenStoryboard: 1

[Editor]
Bookmarks: 13783,25783,37783,51497,65211,68636,69779,74354,77207,78921,83783,97221,100640,114354,126354,132376,132447,132519,132590,132662,132733,132805,132876,132947,140069,147521,147806,149783,166926,174239,185211,186957,187029,187100,187172,187243,187314,187386,187457,211749,211820,211892,211963,212035,212106,212177,212249,212320,212678,212821,212963,213106,213249,213392,213535,213678,213821,235540,235683,235826,235969,236112,236255,236398,236540,236683,236826,236969,237112,237255,244640,264069,282354,302926
DistanceSpacing: 0.5
BeatDivisor: 2
GridSize: 4
TimelineZoom: 1.8

[Metadata]
Title:Winter Madness
TitleUnicode:Winter Madness
Artist:Wintersun
ArtistUnicode:Wintersun
Creator:BOUYAAA
Version:t i m i n g
Source:
Tags:Jorge Jacinto melodic power death metal
BeatmapID:872015
BeatmapSetID:377821

[Difficulty]
HPDrainRate:6
CircleSize:4.2
OverallDifficulty:8.5
ApproachRate:9
SliderMultiplier:1.6
SliderTickRate:1

[Events]
//Background and Video events
0,0,"Jorge_Jacinto_11.jpg",0,0
//Break Periods
2,167188,168705
//Storyboard Layer 0 (Background)
//Storyboard Layer 1 (Fail)
//Storyboard Layer 2 (Pass)
//Storyboard Layer 3 (Foreground)
//Storyboard Sound Samples

[TimingPoints]
79,285.714285714286,3,1,1,50,1,0
81226,-125,3,2,1,50,0,0
82937,-100,3,2,1,50,0,0
83509,-142.857142857143,4,2,1,50,0,0
83795,-76.9230769230769,4,2,1,50,0,1
97221,287.081339712919,3,1,1,50,1,0
100657,-100,3,2,1,50,0,0
100665,281.69014084507,3,1,1,50,1,0
102355,291.26213592233,3,1,1,50,1,0
103228,285.714285714286,3,1,1,50,1,0
110942,288.461538461538,3,1,1,50,1,0
111807,284.36018957346,3,1,1,50,1,0
113513,285.714285714286,3,1,1,50,1,0
114661,-125,5,2,1,50,0,0
117234,-100,5,2,1,50,0,0
123226,-125,5,2,1,50,0,0
123235,-100,5,2,1,50,0,0
125512,292.682926829268,3,1,1,50,1,0
126375,-125,3,2,1,50,0,0
126390,285.714285714286,3,1,1,50,1,0
128104,285.714285714286,3,1,1,50,1,0
129809,-100,3,2,1,50,0,1
130023,-100,3,2,1,50,0,0
133239,-125,3,2,1,50,0,0
136668,-100,3,2,1,50,0,1
136883,-100,3,2,1,50,0,0
148675,288.461538461538,3,1,1,50,1,0
149828,282.352941176471,3,1,1,50,1,0
149828,-125,4,2,1,50,0,0
150113,-76.9230769230769,4,2,1,50,0,1
152086,295.566502463054,3,1,1,50,1,0
152677,283.018867924528,3,1,1,50,1,0
154375,288.461538461538,3,1,1,50,1,0
157259,285.714285714286,3,1,1,50,1,0
160687,283.018867924528,3,1,1,50,1,0
162385,285.714285714286,3,1,1,50,1,0
164956,292.682926829268,3,1,1,50,1,0
165834,284.36018957346,3,1,1,50,1,0
166963,-125,4,2,1,50,0,0
169246,285.714285714286,3,1,1,50,1,0
170103,288.461538461538,3,1,1,50,1,0
171545,287.081339712919,3,1,1,50,1,0
172406,281.69014084507,3,1,1,50,1,0
174377,289.855072463768,3,1,1,50,1,0
175536,300,3,1,1,50,1,0
176136,283.018867924528,3,1,1,50,1,0
180947,295.566502463054,3,1,1,50,1,0
181538,285.714285714286,3,1,1,50,1,0
182966,288.461538461538,3,1,1,50,1,0
184696,287.081339712919,3,1,1,50,1,0
185270,300,3,1,1,50,1,0
185270,-300,4,2,1,50,0,0
185870,273.972602739726,3,1,1,50,1,0
186398,-100,4,2,1,50,0,0
186417,283.018867924528,3,1,1,50,1,0
189813,298.507462686567,3,1,1,50,1,0
190410,285.714285714286,3,1,1,50,1,0
192124,283.018867924528,3,1,1,50,1,0
192409,-100,4,2,1,50,0,0
192690,292.682926829268,3,1,1,50,1,0
192695,-100,4,2,1,50,0,0
193275,285.714285714286,3,1,1,50,1,0
194703,280.373831775701,3,1,1,50,1,0
195824,285.714285714286,3,1,1,50,1,0
197538,288.461538461538,3,1,1,50,1,0
202389,-125,4,2,1,50,0,0
244685,-100,4,2,1,50,0,0
282409,-142.857142857143,4,2,1,50,0,0
282694,-76.9230769230769,4,2,1,50,0,1
298412,-100,4,2,1,50,0,1
302970,-142.857142857143,4,2,1,50,0,0

[Colours]
Combo1 : 253,175,123
Combo2 : 155,171,213
Combo3 : 142,189,198
Combo4 : 153,174,249
Combo5 : 157,209,249
Combo6 : 254,109,210
Combo7 : 214,89,255
Combo8 : 255,215,119

[HitObjects]
140,248,80,6,0,L|132:152,1,80,2|0,0:0|0:0,0:0:0:0:
56,312,365,1,0,0:0:0:0:
80,336,437,1,0,0:0:0:0:
108,348,508,1,0,0:0:0:0:
140,348,580,1,0,0:0:0:0:
172,340,651,2,0,B|216:332|216:332|280:340,1,80
424,300,937,6,0,P|368:304|328:292,1,80,2|0,0:0|0:0,0:0:0:0:
248,232,1223,1,0,0:0:0:0:
256,200,1294,1,0,0:0:0:0:
264,168,1366,1,0,0:0:0:0:
272,136,1437,1,0,0:0:0:0:
280,104,1508,2,0,B|324:96|324:96|384:104,1,80
168,156,1794,6,0,P|96:164|64:152,1,80,2|0,0:0|0:0,0:0:0:0:
35,51,2080,1,0,0:0:0:0:
61,43,2151,1,0,0:0:0:0:
89,40,2223,1,0,0:0:0:0:
116,43,2294,1,0,0:0:0:0:
143,50,2366,2,0,B|196:56|196:56|243:48,1,80
360,128,2651,6,0,P|372:72|392:28,1,80
436,212,2937,1,0,0:0:0:0:
408,228,3009,1,0,0:0:0:0:
376,236,3080,1,0,0:0:0:0:
344,236,3152,1,0,0:0:0:0:
316,224,3223,2,0,L|220:212,1,80,0|0,0:0|0:0,0:0:0:0:
64,312,3509,70,0,P|124:312|172:288,1,80,2|0,0:0|0:0,0:0:0:0:
240,180,3794,1,0,0:0:0:0:
232,148,3866,1,0,0:0:0:0:
224,116,3937,1,0,0:0:0:0:
120,96,4080,2,0,P|104:152|104:208,1,80
168,316,4366,6,0,L|272:324,1,80,2|0,0:0|0:0,0:0:0:0:
408,256,4652,1,0,0:0:0:0:
376,248,4723,1,0,0:0:0:0:
344,248,4795,1,0,0:0:0:0:
480,336,4938,2,0,P|504:308|508:232,1,80
348,184,5224,6,0,P|324:212|320:288,1,80,2|0,0:0|0:0,0:0:0:0:
460,160,5509,1,0,0:0:0:0:
448,132,5581,1,0,0:0:0:0:
428,108,5652,1,0,0:0:0:0:
404,88,5723,1,0,0:0:0:0:
372,76,5795,1,0,0:0:0:0:
340,76,5866,1,0,0:0:0:0:
308,84,5938,1,0,0:0:0:0:
284,104,6009,1,0,0:0:0:0:
256,116,6081,6,0,L|184:108,3,40
180,208,6366,2,0,L|140:212,3,40
36,152,6652,2,0,L|28:224,3,40
108,36,6938,70,0,P|124:76|132:132,1,80
108,248,7225,1,0,0:0:0:0:
100,280,7296,1,0,0:0:0:0:
100,312,7366,1,0,0:0:0:0:
112,340,7439,1,0,0:0:0:0:
136,360,7510,2,0,L|232:352,1,80
384,272,7796,6,0,P|328:268|276:284,1,80
460,348,8081,1,0,0:0:0:0:
480,320,8152,1,0,0:0:0:0:
488,288,8224,1,0,0:0:0:0:
488,256,8295,1,0,0:0:0:0:
480,224,8367,2,0,B|472:184|472:184|476:128,1,80
324,60,8653,6,0,L|336:164,1,80
232,272,8938,1,0,0:0:0:0:
216,244,9010,1,0,0:0:0:0:
212,212,9081,1,0,0:0:0:0:
220,180,9153,1,0,0:0:0:0:
240,156,9224,2,0,L|132:148,1,80
340,224,9510,6,0,P|352:272|344:324,1,80
368,124,9796,1,0,0:0:0:0:
400,120,9867,1,0,0:0:0:0:
432,116,9939,1,0,0:0:0:0:
252,68,10082,2,0,L|144:60,1,80
24,208,10368,70,0,P|88:216|128:192,1,80
240,152,10653,1,0,0:0:0:0:
269,140,10724,1,0,0:0:0:0:
301,136,10796,1,0,0:0:0:0:
331,144,10867,1,0,0:0:0:0:
368,160,10939,2,0,B|416:168|416:168|460:160,1,80
428,12,11225,6,0,P|408:68|408:112,1,80
408,244,11511,1,0,0:0:0:0:
420,272,11583,1,0,0:0:0:0:
424,304,11654,1,0,0:0:0:0:
416,336,11726,1,0,0:0:0:0:
392,356,11796,2,0,L|300:348,1,80
172,316,12083,5,0,0:0:0:0:
164,312,12154,1,0,0:0:0:0:
156,308,12226,1,0,0:0:0:0:
148,304,12297,1,0,0:0:0:0:
120,288,12369,1,0,0:0:0:0:
108,256,12440,1,0,0:0:0:0:
108,224,12511,1,0,0:0:0:0:
124,196,12583,1,0,0:0:0:0:
148,176,12654,6,0,L|140:112,3,40
276,192,12940,2,0,L|268:264,3,40
224,16,13226,5,0,0:0:0:0:
436,28,13655,5,0,0:0:0:0:
264,104,13798,38,0,P|220:112|164:88,1,80
380,132,14084,2,0,L|360:244,1,80
272,324,14369,1,0,0:0:0:0:
236,212,14512,1,0,0:0:0:0:
428,280,14655,2,0,P|452:344|444:388,1,80
260,224,14941,2,0,L|252:124,1,80
172,352,15227,6,0,P|96:360|64:348,1,80
312,288,15513,1,0,0:0:0:0:
300,384,15656,1,0,0:0:0:0:
128,272,15799,2,0,L|120:176,1,80
256,72,16084,2,0,L|248:184,1,80
32,120,16370,1,0,0:0:0:0:
156,92,16513,1,0,0:0:0:0:
56,320,16655,5,0,0:0:0:0:
24,204,16799,2,0,B|88:208|88:208|120:224|120:224|212:228,1,160
376,272,17227,2,0,L|272:280,1,80
464,340,17513,2,0,P|488:256|432:184,1,160
328,152,17941,1,0,0:0:0:0:
292,380,18085,6,0,L|280:288,1,80
166,217,18371,2,0,L|158:309,1,80
44,372,18656,2,0,P|36:316|40:276,1,80
248,208,18942,2,0,B|308:212|308:212|352:232|352:232|428:240,1,160
512,208,19371,1,0,0:0:0:0:
472,100,19514,2,0,P|432:100|368:132,1,80
216,216,19799,70,0,L|208:124,1,80
80,76,20085,2,0,P|72:124|80:168,1,80
200,232,20371,1,0,0:0:0:0:
84,272,20514,1,0,0:0:0:0:
272,304,20657,2,0,B|316:300|316:300|372:300,1,80
184,360,20943,1,0,0:0:0:0:
196,240,21086,1,0,0:0:0:0:
460,260,21228,6,0,P|472:336|464:360,1,80
352,204,21514,2,0,L|360:104,1,80
456,44,21800,1,0,0:0:0:0:
468,164,21943,1,0,0:0:0:0:
288,56,22086,2,0,B|232:48|232:48|192:56|192:56|120:52,1,160
52,168,22514,1,0,0:0:0:0:
263,188,22657,6,0,P|336:171|420:208,1,160
472,304,23086,1,0,0:0:0:0:
328,380,23229,2,0,L|336:284,1,80
233,209,23515,1,0,0:0:0:0:
249,330,23658,1,0,0:0:0:0:
104,172,23800,1,0,0:0:0:0:
80,308,23943,1,0,0:0:0:0:
184,136,24087,85,4,0:0:0:0:
188,120,24158,1,0,0:0:0:0:
188,104,24229,1,0,0:0:0:0:
184,88,24301,1,0,0:0:0:0:
178,68,24372,2,0,L|242:62,1,40
309,73,24515,5,0,0:0:0:0:
327,69,24587,1,0,0:0:0:0:
343,66,24658,1,0,0:0:0:0:
358,64,24729,1,0,0:0:0:0:
373,61,24801,2,0,P|404:95|407:104,1,40
454,161,24944,5,0,0:0:0:0:
449,193,25015,1,0,0:0:0:0:
435,219,25087,1,0,0:0:0:0:
411,240,25158,1,0,0:0:0:0:
382,253,25230,1,0,0:0:0:0:
350,257,25301,1,0,0:0:0:0:
318,252,25372,1,0,0:0:0:0:
287,241,25444,1,0,0:0:0:0:
263,219,25515,1,0,0:0:0:0:
238,197,25587,1,0,0:0:0:0:
208,185,25658,1,0,0:0:0:0:
176,181,25729,1,0,0:0:0:0:
144,188,25801,6,0,B|120:243|120:243|131:342,1,160
266,216,26230,2,0,P|268:128|221:73,1,160
68,40,26659,2,0,L|156:45,1,80
304,123,26945,2,0,L|392:128,1,80
179,207,27230,70,0,P|111:225|28:184,1,160
266,129,27659,2,0,L|282:314,1,160
142,364,28088,2,0,P|200:358|250:379,1,80
425,347,28374,2,0,P|369:358|323:344,1,80
312,185,28659,6,0,B|423:192|423:192|479:217,1,160
448,332,29088,1,0,0:0:0:0:
302,273,29230,2,0,L|185:281,1,80
56,356,29516,2,0,L|151:360,1,80
94,221,29802,2,0,P|25:223|-14:239,1,80
207,151,30089,6,0,P|214:85|203:39,1,80
113,243,30374,1,0,0:0:0:0:
232,283,30517,1,0,0:0:0:0:
139,355,30660,2,0,L|40:365,1,80
290,204,30946,2,0,P|365:214|453:262,1,160
370,369,31374,1,0,0:0:0:0:
215,263,31517,2,0,P|202:212|206:151,1,80
335,20,31804,6,0,L|325:194,1,160
453,275,32232,2,0,P|458:189|403:123,1,160
308,341,32661,2,0,L|414:336,1,80
117,299,32946,2,0,L|197:296,1,80
253,118,33232,70,0,P|176:107|85:153,1,160
202,207,33661,1,0,0:0:0:0:
217,216,33732,1,0,0:0:0:0:
231,225,33804,2,0,L|315:230,1,80
463,166,34090,2,0,P|466:112|448:67,1,80
393,276,34375,2,0,P|390:330|408:375,1,80
479,220,34662,6,0,P|391:183|309:215,1,160
292,302,35089,1,0,0:0:0:0:
397,354,35232,2,0,P|405:315|401:275,1,80
239,224,35518,2,0,B|190:229|190:229|148:251|148:251|67:259,1,160
6,188,35947,1,0,0:0:0:0:
144,112,36091,6,0,L|256:116,1,80
360,48,36376,1,0,0:0:0:0:
389,33,36448,1,0,0:0:0:0:
420,33,36519,1,0,0:0:0:0:
449,46,36591,1,0,0:0:0:0:
466,72,36662,1,0,0:0:0:0:
466,91,36733,1,0,0:0:0:0:
460,110,36805,1,0,0:0:0:0:
455,125,36876,1,0,0:0:0:0:
455,137,36948,1,0,0:0:0:0:
457,144,37019,1,0,0:0:0:0:
459,151,37091,2,0,L|454:211,1,40
432,308,37234,5,8,0:0:0:0:
432,308,37305,1,8,0:0:0:0:
432,308,37376,1,8,0:0:0:0:
432,308,37448,1,8,0:0:0:0:
432,308,37519,1,8,0:0:0:0:
430,326,37805,70,0,B|327:316|327:316|257:328,1,160,12|8,0:0|0:0,0:0:0:0:
156,363,38233,1,0,0:0:0:0:
93,243,38376,2,0,P|147:248|184:258,1,80,8|0,0:0|0:0,0:0:0:0:
316,106,38662,2,0,P|267:103|209:121,1,80,8|0,0:0|0:0,0:0:0:0:
399,184,38948,1,8,0:0:0:0:
428,82,39091,1,0,0:0:0:0:
285,209,39233,2,0,L|292:262,2,40,8|0|0,0:0|0:0|0:0,0:0:0:0:
504,162,39519,6,0,P|510:231|498:268,1,80,8|0,0:0|0:0,0:0:0:0:
406,369,39805,1,8,0:0:0:0:
384,265,39948,1,0,0:0:0:0:
260,280,40091,2,0,P|241:342|236:384,1,80,8|0,0:0|0:0,0:0:0:0:
141,204,40377,2,0,P|122:145|102:110,1,80,8|0,0:0|0:0,0:0:0:0:
249,132,40663,2,0,P|245:73|235:34,1,80,8|0,0:0|0:0,0:0:0:0:
248,260,40948,1,8,0:0:0:0:
276,272,41019,1,0,0:0:0:0:
308,276,41091,1,0,0:0:0:0:
340,272,41162,1,0,0:0:0:0:
368,260,41234,6,0,L|464:252,1,80,8|0,0:0|0:0,0:0:0:0:
324,140,41520,2,0,P|264:144|232:160,1,80,8|0,0:0|0:0,0:0:0:0:
472,136,41806,2,0,B|476:104|476:104|472:24,1,80,8|0,0:0|0:0,0:0:0:0:
400,256,42092,1,8,0:0:0:0:
356,140,42235,1,0,0:0:0:0:
280,236,42378,1,8,0:0:0:0:
400,256,42521,1,0,0:0:0:0:
232,148,42664,1,8,0:0:0:0:
200,152,42735,1,0,0:0:0:0:
168,160,42806,1,0,0:0:0:0:
392,168,42949,6,0,L|488:160,1,80,8|0,0:0|0:0,0:0:0:0:
328,324,43235,2,0,B|280:320|280:320|240:308,1,80,8|0,0:0|0:0,0:0:0:0:
460,272,43520,2,0,P|472:332|464:380,1,80,8|0,0:0|0:0,0:0:0:0:
272,216,43806,1,8,0:0:0:0:
380,184,43949,1,0,0:0:0:0:
316,328,44092,2,0,B|248:336|248:336|176:324,1,120,8|0,0:0|0:0,0:0:0:0:
160,312,44378,2,0,P|88:316|56:324,1,80,8|0,0:0|0:0,0:0:0:0:
224,224,44664,69,8,0:0:0:0:
232,192,44735,1,0,0:0:0:0:
228,160,44807,1,0,0:0:0:0:
216,132,44878,1,0,0:0:0:0:
200,104,44950,2,0,P|192:48|200:16,1,80,8|0,0:0|0:0,0:0:0:0:
372,68,45235,2,0,L|360:172,1,80,8|0,0:0|0:0,0:0:0:0:
444,328,45521,1,8,0:0:0:0:
416,216,45664,1,0,0:0:0:0:
264,268,45807,6,0,P|252:332|256:376,1,80,8|0,0:0|0:0,0:0:0:0:
484,308,46092,1,8,0:0:0:0:
456,292,46163,1,0,0:0:0:0:
424,288,46235,1,0,0:0:0:0:
392,292,46306,1,0,0:0:0:0:
364,304,46378,1,8,0:0:0:0:
428,384,46521,1,0,0:0:0:0:
316,200,46664,6,8,P|252:188|208:192,1,80,0|0,0:0|0:0,0:0:0:0:
396,116,46950,2,0,P|460:124|504:116,1,80,8|0,0:0|0:0,0:0:0:0:
252,32,47236,1,8,0:0:0:0:
276,140,47378,1,0,0:0:0:0:
56,104,47521,1,8,0:0:0:0:
88,92,47593,1,0,0:0:0:0:
120,88,47665,1,0,0:0:0:0:
152,92,47736,1,0,0:0:0:0:
180,108,47807,6,0,L|168:216,1,80,8|0,0:0|0:0,0:0:0:0:
76,364,48093,2,0,P|72:320|96:272,1,80,8|0,0:0|0:0,0:0:0:0:
296,276,48379,1,8,0:0:0:0:
272,380,48522,1,0,0:0:0:0:
196,304,48664,1,8,0:0:0:0:
376,352,48807,1,0,0:0:0:0:
308,160,48951,2,0,P|264:160|200:176,1,80,8|0,0:0|0:0,0:0:0:0:
372,80,49236,2,0,P|333:59|269:43,1,80,8|0,0:0|0:0,0:0:0:0:
468,168,49522,1,8,0:0:0:0:
492,68,49665,1,0,0:0:0:0:
376,220,49808,70,0,P|356:280|356:320,1,80,8|0,0:0|0:0,0:0:0:0:
504,356,50093,1,8,0:0:0:0:
488,256,50236,1,0,0:0:0:0:
272,288,50379,1,8,0:0:0:0:
274,320,50451,1,0,0:0:0:0:
280,351,50522,1,0,0:0:0:0:
272,176,50666,5,8,0:0:0:0:
244,172,50737,1,0,0:0:0:0:
216,168,50809,1,0,0:0:0:0:
192,156,50880,1,0,0:0:0:0:
168,140,50952,2,0,L|164:74,3,40
88,256,51238,5,0,0:0:0:0:
92,264,51309,1,0,0:0:0:0:
96,272,51380,1,0,0:0:0:0:
100,280,51452,1,0,0:0:0:0:
104,288,51523,6,0,B|100:236|100:236|84:208|84:208|76:124,1,160,6|8,0:0|0:0,0:0:0:0:
110,40,51952,1,0,0:0:0:0:
260,96,52095,2,0,L|250:188,1,80
285,336,52381,2,0,P|360:348|429:298,1,160
390,213,52809,1,0,0:0:0:0:
225,265,52952,2,0,P|204:308|202:345,1,80
315,182,53238,70,0,B|317:127|317:127|331:93|331:93|334:13,1,160
236,5,53667,1,0,0:0:0:0:
173,112,53810,2,0,L|181:212,1,80
142,356,54095,2,0,P|129:292|27:249,1,160
47,345,54524,1,0,0:0:0:0:
223,320,54667,2,0,L|237:223,1,80
433,210,54953,6,0,P|448:282|442:315,1,80
326,189,55238,1,0,0:0:0:0:
319,161,55310,1,0,0:0:0:0:
322,133,55381,1,0,0:0:0:0:
329,106,55453,1,0,0:0:0:0:
325,77,55524,2,0,B|286:63|286:63|237:64,1,80
81,171,55810,6,0,L|161:177,1,80
258,291,56096,1,0,0:0:0:0:
234,306,56167,1,0,0:0:0:0:
207,315,56239,1,0,0:0:0:0:
179,319,56310,1,0,0:0:0:0:
151,321,56382,2,0,P|98:310|61:283,1,80
301,248,56667,6,0,L|291:361,1,80
253,152,56953,1,0,0:0:0:0:
280,143,57024,1,0,0:0:0:0:
307,143,57096,1,0,0:0:0:0:
333,151,57167,1,0,0:0:0:0:
358,160,57239,2,0,P|390:167|429:155,3,40
456,32,57525,69,0,0:0:0:0:
438,53,57596,1,0,0:0:0:0:
425,78,57667,1,0,0:0:0:0:
418,105,57739,1,0,0:0:0:0:
415,133,57810,1,0,0:0:0:0:
419,160,57882,1,0,0:0:0:0:
426,186,57953,1,0,0:0:0:0:
441,209,58025,1,0,0:0:0:0:
456,231,58096,1,0,0:0:0:0:
466,257,58168,1,0,0:0:0:0:
467,284,58239,1,0,0:0:0:0:
459,311,58310,1,0,0:0:0:0:
440,332,58382,6,0,B|340:321|340:321|270:342,1,160
185,373,58812,1,0,0:0:0:0:
116,262,58955,2,0,P|190:268|228:282,1,80
9,335,59240,2,0,P|-11:262|18:175,1,160
104,130,59669,1,0,0:0:0:0:
237,196,59812,2,0,P|295:205|343:184,1,80
426,83,60098,6,0,B|404:128|404:128|420:264,1,160
446,344,60527,1,0,0:0:0:0:
276,366,60670,2,0,B|270:322|270:322|281:274,1,80
377,168,60954,6,0,P|304:196|216:148,1,160
179,84,61383,1,0,0:0:0:0:
301,24,61526,2,0,P|310:66|303:110,1,80
197,246,61812,2,0,L|94:244,1,80
7,162,62097,1,0,0:0:0:0:
32,149,62168,1,0,0:0:0:0:
59,142,62240,1,0,0:0:0:0:
87,141,62311,1,0,0:0:0:0:
114,146,62383,2,0,L|217:149,1,80
398,196,62670,70,0,P|357:202|295:199,1,80
464,117,62956,1,0,0:0:0:0:
483,137,63027,1,0,0:0:0:0:
497,160,63099,1,0,0:0:0:0:
504,187,63170,1,0,0:0:0:0:
507,214,63241,2,0,B|497:258|497:258|504:317,1,80
304,370,63527,6,0,B|310:286,1,80
276,172,63812,1,0,0:0:0:0:
251,159,63883,1,0,0:0:0:0:
221,156,63955,1,0,0:0:0:0:
193,161,64026,1,0,0:0:0:0:
171,179,64098,2,0,L|162:250,3,40
59,130,64384,6,0,L|49:57,3,40
171,72,64669,2,0,L|172:21,3,40
275,120,64956,2,0,L|284:175,3,40
391,33,65242,6,0,B|426:80|426:80|431:207,1,160
394,283,65670,1,0,0:0:0:0:
237,318,65813,2,0,P|236:263|246:231,1,80
341,123,66099,2,0,P|250:135|191:103,1,160
135,13,66528,1,0,0:0:0:0:
39,107,66671,2,0,L|46:200,1,80
149,360,66956,70,0,P|167:295|116:203,1,160
55,298,67385,1,0,0:0:0:0:
212,332,67528,1,0,0:0:0:0:
239,337,67599,1,0,0:0:0:0:
266,343,67671,1,0,0:0:0:0:
343,210,67814,2,0,P|275:216|250:231,1,80
421,361,68100,2,0,L|429:268,1,80
373,116,68385,2,0,L|367:61,2,40
504,201,68671,5,0,0:0:0:0:
502,229,68743,1,0,0:0:0:0:
500,257,68814,1,0,0:0:0:0:
316,314,68957,2,0,P|306:263|321:203,1,80
368,112,69243,1,0,0:0:0:0:
266,98,69386,1,0,0:0:0:0:
391,24,69529,1,0,0:0:0:0:
264,23,69671,1,0,0:0:0:0:
451,171,69814,6,0,P|468:128|460:81,1,80
284,52,70100,2,0,P|267:95|275:142,1,80
408,328,70386,2,0,P|412:288|399:251,1,80
215,281,70672,2,0,P|210:320|223:357,1,80
332,188,70958,2,0,P|349:145|341:98,1,80
165,69,71243,2,0,P|148:112|156:159,1,80
288,308,71529,2,0,P|289:268|273:232,1,80
92,275,71815,2,0,P|90:314|106:350,1,80
126,114,72101,6,0,B|128:74|128:74|153:4,1,80
328,69,72387,2,0,B|325:109|325:109|301:179,1,80
176,248,72672,69,0,0:0:0:0:
90,225,72815,1,0,0:0:0:0:
150,163,72958,1,0,0:0:0:0:
238,323,73101,5,0,0:0:0:0:
324,300,73244,1,0,0:0:0:0:
264,238,73387,1,0,0:0:0:0:
165,384,73530,5,0,0:0:0:0:
79,361,73672,1,0,0:0:0:0:
139,299,73815,1,0,0:0:0:0:
246,333,73958,1,0,0:0:0:0:
268,323,74030,1,0,0:0:0:0:
291,318,74101,1,0,0:0:0:0:
315,317,74173,1,0,0:0:0:0:
338,319,74244,1,0,0:0:0:0:
361,325,74315,1,0,0:0:0:0:
383,333,74387,6,0,B|401:258|401:258|384:165,1,160
286,137,74816,1,0,0:0:0:0:
391,69,74959,2,0,P|462:75|481:81,1,80
212,79,75245,2,0,P|277:49|314:42,1,80
146,200,75530,2,0,P|74:199|31:187,1,80
211,298,75816,2,0,P|146:317|112:316,1,80
337,229,76102,70,0,P|355:302|349:337,1,80
225,201,76388,2,0,P|245:145|277:102,1,80
150,93,76674,2,0,P|182:43|223:8,1,80
324,39,76959,1,0,0:0:0:0:
376,150,77102,6,0,B|360:215|360:215|379:250|379:250|374:319,1,160
254,379,77531,2,0,P|253:321|264:278,1,80
172,125,77817,2,0,P|150:196|151:232,1,80
72,350,78103,2,0,P|55:280|56:236,1,80
250,186,78388,2,0,B|315:194|315:194|346:217|346:217|439:226,1,160
474,141,78817,1,0,0:0:0:0:
370,24,78960,6,0,P|289:38|229:92,1,160
171,214,79389,1,0,0:0:0:0:
107,113,79532,2,0,B|103:71|103:71|111:12,1,80
280,183,79817,2,0,P|302:271|277:347,1,160
181,374,80246,1,0,0:0:0:0:
61,251,80389,2,0,L|148:259,1,80
276,161,80675,2,0,L|163:165,1,80
117,50,80960,1,0,0:0:0:0:
149,52,81031,1,0,0:0:0:0:
180,56,81103,1,0,0:0:0:0:
212,57,81174,1,0,0:0:0:0:
237,59,81246,6,0,B|275:63|314:54|314:54|334:68|334:68|371:50|401:58|401:58|425:52|425:52|441:66|441:66|512:75|512:75|507:87|488:101,1,320
413,178,82104,38,0,P|400:207|397:252,2,42.6666666666667
289,212,82390,2,0,P|297:263|294:283,2,42.6666666666667
198,156,82676,2,0,P|204:126|218:93,2,42.6666666666667
93,227,82961,6,0,P|151:240|193:233,1,80
197,70,83247,2,0,P|139:57|97:64,1,80
258,154,83533,6,0,P|298:145|345:149,1,83.9999974365235
371,163,83819,54,0,L|366:277,1,103.999995239258
265,365,84105,1,0,0:0:0:0:
240,242,84247,1,0,0:0:0:0:
84,312,84390,2,0,P|154:324|199:315,1,103.999995239258
375,287,84676,5,0,0:0:0:0:
408,295,84748,1,0,0:0:0:0:
438,303,84819,1,0,0:0:0:0:
253,215,84962,2,0,P|239:167|250:109,1,103.999995239258
448,39,85248,1,0,0:0:0:0:
422,156,85391,1,0,0:0:0:0:
330,70,85534,1,0,0:0:0:0:
330,70,85605,1,0,0:0:0:0:
330,70,85676,2,0,L|339:139,1,51.999997619629
367,249,85819,102,0,L|357:354,1,103.999995239258
416,171,86105,2,0,P|485:176|532:221,1,103.999995239258
276,343,86391,2,0,P|207:338|160:293,1,103.999995239258
76,208,86677,2,0,L|148:204,1,51.999997619629
248,136,86820,2,0,L|196:133,1,51.999997619629
288,248,86963,6,0,B|344:236|344:236|368:212|368:212|464:192,1,155.999992858887
464,208,87249,2,0,P|496:276|488:336,1,103.999995239258
288,168,87535,1,0,0:0:0:0:
296,136,87606,1,0,0:0:0:0:
304,104,87678,1,0,0:0:0:0:
412,284,87821,1,0,0:0:0:0:
268,260,87964,1,0,0:0:0:0:
412,120,88106,102,0,P|472:112|536:148,1,103.999995239258
315,334,88392,2,0,P|255:342|191:306,1,103.999995239258
93,195,88678,1,0,0:0:0:0:
60,349,88821,1,0,0:0:0:0:
200,239,88964,1,0,0:0:0:0:
211,204,89035,1,0,0:0:0:0:
208,167,89107,1,0,0:0:0:0:
105,42,89249,6,0,L|99:95,1,51.999997619629
236,52,89392,2,0,L|227:-5,1,51.999997619629
194,159,89535,2,0,P|258:180|317:158,1,103.999995239258
481,55,89821,2,0,L|491:172,1,103.999995239258
412,360,90107,2,0,L|417:250,1,103.999995239258
299,91,90393,101,0,0:0:0:0:
313,231,90536,1,0,0:0:0:0:
346,17,90678,2,0,P|303:6|244:22,1,103.999995239258
128,180,90964,2,0,P|57:194|13:177,1,103.999995239258
207,102,91250,1,0,0:0:0:0:
224,133,91322,1,0,0:0:0:0:
232,168,91393,1,0,0:0:0:0:
164,369,91536,6,0,B|155:317|155:317|165:257,1,103.999995239258
346,253,91821,2,0,L|357:316,1,51.999997619629
450,363,91964,2,0,L|464:296,1,51.999997619629
482,200,92107,1,0,0:0:0:0:
479,190,92178,1,0,0:0:0:0:
475,181,92250,1,0,0:0:0:0:
472,172,92321,1,0,0:0:0:0:
463,158,92393,101,0,0:0:0:0:
425,138,92464,1,0,0:0:0:0:
383,138,92536,1,0,0:0:0:0:
347,160,92607,1,0,0:0:0:0:
333,199,92679,6,0,B|290:222|290:222|165:199,1,155.999992858887
139,223,92965,2,0,P|110:287|123:351,1,103.999995239258
341,369,93251,1,0,0:0:0:0:
343,234,93393,1,0,0:0:0:0:
226,302,93536,1,0,0:0:0:0:
226,302,93608,1,0,0:0:0:0:
226,302,93679,1,0,0:0:0:0:
432,294,93822,102,0,P|452:238|437:184,1,103.999995239258
250,112,94108,2,0,L|258:235,1,103.999995239258
328,361,94394,1,0,0:0:0:0:
343,234,94537,1,0,0:0:0:0:
186,314,94679,1,0,0:0:0:0:
189,327,94751,1,0,0:0:0:0:
192,340,94822,1,0,0:0:0:0:
64,259,94965,6,0,B|75:192|75:192|99:173|99:173|113:105,1,155.999992858887
105,95,95251,1,0,0:0:0:0:
17,30,95394,1,0,0:0:0:0:
206,16,95537,2,0,P|227:73|213:146,1,103.999995239258
177,240,95823,2,0,P|156:297|170:370,1,103.999995239258
340,280,96108,101,0,0:0:0:0:
333,249,96180,1,0,0:0:0:0:
327,218,96251,1,0,0:0:0:0:
319,187,96323,1,0,0:0:0:0:
311,150,96394,2,0,P|316:83|343:33,1,103.999995239258
488,127,96680,2,0,L|480:269,1,103.999995239258
312,371,96966,1,0,0:0:0:0:
411,312,97109,1,0,0:0:0:0:
242,235,97251,6,0,B|173:245|173:245|146:264|146:264|61:277,1,155.999992858887
52,262,97537,2,0,P|28:199|41:143,1,103.999995239258
191,55,97823,1,0,0:0:0:0:
146,178,97966,1,0,0:0:0:0:
310,37,98109,1,0,0:0:0:0:
311,219,98252,1,0,0:0:0:0:
488,83,98395,102,0,P|415:90|363:114,1,103.999995239258
267,291,98680,1,0,0:0:0:0:
243,164,98823,1,0,0:0:0:0:
443,234,98966,2,0,L|430:344,1,103.999995239258
336,200,99252,1,0,0:0:0:0:
336,200,99323,1,0,0:0:0:0:
336,200,99395,2,0,L|330:137,1,51.999997619629
268,52,99538,5,0,0:0:0:0:
238,42,99609,1,0,0:0:0:0:
207,37,99680,1,0,0:0:0:0:
175,35,99752,1,0,0:0:0:0:
145,43,99823,1,0,0:0:0:0:
117,58,99895,1,0,0:0:0:0:
87,68,99966,1,0,0:0:0:0:
56,58,100038,1,0,0:0:0:0:
28,43,100109,102,0,L|34:167,1,103.999995239258
52,282,100395,1,0,0:0:0:0:
58,289,100466,1,0,0:0:0:0:
53,297,100538,1,0,0:0:0:0:
43,295,100609,1,0,0:0:0:0:
40,283,100682,54,0,B|123:289|123:289|146:303|146:303|212:308,1,160
225,293,101039,1,0,0:0:0:0:
255,282,101110,1,0,0:0:0:0:
285,271,101182,1,0,0:0:0:0:
315,260,101253,2,0,P|330:307|311:363,1,80
200,180,101538,6,0,L|204:88,1,80
360,40,101824,1,0,0:0:0:0:
364,64,101895,1,0,0:0:0:0:
368,88,101967,1,0,0:0:0:0:
372,112,102038,1,0,0:0:0:0:
376,132,102110,2,0,P|420:140|460:136,1,80
244,32,102396,6,0,P|200:24|160:28,1,80
40,148,102681,1,0,0:0:0:0:
76,264,102824,1,0,0:0:0:0:
192,196,102967,1,0,0:0:0:0:
196,96,103110,1,0,0:0:0:0:
348,164,103253,1,0,0:0:0:0:
320,280,103396,1,0,0:0:0:0:
452,212,103539,1,0,0:0:0:0:
460,184,103611,1,0,0:0:0:0:
460,156,103682,1,0,0:0:0:0:
456,128,103754,1,0,0:0:0:0:
444,104,103825,2,0,P|432:48|440:8,1,80
272,104,104111,6,0,P|256:164|256:208,1,80
372,336,104397,1,0,0:0:0:0:
352,224,104540,1,0,0:0:0:0:
236,312,104683,2,0,P|160:328|116:308,1,120
100,296,104969,2,0,B|92:256|92:256|100:192,1,80
252,112,105255,1,0,0:0:0:0:
240,136,105326,1,0,0:0:0:0:
232,164,105398,1,0,0:0:0:0:
288,264,105540,2,0,L|396:276,1,80
480,144,105826,70,0,P|436:144|368:164,1,80
276,252,106112,1,0,0:0:0:0:
308,360,106255,1,0,0:0:0:0:
304,164,106398,1,0,0:0:0:0:
276,148,106469,1,0,0:0:0:0:
244,144,106541,1,0,0:0:0:0:
212,152,106612,1,0,0:0:0:0:
184,164,106684,6,0,L|112:176,3,40
112,72,106969,2,0,L|56:64,3,40
32,188,107255,2,0,L|40:288,1,80
148,380,107541,6,0,P|156:328|172:292,1,80
352,272,107827,1,0,0:0:0:0:
340,376,107970,1,0,0:0:0:0:
244,220,108112,2,0,B|240:180|240:180|248:148|248:148|232:68,1,120
220,76,108398,2,0,P|176:72|128:88,1,80
328,192,108684,1,0,0:0:0:0:
360,196,108756,1,0,0:0:0:0:
392,196,108827,1,0,0:0:0:0:
420,184,108899,1,0,0:0:0:0:
444,164,108970,2,0,L|452:68,1,80
272,16,109255,6,0,L|284:128,1,80
348,232,109541,2,0,L|336:344,1,80
196,368,109827,1,0,0:0:0:0:
184,336,109899,1,0,0:0:0:0:
184,304,109970,1,0,0:0:0:0:
192,272,110041,1,0,0:0:0:0:
204,244,110113,70,0,P|208:200|200:152,1,80
88,56,110398,1,0,0:0:0:0:
220,20,110541,1,0,0:0:0:0:
80,168,110684,2,0,P|76:212|84:260,1,80
240,328,110970,6,0,L|344:336,1,80
472,208,111256,1,0,0:0:0:0:
444,196,111327,1,0,0:0:0:0:
412,192,111399,1,0,0:0:0:0:
380,200,111470,1,0,0:0:0:0:
352,212,111541,2,0,P|296:224|268:220,1,80
112,124,111827,5,0,0:0:0:0:
92,244,111970,1,0,0:0:0:0:
248,136,112112,1,0,0:0:0:0:
252,104,112184,1,0,0:0:0:0:
248,72,112255,1,0,0:0:0:0:
232,44,112327,1,0,0:0:0:0:
200,36,112399,2,0,L|136:40,2,40
332,80,112685,6,0,B|380:84|380:84|408:76|408:76|464:80,1,120
468,104,112971,1,0,0:0:0:0:
472,120,113043,1,0,0:0:0:0:
476,136,113114,1,0,0:0:0:0:
480,152,113185,1,0,0:0:0:0:
456,180,113257,69,0,0:0:0:0:
452,196,113328,1,0,0:0:0:0:
448,212,113400,1,0,0:0:0:0:
444,228,113471,1,0,0:0:0:0:
460,268,113543,6,0,L|472:332,3,40
348,312,113828,2,0,L|340:384,3,40
304,180,114114,2,0,P|236:176|200:188,1,80
64,272,114400,5,0,0:0:0:0:
68,288,114471,1,0,0:0:0:0:
72,304,114542,1,0,0:0:0:0:
76,320,114614,1,0,0:0:0:0:
80,336,114685,2,0,P|120:352|180:344,1,96
188,328,114971,2,0,L|280:336,1,64
352,252,115258,2,0,L|268:260,1,64
416,340,115544,2,0,L|468:340,3,32
472,248,115829,6,0,L|528:240,3,32
400,184,116115,2,0,P|396:152|404:100,1,64
456,56,116401,1,0,0:0:0:0:
372,40,116544,1,0,0:0:0:0:
276,112,116687,2,0,P|240:120|200:116,1,64
80,76,116972,1,0,0:0:0:0:
84,96,117044,1,0,0:0:0:0:
88,116,117115,1,0,0:0:0:0:
92,136,117187,1,0,0:0:0:0:
100,160,117258,70,0,B|92:220|92:220|100:260|100:260|88:336,1,160
0,344,117686,1,0,0:0:0:0:
136,256,117829,2,0,P|184:264|216:280,1,80
320,368,118115,2,0,B|432:384|432:384|504:352,1,160
476,248,118543,1,0,0:0:0:0:
320,284,118687,6,0,P|256:296|228:288,1,80
132,136,118972,1,0,0:0:0:0:
92,228,119115,2,0,B|156:236|156:236|204:212|204:212|260:212,1,160
368,160,119544,1,0,0:0:0:0:
372,140,119615,1,0,0:0:0:0:
372,120,119687,1,0,0:0:0:0:
368,100,119758,1,0,0:0:0:0:
360,80,119830,2,0,P|348:64|320:48,3,40
496,128,120116,2,0,L|500:220,1,80
416,344,120402,5,0,0:0:0:0:
396,352,120473,1,0,0:0:0:0:
376,356,120544,1,0,0:0:0:0:
352,356,120616,1,0,0:0:0:0:
328,352,120687,2,0,P|268:344|236:348,1,64
112,364,120973,2,0,P|151:367|184:360,1,64
64,280,121258,1,0,0:0:0:0:
16,356,121401,1,0,0:0:0:0:
176,272,121545,2,0,L|168:216,3,32
296,344,121830,6,0,L|304:288,3,32
252,216,122116,2,0,P|248:172|260:124,1,64
380,104,122402,2,0,L|360:192,1,64
436,312,122688,2,0,P|436:268|416:232,1,64
300,296,122974,1,0,0:0:0:0:
280,300,123045,1,0,0:0:0:0:
260,304,123117,1,0,0:0:0:0:
240,308,123188,1,0,0:0:0:0:
220,312,123259,70,0,B|188:307|167:292|167:292|129:294|129:294|99:281|44:286,1,160
152,372,123689,1,0,0:0:0:0:
84,200,123832,2,0,P|20:212|-8:224,1,80
200,216,124117,2,0,B|217:106|217:106|216:40,1,160
120,32,124546,1,0,0:0:0:0:
240,136,124689,6,0,P|296:144|328:136,1,80
468,48,124974,1,0,0:0:0:0:
372,80,125117,2,0,B|355:190|355:190|356:256,1,160
492,380,125546,2,0,B|488:264,1,106.666666666667
448,188,125832,6,0,P|456:148|456:132,2,53.3333333333333
368,252,126118,2,0,P|368:300|380:336,2,53.3333333333333
316,120,126403,6,0,P|264:112|216:124,1,85.3333333333333
128,160,126689,2,0,L|124:100,2,42.6666666666667
144,192,126975,2,0,L|136:284,1,85.3333333333333
88,368,127261,2,0,P|132:356|200:376,1,85.3333333333333
260,352,127547,1,0,0:0:0:0:
268,360,127642,2,0,L|344:364,1,42.6666666666667
412,348,127832,2,0,P|416:304|404:248,1,85.3333333333333
312,220,128118,70,0,L|320:116,1,85.3333333333333
400,92,128404,2,0,L|408:156,2,42.6666666666667
376,56,128690,2,0,P|332:40|288:48,1,85.3333333333333
224,116,128975,6,0,L|144:124,1,64
64,76,129261,1,0,0:0:0:0:
52,104,129333,1,0,0:0:0:0:
52,136,129404,1,0,0:0:0:0:
64,168,129476,1,0,0:0:0:0:
80,196,129547,2,0,P|83:239|72:288,1,64
12,344,129833,6,0,P|92:312|188:352,1,160
236,384,130262,1,0,0:0:0:0:
288,216,130405,2,0,P|220:220|184:240,1,80
396,312,130691,2,0,P|428:260|428:224,1,80
312,76,130977,2,0,P|320:136|344:164,1,80
200,28,131263,2,0,P|188:84|192:144,1,80
292,268,131548,6,0,P|372:268|444:196,1,160
432,108,131977,1,0,0:0:0:0:
272,48,132120,2,0,P|256:124|264:160,1,80
300,256,132406,1,0,0:0:0:0:
304,268,132477,1,0,0:0:0:0:
308,280,132549,1,0,0:0:0:0:
312,292,132620,1,0,0:0:0:0:
316,316,132691,69,0,0:0:0:0:
296,332,132763,1,0,0:0:0:0:
272,340,132834,1,0,0:0:0:0:
248,340,132906,1,0,0:0:0:0:
224,332,132977,2,0,P|180:324|128:328,1,80
16,356,133263,6,0,L|8:248,1,85.3333333333333
68,176,133548,2,0,L|72:132,2,42.6666666666667
80,208,133834,2,0,P|120:228|168:220,1,85.3333333333333
264,168,134120,2,0,L|352:180,1,85.3333333333333
424,236,134405,1,0,0:0:0:0:
432,252,134500,2,0,P|440:300|432:328,1,42.6666666666667
340,352,134691,2,0,L|344:260,1,85.3333333333333
432,152,134977,6,0,P|444:104|432:56,1,85.3333333333333
324,52,135263,2,0,L|320:12,3,32
308,84,135549,2,0,L|208:96,1,85.3333333333333
100,48,135835,6,0,P|88:96|88:124,1,64
120,196,136120,1,0,0:0:0:0:
132,220,136191,1,0,0:0:0:0:
140,244,136263,1,0,0:0:0:0:
140,268,136334,1,0,0:0:0:0:
136,292,136405,1,0,0:0:0:0:
84,368,136549,1,0,0:0:0:0:
216,272,136692,70,0,P|304:256|380:312,1,160
424,368,137121,1,0,0:0:0:0:
492,200,137264,2,0,P|424:204|392:216,1,80
248,164,137550,2,0,P|340:168|392:124,1,160
400,32,137978,1,0,0:0:0:0:
288,0,138121,2,0,P|286:46|312:92,1,80
220,196,138407,5,0,0:0:0:0:
216,164,138478,1,0,0:0:0:0:
200,136,138550,1,0,0:0:0:0:
176,112,138621,1,0,0:0:0:0:
144,104,138693,2,0,L|76:96,3,40
80,208,138978,2,0,L|32:212,3,40
152,288,139264,5,0,0:0:0:0:
184,280,139336,1,0,0:0:0:0:
216,276,139407,1,0,0:0:0:0:
248,280,139478,1,0,0:0:0:0:
280,292,139550,1,0,0:0:0:0:
312,300,139621,1,0,0:0:0:0:
344,304,139693,1,0,0:0:0:0:
376,300,139764,1,0,0:0:0:0:
404,284,139836,2,0,P|416:200|408:176,1,80
272,56,140122,6,0,L|280:160,1,80
180,252,140408,1,0,0:0:0:0:
148,144,140551,1,0,0:0:0:0:
48,248,140694,2,0,P|32:320|44:360,1,80
116,152,140979,70,0,L|108:56,1,80
264,28,141265,2,0,L|256:124,1,80
204,240,141568,1,0,0:0:0:0:
328,216,141711,1,0,0:0:0:0:
256,344,141854,2,0,P|200:360|156:348,1,80
368,320,142140,2,0,P|425:329|460:358,1,80
288,224,142409,6,0,P|264:144|296:60,1,160
384,28,142837,1,0,0:0:0:0:
464,140,142980,2,0,L|364:148,1,80
304,248,143266,2,0,L|404:256,1,80
224,340,143552,6,0,L|124:348,1,80
48,300,143837,1,0,0:0:0:0:
236,256,143980,6,0,L|136:264,1,80
60,216,144266,1,0,0:0:0:0:
260,164,144410,70,0,L|160:172,1,80
84,124,144695,6,0,B|128:128|128:128|176:112|176:112|264:116,1,160
336,168,145124,1,0,0:0:0:0:
428,108,145267,2,0,P|448:176|440:216,1,80
300,348,145553,2,0,P|280:280|288:240,1,80
468,296,145838,2,0,L|376:292,1,80
268,240,146124,2,0,L|176:244,1,80
68,344,146410,2,0,P|132:372|236:352,1,160
308,320,146838,1,0,0:0:0:0:
260,200,146981,6,0,B|184:208|184:208|132:196|132:196|16:208,1,240
16,300,147553,2,0,L|128:312,1,80
248,328,147838,1,0,0:0:0:0:
276,220,147981,1,0,0:0:0:0:
340,348,148124,54,0,P|404:348|480:292,1,160
436,184,148552,1,0,0:0:0:0:
324,264,148696,6,0,P|264:286|173:261,1,160
204,152,149124,1,0,0:0:0:0:
400,168,149268,102,0,P|344:168|316:148,1,80
224,48,149553,2,0,L|212:156,1,80
88,340,149839,22,0,P|76:284|92:240,1,96
120,224,150125,54,0,L|248:248,1,103.999995239258
404,248,150412,1,0,0:0:0:0:
312,360,150555,1,0,0:0:0:0:
352,168,150698,2,0,P|412:160|476:192,1,103.999995239258
224,156,150982,6,0,L|212:40,1,103.999995239258
300,244,151268,2,0,P|296:304|268:352,1,103.999995239258
88,360,151555,1,0,0:0:0:0:
56,232,151698,1,0,0:0:0:0:
188,276,151841,1,0,0:0:0:0:
96,360,151984,1,0,0:0:0:0:
140,184,152126,102,0,B|192:176|192:176|288:196,1,103.999995239258
392,288,152411,2,0,L|512:268,1,103.999995239258
320,200,152697,1,0,0:0:0:0:
304,332,152841,1,0,0:0:0:0:
400,144,152984,2,0,P|336:108|272:112,1,103.999995239258
184,264,153270,5,0,0:0:0:0:
188,296,153341,1,0,0:0:0:0:
192,328,153413,1,0,0:0:0:0:
48,360,153555,1,0,0:0:0:0:
68,220,153698,1,0,0:0:0:0:
212,332,153841,2,0,P|264:352|344:328,1,103.999995239258
464,228,154127,2,0,L|456:288,1,51.999997619629
352,256,154270,2,0,L|344:192,1,51.999997619629
416,120,154413,102,0,P|344:96|260:132,1,155.999992858887
248,156,154699,2,0,L|144:160,1,103.999995239258
40,40,154984,2,0,P|120:48|160:64,1,103.999995239258
52,208,155270,1,0,0:0:0:0:
44,176,155342,1,0,0:0:0:0:
44,144,155413,1,0,0:0:0:0:
192,212,155556,6,0,L|188:272,1,51.999997619629
304,208,155699,2,0,L|300:152,1,51.999997619629
288,320,155842,2,0,P|364:336|424:312,1,103.999995239258
496,188,156128,2,0,L|364:204,1,103.999995239258
244,80,156413,2,0,P|328:72|376:96,1,103.999995239258
152,192,156699,101,0,0:0:0:0:
120,56,156842,1,0,0:0:0:0:
32,188,156985,2,0,P|24:244|48:312,1,103.999995239258
220,368,157271,2,0,L|228:236,1,103.999995239258
280,68,157556,1,0,0:0:0:0:
280,80,157628,1,0,0:0:0:0:
280,96,157699,2,0,L|288:160,1,51.999997619629
352,288,157842,6,0,P|436:300|484:272,1,103.999995239258
508,200,158128,2,0,L|436:208,1,51.999997619629
416,120,158271,2,0,L|480:124,1,51.999997619629
336,184,158414,1,0,0:0:0:0:
308,196,158485,1,0,0:0:0:0:
276,200,158556,1,0,0:0:0:0:
244,192,158628,1,0,0:0:0:0:
216,184,158699,1,0,0:0:0:0:
184,176,158771,1,0,0:0:0:0:
152,184,158842,1,0,0:0:0:0:
124,196,158914,1,0,0:0:0:0:
104,220,158985,102,0,B|76:300|76:300|112:388,1,155.999992858887
132,376,159271,2,0,L|248:360,1,103.999995239258
460,256,159557,1,0,0:0:0:0:
420,384,159700,1,0,0:0:0:0:
316,288,159842,1,0,0:0:0:0:
316,288,159914,1,0,0:0:0:0:
316,288,159985,1,0,0:0:0:0:
360,104,160129,6,0,P|376:172|368:220,1,103.999995239258
160,144,160414,2,0,B|164:92|164:92|184:28,1,103.999995239258
212,252,160700,1,0,0:0:0:0:
76,216,160843,1,0,0:0:0:0:
244,156,160986,1,0,0:0:0:0:
268,156,161057,1,0,0:0:0:0:
288,160,161129,1,0,0:0:0:0:
216,340,161271,102,0,B|156:332|156:332|124:308|124:308|52:296,1,155.999992858887
44,320,161557,1,0,0:0:0:0:
208,256,161700,1,0,0:0:0:0:
64,120,161843,2,0,P|64:188|76:224,1,103.999995239258
232,136,162129,2,0,L|244:20,1,103.999995239258
300,240,162414,6,0,P|372:260|436:240,1,103.999995239258
472,88,162700,1,0,0:0:0:0:
488,216,162843,1,0,0:0:0:0:
296,148,162986,2,0,B|236:156|236:156|184:180,1,103.999995239258
204,356,163272,1,0,0:0:0:0:
248,252,163415,1,0,0:0:0:0:
0,276,163558,102,0,P|72:296|152:264,1,155.999992858887
160,240,163843,2,0,B|164:188|164:188|148:136,1,103.999995239258
24,44,164129,1,0,0:0:0:0:
36,172,164272,1,0,0:0:0:0:
152,104,164415,1,0,0:0:0:0:
40,40,164558,1,0,0:0:0:0:
140,204,164701,5,0,0:0:0:0:
165,199,164773,1,0,0:0:0:0:
190,194,164844,1,0,0:0:0:0:
215,190,164916,1,0,0:0:0:0:
233,167,164987,101,0,0:0:0:0:
265,167,165059,1,0,0:0:0:0:
297,169,165130,1,0,0:0:0:0:
329,171,165202,1,0,0:0:0:0:
363,184,165273,2,0,L|375:248,3,51.999997619629
468,141,165559,2,0,L|460:213,3,51.999997619629
416,68,165845,5,0,0:0:0:0:
388,56,165916,1,0,0:0:0:0:
356,56,165987,1,0,0:0:0:0:
328,68,166059,1,0,0:0:0:0:
312,96,166130,1,0,0:0:0:0:
312,128,166202,1,0,0:0:0:0:
320,156,166273,1,0,0:0:0:0:
324,188,166345,1,0,0:0:0:0:
320,220,166416,2,0,L|304:308,3,51.999997619629
200,268,166702,2,0,L|212:352,3,51.999997619629
232,136,166988,5,0,0:0:0:0:
312,120,169305,21,0,0:0:0:0:
408,108,169417,1,0,0:0:0:0:
408,108,169488,1,0,0:0:0:0:
408,108,169559,1,0,0:0:0:0:
344,40,169702,2,0,B|276:32|276:32|252:44|252:44|192:56,1,128
128,96,170131,2,0,P|120:128|120:172,1,64
208,280,170417,5,0,0:0:0:0:
199,195,170560,1,0,0:0:0:0:
288,280,170703,1,0,0:0:0:0:
294,177,170846,1,0,0:0:0:0:
360,304,170988,1,0,0:0:0:0:
398,180,171131,1,0,0:0:0:0:
424,353,171274,1,0,0:0:0:0:
511,218,171417,1,0,0:0:0:0:
356,308,171560,6,0,P|268:324|212:304,1,128
136,244,171989,2,0,P|60:252|8:300,1,128
108,356,172417,1,0,0:0:0:0:
212,220,172560,1,0,0:0:0:0:
220,196,172632,1,0,0:0:0:0:
228,172,172703,6,0,B|244:136|244:136|228:20,1,128
144,20,173132,1,0,0:0:0:0:
96,120,173275,2,0,P|140:128|176:120,1,64
320,96,173560,2,0,L|392:104,1,64
504,244,173846,70,0,P|440:260|376:236,1,128
284,208,174275,2,0,B|268:244|268:244|284:360,1,128
192,364,174704,2,0,P|196:336|192:296,1,64
144,220,174989,1,0,0:0:0:0:
224,144,175132,6,0,P|288:120|356:160,1,128
464,228,175561,2,0,P|416:236|380:224,1,64
276,328,175848,2,0,P|324:336|360:324,1,64
196,256,176133,6,0,B|180:304|180:304|188:400,1,128
288,244,176562,2,0,L|296:108,1,128
200,76,176991,2,0,L|204:160,1,64
380,144,177277,1,0,0:0:0:0:
388,72,177419,2,0,L|392:36,2,32
432,208,177705,1,0,0:0:0:0:
508,196,177848,1,0,0:0:0:0:
460,132,177991,1,0,0:0:0:0:
380,144,178134,1,0,0:0:0:0:
316,248,178277,1,0,0:0:0:0:
320,264,178349,1,0,0:0:0:0:
324,280,178420,6,0,B|240:304|240:304|180:288,1,128
84,216,178848,2,0,P|56:264|72:348,1,128
196,192,179277,2,0,B|200:128,1,64
60,48,179563,69,0,0:0:0:0:
76,136,179706,1,0,0:0:0:0:
216,48,179849,2,0,P|164:56|140:72,1,64
296,116,180134,2,0,L|440:124,1,128
404,236,180563,1,0,0:0:0:0:
400,256,180634,1,0,0:0:0:0:
400,276,180706,6,0,L|408:352,1,64
312,216,180992,1,0,0:0:0:0:
256,332,181135,2,0,P|176:340|136:304,1,128
64,252,181563,1,0,0:0:0:0:
52,336,181706,1,0,0:0:0:0:
204,264,181849,6,0,L|192:184,1,64
136,124,182135,1,0,0:0:0:0:
308,136,182278,2,0,P|316:208|288:264,1,128
224,100,182706,2,0,P|256:56|284:48,1,64
400,68,182921,5,0,0:0:0:0:
404,80,182992,2,0,L|400:160,1,64
460,224,183279,2,0,L|466:287,1,64
372,376,183565,1,0,0:0:0:0:
380,288,183708,1,0,0:0:0:0:
300,324,183851,1,0,0:0:0:0:
452,204,183993,70,0,P|392:176|312:204,1,128
224,240,184421,86,0,P|220:212|220:176,2,42.6666666666667
160,320,184707,2,0,P|152:352|152:372,2,42.6666666666667
48,272,184993,2,0,P|52:312|56:324,2,42.6666666666667
120,176,185279,6,0,B|108:72|108:72|84:156,1,186.666666666667
64,248,186350,1,0,0:0:0:0:
72,264,186422,102,0,P|132:284|200:236,1,120
328,268,186708,2,0,P|392:280|424:280,2,53.3333333333333
480,168,186993,2,0,P|440:172|416:184,2,53.3333333333333
284,96,187279,2,0,P|324:100|348:112,2,53.3333333333333
456,52,187566,5,0,0:0:0:0:
428,84,187661,1,0,0:0:0:0:
416,124,187756,1,0,0:0:0:0:
416,168,187852,1,0,0:0:0:0:
432,208,187947,1,0,0:0:0:0:
440,248,188042,1,0,0:0:0:0:
432,288,188137,2,0,P|428:328|432:360,2,53.3333333333333
308,252,188423,2,0,P|300:216|300:176,2,53.3333333333333
192,352,188708,102,0,L|72:364,1,106.666666666667
0,264,188994,1,0,0:0:0:0:
32,240,189089,1,0,0:0:0:0:
72,232,189185,1,0,0:0:0:0:
112,244,189280,2,0,P|188:252|244:232,1,106.666666666667
352,120,189566,2,0,P|292:112|220:152,1,106.666666666667
356,224,189852,5,0,0:0:0:0:
400,228,189947,1,0,0:0:0:0:
440,216,190043,1,0,0:0:0:0:
476,192,190138,1,0,0:0:0:0:
476,236,190233,1,0,0:0:0:0:
476,280,190328,1,0,0:0:0:0:
452,316,190424,101,0,0:0:0:0:
416,296,190519,1,0,0:0:0:0:
392,260,190614,1,0,0:0:0:0:
384,216,190709,1,0,0:0:0:0:
388,172,190805,1,0,0:0:0:0:
408,132,190900,1,0,0:0:0:0:
440,104,190995,2,0,P|472:96|504:96,2,53.3333333333333
328,56,191281,2,0,P|264:48|256:48,2,53.3333333333333
288,148,191567,6,0,L|300:196,1,26.6666666666667
248,180,191662,1,0,0:0:0:0:
204,184,191757,1,0,0:0:0:0:
164,168,191853,1,0,0:0:0:0:
136,136,191948,1,0,0:0:0:0:
132,92,192043,1,0,0:0:0:0:
164,64,192138,2,0,P|168:32|160:0,2,53.3333333333333
56,144,192391,2,0,P|48:200|52:224,2,53.3333333333333
156,188,192677,101,0,0:0:0:0:
192,212,192772,1,0,0:0:0:0:
212,248,192867,1,0,0:0:0:0:
216,292,192963,1,0,0:0:0:0:
204,332,193058,1,0,0:0:0:0:
172,360,193153,1,0,0:0:0:0:
112,336,193248,5,0,0:0:0:0:
164,340,193344,1,0,0:0:0:0:
216,344,193439,1,0,0:0:0:0:
268,348,193534,1,0,0:0:0:0:
320,352,193629,1,0,0:0:0:0:
372,356,193725,1,0,0:0:0:0:
424,356,193820,102,0,B|432:288|432:288|416:256|416:256|408:176,1,160
480,140,194201,2,0,L|472:72,1,53.3333333333333
312,68,194392,2,0,P|292:148|308:212,1,106.666666666667
328,272,194677,5,0,0:0:0:0:
288,308,194773,1,0,0:0:0:0:
236,320,194868,1,0,0:0:0:0:
192,308,194963,70,0,L|184:352,3,40
88,296,195249,2,0,L|80:244,3,40
176,176,195535,1,0,0:0:0:0:
180,160,195606,1,0,0:0:0:0:
180,144,195678,1,0,0:0:0:0:
180,128,195749,1,0,0:0:0:0:
176,112,195820,1,0,0:0:0:0:
168,96,195892,1,0,0:0:0:0:
156,84,195963,1,0,0:0:0:0:
144,76,196035,1,0,0:0:0:0:
128,72,196106,6,0,L|64:76,2,53.3333333333333
228,36,196392,2,0,L|296:44,2,53.3333333333333
252,136,196678,2,0,B|344:144|344:144|364:132,1,106.666666666667
456,56,196964,5,0,0:0:0:0:
436,96,197059,1,0,0:0:0:0:
432,140,197154,1,0,0:0:0:0:
444,180,197249,1,0,0:0:0:0:
456,220,197345,1,0,0:0:0:0:
456,264,197440,1,0,0:0:0:0:
440,304,197535,1,0,0:0:0:0:
404,328,197630,1,0,0:0:0:0:
364,336,197726,1,0,0:0:0:0:
324,324,197821,6,0,L|240:316,2,53.3333333333333
320,216,198107,2,0,L|384:212,2,53.3333333333333
224,244,198392,101,0,0:0:0:0:
180,240,198488,1,0,0:0:0:0:
144,264,198583,1,0,0:0:0:0:
124,304,198678,1,0,0:0:0:0:
144,352,198774,1,0,0:0:0:0:
184,372,198869,1,0,0:0:0:0:
228,368,198964,1,0,0:0:0:0:
260,340,199059,1,0,0:0:0:0:
276,300,199155,1,0,0:0:0:0:
268,260,199250,1,0,0:0:0:0:
252,220,199345,1,0,0:0:0:0:
244,180,199440,1,0,0:0:0:0:
260,140,199536,6,0,P|292:132|324:136,2,53.3333333333333
184,60,199821,2,0,P|152:52|120:56,2,53.3333333333333
296,36,200107,102,0,L|424:48,1,106.666666666667
508,108,200393,2,0,P|520:152|496:240,1,106.666666666667
384,296,200679,1,0,0:0:0:0:
368,256,200774,1,0,0:0:0:0:
372,212,200869,1,0,0:0:0:0:
396,176,200965,1,0,0:0:0:0:
396,132,201060,1,0,0:0:0:0:
372,96,201155,1,0,0:0:0:0:
332,84,201250,5,0,0:0:0:0:
292,96,201346,1,0,0:0:0:0:
272,132,201441,1,0,0:0:0:0:
284,172,201536,1,0,0:0:0:0:
300,212,201631,1,0,0:0:0:0:
296,256,201727,1,0,0:0:0:0:
264,284,201822,1,0,0:0:0:0:
220,288,201917,1,0,0:0:0:0:
184,268,202012,1,0,0:0:0:0:
168,228,202108,1,0,0:0:0:0:
176,188,202203,1,0,0:0:0:0:
172,144,202298,1,0,0:0:0:0:
152,108,202393,70,0,B|140:71|140:71|116:32|116:32|104:132|84:172,1,213.333333333333
72,188,202965,6,0,P|88:248|80:332,1,128
76,328,203537,5,0,0:0:0:0:
108,316,203632,1,0,0:0:0:0:
140,308,203727,1,0,0:0:0:0:
172,312,203822,1,0,0:0:0:0:
200,328,203918,1,0,0:0:0:0:
228,348,204013,1,0,0:0:0:0:
260,356,204108,1,0,0:0:0:0:
292,348,204203,1,0,0:0:0:0:
320,332,204299,1,0,0:0:0:0:
340,304,204394,1,0,0:0:0:0:
344,272,204489,1,0,0:0:0:0:
332,240,204584,1,0,0:0:0:0:
316,212,204680,5,0,0:0:0:0:
308,180,204775,1,0,0:0:0:0:
312,148,204870,1,0,0:0:0:0:
324,116,204965,1,0,0:0:0:0:
348,92,205061,1,0,0:0:0:0:
380,84,205156,1,0,0:0:0:0:
412,84,205251,1,0,0:0:0:0:
444,96,205347,1,0,0:0:0:0:
464,124,205442,1,0,0:0:0:0:
472,156,205537,1,0,0:0:0:0:
468,188,205632,1,0,0:0:0:0:
448,216,205728,1,0,0:0:0:0:
420,236,205823,1,0,0:0:0:0:
384,236,205918,1,0,0:0:0:0:
356,212,206013,101,0,0:0:0:0:
320,208,206109,1,0,0:0:0:0:
288,204,206204,1,0,0:0:0:0:
256,200,206299,1,0,0:0:0:0:
236,228,206394,5,0,0:0:0:0:
200,232,206490,1,0,0:0:0:0:
168,236,206585,1,0,0:0:0:0:
136,240,206680,1,0,0:0:0:0:
104,244,206775,1,0,0:0:0:0:
68,240,206871,70,0,B|72:192|68:136|60:96|60:96,1,128
72,88,207252,2,0,P|104:152|136:188,1,85.3333333333333
200,196,207538,2,0,L|312:204,1,85.3333333333333
348,76,207823,2,0,L|244:84,1,85.3333333333333
372,168,208109,1,0,0:0:0:0:
412,156,208204,1,0,0:0:0:0:
448,132,208300,1,0,0:0:0:0:
472,96,208395,5,0,0:0:0:0:
468,140,208490,1,0,0:0:0:0:
468,184,208585,1,0,0:0:0:0:
464,228,208681,1,0,0:0:0:0:
456,272,208776,1,0,0:0:0:0:
436,308,208871,1,0,0:0:0:0:
404,336,208966,1,0,0:0:0:0:
364,356,209062,1,0,0:0:0:0:
320,364,209157,1,0,0:0:0:0:
280,348,209252,5,0,0:0:0:0:
244,328,209347,1,0,0:0:0:0:
204,316,209443,1,0,0:0:0:0:
160,316,209538,1,0,0:0:0:0:
116,320,209633,1,0,0:0:0:0:
76,332,209729,1,0,0:0:0:0:
40,352,209824,5,0,0:0:0:0:
52,312,209919,1,0,0:0:0:0:
56,268,210014,1,0,0:0:0:0:
48,228,210110,1,0,0:0:0:0:
28,192,210205,1,0,0:0:0:0:
24,148,210300,1,0,0:0:0:0:
36,108,210395,69,0,0:0:0:0:
76,128,210491,1,0,0:0:0:0:
116,136,210586,1,0,0:0:0:0:
160,140,210681,1,0,0:0:0:0:
204,128,210776,1,0,0:0:0:0:
240,104,210872,1,0,0:0:0:0:
264,68,210967,5,0,0:0:0:0:
308,72,211062,1,0,0:0:0:0:
352,80,211157,1,0,0:0:0:0:
396,88,211253,1,0,0:0:0:0:
436,96,211348,1,0,0:0:0:0:
476,104,211443,1,0,0:0:0:0:
508,140,211538,5,0,0:0:0:0:
464,136,211634,1,0,0:0:0:0:
420,136,211729,1,0,0:0:0:0:
380,144,211824,1,0,0:0:0:0:
340,160,211920,1,0,0:0:0:0:
304,180,212015,1,0,0:0:0:0:
280,216,212110,5,0,0:0:0:0:
276,260,212205,1,0,0:0:0:0:
296,300,212301,1,0,0:0:0:0:
328,328,212396,1,0,0:0:0:0:
372,336,212491,1,0,0:0:0:0:
412,320,212586,1,0,0:0:0:0:
436,284,212682,70,0,L|432:232,7,32
348,204,213253,2,0,L|352:152,3,32
268,276,213539,2,0,L|256:224,3,32
192,360,213825,2,0,L|136:356,3,32
112,272,214111,2,0,L|160:264,3,32
192,168,214396,2,0,L|200:112,3,32
96,76,214682,2,0,L|104:120,3,32
16,172,214968,6,0,L|44:224,3,32
56,288,215254,2,0,L|48:344,3,32
152,380,215540,2,0,L|144:336,3,32
232,284,215826,2,0,L|204:232,3,32
320,360,216111,5,0,0:0:0:0:
364,360,216206,1,0,0:0:0:0:
404,348,216302,1,0,0:0:0:0:
432,316,216397,1,0,0:0:0:0:
444,276,216492,1,0,0:0:0:0:
436,236,216587,1,0,0:0:0:0:
408,204,216683,1,0,0:0:0:0:
368,184,216778,1,0,0:0:0:0:
332,160,216873,1,0,0:0:0:0:
312,124,216968,1,0,0:0:0:0:
308,80,217064,1,0,0:0:0:0:
332,44,217159,1,0,0:0:0:0:
372,32,217254,5,0,0:0:0:0:
388,72,217349,1,0,0:0:0:0:
380,116,217445,1,0,0:0:0:0:
360,152,217540,1,0,0:0:0:0:
328,180,217635,1,0,0:0:0:0:
288,192,217730,1,0,0:0:0:0:
244,200,217826,1,0,0:0:0:0:
200,200,217921,1,0,0:0:0:0:
156,188,218016,1,0,0:0:0:0:
120,164,218111,1,0,0:0:0:0:
92,132,218207,1,0,0:0:0:0:
76,92,218302,1,0,0:0:0:0:
92,52,218397,69,0,0:0:0:0:
100,96,218493,1,0,0:0:0:0:
104,140,218588,1,0,0:0:0:0:
108,184,218683,1,0,0:0:0:0:
108,228,218778,1,0,0:0:0:0:
108,272,218874,1,0,0:0:0:0:
100,312,218969,5,0,0:0:0:0:
140,296,219064,1,0,0:0:0:0:
180,288,219159,1,0,0:0:0:0:
224,288,219255,1,0,0:0:0:0:
264,296,219350,1,0,0:0:0:0:
304,312,219445,1,0,0:0:0:0:
340,332,219540,6,0,L|336:284,3,32
448,300,219826,2,0,L|452:248,3,32
344,216,220112,2,0,L|340:168,3,32
452,184,220398,2,0,L|456:132,3,32
352,68,220684,5,0,0:0:0:0:
312,56,220779,1,0,0:0:0:0:
268,52,220874,1,0,0:0:0:0:
228,64,220969,1,0,0:0:0:0:
192,84,221065,1,0,0:0:0:0:
152,96,221160,1,0,0:0:0:0:
108,92,221255,2,0,B|88:136|88:136|80:192,1,85.3333333333333
152,240,221541,2,0,B|172:284|172:284|180:340,1,85.3333333333333
84,288,221827,101,0,0:0:0:0:
112,256,221922,1,0,0:0:0:0:
152,240,222017,1,0,0:0:0:0:
192,232,222112,1,0,0:0:0:0:
236,240,222208,1,0,0:0:0:0:
272,264,222303,1,0,0:0:0:0:
304,292,222398,2,0,P|372:308|408:300,1,85.3333333333333
464,220,222684,2,0,L|468:128,1,85.3333333333333
360,48,222970,5,0,0:0:0:0:
364,92,223065,1,0,0:0:0:0:
356,136,223160,1,0,0:0:0:0:
332,172,223256,1,0,0:0:0:0:
296,196,223351,1,0,0:0:0:0:
256,208,223446,1,0,0:0:0:0:
212,204,223541,2,0,B|169:201|132:188|132:188|96:200|96:200|16:208,1,170.666666666667
120,312,224018,1,0,0:0:0:0:
136,320,224113,2,0,L|236:312,1,85.3333333333333
296,328,224399,2,0,L|392:320,1,85.3333333333333
476,176,224684,102,0,P|436:168|368:188,1,85.3333333333333
284,204,224970,2,0,P|264:148|276:104,1,85.3333333333333
376,28,225256,5,0,0:0:0:0:
348,60,225352,1,0,0:0:0:0:
308,76,225447,1,0,0:0:0:0:
264,76,225542,1,0,0:0:0:0:
224,68,225637,1,0,0:0:0:0:
180,64,225732,1,0,0:0:0:0:
116,100,225828,101,0,0:0:0:0:
160,96,225923,1,0,0:0:0:0:
200,104,226018,1,0,0:0:0:0:
232,132,226113,1,0,0:0:0:0:
248,172,226209,1,0,0:0:0:0:
244,216,226304,1,0,0:0:0:0:
216,248,226399,6,0,L|100:264,1,85.3333333333333
20,340,226685,101,0,0:0:0:0:
60,320,226780,1,0,0:0:0:0:
104,320,226875,1,0,0:0:0:0:
144,340,226971,1,0,0:0:0:0:
180,360,227066,1,0,0:0:0:0:
220,368,227161,1,0,0:0:0:0:
264,364,227257,1,0,0:0:0:0:
304,352,227352,1,0,0:0:0:0:
336,328,227447,1,0,0:0:0:0:
356,288,227542,5,0,0:0:0:0:
336,248,227638,1,0,0:0:0:0:
324,208,227733,1,0,0:0:0:0:
328,164,227828,1,0,0:0:0:0:
340,124,227923,1,0,0:0:0:0:
368,92,228019,1,0,0:0:0:0:
404,68,228114,101,0,0:0:0:0:
360,64,228209,1,0,0:0:0:0:
316,60,228304,1,0,0:0:0:0:
272,56,228400,1,0,0:0:0:0:
232,48,228495,1,0,0:0:0:0:
188,44,228590,1,0,0:0:0:0:
132,64,228685,5,0,0:0:0:0:
176,68,228781,1,0,0:0:0:0:
216,80,228876,1,0,0:0:0:0:
248,108,228971,1,0,0:0:0:0:
272,144,229066,1,0,0:0:0:0:
284,184,229162,1,0,0:0:0:0:
280,228,229257,101,0,0:0:0:0:
240,216,229352,1,0,0:0:0:0:
196,208,229448,1,0,0:0:0:0:
152,216,229543,1,0,0:0:0:0:
112,236,229638,1,0,0:0:0:0:
80,264,229733,1,0,0:0:0:0:
60,304,229829,86,0,L|64:360,3,32
176,340,230114,2,0,L|180:384,3,32
284,288,230400,2,0,L|280:344,3,32
392,336,230686,2,0,L|396:384,3,32
364,248,230972,6,0,L|376:140,1,85.3333333333333
396,76,231257,102,0,L|456:68,3,32
292,8,231543,2,0,L|352:12,3,32
240,100,231829,2,0,L|296:92,3,32
168,32,232115,6,0,L|72:32,1,85.3333333333333
28,124,232401,5,0,0:0:0:0:
16,164,232496,1,0,0:0:0:0:
24,204,232591,1,0,0:0:0:0:
56,232,232686,1,0,0:0:0:0:
80,268,232782,1,0,0:0:0:0:
88,308,232877,1,0,0:0:0:0:
72,348,232972,1,0,0:0:0:0:
32,360,233067,1,0,0:0:0:0:
4,328,233163,1,0,0:0:0:0:
20,288,233258,5,0,0:0:0:0:
60,304,233353,1,0,0:0:0:0:
104,308,233448,1,0,0:0:0:0:
144,300,233544,1,0,0:0:0:0:
180,280,233639,1,0,0:0:0:0:
208,248,233734,1,0,0:0:0:0:
224,208,233830,69,0,0:0:0:0:
268,208,233925,1,0,0:0:0:0:
308,224,234020,1,0,0:0:0:0:
340,252,234115,1,0,0:0:0:0:
364,288,234211,1,0,0:0:0:0:
372,332,234306,1,0,0:0:0:0:
344,364,234401,5,0,0:0:0:0:
336,324,234496,1,0,0:0:0:0:
336,280,234592,1,0,0:0:0:0:
340,236,234687,1,0,0:0:0:0:
352,196,234782,1,0,0:0:0:0:
368,156,234877,1,0,0:0:0:0:
396,124,234973,5,0,0:0:0:0:
420,156,235068,1,0,0:0:0:0:
432,196,235163,1,0,0:0:0:0:
444,236,235258,1,0,0:0:0:0:
448,280,235354,1,0,0:0:0:0:
440,320,235449,1,0,0:0:0:0:
416,356,235544,5,0,0:0:0:0:
376,344,235639,1,0,0:0:0:0:
340,320,235735,1,0,0:0:0:0:
308,292,235830,1,0,0:0:0:0:
284,256,235925,1,0,0:0:0:0:
264,216,236021,1,0,0:0:0:0:
260,172,236116,69,0,0:0:0:0:
215,169,236211,1,0,0:0:0:0:
174,185,236306,1,0,0:0:0:0:
143,214,236402,1,0,0:0:0:0:
122,251,236497,1,0,0:0:0:0:
116,294,236592,1,0,0:0:0:0:
124,336,236687,5,0,0:0:0:0:
160,360,236783,1,0,0:0:0:0:
204,360,236878,1,0,0:0:0:0:
244,336,236973,1,0,0:0:0:0:
248,288,237068,1,0,0:0:0:0:
228,248,237164,1,0,0:0:0:0:
184,236,237259,5,0,0:0:0:0:
184,236,237830,86,0,L|180:168,1,64
331,172,238116,2,0,L|328:236,1,64
132,312,238402,2,0,L|116:248,1,64
395,249,238688,2,0,L|380:312,1,64
376,144,238974,6,0,P|416:144|456:164,1,64
276,240,239259,1,0,0:0:0:0:
256,144,239402,1,0,0:0:0:0:
408,268,239545,1,0,0:0:0:0:
392,280,240117,5,0,0:0:0:0:
356,300,240212,1,0,0:0:0:0:
312,304,240307,1,0,0:0:0:0:
272,284,240402,2,0,P|224:268|200:268,2,42.6666666666667
220,356,240688,5,0,0:0:0:0:
180,372,240784,1,0,0:0:0:0:
136,372,240879,1,0,0:0:0:0:
96,352,240974,2,0,P|84:336|76:304,2,42.6666666666667
164,288,241260,101,0,0:0:0:0:
180,248,241355,1,0,0:0:0:0:
180,204,241450,1,0,0:0:0:0:
164,164,241546,2,0,P|160:136|164:104,2,42.6666666666667
104,56,241831,5,0,0:0:0:0:
76,88,241927,1,0,0:0:0:0:
60,128,242022,1,0,0:0:0:0:
60,172,242117,1,0,0:0:0:0:
80,208,242212,1,0,0:0:0:0:
116,228,242308,1,0,0:0:0:0:
156,240,242403,2,0,B|176:244|200:236|220:224|220:224|236:232|236:232|264:232|288:248,1,128
284,256,242975,6,0,L|276:308,2,32
372,220,243260,1,0,0:0:0:0:
380,196,243332,1,0,0:0:0:0:
380,172,243403,1,0,0:0:0:0:
372,148,243475,1,0,0:0:0:0:
356,112,243546,6,0,L|356:60,3,32
256,116,243832,2,0,L|264:172,3,32
188,52,244118,1,0,0:0:0:0:
164,48,244189,1,0,0:0:0:0:
140,52,244261,1,0,0:0:0:0:
116,64,244332,1,0,0:0:0:0:
100,84,244403,1,0,0:0:0:0:
92,108,244475,1,0,0:0:0:0:
96,132,244546,1,0,0:0:0:0:
104,156,244618,1,0,0:0:0:0:
108,180,244689,6,0,L|100:276,1,80
152,344,244975,1,0,0:0:0:0:
284,260,245118,1,0,0:0:0:0:
272,352,245261,1,0,0:0:0:0:
380,324,245404,1,0,0:0:0:0:
368,232,245547,1,0,0:0:0:0:
282,266,245689,1,0,0:0:0:0:
461,263,245832,6,0,P|466:223|443:167,1,80
350,88,246118,1,0,0:0:0:0:
437,97,246261,1,0,0:0:0:0:
360,176,246404,1,0,0:0:0:0:
277,191,246547,1,0,0:0:0:0:
223,58,246690,1,0,0:0:0:0:
201,142,246833,1,0,0:0:0:0:
334,81,246975,70,0,P|334:27|317:-12,1,80
137,83,247261,1,0,0:0:0:0:
300,166,247404,2,0,L|391:171,1,80
236,227,247690,1,0,0:0:0:0:
274,360,247833,1,0,0:0:0:0:
199,314,247976,1,0,0:0:0:0:
346,264,248119,6,0,P|399:265|437:282,1,80
213,305,248404,2,0,L|98:294,1,80
309,366,248690,2,0,B|326:310|326:310|310:244|310:244|313:198,1,160
395,162,249119,1,0,0:0:0:0:
225,310,249262,6,0,L|126:318,1,80
281,232,249548,1,0,0:0:0:0:
70,261,249690,2,0,P|51:326|61:362,1,80
156,223,249976,1,0,0:0:0:0:
99,113,250119,1,0,0:0:0:0:
67,117,250191,1,0,0:0:0:0:
40,134,250262,1,0,0:0:0:0:
211,156,250405,5,0,0:0:0:0:
195,61,250548,1,0,0:0:0:0:
311,96,250691,1,0,0:0:0:0:
301,204,250834,1,0,0:0:0:0:
419,150,250976,1,0,0:0:0:0:
403,52,251119,1,0,0:0:0:0:
386,236,251262,1,0,0:0:0:0:
384,264,251334,1,0,0:0:0:0:
384,294,251405,1,0,0:0:0:0:
202,204,251548,70,0,L|210:113,1,80
271,269,251834,1,0,0:0:0:0:
117,256,251977,2,0,P|104:197|107:160,1,80
193,306,252262,1,0,0:0:0:0:
55,341,252405,2,0,P|31:308|20:250,1,80
232,281,252691,5,0,0:0:0:0:
218,384,252834,1,0,0:0:0:0:
335,303,252977,1,0,0:0:0:0:
338,271,253048,1,0,0:0:0:0:
328,240,253120,1,0,0:0:0:0:
322,208,253191,1,0,0:0:0:0:
331,177,253263,2,0,L|336:105,3,40
411,42,253548,1,0,0:0:0:0:
437,59,253620,1,0,0:0:0:0:
450,87,253691,1,0,0:0:0:0:
448,119,253763,1,0,0:0:0:0:
433,147,253834,6,0,L|442:256,1,80
347,362,254120,1,0,0:0:0:0:
322,269,254263,1,0,0:0:0:0:
480,294,254406,1,0,0:0:0:0:
453,384,254549,1,0,0:0:0:0:
417,223,254692,1,0,0:0:0:0:
511,209,254835,1,0,0:0:0:0:
364,290,254977,6,0,B|324:286|324:286|279:293,1,80
85,355,255263,2,0,B|125:359|125:359|170:352,1,80
248,180,255549,1,0,0:0:0:0:
128,208,255692,1,0,0:0:0:0:
212,300,255835,1,0,0:0:0:0:
264,184,255978,1,0,0:0:0:0:
104,124,256121,69,0,0:0:0:0:
76,140,256192,1,0,0:0:0:0:
52,164,256263,1,0,0:0:0:0:
124,284,256406,1,0,0:0:0:0:
192,156,256549,2,0,B|196:116|196:116|184:68,1,80
88,52,256835,1,0,0:0:0:0:
264,208,256978,2,0,P|276:168|280:128,1,80
92,288,257264,6,0,P|96:352|104:388,1,80
192,232,257549,2,0,L|188:184,2,40
292,324,257835,1,0,0:0:0:0:
324,332,257907,1,0,0:0:0:0:
356,332,257978,1,0,0:0:0:0:
388,324,258050,1,0,0:0:0:0:
416,308,258121,1,0,0:0:0:0:
432,280,258192,1,0,0:0:0:0:
440,248,258264,1,0,0:0:0:0:
436,216,258335,1,0,0:0:0:0:
428,184,258407,6,0,B|420:144|420:144|428:80,1,80
512,232,258693,1,0,0:0:0:0:
344,200,258835,2,0,P|272:196|256:200,1,80
396,284,259121,1,0,0:0:0:0:
344,120,259264,1,0,0:0:0:0:
316,108,259336,1,0,0:0:0:0:
284,104,259407,1,0,0:0:0:0:
252,108,259478,1,0,0:0:0:0:
220,120,259550,6,0,B|180:128|180:128|104:116,1,80
40,248,259836,2,0,P|80:256|136:240,1,80
292,200,260121,1,0,0:0:0:0:
280,304,260264,1,0,0:0:0:0:
420,196,260407,1,0,0:0:0:0:
408,168,260479,1,0,0:0:0:0:
396,140,260550,1,0,0:0:0:0:
204,164,260693,70,0,P|196:208|216:260,1,80
280,128,260979,1,0,0:0:0:0:
124,116,261122,2,0,P|104:172|104:228,1,80
204,84,261407,1,0,0:0:0:0:
60,48,261550,2,0,P|32:96|24:136,1,80
132,260,261836,5,0,0:0:0:0:
192,80,261979,2,0,P|136:100|104:128,1,80
208,280,262265,1,0,0:0:0:0:
280,160,262408,2,0,P|236:156|176:168,1,80
284,304,262694,1,0,0:0:0:0:
396,180,262836,6,0,B|404:136|404:136|392:100|392:100|404:16,1,160
316,148,263265,1,0,0:0:0:0:
308,180,263337,1,0,0:0:0:0:
312,212,263408,1,0,0:0:0:0:
328,240,263479,1,0,0:0:0:0:
356,260,263551,1,0,0:0:0:0:
372,288,263622,1,0,0:0:0:0:
368,320,263694,1,0,0:0:0:0:
348,344,263765,1,0,0:0:0:0:
320,356,263837,1,0,0:0:0:0:
288,356,263908,1,0,0:0:0:0:
260,340,263980,1,0,0:0:0:0:
228,332,264051,1,0,0:0:0:0:
196,324,264122,6,0,P|96:332|24:364,1,160
216,304,264551,1,0,0:0:0:0:
88,168,264694,2,0,P|32:172|-4:184,1,80
144,80,264980,2,0,P|80:64|44:64,1,80
312,148,265266,70,0,P|372:152|400:144,1,80
280,56,265551,2,0,P|232:92|216:128,1,80
416,236,265837,2,0,P|464:200|480:164,1,80
312,252,266123,2,0,P|296:316|300:360,1,80
380,144,266409,6,0,B|372:104|372:104|344:44,1,80
416,240,266694,2,0,P|468:260|508:260,1,80
288,164,266980,2,0,L|176:180,1,80
24,288,267266,2,0,L|136:304,1,80
132,120,267552,6,0,P|56:132|32:148,1,80
188,340,267838,2,0,P|264:328|288:312,1,80
360,152,268123,2,0,B|356:196|356:196|368:240|368:240|368:300,1,120
356,312,268409,1,0,0:0:0:0:
244,192,268552,1,0,0:0:0:0:
488,252,268695,6,0,P|488:320|472:356,1,80
284,384,268981,2,0,L|272:284,1,80
384,144,269267,2,0,P|400:196|384:248,1,80
268,88,269552,2,0,P|292:52|336:32,1,80
264,208,269838,70,0,B|192:212|192:212|164:232|164:232|96:240,1,160
64,152,270267,1,0,0:0:0:0:
232,288,270410,2,0,L|216:368,1,80
164,200,270695,2,0,P|156:128|172:96,1,80
352,24,270981,6,0,B|468:44|468:44|488:84,1,160
448,216,271410,1,0,0:0:0:0:
272,160,271553,2,0,B|272:120|272:120|304:52,1,80
344,248,271839,2,0,P|284:272|256:268,1,80
472,128,272124,6,0,L|480:228,1,80
356,352,272410,2,0,L|362:272,1,80
360,132,272696,1,0,0:0:0:0:
332,116,272767,1,0,0:0:0:0:
300,116,272839,1,0,0:0:0:0:
268,124,272910,1,0,0:0:0:0:
240,140,272982,1,0,0:0:0:0:
208,152,273053,1,0,0:0:0:0:
176,152,273125,1,0,0:0:0:0:
148,140,273196,1,0,0:0:0:0:
120,124,273267,6,0,P|80:116|40:124,1,80
192,76,273553,2,0,P|192:32|172:-4,1,80
80,200,273839,2,0,P|76:252|84:284,1,80
248,320,274125,2,0,P|188:320|144:340,1,80
416,340,274411,70,0,B|436:228|436:228|416:160,1,160
292,128,274839,1,0,0:0:0:0:
244,304,274982,2,0,P|312:312|352:292,1,80
260,120,275268,2,0,L|152:128,1,80
372,236,275554,6,0,B|384:180|384:180|372:136|372:136|380:56,1,160
460,40,275982,1,0,0:0:0:0:
300,188,276125,2,0,P|224:184|208:172,1,80
460,128,276411,2,0,P|472:192|468:228,1,80
356,64,276697,2,0,P|384:32|516:28,1,160
460,116,277126,1,0,0:0:0:0:
276,128,277268,2,0,B|268:84|268:84|268:40,1,80
412,192,277554,2,0,P|408:240|388:280,1,80
144,224,277840,6,0,L|312:212,1,160
395,268,278269,1,0,0:0:0:0:
416,112,278412,1,0,0:0:0:0:
468,200,278554,1,0,0:0:0:0:
332,124,278697,2,0,P|328:80|340:36,1,80
460,204,278983,6,0,L|440:368,1,160
312,380,279412,1,0,0:0:0:0:
272,232,279555,2,0,P|328:228|360:236,1,80
156,332,279840,2,0,P|128:276|124:240,1,80
180,68,280198,69,0,0:0:0:0:
204,92,280198,1,0,0:0:0:0:
212,124,280269,1,0,0:0:0:0:
204,156,280341,1,0,0:0:0:0:
188,184,280412,1,0,0:0:0:0:
176,212,280483,1,0,0:0:0:0:
172,244,280555,1,0,0:0:0:0:
180,276,280626,1,0,0:0:0:0:
188,308,280698,2,0,L|180:376,3,40
264,244,280984,1,0,0:0:0:0:
296,240,281055,1,0,0:0:0:0:
328,248,281126,1,0,0:0:0:0:
356,264,281198,1,0,0:0:0:0:
384,276,281269,6,0,P|420:280|448:272,3,40
412,176,281555,1,0,0:0:0:0:
404,144,281627,1,0,0:0:0:0:
404,112,281698,2,0,P|404:88|412:60,1,40
480,20,281841,5,0,0:0:0:0:
452,36,281912,1,0,0:0:0:0:
420,44,281984,1,0,0:0:0:0:
388,48,282055,1,0,0:0:0:0:
356,48,282127,1,0,0:0:0:0:
324,40,282198,1,0,0:0:0:0:
292,32,282270,1,0,0:0:0:0:
260,36,282341,1,0,0:0:0:0:
228,48,282413,6,0,P|196:84|192:132,1,83.9999974365235
216,148,282698,6,0,L|232:280,1,103.999995239258
96,384,282984,1,0,0:0:0:0:
108,240,283127,1,0,0:0:0:0:
308,320,283270,2,0,P|232:352|180:336,1,103.999995239258
336,208,283556,6,0,L|476:224,1,103.999995239258
264,120,283841,1,0,0:0:0:0:
392,96,283984,1,0,0:0:0:0:
228,256,284127,2,0,P|180:240|140:184,1,103.999995239258
40,48,284413,2,0,B|28:100|28:100|28:164,1,103.999995239258
88,376,284699,102,0,P|108:320|68:232,1,155.999992858887
32,228,284985,1,0,0:0:0:0:
0,364,285127,1,0,0:0:0:0:
192,264,285270,2,0,B|200:212|200:212|172:136,1,103.999995239258
108,56,285556,1,0,0:0:0:0:
124,60,285628,1,0,0:0:0:0:
140,64,285699,2,0,L|216:56,1,51.999997619629
336,128,285842,6,0,L|468:144,1,103.999995239258
328,24,286128,2,0,P|252:48|220:76,1,103.999995239258
316,256,286413,2,0,P|392:232|424:204,1,103.999995239258
200,204,286699,1,0,0:0:0:0:
248,348,286842,1,0,0:0:0:0:
276,128,286985,102,0,P|224:100|148:108,1,103.999995239258
112,296,287271,2,0,P|163:323|240:316,1,103.999995239258
344,228,287557,1,0,0:0:0:0:
368,368,287699,1,0,0:0:0:0:
488,256,287842,1,0,0:0:0:0:
480,264,287914,1,0,0:0:0:0:
472,272,287985,1,0,0:0:0:0:
236,260,288128,6,0,P|236:196|260:156,1,103.999995239258
432,56,288414,2,0,B|448:120|448:120|440:184,1,103.999995239258
312,320,288700,2,0,P|228:352|180:328,1,103.999995239258
0,220,288985,2,0,P|48:236|104:228,1,103.999995239258
264,140,289271,101,0,0:0:0:0:
240,272,289414,1,0,0:0:0:0:
384,156,289557,1,0,0:0:0:0:
388,116,289629,1,0,0:0:0:0:
380,76,289700,1,0,0:0:0:0:
356,44,289771,1,0,0:0:0:0:
320,24,289843,2,0,L|212:32,1,103.999995239258
60,144,290129,2,0,P|124:176|176:168,1,103.999995239258
380,140,290414,5,0,0:0:0:0:
380,140,290486,1,0,0:0:0:0:
380,140,290557,1,0,0:0:0:0:
380,140,290629,1,0,0:0:0:0:
408,172,290700,101,0,0:0:0:0:
424,212,290772,1,0,0:0:0:0:
412,252,290843,1,0,0:0:0:0:
384,284,290915,1,0,0:0:0:0:
348,304,290986,2,0,L|272:296,3,51.999997619629
220,236,291272,2,0,L|132:248,3,51.999997619629
40,312,291558,6,0,B|24:256|24:256|36:192,1,103.999995239258
140,48,291843,2,0,L|148:168,1,103.999995239258
208,348,292129,1,0,0:0:0:0:
104,252,292272,1,0,0:0:0:0:
300,200,292415,2,0,P|388:232|420:264,1,103.999995239258
216,340,292701,102,0,L|204:224,1,103.999995239258
248,52,292986,1,0,0:0:0:0:
124,116,293129,1,0,0:0:0:0:
296,204,293272,2,0,P|372:216|416:196,1,103.999995239258
464,40,293558,2,0,L|472:112,1,51.999997619629
348,128,293701,2,0,L|352:60,1,51.999997619629
228,32,293844,6,0,B|200:104|200:104|212:152|212:152|204:224,1,155.999992858887
184,212,294130,1,0,0:0:0:0:
148,228,294201,1,0,0:0:0:0:
108,228,294272,1,0,0:0:0:0:
72,204,294344,1,0,0:0:0:0:
48,172,294415,2,0,L|40:96,1,51.999997619629
136,160,294558,2,0,L|124:260,1,51.999997619629
60,336,294701,2,0,B|168:352|168:352|224:332,1,155.999992858887
240,304,294987,102,0,P|296:276|368:320,1,103.999995239258
476,384,295273,1,0,0:0:0:0:
512,260,295416,1,0,0:0:0:0:
300,352,295558,2,0,L|276:240,1,103.999995239258
368,88,295844,2,0,L|360:152,1,51.999997619629
472,192,295987,2,0,L|464:128,1,51.999997619629
372,52,296130,6,0,B|296:60|296:60|264:80|264:80|200:80,1,155.999992858887
180,76,296416,1,0,0:0:0:0:
140,64,296487,1,0,0:0:0:0:
100,76,296559,1,0,0:0:0:0:
76,108,296630,1,0,0:0:0:0:
76,148,296702,2,0,B|84:200|84:200|76:260,1,103.999995239258
20,368,296987,1,0,0:0:0:0:
44,336,297059,1,0,0:0:0:0:
84,320,297130,1,0,0:0:0:0:
124,320,297202,1,0,0:0:0:0:
164,336,297273,102,0,B|216:348|216:348|276:344,1,103.999995239258
412,248,297559,1,0,0:0:0:0:
380,224,297630,1,0,0:0:0:0:
340,216,297702,1,0,0:0:0:0:
300,224,297773,1,0,0:0:0:0:
260,240,297845,2,0,P|176:236|152:216,1,103.999995239258
184,72,298131,2,0,P|268:76|292:96,1,103.999995239258
340,300,298416,22,0,P|336:340|344:368,2,53.3333333333333
240,236,298702,2,0,P|234:201|240:172,2,53.3333333333333
144,308,298988,2,0,P|132:332|128:358,2,53.3333333333333
128,192,299274,1,0,0:0:0:0:
112,168,299369,2,0,P|72:160|36:164,1,53.3333333333333
208,128,299600,6,0,P|248:132|284:128,2,53.3333333333333
108,40,299845,2,0,P|60:60|48:68,2,53.3333333333333
244,52,300131,2,0,P|252:8|252:-12,2,53.3333333333333
356,92,300417,2,0,P|368:168|376:176,2,53.3333333333333
465,17,300703,69,0,0:0:0:0:
463,27,300798,1,0,0:0:0:0:
461,37,300893,1,0,0:0:0:0:
459,47,300988,1,0,0:0:0:0:
457,57,301084,1,0,0:0:0:0:
455,67,301179,1,0,0:0:0:0:
453,77,301274,1,0,0:0:0:0:
451,87,301369,1,0,0:0:0:0:
449,97,301465,1,0,0:0:0:0:
447,107,301560,1,0,0:0:0:0:
445,117,301655,1,0,0:0:0:0:
443,127,301750,1,0,0:0:0:0:
441,137,301846,1,0,0:0:0:0:
439,147,301941,1,0,0:0:0:0:
437,157,302036,1,0,0:0:0:0:
435,167,302131,1,0,0:0:0:0:
433,177,302227,1,0,0:0:0:0:
431,187,302322,1,0,0:0:0:0:
429,197,302417,1,0,0:0:0:0:
427,207,302513,1,0,0:0:0:0:
425,217,302608,1,0,0:0:0:0:
424,227,302703,1,0,0:0:0:0:
423,237,302798,1,0,0:0:0:0:
422,247,302894,1,0,0:0:0:0:
417,276,303022,5,0,0:0:0:0:
