osu file format v14

[General]
AudioFilename: audio.mp3
AudioLeadIn: 0
PreviewTime: 2261339
Countdown: 0
SampleSet: Normal
StackLeniency: 0.7
Mode: 0
LetterboxInBreaks: 0
WidescreenStoryboard: 1

[Editor]
Bookmarks: 60850,124850,191648,238448,262248,276848,407246,412121,419246,455246,482246,507371,525558,531371,567371,594558,690369,745577,813077,822077,926995,965566,978423,1029852,1091566,1117280,1148137,1163566,1186709,1187566,1204709,1302428,1343571,1375714,1410428,1431000,1451571,1492714,1523571,1531285,1532571,1538142,1539428,1540714,1554428,1574995,1586571,1689221,1724162,1764310,1790868,1799339,1824755,1842574,1859696,1893574,1916692,1924280,1969809,2431096,2451933
DistanceSpacing: 0.9
BeatDivisor: 4
GridSize: 4
TimelineZoom: 2.7

[Metadata]
Title:The Forest Seasons
TitleUnicode:The Forest Seasons
Artist:Wintersun
ArtistUnicode:Wintersun
Creator:ItashaS13
Version:Marathon Spring
Source:
Tags:
BeatmapID:1475021
BeatmapSetID:696315

[Difficulty]
HPDrainRate:3
CircleSize:4.3
OverallDifficulty:9
ApproachRate:9.1
SliderMultiplier:1.72
SliderTickRate:1

[Events]
//Background and Video events
0,0,"Wintersun - The Forest Seasons Cover.jpg",0,0
//Break Periods
2,369514,406727
//Storyboard Layer 0 (Background)
//Storyboard Layer 1 (Fail)
//Storyboard Layer 2 (Pass)
//Storyboard Layer 3 (Foreground)
//Storyboard Layer 4 (Overlay)
//Storyboard Sound Samples

[TimingPoints]
57715,400,3,1,0,45,1,0
60915,-90.9090909090909,3,1,0,45,0,0
112115,-500,3,1,0,45,0,0
123315,-90.9090909090909,3,1,0,45,0,0
238515,-166.666666666667,3,1,0,45,0,0
238565,-166.666666666667,3,1,0,5,0,0
238715,-166.666666666667,3,1,0,45,0,0
238765,-166.666666666667,3,1,0,5,0,0
238915,-166.666666666667,3,1,0,45,0,0
238965,-166.666666666667,3,1,0,5,0,0
239115,-166.666666666667,3,1,0,45,0,0
239165,-166.666666666667,3,1,0,5,0,0
239315,-166.666666666667,3,1,0,45,0,0
239365,-166.666666666667,3,1,0,5,0,0
239515,-166.666666666667,3,1,0,45,0,0
239565,-166.666666666667,3,1,0,5,0,0
239715,-166.666666666667,3,1,0,45,0,0
239765,-166.666666666667,3,1,0,5,0,0
239915,-166.666666666667,3,1,0,45,0,0
239965,-166.666666666667,3,1,0,5,0,0
240115,-166.666666666667,3,1,0,45,0,0
240165,-166.666666666667,3,1,0,5,0,0
240315,-166.666666666667,3,1,0,45,0,0
240365,-166.666666666667,3,1,0,5,0,0
240515,-166.666666666667,3,1,0,45,0,0
240565,-166.666666666667,3,1,0,5,0,0
240715,-166.666666666667,3,1,0,45,0,0
240765,-166.666666666667,3,1,0,5,0,0
240915,-166.666666666667,3,1,0,45,0,0
240965,-166.666666666667,3,1,0,5,0,0
241115,-166.666666666667,3,1,0,45,0,0
241165,-166.666666666667,3,1,0,5,0,0
241315,-166.666666666667,3,1,0,45,0,0
241365,-166.666666666667,3,1,0,5,0,0
241515,-166.666666666667,3,1,0,45,0,0
241565,-166.666666666667,3,1,0,5,0,0
241715,-166.666666666667,3,1,0,45,0,0
241765,-166.666666666667,3,1,0,5,0,0
241915,-166.666666666667,3,1,0,45,0,0
241965,-166.666666666667,3,1,0,5,0,0
242115,-166.666666666667,3,1,0,45,0,0
242165,-166.666666666667,3,1,0,5,0,0
242315,-166.666666666667,3,1,0,45,0,0
242365,-166.666666666667,3,1,0,5,0,0
242515,-166.666666666667,3,1,0,45,0,0
242565,-166.666666666667,3,1,0,5,0,0
242715,-166.666666666667,3,1,0,45,0,0
242765,-166.666666666667,3,1,0,5,0,0
242915,-166.666666666667,3,1,0,45,0,0
242965,-166.666666666667,3,1,0,5,0,0
243115,-166.666666666667,3,1,0,45,0,0
243165,-166.666666666667,3,1,0,5,0,0
243315,-166.666666666667,3,1,0,45,0,0
243365,-166.666666666667,3,1,0,5,0,0
243515,-166.666666666667,3,1,0,45,0,0
243565,-166.666666666667,3,1,0,5,0,0
243715,-166.666666666667,3,1,0,45,0,0
243765,-166.666666666667,3,1,0,5,0,0
243915,-166.666666666667,3,1,0,45,0,0
243965,-166.666666666667,3,1,0,5,0,0
244115,-166.666666666667,3,1,0,45,0,0
244165,-166.666666666667,3,1,0,5,0,0
244315,-166.666666666667,3,1,0,45,0,0
244365,-166.666666666667,3,1,0,5,0,0
244515,-166.666666666667,3,1,0,45,0,0
244565,-166.666666666667,3,1,0,5,0,0
244715,-166.666666666667,3,1,0,45,0,0
244765,-166.666666666667,3,1,0,5,0,0
244915,-166.666666666667,3,1,0,45,0,0
244965,-166.666666666667,3,1,0,5,0,0
245115,-166.666666666667,3,1,0,45,0,0
245165,-166.666666666667,3,1,0,5,0,0
245315,-166.666666666667,3,1,0,45,0,0
245365,-166.666666666667,3,1,0,5,0,0
245515,-166.666666666667,3,1,0,45,0,0
245565,-166.666666666667,3,1,0,5,0,0
245715,-166.666666666667,3,1,0,45,0,0
245765,-166.666666666667,3,1,0,5,0,0
245915,-166.666666666667,3,1,0,45,0,0
245965,-166.666666666667,3,1,0,5,0,0
246115,-166.666666666667,3,1,0,45,0,0
246165,-166.666666666667,3,1,0,5,0,0
246315,-166.666666666667,3,1,0,45,0,0
246365,-166.666666666667,3,1,0,5,0,0
246515,-166.666666666667,3,1,0,45,0,0
246565,-166.666666666667,3,1,0,5,0,0
246715,-166.666666666667,3,1,0,45,0,0
246765,-166.666666666667,3,1,0,5,0,0
246915,-166.666666666667,3,1,0,45,0,0
246965,-166.666666666667,3,1,0,5,0,0
247115,-166.666666666667,3,1,0,45,0,0
247165,-166.666666666667,3,1,0,5,0,0
247315,-166.666666666667,3,1,0,45,0,0
247365,-166.666666666667,3,1,0,5,0,0
247515,-166.666666666667,3,1,0,45,0,0
247565,-166.666666666667,3,1,0,5,0,0
247715,-166.666666666667,3,1,0,45,0,0
247765,-166.666666666667,3,1,0,5,0,0
247915,-166.666666666667,3,1,0,45,0,0
247965,-166.666666666667,3,1,0,5,0,0
248115,-166.666666666667,3,1,0,45,0,0
248165,-166.666666666667,3,1,0,5,0,0
248315,-166.666666666667,3,1,0,45,0,0
248365,-166.666666666667,3,1,0,5,0,0
248515,-166.666666666667,3,1,0,45,0,0
248565,-166.666666666667,3,1,0,5,0,0
248715,-166.666666666667,3,1,0,45,0,0
248765,-166.666666666667,3,1,0,5,0,0
248915,-166.666666666667,3,1,0,45,0,0
248965,-166.666666666667,3,1,0,5,0,0
249115,-166.666666666667,3,1,0,45,0,0
249165,-166.666666666667,3,1,0,5,0,0
249315,-166.666666666667,3,1,0,45,0,0
249365,-166.666666666667,3,1,0,5,0,0
249515,-166.666666666667,3,1,0,45,0,0
249565,-166.666666666667,3,1,0,5,0,0
249715,-166.666666666667,3,1,0,45,0,0
249765,-166.666666666667,3,1,0,5,0,0
249915,-166.666666666667,3,1,0,45,0,0
249965,-166.666666666667,3,1,0,5,0,0
250115,-166.666666666667,3,1,0,45,0,0
250165,-166.666666666667,3,1,0,5,0,0
250315,-166.666666666667,3,1,0,45,0,0
250365,-166.666666666667,3,1,0,5,0,0
250515,-166.666666666667,3,1,0,45,0,0
250565,-166.666666666667,3,1,0,5,0,0
250715,-166.666666666667,3,1,0,45,0,0
250765,-166.666666666667,3,1,0,5,0,0
250915,-166.666666666667,3,1,0,45,0,0
250965,-166.666666666667,3,1,0,5,0,0
251115,-166.666666666667,3,1,0,45,0,0
251165,-166.666666666667,3,1,0,5,0,0
251315,-166.666666666667,3,1,0,45,0,0
251365,-166.666666666667,3,1,0,5,0,0
251515,-166.666666666667,3,1,0,45,0,0
251565,-166.666666666667,3,1,0,5,0,0
251715,-166.666666666667,3,1,0,45,0,0
251765,-166.666666666667,3,1,0,5,0,0
251915,-166.666666666667,3,1,0,45,0,0
251965,-166.666666666667,3,1,0,5,0,0
252115,-166.666666666667,3,1,0,45,0,0
252165,-166.666666666667,3,1,0,5,0,0
252315,-166.666666666667,3,1,0,45,0,0
252365,-166.666666666667,3,1,0,5,0,0
252515,-166.666666666667,3,1,0,45,0,0
252565,-166.666666666667,3,1,0,5,0,0
252715,-166.666666666667,3,1,0,45,0,0
252765,-166.666666666667,3,1,0,5,0,0
252915,-166.666666666667,3,1,0,45,0,0
252965,-166.666666666667,3,1,0,5,0,0
253115,-166.666666666667,3,1,0,45,0,0
253165,-166.666666666667,3,1,0,5,0,0
253315,-166.666666666667,3,1,0,45,0,0
253365,-166.666666666667,3,1,0,5,0,0
253515,-166.666666666667,3,1,0,45,0,0
253565,-166.666666666667,3,1,0,5,0,0
253715,-166.666666666667,3,1,0,45,0,0
253765,-166.666666666667,3,1,0,5,0,0
253915,-166.666666666667,3,1,0,45,0,0
253965,-166.666666666667,3,1,0,5,0,0
254115,-166.666666666667,3,1,0,45,0,0
254165,-166.666666666667,3,1,0,5,0,0
254315,-166.666666666667,3,1,0,45,0,0
254365,-166.666666666667,3,1,0,5,0,0
254515,-166.666666666667,3,1,0,45,0,0
254565,-166.666666666667,3,1,0,5,0,0
254715,-166.666666666667,3,1,0,45,0,0
254765,-166.666666666667,3,1,0,5,0,0
254915,-166.666666666667,3,1,0,45,0,0
254965,-166.666666666667,3,1,0,5,0,0
255115,-166.666666666667,3,1,0,45,0,0
255165,-166.666666666667,3,1,0,5,0,0
255315,-166.666666666667,3,1,0,45,0,0
255365,-166.666666666667,3,1,0,5,0,0
255515,-166.666666666667,3,1,0,45,0,0
255565,-166.666666666667,3,1,0,5,0,0
255715,-166.666666666667,3,1,0,45,0,0
255765,-166.666666666667,3,1,0,5,0,0
255915,-166.666666666667,3,1,0,45,0,0
255965,-166.666666666667,3,1,0,5,0,0
256115,-166.666666666667,3,1,0,45,0,0
256165,-166.666666666667,3,1,0,5,0,0
256315,-166.666666666667,3,1,0,45,0,0
256365,-166.666666666667,3,1,0,5,0,0
256515,-166.666666666667,3,1,0,45,0,0
256565,-166.666666666667,3,1,0,5,0,0
256715,-166.666666666667,3,1,0,45,0,0
256765,-166.666666666667,3,1,0,5,0,0
256915,-166.666666666667,3,1,0,45,0,0
256965,-166.666666666667,3,1,0,5,0,0
257115,-166.666666666667,3,1,0,45,0,0
257165,-166.666666666667,3,1,0,5,0,0
257315,-166.666666666667,3,1,0,45,0,0
257365,-166.666666666667,3,1,0,5,0,0
257715,-90.9090909090909,3,1,0,45,0,0
274315,-166.666666666667,3,1,0,45,0,0
274515,-90.9090909090909,3,1,0,45,0,0
280515,-111.111111111111,3,1,0,45,0,0
287115,-83.3333333333333,3,1,0,45,0,0
296115,-76.9230769230769,3,1,0,45,0,0
335115,-500,3,1,0,45,0,0
340915,-142.857142857143,3,1,0,45,0,0
342515,-500,3,1,0,45,0,0
344315,-200,3,1,0,45,0,0
346115,-83.3333333333333,3,1,0,45,0,0
346515,-500,3,1,0,45,0,0
349115,-100,3,1,0,45,0,0
351115,-500,3,1,0,45,0,0
352915,-100,3,1,0,45,0,0
355115,-500,3,1,0,45,0,0
355715,-100,3,1,0,45,0,0
356315,-250,3,1,0,45,0,0
357115,-100,3,1,0,45,0,0
359115,-500,3,1,0,45,0,0
359715,-100,3,1,0,45,0,0
360315,-500,3,1,0,45,0,0
361115,-100,3,1,0,45,0,0
363115,-500,3,1,0,45,0,0
364915,-142.857142857143,3,1,0,45,0,0
369315,-133.333333333333,3,1,0,5,0,0
383311,375,4,1,0,45,1,0
431311,-76.9230769230769,3,1,0,45,0,0
455311,-100,3,1,0,45,0,0
482311,-128.205128205128,3,1,0,45,0,0
482873,-500,3,1,0,45,0,0
483248,-90.9090909090909,3,1,0,45,0,0
483436,-71.4285714285714,3,1,0,45,0,1
519436,-76.9230769230769,3,1,0,45,0,0
531436,-142.857142857143,3,1,0,45,0,0
541748,-200,3,1,0,45,0,0
541936,-100,3,1,0,45,0,0
543623,-100,3,1,0,45,0,0
567436,-83.3333333333333,3,1,0,45,0,0
591436,375,3,1,0,45,1,0
591436,-100,3,1,0,45,0,0
618435,387.096774193548,3,1,0,45,1,0
692767,375,3,1,0,45,1,0
693329,-500,3,1,0,45,0,0
698392,-142.857142857143,3,1,0,45,0,0
699992,-500,3,1,0,45,0,0
701767,-200,3,1,0,45,0,0
702517,-83.3333333333333,3,1,0,45,0,0
703454,-500,3,1,0,45,0,0
704767,-83.3333333333333,3,1,0,45,0,0
705142,-100,3,1,0,45,0,0
706267,-200,3,1,0,45,0,0
718642,-500,3,1,0,45,0,0
720517,-250,3,1,0,45,0,0
720892,-166.666666666667,3,1,0,45,0,0
721267,-125,3,1,0,45,0,0
721642,-100,3,1,0,45,0,0
722017,-83.3333333333333,3,1,0,45,0,0
722392,-71.4285714285714,3,1,0,45,0,0
722767,-62.5,3,1,0,45,0,0
723140,375,4,1,0,45,1,0
723140,-90.9090909090909,3,1,0,45,0,0
783140,-76.9230769230769,3,1,0,45,0,1
795142,375,3,1,0,45,1,0
822142,-71.4285714285714,3,1,0,45,0,1
824392,-76.9230769230769,3,1,0,45,0,1
855142,-125,3,1,0,45,0,1
855517,-76.9230769230769,3,1,0,45,0,1
858204,400,3,1,0,45,1,0
858413,400,3,1,0,45,1,0
858635,400,3,1,0,45,1,0
858883,480,3,1,0,45,1,0
859634,571.428571428571,3,1,0,45,1,0
860204,400,3,1,0,45,1,0
862304,375,3,1,0,45,1,0
869054,-142.857142857143,3,1,0,45,0,0
871054,-142.857142857143,3,1,0,5,0,0

[HitObjects]
303,217,59115,5,0,0:0:0:0:
310,222,59215,1,0,0:0:0:0:
310,222,59315,5,0,0:0:0:0:
267,228,59415,1,0,0:0:0:0:
225,235,59515,1,0,0:0:0:0:
229,245,59615,1,0,0:0:0:0:
234,254,59715,1,0,0:0:0:0:
239,264,59815,1,0,0:0:0:0:
244,274,59915,2,0,L|195:281,1,43,0|0,0:0|0:0,0:0:0:0:
122,186,60115,5,0,0:0:0:0:
80,193,60215,1,0,0:0:0:0:
84,203,60315,1,0,0:0:0:0:
89,212,60415,1,0,0:0:0:0:
93,220,60515,2,0,L|108:268,1,43,0|0,0:0|0:0,0:0:0:0:
132,340,60715,1,0,0:0:0:0:
137,350,60815,1,0,0:0:0:0:
150,384,60915,2,0,B|193:354|242:378|242:378|264:327,1,141.900004330444,0|0,0:0|0:0,0:0:0:0:
323,375,61315,6,0,L|362:280,1,94.600002886963,0|0,0:0|0:0,0:0:0:0:
390,116,61715,2,0,B|347:86|298:110|298:110|276:59,1,141.900004330444,0|0,0:0|0:0,0:0:0:0:
217,107,62115,2,0,L|178:12,1,94.600002886963,0|0,0:0|0:0,0:0:0:0:
145,203,62515,6,0,B|172:244|226:236|226:236|258:294,1,141.900004330444,0|0,0:0|0:0,0:0:0:0:
306,229,62915,2,0,L|357:317,1,94.600002886963,0|0,0:0|0:0,0:0:0:0:
512,215,63315,1,0,0:0:0:0:
399,384,63515,1,0,0:0:0:0:
512,215,63715,6,0,P|494:159|458:123,1,94.600002886963,0|0,0:0|0:0,0:0:0:0:
274,73,64115,1,0,0:0:0:0:
274,73,64315,1,0,0:0:0:0:
346,264,64515,2,0,P|398:290|449:290,1,94.600002886963,0|0,0:0|0:0,0:0:0:0:
470,132,64915,6,0,B|471:89|486:56|486:56|414:84,1,141.900004330444,0|0,0:0|0:0,0:0:0:0:
415,3,65315,2,0,L|315:43,1,94.600002886963,0|0,0:0|0:0,0:0:0:0:
99,152,65715,2,0,B|67:181|33:194|33:194|39:283,1,141.900004330444,0|0,0:0|0:0,0:0:0:0:
39,309,66115,5,0,0:0:0:0:
201,111,66315,1,0,0:0:0:0:
133,320,66515,1,0,0:0:0:0:
262,174,66715,1,0,0:0:0:0:
218,322,66915,1,0,0:0:0:0:
308,271,67115,1,0,0:0:0:0:
92,191,67315,5,0,0:0:0:0:
92,191,67515,1,0,0:0:0:0:
334,284,67715,2,0,B|399:313|408:251|480:277,1,141.900004330444,0|0,0:0|0:0,0:0:0:0:
451,347,68115,2,0,P|393:372|339:369,1,94.600002886963,0|0,0:0|0:0,0:0:0:0:
209,254,68515,6,0,B|144:225|135:287|63:261,1,141.900004330444,0|0,0:0|0:0,0:0:0:0:
92,191,68915,2,0,P|150:166|204:169,1,94.600002886963,0|0,0:0|0:0,0:0:0:0:
321,293,69315,2,0,P|374:319|456:281,1,141.900004330444,0|0,0:0|0:0,0:0:0:0:
504,230,69715,6,0,P|452:208|401:224,1,94.600002886963,0|0,0:0|0:0,0:0:0:0:
239,74,70115,2,0,B|197:115|197:115|185:224,1,141.900004330444,0|0,0:0|0:0,0:0:0:0:
185,251,70515,1,0,0:0:0:0:
185,251,70715,1,0,0:0:0:0:
344,189,70915,5,0,0:0:0:0:
239,74,71115,2,0,P|275:49|323:73,1,94.600002886963,0|0,0:0|0:0,0:0:0:0:
136,115,71515,2,0,P|154:75|208:72,1,94.600002886963,0|0,0:0|0:0,0:0:0:0:
67,201,71915,2,0,P|63:157|108:127,1,94.600002886963,0|0,0:0|0:0,0:0:0:0:
168,289,72315,5,0,0:0:0:0:
136,115,72515,2,0,B|188:109|188:109|256:186,1,141.900004330444,0|0,0:0|0:0,0:0:0:0:
276,213,72915,1,0,0:0:0:0:
390,59,73115,1,0,0:0:0:0:
338,325,73315,5,0,0:0:0:0:
403,222,73515,1,0,0:0:0:0:
403,222,73715,1,0,0:0:0:0:
428,121,73915,2,0,P|385:132|337:110,1,94.600002886963,0|0,0:0|0:0,0:0:0:0:
425,317,74315,2,0,P|382:306|334:328,1,94.600002886963,0|0,0:0|0:0,0:0:0:0:
302,217,74715,1,0,0:0:0:0:
162,321,74915,2,0,B|213:352|213:352|268:317|337:324,1,189.200005773926,0|0,0:0|0:0,0:0:0:0:
503,340,75515,1,0,0:0:0:0:
459,197,75715,6,0,P|409:169|365:169,1,94.600002886963,0|0,0:0|0:0,0:0:0:0:
224,297,76115,1,0,0:0:0:0:
400,325,76315,1,0,0:0:0:0:
88,271,76515,1,0,0:0:0:0:
276,307,76715,2,0,B|259:256|259:256|267:196,1,94.600002886963,0|0,0:0|0:0,0:0:0:0:
273,70,77115,1,0,0:0:0:0:
278,80,77215,1,0,0:0:0:0:
284,90,77315,1,0,0:0:0:0:
264,215,77515,2,0,B|239:263|239:263|191:299,1,94.600002886963,0|0,0:0|0:0,0:0:0:0:
58,257,77915,5,0,0:0:0:0:
53,247,78015,1,0,0:0:0:0:
47,237,78115,1,0,0:0:0:0:
195,121,78315,1,0,0:0:0:0:
200,131,78415,1,0,0:0:0:0:
206,141,78515,1,0,0:0:0:0:
34,118,78715,1,0,0:0:0:0:
41,109,78815,1,0,0:0:0:0:
49,100,78915,1,0,0:0:0:0:
57,91,79015,1,0,0:0:0:0:
65,83,79115,2,0,P|84:64|90:39,1,47.3000014434815,0|0,0:0|0:0,0:0:0:0:
71,198,79315,6,0,P|63:220|46:236,1,47.3000014434815,0|0,0:0|0:0,0:0:0:0:
84,230,79515,2,0,P|76:252|59:268,1,47.3000014434815,0|0,0:0|0:0,0:0:0:0:
217,33,79715,1,0,0:0:0:0:
208,274,79915,1,0,0:0:0:0:
178,146,80115,1,0,0:0:0:0:
178,146,80315,1,0,0:0:0:0:
397,35,80515,6,0,B|386:96|386:96|426:130|422:190,1,141.900004330444,0|0,0:0|0:0,0:0:0:0:
481,113,80915,2,0,P|496:163|487:221,1,94.600002886963,0|0,0:0|0:0,0:0:0:0:
304,255,81315,2,0,B|243:244|243:244|209:284|149:280,1,141.900004330444,0|0,0:0|0:0,0:0:0:0:
226,339,81715,6,0,P|176:354|118:345,1,94.600002886963,0|0,0:0|0:0,0:0:0:0:
0,141,82115,2,0,B|61:152|61:152|95:112|155:116,1,141.900004330444,0|0,0:0|0:0,0:0:0:0:
78,57,82515,2,0,P|128:42|186:51,1,94.600002886963,0|0,0:0|0:0,0:0:0:0:
331,198,82915,5,0,0:0:0:0:
40,220,83115,1,0,0:0:0:0:
212,133,83315,1,0,0:0:0:0:
145,247,83515,1,0,0:0:0:0:
411,121,83715,1,0,0:0:0:0:
171,111,83915,1,0,0:0:0:0:
193,118,84015,1,0,0:0:0:0:
212,133,84115,5,0,0:0:0:0:
225,152,84215,1,0,0:0:0:0:
234,174,84315,2,0,P|238:206|230:244,1,47.3000014434815,0|0,0:0|0:0,0:0:0:0:
312,366,84515,2,0,P|307:333|316:296,1,47.3000014434815,0|0,0:0|0:0,0:0:0:0:
340,177,84715,2,0,P|352:146|378:118,1,47.3000014434815,0|0,0:0|0:0,0:0:0:0:
402,290,84915,2,0,P|425:298|445:311,1,47.3000014434815,0|0,0:0|0:0,0:0:0:0:
214,264,85115,2,0,P|238:259|261:260,1,47.3000014434815,0|0,0:0|0:0,0:0:0:0:
421,154,85315,6,0,P|443:161|463:174,1,47.3000014434815,0|0,0:0|0:0,0:0:0:0:
414,113,85515,2,0,P|436:120|456:133,1,47.3000014434815,0|0,0:0|0:0,0:0:0:0:
223,115,85715,6,0,P|242:127|265:135,1,47.3000014434815,0|0,0:0|0:0,0:0:0:0:
216,74,85914,2,0,P|235:86|258:94,1,47.3000014434815,0|0,0:0|0:0,0:0:0:0:
335,257,86115,1,0,0:0:0:0:
342,29,86315,1,0,0:0:0:0:
342,144,86515,5,0,0:0:0:0:
342,144,86715,1,0,0:0:0:0:
161,31,86915,2,0,B|146:75|169:128|169:128|137:178,1,141.900004330444,0|0,0:0|0:0,0:0:0:0:
158,246,87315,2,0,P|102:234|70:194,1,94.600002886963,0|0,0:0|0:0,0:0:0:0:
243,138,87715,2,0,B|287:123|340:146|340:146|390:114,1,141.900004330444,0|0,0:0|0:0,0:0:0:0:
458,135,88115,2,0,P|446:79|406:47,1,94.600002886963,0|0,0:0|0:0,0:0:0:0:
300,18,88515,1,0,0:0:0:0:
383,201,88715,2,0,P|408:229|439:239,1,47.3000014434815,0|0,0:0|0:0,0:0:0:0:
266,223,88915,5,0,0:0:0:0:
248,207,89015,1,0,0:0:0:0:
228,194,89115,1,0,0:0:0:0:
206,186,89215,1,0,0:0:0:0:
114,213,89315,5,0,0:0:0:0:
125,192,89415,1,0,0:0:0:0:
132,169,89515,1,0,0:0:0:0:
134,146,89615,1,0,0:0:0:0:
132,122,89715,1,0,0:0:0:0:
132,122,89915,1,0,0:0:0:0:
331,73,90115,5,0,0:0:0:0:
191,256,90315,1,0,0:0:0:0:
337,302,90515,2,0,P|411:271|429:205,1,141.900004330444,0|0,0:0|0:0,0:0:0:0:
429,171,90915,1,0,0:0:0:0:
191,256,91115,5,0,0:0:0:0:
360,17,91315,1,0,0:0:0:0:
246,186,91515,1,0,0:0:0:0:
190,0,91715,1,0,0:0:0:0:
429,171,91915,1,0,0:0:0:0:
295,120,92115,1,0,0:0:0:0:
274,107,92215,1,0,0:0:0:0:
251,103,92315,1,0,0:0:0:0:
228,106,92415,1,0,0:0:0:0:
152,174,92515,5,0,0:0:0:0:
156,150,92615,1,0,0:0:0:0:
154,127,92715,1,0,0:0:0:0:
147,104,92815,1,0,0:0:0:0:
134,85,92915,1,0,0:0:0:0:
134,85,93115,1,0,0:0:0:0:
92,251,93315,2,0,B|131:287|187:267|187:267|247:317,1,141.900004330444,0|0,0:0|0:0,0:0:0:0:
244,223,93715,6,0,L|326:289,1,94.600002886963,0|0,0:0|0:0,0:0:0:0:
309,125,94115,2,0,B|270:89|214:109|214:109|154:59,1,141.900004330444,0|0,0:0|0:0,0:0:0:0:
157,153,94515,2,0,L|75:87,1,94.600002886963,0|0,0:0|0:0,0:0:0:0:
18,292,94915,6,0,B|57:328|113:308|113:308|173:358,1,141.900004330444,0|0,0:0|0:0,0:0:0:0:
170,264,95315,1,0,0:0:0:0:
188,278,95415,1,0,0:0:0:0:
206,293,95515,1,0,0:0:0:0:
225,308,95615,1,0,0:0:0:0:
291,384,95715,5,0,0:0:0:0:
289,360,95815,1,0,0:0:0:0:
295,337,95915,1,0,0:0:0:0:
307,317,96015,1,0,0:0:0:0:
324,301,96115,1,0,0:0:0:0:
324,301,96315,1,0,0:0:0:0:
442,352,96515,1,0,0:0:0:0:
423,170,96715,1,0,0:0:0:0:
236,201,96915,2,0,P|184:220|103:188,1,141.900004330444,0|0,0:0|0:0,0:0:0:0:
29,170,97315,6,0,P|57:125|114:112,1,94.600002886963,0|0,0:0|0:0,0:0:0:0:
257,103,97715,1,0,0:0:0:0:
241,307,97915,1,0,0:0:0:0:
366,223,98115,1,0,0:0:0:0:
259,69,98315,1,0,0:0:0:0:
133,207,98515,5,0,0:0:0:0:
133,207,98715,1,0,0:0:0:0:
376,98,98915,1,0,0:0:0:0:
329,301,99115,1,0,0:0:0:0:
152,101,99315,1,0,0:0:0:0:
159,117,99415,1,0,0:0:0:0:
188,71,99515,2,0,P|229:51|285:55,1,94.600002886963,0|0,0:0|0:0,0:0:0:0:
459,160,99915,1,0,0:0:0:0:
391,60,100115,6,0,B|356:144|356:144|306:153,1,141.900004330444,0|0,0:0|0:0,0:0:0:0:
351,221,100515,2,0,L|245:241,1,94.600002886963,0|0,0:0|0:0,0:0:0:0:
37,157,100915,6,0,B|72:241|72:241|122:250,1,141.900004330444,0|0,0:0|0:0,0:0:0:0:
77,318,101315,2,0,L|183:338,1,94.600002886963,0|0,0:0|0:0,0:0:0:0:
214,143,101715,1,0,0:0:0:0:
218,166,101815,1,0,0:0:0:0:
223,189,101915,1,0,0:0:0:0:
227,212,102015,1,0,0:0:0:0:
206,306,102115,5,0,0:0:0:0:
224,291,102215,1,0,0:0:0:0:
247,283,102315,1,0,0:0:0:0:
270,282,102415,1,0,0:0:0:0:
293,287,102515,1,0,0:0:0:0:
293,287,102715,1,0,0:0:0:0:
312,160,102915,2,0,P|296:105|261:73,1,94.600002886963,0|0,0:0|0:0,0:0:0:0:
220,130,103215,1,0,0:0:0:0:
214,143,103315,6,0,B|186:194|186:194|127:215,1,94.600002886963,0|0,0:0|0:0,0:0:0:0:
83,227,103615,1,0,0:0:0:0:
70,231,103715,2,0,P|60:180|75:128,1,94.600002886963,0|0,0:0|0:0,0:0:0:0:
90,98,104015,1,0,0:0:0:0:
99,59,104115,1,0,0:0:0:0:
122,54,104215,1,0,0:0:0:0:
145,49,104315,2,0,P|171:44|192:26,1,47.3000014434815,0|0,0:0|0:0,0:0:0:0:
207,217,104515,6,0,P|181:222|160:240,1,47.3000014434815,0|0,0:0|0:0,0:0:0:0:
296,113,104715,1,0,0:0:0:0:
166,143,104915,1,0,0:0:0:0:
144,151,105015,1,0,0:0:0:0:
122,160,105115,1,0,0:0:0:0:
100,169,105215,1,0,0:0:0:0:
1,179,105315,5,0,0:0:0:0:
21,190,105415,1,0,0:0:0:0:
36,208,105515,1,0,0:0:0:0:
44,230,105615,1,0,0:0:0:0:
42,253,105715,1,0,0:0:0:0:
42,253,105915,1,0,0:0:0:0:
300,384,106115,2,0,B|317:291|317:291|372:251,1,141.900004330444,0|0,0:0|0:0,0:0:0:0:
291,220,106515,2,0,L|380:161,1,94.600002886963,0|0,0:0|0:0,0:0:0:0:
212,105,106915,6,0,B|195:198|195:198|140:238,1,141.900004330444,0|0,0:0|0:0,0:0:0:0:
221,269,107315,2,0,L|132:328,1,94.600002886963,0|0,0:0|0:0,0:0:0:0:
9,227,107715,2,0,B|26:134|26:134|81:94,1,141.900004330444,0|0,0:0|0:0,0:0:0:0:
0,63,108115,6,0,L|89:4,1,94.600002886963,0|0,0:0|0:0,0:0:0:0:
95,174,108515,1,0,0:0:0:0:
104,167,108615,1,0,0:0:0:0:
114,160,108715,2,0,P|134:138|143:124,1,47.3000014434815,0|0,0:0|0:0,0:0:0:0:
183,292,108915,1,0,0:0:0:0:
226,102,109115,1,0,0:0:0:0:
237,105,109215,1,0,0:0:0:0:
248,108,109315,5,0,0:0:0:0:
405,369,109515,1,0,0:0:0:0:
394,366,109615,1,0,0:0:0:0:
383,363,109715,1,0,0:0:0:0:
0,297,109915,1,0,0:0:0:0:
11,300,110015,1,0,0:0:0:0:
22,303,110115,1,0,0:0:0:0:
218,292,110315,1,0,0:0:0:0:
87,210,110515,1,0,0:0:0:0:
88,186,110615,1,0,0:0:0:0:
89,162,110715,1,0,0:0:0:0:
90,139,110815,1,0,0:0:0:0:
55,47,110915,5,0,0:0:0:0:
74,59,111015,1,0,0:0:0:0:
97,64,111115,1,0,0:0:0:0:
121,61,111215,1,0,0:0:0:0:
144,49,111315,1,0,0:0:0:0:
162,63,111415,1,0,0:0:0:0:
181,78,111515,1,0,0:0:0:0:
199,93,111615,1,0,0:0:0:0:
248,168,111715,5,0,0:0:0:0:
254,145,111815,1,0,0:0:0:0:
266,125,111915,1,0,0:0:0:0:
284,110,112015,1,0,0:0:0:0:
306,101,112115,1,0,0:0:0:0:
373,250,112315,1,0,0:0:0:0:
475,379,112515,2,0,P|485:344|481:309,1,68.8,0|0,0:0|0:0,0:0:0:0:
467,280,114115,5,0,0:0:0:0:
451,249,114915,5,0,0:0:0:0:
512,72,115115,5,0,0:0:0:0:
361,147,115315,1,0,0:0:0:0:
210,222,115515,1,0,0:0:0:0:
59,297,115715,2,0,P|67:269|61:231,1,68.8,0|0,0:0|0:0,0:0:0:0:
49,207,117315,5,0,0:0:0:0:
37,186,118115,5,0,0:0:0:0:
37,24,118315,5,0,0:0:0:0:
188,99,118515,1,0,0:0:0:0:
339,174,118715,1,0,0:0:0:0:
490,249,118915,2,0,P|482:221|488:183,1,68.8,0|0,0:0|0:0,0:0:0:0:
469,298,120515,5,0,0:0:0:0:
466,323,121315,5,0,0:0:0:0:
512,196,121515,5,0,0:0:0:0:
349,240,121715,1,0,0:0:0:0:
186,285,121915,1,0,0:0:0:0:
25,330,122115,2,0,P|38:304|36:238,1,94.6,0|0,0:0|0:0,0:0:0:0:
15,208,123315,1,0,0:0:0:0:
186,285,123515,5,0,0:0:0:0:
218,291,123615,2,0,L|269:304,1,47.3000014434815,0|0,0:0|0:0,0:0:0:0:
167,163,123815,5,0,0:0:0:0:
119,154,123915,2,0,L|68:141,1,47.3000014434815,0|0,0:0|0:0,0:0:0:0:
177,15,124115,5,0,0:0:0:0:
205,28,124215,1,0,0:0:0:0:
227,50,124315,1,0,0:0:0:0:
239,79,124415,1,0,0:0:0:0:
239,111,124515,5,0,0:0:0:0:
260,99,124615,1,0,0:0:0:0:
282,92,124715,1,0,0:0:0:0:
306,90,124815,1,0,0:0:0:0:
331,93,124915,2,0,P|379:122|401:167,1,94.600002886963,0|0,0:0|0:0,0:0:0:0:
409,326,125315,1,0,0:0:0:0:
426,64,125515,2,0,L|390:177,1,94.600002886963,0|0,0:0|0:0,0:0:0:0:
409,326,125915,1,0,0:0:0:0:
484,115,126115,6,0,B|447:225|447:225|385:248|341:206,1,189.200005773926,0|0,0:0|0:0,0:0:0:0:
260,184,126715,1,0,0:0:0:0:
332,384,126915,1,0,0:0:0:0:
375,227,127115,1,0,0:0:0:0:
217,349,127315,5,0,0:0:0:0:
144,244,127515,1,0,0:0:0:0:
13,289,127715,2,0,B|22:349|88:387|88:387|117:323,1,189.200005773926,0|0,0:0|0:0,0:0:0:0:
162,167,128315,1,0,0:0:0:0:
241,384,128515,5,0,0:0:0:0:
292,247,128715,1,0,0:0:0:0:
128,324,128915,2,0,P|173:280|274:253,1,141.900004330444,0|0,0:0|0:0,0:0:0:0:
292,247,129315,1,0,0:0:0:0:
357,369,129515,1,0,0:0:0:0:
416,127,129715,6,0,P|373:202|316:235,1,141.900004330444,0|0,0:0|0:0,0:0:0:0:
292,247,130115,1,0,0:0:0:0:
246,133,130315,1,0,0:0:0:0:
397,186,130515,1,0,0:0:0:0:
336,335,130715,1,0,0:0:0:0:
182,299,130915,6,0,P|149:255|96:238,1,94.600002886963,0|0,0:0|0:0,0:0:0:0:
31,227,131215,1,0,0:0:0:0:
0,227,131315,2,0,L|21:123,1,94.600002886963,0|0,0:0|0:0,0:0:0:0:
45,0,131715,1,0,0:0:0:0:
131,164,131915,2,0,P|184:203|225:207,1,94.600002886963,0|0,0:0|0:0,0:0:0:0:
288,206,132215,1,0,0:0:0:0:
325,204,132315,2,0,L|340:103,1,94.600002886963,0|0,0:0|0:0,0:0:0:0:
355,0,132715,1,0,0:0:0:0:
414,190,132915,1,0,0:0:0:0:
415,207,133015,1,0,0:0:0:0:
412,225,133115,1,0,0:0:0:0:
407,241,133215,1,0,0:0:0:0:
398,257,133315,5,0,0:0:0:0:
386,270,133415,1,0,0:0:0:0:
372,281,133515,1,0,0:0:0:0:
356,288,133615,1,0,0:0:0:0:
337,294,133715,2,0,L|279:278,1,47.3000014434815,0|0,0:0|0:0,0:0:0:0:
250,198,133915,2,0,L|192:214,1,47.3000014434815,0|0,0:0|0:0,0:0:0:0:
197,294,134115,2,0,L|139:278,1,47.3000014434815,0|0,0:0|0:0,0:0:0:0:
110,198,134315,2,0,L|52:214,1,47.3000014434815,0|0,0:0|0:0,0:0:0:0:
179,21,134515,6,0,L|187:148,1,94.600002886963,0|0,0:0|0:0,0:0:0:0:
197,294,134915,1,0,0:0:0:0:
271,95,135115,1,0,0:0:0:0:
298,222,135315,2,0,P|340:179|474:175,1,189.200005773926,0|0,0:0|0:0,0:0:0:0:
411,295,135915,5,0,0:0:0:0:
269,191,136115,1,0,0:0:0:0:
286,167,136215,1,0,0:0:0:0:
308,147,136315,1,0,0:0:0:0:
334,132,136415,1,0,0:0:0:0:
362,123,136515,1,0,0:0:0:0:
391,118,136615,1,0,0:0:0:0:
422,119,136715,2,0,L|482:123,1,47.3000014434815,0|0,0:0|0:0,0:0:0:0:
502,232,136915,5,0,0:0:0:0:
506,272,137015,1,0,0:0:0:0:
311,328,137215,5,0,0:0:0:0:
306,287,137315,2,0,L|300:234,1,47.3000014434815,0|0,0:0|0:0,0:0:0:0:
403,237,137515,1,0,0:0:0:0:
408,283,137615,1,0,0:0:0:0:
413,330,137715,1,0,0:0:0:0:
231,365,137915,6,0,P|171:321|227:224,1,189.200005773926,0|0,0:0|0:0,0:0:0:0:
188,92,138515,2,0,P|248:136|192:233,1,189.200005773926,0|0,0:0|0:0,0:0:0:0:
30,198,139115,6,0,B|123:165|119:265|228:221,1,189.200005773926,0|0,0:0|0:0,0:0:0:0:
460,247,139715,2,0,L|472:198,1,47.3000014434815,0|0,0:0|0:0,0:0:0:0:
355,178,139915,2,0,L|343:129,1,47.3000014434815,0|0,0:0|0:0,0:0:0:0:
469,68,140115,2,0,L|458:114,1,47.3000014434815,0|0,0:0|0:0,0:0:0:0:
341,0,140315,2,0,L|353:45,1,47.3000014434815,0|0,0:0|0:0,0:0:0:0:
355,178,140515,6,0,L|297:157,1,47.3000014434815,0|0,0:0|0:0,0:0:0:0:
277,257,140715,2,0,L|219:278,1,47.3000014434815,0|0,0:0|0:0,0:0:0:0:
350,382,140915,2,0,L|394:365,1,47.3000014434815,0|0,0:0|0:0,0:0:0:0:
428,270,141115,2,0,L|472:286,1,47.3000014434815,0|0,0:0|0:0,0:0:0:0:
359,94,141315,1,0,0:0:0:0:
353,275,141515,1,0,0:0:0:0:
220,163,141715,6,0,P|220:223|186:267,1,94.600002886963,0|0,0:0|0:0,0:0:0:0:
176,279,142015,1,0,0:0:0:0:
144,300,142115,1,0,0:0:0:0:
4,243,142315,1,0,0:0:0:0:
2,195,142415,1,0,0:0:0:0:
0,148,142515,2,0,P|12:106|72:74,1,94.600002886963,0|0,0:0|0:0,0:0:0:0:
91,232,142915,5,0,0:0:0:0:
83,249,143015,1,0,0:0:0:0:
75,266,143115,1,0,0:0:0:0:
26,359,143315,2,0,P|83:377|130:353,1,94.600002886963,0|0,0:0|0:0,0:0:0:0:
138,147,143715,2,0,L|171:246,1,94.600002886963,0|0,0:0|0:0,0:0:0:0:
203,317,144015,1,0,0:0:0:0:
221,297,144115,6,0,P|257:271|319:268,1,94.600002886963,0|0,0:0|0:0,0:0:0:0:
474,344,144515,1,0,0:0:0:0:
292,174,144715,2,0,P|350:203|371:251,1,94.600002886963,0|0,0:0|0:0,0:0:0:0:
383,308,145015,1,0,0:0:0:0:
385,330,145115,1,0,0:0:0:0:
434,134,145315,5,0,0:0:0:0:
474,344,145515,1,0,0:0:0:0:
296,268,145715,2,0,P|227:267|157:368,1,189.200005773926,0|0,0:0|0:0,0:0:0:0:
159,198,146315,1,0,0:0:0:0:
256,363,146515,6,0,L|310:387,1,47.3000014434815,0|0,0:0|0:0,0:0:0:0:
296,268,146715,2,0,L|350:244,1,47.3000014434815,0|0,0:0|0:0,0:0:0:0:
390,349,146915,2,0,L|444:373,1,47.3000014434815,0|0,0:0|0:0,0:0:0:0:
430,254,147115,2,0,L|484:230,1,47.3000014434815,0|0,0:0|0:0,0:0:0:0:
332,138,147315,1,0,0:0:0:0:
314,121,147415,1,0,0:0:0:0:
294,109,147515,1,0,0:0:0:0:
272,102,147615,1,0,0:0:0:0:
206,40,147715,5,0,0:0:0:0:
197,74,147815,1,0,0:0:0:0:
189,108,147915,2,0,L|173:171,1,47.3000014434815,0|0,0:0|0:0,0:0:0:0:
4,264,148115,2,0,P|52:264|94:306,1,94.600002886963,0|0,0:0|0:0,0:0:0:0:
167,186,148515,1,0,0:0:0:0:
111,384,148715,1,0,0:0:0:0:
252,283,148915,5,0,0:0:0:0:
297,270,149015,1,0,0:0:0:0:
343,257,149115,1,0,0:0:0:0:
342,272,149215,1,0,0:0:0:0:
341,286,149315,1,0,0:0:0:0:
340,300,149415,1,0,0:0:0:0:
408,336,149515,1,0,0:0:0:0:
453,323,149615,1,0,0:0:0:0:
499,310,149715,1,0,0:0:0:0:
500,295,149815,1,0,0:0:0:0:
501,281,149915,2,0,L|503:225,1,47.3000014434815,0|0,0:0|0:0,0:0:0:0:
501,75,150115,6,0,L|503:19,1,47.3000014434815,0|0,0:0|0:0,0:0:0:0:
424,150,150315,1,0,0:0:0:0:
422,197,150415,1,0,0:0:0:0:
421,244,150515,2,0,P|371:272|323:270,1,94.600002886963,0|0,0:0|0:0,0:0:0:0:
185,222,150915,1,0,0:0:0:0:
285,70,151115,6,0,P|331:28|320:111,1,189.200005773926,0|0,0:0|0:0,0:0:0:0:
206,86,151715,2,0,P|206:51|213:30,1,47.3000014434815,0|0,0:0|0:0,0:0:0:0:
368,180,151915,2,0,P|341:186|302:173,1,47.3000014434815,0|0,0:0|0:0,0:0:0:0:
331,0,152115,2,0,P|374:19|391:63,1,94.600002886963,0|0,0:0|0:0,0:0:0:0:
283,174,152515,5,0,0:0:0:0:
262,186,152615,1,0,0:0:0:0:
239,189,152715,1,0,0:0:0:0:
216,183,152815,1,0,0:0:0:0:
198,169,152915,1,0,0:0:0:0:
186,149,153015,1,0,0:0:0:0:
183,125,153115,1,0,0:0:0:0:
190,103,153215,1,0,0:0:0:0:
205,85,153315,2,0,L|141:91,1,47.3000014434815,0|0,0:0|0:0,0:0:0:0:
36,215,153515,6,0,P|57:269|93:301,1,94.600002886963,0|0,0:0|0:0,0:0:0:0:
81,116,153915,2,0,P|57:169|60:217,1,94.600002886963,0|0,0:0|0:0,0:0:0:0:
184,50,154315,1,0,0:0:0:0:
149,238,154515,2,0,L|191:268,1,47.3000014434815,0|0,0:0|0:0,0:0:0:0:
166,150,154715,2,0,L|208:180,1,47.3000014434815,0|0,0:0|0:0,0:0:0:0:
259,329,154915,6,0,P|265:369|257:390,1,47.3000014434815,0|0,0:0|0:0,0:0:0:0:
324,256,155115,2,0,P|363:262|381:276,1,47.3000014434815,0|0,0:0|0:0,0:0:0:0:
291,151,155315,2,0,P|309:115|328:102,1,47.3000014434815,0|0,0:0|0:0,0:0:0:0:
329,328,155515,2,0,P|419:319|355:195,1,283.800008660889,0|0,0:0|0:0,0:0:0:0:
203,232,156315,5,0,0:0:0:0:
369,265,156515,2,0,L|388:161,1,94.600002886963,0|0,0:0|0:0,0:0:0:0:
404,91,156815,1,0,0:0:0:0:
409,62,156915,2,0,P|348:76|303:62,1,94.600002886963,0|0,0:0|0:0,0:0:0:0:
189,0,157315,5,0,0:0:0:0:
161,124,157515,2,0,P|134:193|97:218,1,94.600002886963,0|0,0:0|0:0,0:0:0:0:
29,229,157815,1,0,0:0:0:0:
0,234,157915,2,0,L|15:335,1,94.600002886963,0|0,0:0|0:0,0:0:0:0:
144,359,158315,1,0,0:0:0:0:
119,205,158515,5,0,0:0:0:0:
135,187,158615,1,0,0:0:0:0:
156,178,158715,1,0,0:0:0:0:
180,178,158815,1,0,0:0:0:0:
205,185,158915,1,0,0:0:0:0:
226,193,159015,1,0,0:0:0:0:
250,193,159115,1,0,0:0:0:0:
271,183,159215,1,0,0:0:0:0:
287,166,159315,2,0,L|277:117,1,47.3000014434815,0|0,0:0|0:0,0:0:0:0:
371,72,159515,2,0,L|381:23,1,47.3000014434815,0|0,0:0|0:0,0:0:0:0:
183,13,159715,5,0,0:0:0:0:
193,59,159815,1,0,0:0:0:0:
205,105,159915,2,0,L|218:158,1,47.3000014434815,0|0,0:0|0:0,0:0:0:0:
122,121,160115,1,0,0:0:0:0:
131,163,160215,1,0,0:0:0:0:
143,203,160315,2,0,L|154:251,1,47.3000014434815,0|0,0:0|0:0,0:0:0:0:
202,384,160515,1,0,0:0:0:0:
72,337,160715,1,0,0:0:0:0:
254,269,160915,6,0,P|296:225|298:171,1,94.600002886963,0|0,0:0|0:0,0:0:0:0:
251,53,161315,1,0,0:0:0:0:
355,279,161515,1,0,0:0:0:0:
381,161,161715,1,0,0:0:0:0:
379,115,161815,1,0,0:0:0:0:
339,93,161915,1,0,0:0:0:0:
299,114,162015,1,0,0:0:0:0:
296,160,162115,1,0,0:0:0:0:
276,201,162215,1,0,0:0:0:0:
233,217,162315,1,0,0:0:0:0:
190,200,162415,1,0,0:0:0:0:
125,124,162515,5,0,0:0:0:0:
113,169,162615,1,0,0:0:0:0:
102,215,162715,1,0,0:0:0:0:
91,261,162815,1,0,0:0:0:0:
61,354,162915,5,0,0:0:0:0:
103,333,163015,1,0,0:0:0:0:
149,327,163115,1,0,0:0:0:0:
195,338,163215,1,0,0:0:0:0:
235,364,163315,2,0,P|288:383|359:348,1,94.600002886963,0|0,0:0|0:0,0:0:0:0:
224,176,163715,1,0,0:0:0:0:
339,272,163915,2,0,P|391:290|462:255,1,94.600002886963,0|0,0:0|0:0,0:0:0:0:
327,99,164315,1,0,0:0:0:0:
508,240,164515,5,0,0:0:0:0:
487,229,164615,1,0,0:0:0:0:
464,231,164715,1,0,0:0:0:0:
446,246,164815,1,0,0:0:0:0:
440,268,164915,1,0,0:0:0:0:
437,295,165015,1,0,0:0:0:0:
424,326,165115,1,0,0:0:0:0:
402,351,165215,1,0,0:0:0:0:
373,368,165315,1,0,0:0:0:0:
340,374,165415,1,0,0:0:0:0:
307,368,165515,1,0,0:0:0:0:
278,352,165615,1,0,0:0:0:0:
255,326,165715,6,0,L|266:264,1,47.3000014434815,0|0,0:0|0:0,0:0:0:0:
151,282,165915,2,0,L|140:219,1,47.3000014434815,0|0,0:0|0:0,0:0:0:0:
241,190,166115,2,0,L|251:127,1,47.3000014434815,0|0,0:0|0:0,0:0:0:0:
136,145,166315,2,0,L|125:82,1,47.3000014434815,0|0,0:0|0:0,0:0:0:0:
263,35,166515,2,0,P|341:45|371:87,1,94.600002886963,0|0,0:0|0:0,0:0:0:0:
297,256,166915,5,0,0:0:0:0:
248,143,167115,1,0,0:0:0:0:
370,315,167315,1,0,0:0:0:0:
419,202,167515,1,0,0:0:0:0:
256,356,167715,1,0,0:0:0:0:
207,243,167915,1,0,0:0:0:0:
367,384,168115,5,0,0:0:0:0:
411,370,168215,1,0,0:0:0:0:
436,331,168315,1,0,0:0:0:0:
432,285,168415,1,0,0:0:0:0:
400,252,168515,2,0,P|346:248|301:300,1,94.600002886963,0|0,0:0|0:0,0:0:0:0:
289,301,168815,1,0,0:0:0:0:
270,333,168915,1,0,0:0:0:0:
124,365,169115,2,0,L|150:318,1,47.3000014434815,0|0,0:0|0:0,0:0:0:0:
200,216,169315,5,0,0:0:0:0:
207,169,169415,1,0,0:0:0:0:
192,125,169515,1,0,0:0:0:0:
160,91,169615,1,0,0:0:0:0:
115,76,169715,2,0,L|167:52,1,47.3000014434815,0|0,0:0|0:0,0:0:0:0:
253,0,169915,1,0,0:0:0:0:
104,181,170115,1,0,0:0:0:0:
285,110,170315,2,0,P|298:161|289:213,1,94.600002886963,0|0,0:0|0:0,0:0:0:0:
191,364,170715,6,0,P|263:317|377:354,1,189.200005773926,0|0,0:0|0:0,0:0:0:0:
512,301,171315,1,0,0:0:0:0:
344,229,171515,2,0,L|443:274,1,94.600002886963,0|0,0:0|0:0,0:0:0:0:
475,93,171915,2,0,L|474:188,1,94.600002886963,0|0,0:0|0:0,0:0:0:0:
344,229,172315,1,0,0:0:0:0:
349,19,172515,2,0,L|348:114,1,94.600002886963,0|0,0:0|0:0,0:0:0:0:
236,268,172915,5,0,0:0:0:0:
249,141,173115,1,0,0:0:0:0:
221,102,173215,1,0,0:0:0:0:
193,64,173315,1,0,0:0:0:0:
148,194,173515,1,0,0:0:0:0:
101,186,173615,1,0,0:0:0:0:
54,178,173715,1,0,0:0:0:0:
236,268,173915,1,0,0:0:0:0:
270,273,174015,1,0,0:0:0:0:
305,279,174115,5,0,0:0:0:0:
340,285,174215,1,0,0:0:0:0:
375,291,174315,2,0,P|374:256|383:234,1,47.3000014434815,0|0,0:0|0:0,0:0:0:0:
453,308,174515,2,0,P|452:273|461:251,1,47.3000014434815,0|0,0:0|0:0,0:0:0:0:
491,160,174715,1,0,0:0:0:0:
504,114,174815,1,0,0:0:0:0:
500,68,174915,1,0,0:0:0:0:
366,35,175115,1,0,0:0:0:0:
326,58,175215,1,0,0:0:0:0:
325,103,175315,5,0,0:0:0:0:
362,128,175415,1,0,0:0:0:0:
404,111,175515,1,0,0:0:0:0:
375,98,175615,1,0,0:0:0:0:
344,94,175715,1,0,0:0:0:0:
313,99,175815,1,0,0:0:0:0:
282,107,175915,1,0,0:0:0:0:
251,109,176015,1,0,0:0:0:0:
221,100,176115,6,0,B|206:195|206:195|154:248,1,141.900004330444,0|0,0:0|0:0,0:0:0:0:
235,278,176515,2,0,L|314:199,1,94.600002886963,0|0,0:0|0:0,0:0:0:0:
439,49,176915,2,0,B|454:143|454:143|506:196,1,141.900004330444,0|0,0:0|0:0,0:0:0:0:
425,226,177315,2,0,L|346:147,1,94.600002886963,0|0,0:0|0:0,0:0:0:0:
179,93,177715,6,0,B|84:108|84:108|31:160,1,141.900004330444,0|0,0:0|0:0,0:0:0:0:
1,79,178115,2,0,L|80:0,1,94.600002886963,0|0,0:0|0:0,0:0:0:0:
137,171,178515,1,0,0:0:0:0:
182,181,178615,1,0,0:0:0:0:
226,166,178715,1,0,0:0:0:0:
257,131,178815,1,0,0:0:0:0:
266,85,178915,6,0,L|261:18,1,47.3000014434815,0|0,0:0|0:0,0:0:0:0:
344,0,179115,2,0,L|361:198,1,189.200005773926,0|0,0:0|0:0,0:0:0:0:
512,312,179715,2,0,P|465:271|422:262,1,94.600002886963,0|0,0:0|0:0,0:0:0:0:
131,321,180115,6,0,P|68:330|93:222,1,189.200005773926,0|0,0:0|0:0,0:0:0:0:
184,183,180715,1,0,0:0:0:0:
227,331,180915,1,0,0:0:0:0:
242,333,181015,1,0,0:0:0:0:
258,335,181115,1,0,0:0:0:0:
273,337,181215,1,0,0:0:0:0:
289,339,181315,5,0,0:0:0:0:
305,341,181415,1,0,0:0:0:0:
322,343,181515,2,0,P|364:315|373:260,1,94.600002886963,0|0,0:0|0:0,0:0:0:0:
272,189,181915,1,0,0:0:0:0:
459,146,182115,1,0,0:0:0:0:
443,148,182215,1,0,0:0:0:0:
427,150,182315,1,0,0:0:0:0:
412,152,182415,1,0,0:0:0:0:
396,154,182515,5,0,0:0:0:0:
380,156,182615,1,0,0:0:0:0:
364,157,182715,2,0,P|322:129|313:74,1,94.600002886963,0|0,0:0|0:0,0:0:0:0:
414,4,183115,1,0,0:0:0:0:
212,24,183315,1,0,0:0:0:0:
196,26,183415,1,0,0:0:0:0:
180,28,183515,1,0,0:0:0:0:
165,30,183615,1,0,0:0:0:0:
149,32,183715,5,0,0:0:0:0:
133,34,183815,1,0,0:0:0:0:
118,37,183915,2,0,B|119:103|49:120|49:120|18:202,1,189.200005773926,0|0,0:0|0:0,0:0:0:0:
78,272,184515,1,0,0:0:0:0:
93,269,184615,1,0,0:0:0:0:
109,267,184715,1,0,0:0:0:0:
124,265,184815,1,0,0:0:0:0:
140,263,184915,5,0,0:0:0:0:
156,261,185015,1,0,0:0:0:0:
172,259,185115,2,0,B|171:193|241:176|241:176|272:94,1,189.200005773926,0|0,0:0|0:0,0:0:0:0:
278,72,185615,1,0,0:0:0:0:
320,53,185715,1,0,0:0:0:0:
335,54,185815,1,0,0:0:0:0:
351,55,185915,1,0,0:0:0:0:
367,57,186015,1,0,0:0:0:0:
382,58,186115,5,0,0:0:0:0:
398,59,186215,1,0,0:0:0:0:
414,61,186315,2,0,B|412:111|459:140|459:140|422:177|432:232,1,189.200005773926,0|0,0:0|0:0,0:0:0:0:
366,329,186915,1,0,0:0:0:0:
350,327,187015,1,0,0:0:0:0:
334,326,187115,1,0,0:0:0:0:
318,324,187215,1,0,0:0:0:0:
300,335,187315,5,0,0:0:0:0:
284,334,187415,1,0,0:0:0:0:
269,333,187515,2,0,P|256:283|224:254,1,94.600002886963,0|0,0:0|0:0,0:0:0:0:
172,364,187915,1,0,0:0:0:0:
45,259,188115,1,0,0:0:0:0:
61,257,188215,1,0,0:0:0:0:
77,256,188315,1,0,0:0:0:0:
93,254,188415,1,0,0:0:0:0:
108,253,188515,5,0,0:0:0:0:
124,252,188615,1,0,0:0:0:0:
139,251,188715,2,0,B|140:195|184:172|184:172|147:135|157:80,1,189.200005773926,0|0,0:0|0:0,0:0:0:0:
337,77,189315,1,0,0:0:0:0:
321,81,189415,1,0,0:0:0:0:
306,85,189515,1,0,0:0:0:0:
291,89,189615,1,0,0:0:0:0:
276,93,189715,5,0,0:0:0:0:
260,97,189815,1,0,0:0:0:0:
245,101,189915,2,0,P|263:156|306:176,1,94.600002886963,0|0,0:0|0:0,0:0:0:0:
416,58,190315,1,0,0:0:0:0:
448,202,190515,1,0,0:0:0:0:
449,248,190615,1,0,0:0:0:0:
430,291,190715,1,0,0:0:0:0:
395,322,190815,1,0,0:0:0:0:
350,335,190915,6,0,L|274:313,1,47.3000014434815,0|0,0:0|0:0,0:0:0:0:
264,159,191115,2,0,B|256:252|256:252|205:302,1,141.900004330444,0|0,0:0|0:0,0:0:0:0:
177,307,191515,1,0,0:0:0:0:
125,291,191615,1,0,0:0:0:0:
73,270,191715,1,0,0:0:0:0:
80,283,191815,1,0,0:0:0:0:
87,297,191915,1,0,0:0:0:0:
95,311,192015,1,0,0:0:0:0:
102,325,192115,5,0,0:0:0:0:
110,339,192215,1,0,0:0:0:0:
117,353,192315,2,0,B|168:330|219:353|219:353|288:293,1,189.200005773926,0|0,0:0|0:0,0:0:0:0:
411,192,192915,1,0,0:0:0:0:
403,178,193015,1,0,0:0:0:0:
396,164,193115,1,0,0:0:0:0:
388,150,193215,1,0,0:0:0:0:
381,136,193315,5,0,0:0:0:0:
373,122,193415,1,0,0:0:0:0:
367,109,193515,2,0,P|331:124|273:109,1,94.600002886963,0|0,0:0|0:0,0:0:0:0:
203,3,193915,1,0,0:0:0:0:
157,145,194115,2,0,P|152:195|179:244,1,94.600002886963,0|0,0:0|0:0,0:0:0:0:
299,285,194515,5,0,0:0:0:0:
274,125,194715,2,0,B|262:99|244:88|244:88|208:171|278:221,1,189.200005773926,0|0,0:0|0:0,0:0:0:0:
382,258,195315,1,0,0:0:0:0:
384,242,195415,1,0,0:0:0:0:
387,226,195515,1,0,0:0:0:0:
390,211,195615,1,0,0:0:0:0:
393,195,195715,5,0,0:0:0:0:
396,180,195815,1,0,0:0:0:0:
399,164,195915,2,0,B|445:134|445:134|496:169|489:260,1,189.200005773926,0|0,0:0|0:0,0:0:0:0:
476,297,196415,1,0,0:0:0:0:
456,320,196515,1,0,0:0:0:0:
440,322,196615,1,0,0:0:0:0:
424,325,196715,1,0,0:0:0:0:
409,327,196815,1,0,0:0:0:0:
393,330,196915,5,0,0:0:0:0:
378,332,197015,1,0,0:0:0:0:
362,335,197115,2,0,B|309:301|309:301|332:231|399:223,1,189.200005773926,0|0,0:0|0:0,0:0:0:0:
512,120,197715,2,0,P|522:72|419:74,1,189.200005773926,0|0,0:0|0:0,0:0:0:0:
421,243,198315,6,0,P|397:301|347:326,1,94.600002886963,0|0,0:0|0:0,0:0:0:0:
215,344,198715,1,0,0:0:0:0:
209,153,198915,2,0,P|232:100|319:88,1,141.900004330444,0|0,0:0|0:0,0:0:0:0:
350,96,199315,5,0,0:0:0:0:
361,284,199515,2,0,P|338:337|251:349,1,141.900004330444,0|0,0:0|0:0,0:0:0:0:
215,344,199915,1,0,0:0:0:0:
270,213,200115,1,0,0:0:0:0:
285,209,200215,1,0,0:0:0:0:
301,209,200315,1,0,0:0:0:0:
316,212,200415,1,0,0:0:0:0:
331,218,200515,5,0,0:0:0:0:
344,227,200615,1,0,0:0:0:0:
355,237,200715,2,0,B|426:135|426:135|408:65,1,189.200005773926,0|0,0:0|0:0,0:0:0:0:
383,31,201215,1,0,0:0:0:0:
385,71,201315,1,0,0:0:0:0:
375,83,201415,1,0,0:0:0:0:
366,96,201515,1,0,0:0:0:0:
357,109,201615,1,0,0:0:0:0:
348,122,201715,5,0,0:0:0:0:
338,134,201815,1,0,0:0:0:0:
329,147,201915,2,0,P|279:128|230:143,1,94.600002886963,0|0,0:0|0:0,0:0:0:0:
148,233,202315,1,0,0:0:0:0:
382,212,202515,1,0,0:0:0:0:
491,55,202715,1,0,0:0:0:0:
481,67,202815,1,0,0:0:0:0:
472,80,202915,5,0,0:0:0:0:
463,93,203015,1,0,0:0:0:0:
454,106,203115,2,0,L|421:151,1,47.3000014434815,0|0,0:0|0:0,0:0:0:0:
307,305,203315,1,0,0:0:0:0:
432,314,203515,1,0,0:0:0:0:
344,188,203715,2,0,P|307:156|214:153,1,141.900004330444,0|0,0:0|0:0,0:0:0:0:
205,196,204115,6,0,P|171:240|100:160,1,189.200005773926,0|0,0:0|0:0,0:0:0:0:
180,49,204715,1,0,0:0:0:0:
182,261,204915,2,0,P|132:272|95:249,1,94.600002886963,0|0,0:0|0:0,0:0:0:0:
43,147,205315,5,0,0:0:0:0:
267,271,205515,2,0,P|217:282|180:259,1,94.600002886963,0|0,0:0|0:0,0:0:0:0:
128,157,205915,1,0,0:0:0:0:
362,237,206115,1,0,0:0:0:0:
350,282,206215,1,0,0:0:0:0:
339,328,206315,2,0,L|291:354,1,47.3000014434815,0|0,0:0|0:0,0:0:0:0:
436,276,206515,6,0,L|477:253,1,47.3000014434815,0|0,0:0|0:0,0:0:0:0:
395,99,206715,2,0,L|357:257,1,141.900004330444,0|0,0:0|0:0,0:0:0:0:
350,282,207115,1,0,0:0:0:0:
339,328,207215,1,0,0:0:0:0:
296,349,207315,1,0,0:0:0:0:
299,333,207415,1,0,0:0:0:0:
303,318,207515,1,0,0:0:0:0:
307,303,207615,1,0,0:0:0:0:
311,287,207715,5,0,0:0:0:0:
315,272,207815,1,0,0:0:0:0:
319,257,207915,2,0,B|263:226|215:258|215:258|152:202,1,189.200005773926,0|0,0:0|0:0,0:0:0:0:
143,53,208515,1,0,0:0:0:0:
154,63,208615,1,0,0:0:0:0:
166,74,208715,1,0,0:0:0:0:
178,84,208815,1,0,0:0:0:0:
189,95,208915,5,0,0:0:0:0:
201,105,209015,1,0,0:0:0:0:
213,116,209115,2,0,P|268:120|305:87,1,94.600002886963,0|0,0:0|0:0,0:0:0:0:
352,0,209515,1,0,0:0:0:0:
350,161,209715,2,0,B|340:217|340:217|373:256,1,94.600002886963,0|0,0:0|0:0,0:0:0:0:
487,350,210115,5,0,0:0:0:0:
509,198,210315,1,0,0:0:0:0:
314,151,210515,2,0,B|301:222|301:222|346:279,1,141.900004330444,0|0,0:0|0:0,0:0:0:0:
368,305,210915,1,0,0:0:0:0:
352,308,211015,1,0,0:0:0:0:
337,311,211115,1,0,0:0:0:0:
321,314,211215,1,0,0:0:0:0:
306,317,211315,5,0,0:0:0:0:
290,320,211415,1,0,0:0:0:0:
275,323,211515,2,0,B|193:267|193:267|86:293,1,189.200005773926,0|0,0:0|0:0,0:0:0:0:
169,360,212115,1,0,0:0:0:0:
172,344,212215,1,0,0:0:0:0:
176,329,212315,1,0,0:0:0:0:
179,313,212415,1,0,0:0:0:0:
183,298,212515,5,0,0:0:0:0:
186,283,212615,1,0,0:0:0:0:
190,267,212715,2,0,B|274:214|274:214|287:149,1,141.900004330444,0|0,0:0|0:0,0:0:0:0:
286,140,213115,1,0,0:0:0:0:
395,53,213315,2,0,L|382:123,1,47.3000014434815,0|0,0:0|0:0,0:0:0:0:
369,244,213515,6,0,P|320:251|286:141,1,189.200005773926,0|0,0:0|0:0,0:0:0:0:
471,135,214115,1,0,0:0:0:0:
497,263,214315,1,0,0:0:0:0:
335,186,214515,1,0,0:0:0:0:
379,327,214715,2,0,P|347:361|277:361,1,94.600002886963,0|0,0:0|0:0,0:0:0:0:
140,283,215115,2,0,P|126:223|232:173,1,189.200005773926,0|0,0:0|0:0,0:0:0:0:
208,298,215715,1,0,0:0:0:0:
203,313,215815,1,0,0:0:0:0:
195,326,215915,1,0,0:0:0:0:
184,337,216015,1,0,0:0:0:0:
171,346,216115,5,0,0:0:0:0:
156,351,216215,1,0,0:0:0:0:
140,352,216315,2,0,B|100:322|111:269|111:269|41:251|54:166,1,189.200005773926,0|0,0:0|0:0,0:0:0:0:
95,105,216915,1,0,0:0:0:0:
108,112,217015,1,0,0:0:0:0:
120,123,217115,1,0,0:0:0:0:
128,136,217215,1,0,0:0:0:0:
134,151,217315,5,0,0:0:0:0:
135,167,217415,1,0,0:0:0:0:
134,182,217515,2,0,P|178:156|237:157,1,94.600002886963,0|0,0:0|0:0,0:0:0:0:
411,184,217915,1,0,0:0:0:0:
195,336,218115,2,0,L|203:217,1,94.600002886963,0|0,0:0|0:0,0:0:0:0:
204,197,218415,1,0,0:0:0:0:
240,203,218515,5,0,0:0:0:0:
275,190,218615,1,0,0:0:0:0:
299,161,218715,1,0,0:0:0:0:
305,124,218815,1,0,0:0:0:0:
291,89,218915,2,0,L|423:102,1,94.600002886963,0|0,0:0|0:0,0:0:0:0:
486,219,219315,1,0,0:0:0:0:
470,217,219415,1,0,0:0:0:0:
454,216,219515,1,0,0:0:0:0:
438,214,219615,1,0,0:0:0:0:
423,213,219715,5,0,0:0:0:0:
407,211,219815,1,0,0:0:0:0:
391,210,219915,2,0,L|365:267,1,47.3000014434815,0|0,0:0|0:0,0:0:0:0:
334,150,220115,2,0,L|314:106,1,47.3000014434815,0|0,0:0|0:0,0:0:0:0:
268,308,220315,2,0,L|288:265,1,47.3000014434815,0|0,0:0|0:0,0:0:0:0:
214,80,220515,2,0,L|234:124,1,47.3000014434815,0|0,0:0|0:0,0:0:0:0:
167,247,220715,1,0,0:0:0:0:
127,271,220815,1,0,0:0:0:0:
80,271,220915,5,0,0:0:0:0:
41,245,221015,1,0,0:0:0:0:
22,203,221115,2,0,P|28:139|99:75,1,141.900004330444,0|0,0:0|0:0,0:0:0:0:
115,69,221515,2,0,L|118:33,1,23.6500007217407,0|0,0:0|0:0,0:0:0:0:
128,71,221615,2,0,L|131:35,1,23.6500007217407,0|0,0:0|0:0,0:0:0:0:
141,73,221715,2,0,L|144:37,1,23.6500007217407,0|0,0:0|0:0,0:0:0:0:
178,100,221815,1,0,0:0:0:0:
191,144,221915,2,0,P|191:171|179:205,1,47.3000014434815,0|0,0:0|0:0,0:0:0:0:
77,316,222115,5,0,0:0:0:0:
114,287,222215,1,0,0:0:0:0:
160,282,222315,5,0,0:0:0:0:
163,271,222415,1,0,0:0:0:0:
166,259,222515,1,0,0:0:0:0:
169,248,222615,1,0,0:0:0:0:
173,237,222715,2,0,L|186:185,1,47.3000014434815,0|0,0:0|0:0,0:0:0:0:
237,351,222915,2,0,P|298:327|357:348,1,94.600002886963,0|0,0:0|0:0,0:0:0:0:
366,342,223215,1,0,0:0:0:0:
366,342,223315,5,0,0:0:0:0:
457,371,223515,1,0,0:0:0:0:
483,129,223715,1,0,0:0:0:0:
468,248,223915,1,0,0:0:0:0:
457,371,224115,1,0,0:0:0:0:
457,371,224215,1,0,0:0:0:0:
320,266,224415,6,0,L|207:169,1,141.900004330444,0|0,0:0|0:0,0:0:0:0:
137,105,224915,1,0,0:0:0:0:
305,160,225115,1,0,0:0:0:0:
314,167,225215,1,0,0:0:0:0:
323,174,225315,2,0,P|356:187|421:169,1,94.600002886963,0|0,0:0|0:0,0:0:0:0:
424,166,225615,1,0,0:0:0:0:
430,153,225715,5,0,0:0:0:0:
340,78,225915,2,0,P|267:74|213:172,1,189.200005773926,0|0,0:0|0:0,0:0:0:0:
245,276,226515,1,0,0:0:0:0:
232,274,226615,1,0,0:0:0:0:
221,271,226715,2,0,P|168:254|140:211,1,94.600002886963,0|0,0:0|0:0,0:0:0:0:
139,211,227015,5,0,0:0:0:0:
135,197,227115,1,0,0:0:0:0:
306,54,227315,2,0,L|290:175,1,94.600002886963,0|0,0:0|0:0,0:0:0:0:
273,280,227715,2,0,P|336:295|391:272,1,94.600002886963,0|0,0:0|0:0,0:0:0:0:
375,280,228015,1,0,0:0:0:0:
387,272,228115,5,0,0:0:0:0:
484,142,228315,2,0,P|468:85|424:60,1,94.600002886963,0|0,0:0|0:0,0:0:0:0:
306,54,228715,1,0,0:0:0:0:
381,250,228915,1,0,0:0:0:0:
384,261,229015,1,0,0:0:0:0:
387,272,229115,1,0,0:0:0:0:
430,63,229415,1,0,0:0:0:0:
434,76,229515,2,0,L|466:190,1,94.600002886963,0|0,0:0|0:0,0:0:0:0:
495,281,229915,1,0,0:0:0:0:
315,68,230115,6,0,L|210:50,1,94.600002886963,0|0,0:0|0:0,0:0:0:0:
207,49,230415,1,0,0:0:0:0:
192,46,230515,1,0,0:0:0:0:
234,173,230715,1,0,0:0:0:0:
80,126,230915,1,0,0:0:0:0:
159,251,231115,1,0,0:0:0:0:
192,46,231315,1,0,0:0:0:0:
189,60,231415,1,0,0:0:0:0:
234,173,231615,2,0,P|298:204|385:175,1,141.900004330444,0|0,0:0|0:0,0:0:0:0:
470,32,232115,5,0,0:0:0:0:
461,234,232315,1,0,0:0:0:0:
458,245,232415,1,0,0:0:0:0:
453,256,232515,2,0,P|423:301|350:323,1,94.600002886963,0|0,0:0|0:0,0:0:0:0:
375,324,232815,1,0,0:0:0:0:
361,326,232915,5,0,0:0:0:0:
270,217,233115,2,0,L|258:106,1,94.600002886963,0|0,0:0|0:0,0:0:0:0:
243,0,233515,1,0,0:0:0:0:
185,148,233715,1,0,0:0:0:0:
172,155,233815,1,0,0:0:0:0:
158,158,233915,2,0,P|98:167|56:148,1,94.600002886963,0|0,0:0|0:0,0:0:0:0:
56,146,234215,5,0,0:0:0:0:
48,134,234315,2,0,L|63:35,1,94.600002886963,0|0,0:0|0:0,0:0:0:0:
158,158,234715,1,0,0:0:0:0:
356,142,234915,1,0,0:0:0:0:
256,311,235115,1,0,0:0:0:0:
238,327,235215,1,0,0:0:0:0:
216,335,235315,6,0,P|186:336|164:327,1,47.3000014434815,0|0,0:0|0:0,0:0:0:0:
158,158,235515,2,0,P|196:103|276:92,1,141.900004330444,0|0,0:0|0:0,0:0:0:0:
342,85,235915,1,0,0:0:0:0:
412,5,236115,1,0,0:0:0:0:
435,34,236215,1,0,0:0:0:0:
446,70,236315,1,0,0:0:0:0:
445,108,236415,1,0,0:0:0:0:
431,142,236515,1,0,0:0:0:0:
407,171,236615,1,0,0:0:0:0:
333,215,236715,5,0,0:0:0:0:
315,172,236815,1,0,0:0:0:0:
317,125,236915,2,0,L|349:71,1,47.3000014434815,0|0,0:0|0:0,0:0:0:0:
431,211,237115,2,0,L|406:170,1,47.3000014434815,0|0,0:0|0:0,0:0:0:0:
420,343,237315,2,0,L|395:302,1,47.3000014434815,0|0,0:0|0:0,0:0:0:0:
257,246,237515,1,0,0:0:0:0:
213,263,237615,1,0,0:0:0:0:
185,300,237715,5,0,0:0:0:0:
157,263,237815,1,0,0:0:0:0:
112,250,237915,2,0,P|116:190|67:123,1,141.900004330444,0|0,0:0|0:0,0:0:0:0:
28,113,238315,2,0,L|81:98,1,47.3000014434815,0|0,0:0|0:0,0:0:0:0:
162,251,238515,6,0,L|155:266,1,12.8999996063233,0|0,0:0|0:0,0:0:0:0:
270,287,238715,2,0,L|271:303,1,12.8999996063233,0|0,0:0|0:0,0:0:0:0:
368,235,238915,2,0,L|377:248,1,12.8999996063233,0|0,0:0|0:0,0:0:0:0:
350,105,239115,2,0,L|352:87,1,12.8999996063233,0|0,0:0|0:0,0:0:0:0:
264,190,239315,2,0,L|265:206,1,12.8999996063233,0|0,0:0|0:0,0:0:0:0:
270,287,239515,2,0,L|271:303,1,12.8999996063233,0|0,0:0|0:0,0:0:0:0:
350,105,239715,2,0,L|359:118,1,12.8999996063233,0|0,0:0|0:0,0:0:0:0:
368,235,239915,2,0,L|377:248,1,12.8999996063233,0|0,0:0|0:0,0:0:0:0:
461,60,240115,6,0,L|451:73,1,12.8999996063233,0|0,0:0|0:0,0:0:0:0:
387,165,240315,2,0,L|373:165,1,12.8999996063233,0|0,0:0|0:0,0:0:0:0:
468,261,240515,2,0,L|452:249,1,12.8999996063233,0|0,0:0|0:0,0:0:0:0:
512,150,240715,2,0,L|498:150,1,12.8999996063233,0|0,0:0|0:0,0:0:0:0:
365,48,240915,6,0,L|372:63,1,12.8999996063233,0|0,0:0|0:0,0:0:0:0:
257,84,241115,2,0,L|255:100,1,12.8999996063233,0|0,0:0|0:0,0:0:0:0:
159,32,241315,2,0,L|149:45,1,12.8999996063233,0|0,0:0|0:0,0:0:0:0:
253,166,241515,2,0,L|251:182,1,12.8999996063233,0|0,0:0|0:0,0:0:0:0:
154,214,241715,2,0,L|144:227,1,12.8999996063233,0|0,0:0|0:0,0:0:0:0:
337,237,241915,2,0,L|344:252,1,12.8999996063233,0|0,0:0|0:0,0:0:0:0:
348,336,242115,6,0,L|332:350,1,12.8999996063233,0|0,0:0|0:0,0:0:0:0:
127,321,242315,2,0,L|113:305,1,12.8999996063233,0|0,0:0|0:0,0:0:0:0:
237,353,242515,2,0,L|225:352,1,12.8999996063233,0|0,0:0|0:0,0:0:0:0:
246,249,242715,2,0,L|234:248,1,12.8999996063233,0|0,0:0|0:0,0:0:0:0:
444,276,242915,2,0,L|450:258,1,12.8999996063233,0|0,0:0|0:0,0:0:0:0:
382,137,243115,2,0,L|377:156,1,12.8999996063233,0|0,0:0|0:0,0:0:0:0:
246,249,243315,6,0,L|253:234,1,12.8999996063233,0|0,0:0|0:0,0:0:0:0:
138,213,243515,2,0,L|136:196,1,12.8999996063233,0|0,0:0|0:0,0:0:0:0:
40,265,243715,2,0,L|30:251,1,12.8999996063233,0|0,0:0|0:0,0:0:0:0:
216,154,243915,2,0,L|223:139,1,12.8999996063233,0|0,0:0|0:0,0:0:0:0:
54,177,244115,2,0,L|44:163,1,12.8999996063233,0|0,0:0|0:0,0:0:0:0:
128,116,244315,2,0,L|126:99,1,12.8999996063233,0|0,0:0|0:0,0:0:0:0:
203,23,244515,2,0,L|223:36,1,12.8999996063233,0|0,0:0|0:0,0:0:0:0:
216,154,244715,2,0,L|236:167,1,12.8999996063233,0|0,0:0|0:0,0:0:0:0:
321,0,244915,6,0,L|341:13,1,12.8999996063233,0|0,0:0|0:0,0:0:0:0:
322,125,245115,2,0,L|342:138,1,12.8999996063233,0|0,0:0|0:0,0:0:0:0:
465,8,245315,2,0,L|473:23,1,12.8999996063233,0|0,0:0|0:0,0:0:0:0:
425,171,245515,2,0,L|433:186,1,12.8999996063233,0|0,0:0|0:0,0:0:0:0:
286,268,245715,6,0,L|282:251,1,12.8999996063233,0|0,0:0|0:0,0:0:0:0:
375,330,245915,2,0,L|380:314,1,12.8999996063233,0|0,0:0|0:0,0:0:0:0:
483,329,246115,2,0,L|495:317,1,12.8999996063233,0|0,0:0|0:0,0:0:0:0:
413,213,246315,2,0,L|409:225,1,12.8999996063233,0|0,0:0|0:0,0:0:0:0:
375,330,246515,2,0,L|380:314,1,12.8999996063233,0|0,0:0|0:0,0:0:0:0:
499,238,246715,2,0,L|511:230,1,12.8999996063233,0|0,0:0|0:0,0:0:0:0:
444,123,246915,2,0,L|449:107,1,12.8999996063233,0|0,0:0|0:0,0:0:0:0:
332,178,247115,2,0,L|330:163,1,12.8999996063233,0|0,0:0|0:0,0:0:0:0:
325,42,247315,6,0,L|311:39,1,12.8999996063233,0|0,0:0|0:0,0:0:0:0:
456,125,247515,2,0,L|442:122,1,12.8999996063233,0|0,0:0|0:0,0:0:0:0:
319,198,247715,2,0,L|305:195,1,12.8999996063233,0|0,0:0|0:0,0:0:0:0:
325,22,247915,2,0,L|311:19,1,12.8999996063233,0|0,0:0|0:0,0:0:0:0:
121,38,248115,6,0,L|133:49,1,12.8999996063233,0|0,0:0|0:0,0:0:0:0:
62,126,248315,2,0,L|77:129,1,12.8999996063233,0|0,0:0|0:0,0:0:0:0:
55,231,248515,2,0,L|70:227,1,12.8999996063233,0|0,0:0|0:0,0:0:0:0:
180,113,248715,2,0,L|195:108,1,12.8999996063233,0|0,0:0|0:0,0:0:0:0:
153,261,248915,2,0,L|153:282,1,12.8999996063233,0|0,0:0|0:0,0:0:0:0:
255,200,249115,2,0,L|270:195,1,12.8999996063233,0|0,0:0|0:0,0:0:0:0:
62,126,249315,2,0,L|45:119,1,12.8999996063233,0|0,0:0|0:0,0:0:0:0:
153,261,249515,2,0,L|136:254,1,12.8999996063233,0|0,0:0|0:0,0:0:0:0:
187,73,249715,6,0,L|195:91,1,12.8999996063233,0|0,0:0|0:0,0:0:0:0:
255,200,249915,2,0,L|263:218,1,12.8999996063233,0|0,0:0|0:0,0:0:0:0:
298,1,250115,2,0,L|301:18,1,12.8999996063233,0|0,0:0|0:0,0:0:0:0:
331,145,250315,2,0,L|334:162,1,12.8999996063233,0|0,0:0|0:0,0:0:0:0:
425,33,250515,6,0,L|442:27,1,12.8999996063233,0|0,0:0|0:0,0:0:0:0:
429,144,250715,2,0,L|453:145,1,12.8999996063233,0|0,0:0|0:0,0:0:0:0:
375,239,250915,2,0,L|386:254,1,12.8999996063233,0|0,0:0|0:0,0:0:0:0:
318,144,251115,2,0,L|342:145,1,12.8999996063233,0|0,0:0|0:0,0:0:0:0:
441,144,251315,2,0,L|465:145,1,12.8999996063233,0|0,0:0|0:0,0:0:0:0:
382,249,251515,2,0,L|388:267,1,12.8999996063233,0|0,0:0|0:0,0:0:0:0:
314,348,251715,2,0,L|305:361,1,12.8999996063233,0|0,0:0|0:0,0:0:0:0:
443,353,251915,2,0,L|452:365,1,12.8999996063233,0|0,0:0|0:0,0:0:0:0:
382,249,252115,6,0,L|388:267,1,12.8999996063233,0|0,0:0|0:0,0:0:0:0:
306,358,252315,2,0,L|299:372,1,12.8999996063233,0|0,0:0|0:0,0:0:0:0:
147,324,252515,2,0,L|131:335,1,12.8999996063233,0|0,0:0|0:0,0:0:0:0:
71,167,252715,2,0,L|49:166,1,12.8999996063233,0|0,0:0|0:0,0:0:0:0:
197,12,252915,2,0,L|193:-3,1,12.8999996063233,0|0,0:0|0:0,0:0:0:0:
119,81,253115,2,0,L|133:94,1,12.8999996063233,0|0,0:0|0:0,0:0:0:0:
292,50,253315,6,0,L|285:68,1,12.8999996063233,0|0,0:0|0:0,0:0:0:0:
219,155,253515,2,0,L|222:177,1,12.8999996063233,0|0,0:0|0:0,0:0:0:0:
360,121,253715,2,0,L|353:139,1,12.8999996063233,0|0,0:0|0:0,0:0:0:0:
288,236,253915,2,0,L|291:258,1,12.8999996063233,0|0,0:0|0:0,0:0:0:0:
207,149,254115,2,0,L|223:156,1,12.8999996063233,0|0,0:0|0:0,0:0:0:0:
85,193,254315,2,0,L|79:204,1,12.8999996063233,0|0,0:0|0:0,0:0:0:0:
196,56,254515,6,0,L|212:63,1,12.8999996063233,0|0,0:0|0:0,0:0:0:0:
68,72,254715,2,0,L|62:83,1,12.8999996063233,0|0,0:0|0:0,0:0:0:0:
262,172,254915,2,0,L|278:179,1,12.8999996063233,0|0,0:0|0:0,0:0:0:0:
207,61,255115,2,0,L|196:56,1,12.8999996063233,0|0,0:0|0:0,0:0:0:0:
148,147,255315,2,0,L|136:141,1,12.8999996063233,0|0,0:0|0:0,0:0:0:0:
199,240,255515,2,0,L|194:260,1,12.8999996063233,0|0,0:0|0:0,0:0:0:0:
353,241,255715,6,0,L|364:252,1,12.8999996063233,0|0,0:0|0:0,0:0:0:0:
273,177,255915,2,0,L|284:188,1,12.8999996063233,0|0,0:0|0:0,0:0:0:0:
387,131,256115,2,0,L|398:142,1,12.8999996063233,0|0,0:0|0:0,0:0:0:0:
307,67,256315,2,0,L|318:78,1,12.8999996063233,0|0,0:0|0:0,0:0:0:0:
273,177,256515,2,0,L|277:197,1,12.8999996063233,0|0,0:0|0:0,0:0:0:0:
159,188,256715,2,0,L|152:207,1,12.8999996063233,0|0,0:0|0:0,0:0:0:0:
77,115,256915,2,0,L|61:128,1,12.8999996063233,0|0,0:0|0:0,0:0:0:0:
167,212,257115,2,0,L|174:227,1,12.8999996063233,0|0,0:0|0:0,0:0:0:0:
172,98,257315,2,0,L|179:113,1,12.8999996063233,0|0,0:0|0:0,0:0:0:0:
260,264,257515,1,0,0:0:0:0:
271,286,257615,1,0,0:0:0:0:
283,309,257715,6,0,L|336:320,1,47.3000014434815,0|0,0:0|0:0,0:0:0:0:
426,270,257915,2,0,L|377:258,1,47.3000014434815,0|0,0:0|0:0,0:0:0:0:
294,181,258115,2,0,L|348:192,1,47.3000014434815,0|0,0:0|0:0,0:0:0:0:
452,136,258315,2,0,B|394:115|394:115|370:53,1,94.600002886963,0|0,0:0|0:0,0:0:0:0:
474,0,258715,1,0,0:0:0:0:
507,203,258915,1,0,0:0:0:0:
504,226,259015,1,0,0:0:0:0:
494,248,259115,1,0,0:0:0:0:
480,266,259215,1,0,0:0:0:0:
428,207,259315,5,0,0:0:0:0:
405,198,259415,1,0,0:0:0:0:
383,189,259515,1,0,0:0:0:0:
147,36,259715,2,0,P|127:86|76:109,1,94.600002886963,0|0,0:0|0:0,0:0:0:0:
124,230,260115,1,0,0:0:0:0:
126,206,260215,1,0,0:0:0:0:
136,185,260315,1,0,0:0:0:0:
152,168,260415,1,0,0:0:0:0:
200,228,260515,5,0,0:0:0:0:
222,236,260615,1,0,0:0:0:0:
245,245,260715,6,0,P|307:245|352:385,1,189.200005773926,0|0,0:0|0:0,0:0:0:0:
354,104,261315,1,0,0:0:0:0:
353,127,261415,1,0,0:0:0:0:
361,149,261515,1,0,0:0:0:0:
376,167,261615,1,0,0:0:0:0:
427,111,261715,5,0,0:0:0:0:
449,102,261815,1,0,0:0:0:0:
471,92,261915,2,0,L|497:143,1,47.3000014434815,0|0,0:0|0:0,0:0:0:0:
424,229,262115,2,0,L|398:280,1,47.3000014434815,0|0,0:0|0:0,0:0:0:0:
491,322,262315,2,0,L|517:373,1,47.3000014434815,0|0,0:0|0:0,0:0:0:0:
255,349,262515,1,0,0:0:0:0:
232,343,262615,1,0,0:0:0:0:
212,330,262715,1,0,0:0:0:0:
198,311,262815,1,0,0:0:0:0:
261,277,262915,5,0,0:0:0:0:
273,256,263015,1,0,0:0:0:0:
285,236,263115,1,0,0:0:0:0:
354,104,263315,1,0,0:0:0:0:
486,126,263515,1,0,0:0:0:0:
271,1,263715,1,0,0:0:0:0:
275,24,263815,1,0,0:0:0:0:
271,47,263915,1,0,0:0:0:0:
259,67,264015,1,0,0:0:0:0:
201,22,264115,5,0,0:0:0:0:
177,20,264215,1,0,0:0:0:0:
152,17,264315,2,0,P|94:17|78:31,1,47.3000014434815,0|0,0:0|0:0,0:0:0:0:
0,189,264515,1,0,0:0:0:0:
77,322,264715,1,0,0:0:0:0:
303,117,264915,1,0,0:0:0:0:
295,94,265015,1,0,0:0:0:0:
280,76,265115,1,0,0:0:0:0:
259,67,265215,1,0,0:0:0:0:
232,137,265315,5,0,0:0:0:0:
215,153,265415,1,0,0:0:0:0:
198,170,265515,1,0,0:0:0:0:
77,322,265715,2,0,L|191:311,1,94.600002886963,0|0,0:0|0:0,0:0:0:0:
198,170,266115,2,0,L|312:181,1,94.600002886963,0|0,0:0|0:0,0:0:0:0:
337,179,266415,1,0,0:0:0:0:
368,147,266515,5,0,0:0:0:0:
369,132,266615,1,0,0:0:0:0:
315,201,266715,2,0,P|355:232|408:231,1,94.600002886963,0|0,0:0|0:0,0:0:0:0:
512,251,267115,1,0,0:0:0:0:
479,285,267215,1,0,0:0:0:0:
447,319,267315,1,0,0:0:0:0:
436,384,267415,5,0,0:0:0:0:
431,360,267515,1,0,0:0:0:0:
418,341,267615,1,0,0:0:0:0:
397,325,267715,2,0,L|348:308,1,47.3000014434815,0|0,0:0|0:0,0:0:0:0:
231,353,267915,2,0,B|199:302|139:311|139:311|124:328|124:328|53:328,1,189.200005773926,0|0,0:0|0:0,0:0:0:0:
76,33,268515,1,0,0:0:0:0:
80,43,268615,1,0,0:0:0:0:
85,54,268715,1,0,0:0:0:0:
89,65,268815,1,0,0:0:0:0:
72,137,268915,5,0,0:0:0:0:
118,134,269015,1,0,0:0:0:0:
153,103,269115,2,0,B|185:52|245:61|245:61|260:78|260:78|331:78,1,189.200005773926,0|0,0:0|0:0,0:0:0:0:
434,243,269715,1,0,0:0:0:0:
436,254,269815,1,0,0:0:0:0:
435,266,269915,1,0,0:0:0:0:
432,277,270015,1,0,0:0:0:0:
463,343,270115,5,0,0:0:0:0:
417,349,270215,1,0,0:0:0:0:
369,318,270315,2,0,B|337:266|277:275|277:275|262:292|262:292|191:292,1,189.200005773926,0|0,0:0|0:0,0:0:0:0:
0,238,270915,1,0,0:0:0:0:
11,241,271015,1,0,0:0:0:0:
22,244,271115,1,0,0:0:0:0:
34,247,271215,1,0,0:0:0:0:
72,233,271315,5,0,0:0:0:0:
83,232,271415,1,0,0:0:0:0:
95,231,271515,2,0,L|151:224,1,47.3000014434815,0|0,0:0|0:0,0:0:0:0:
360,198,271715,1,0,0:0:0:0:
142,152,271915,1,0,0:0:0:0:
296,141,272115,1,0,0:0:0:0:
283,160,272215,1,0,0:0:0:0:
276,183,272315,1,0,0:0:0:0:
276,207,272415,1,0,0:0:0:0:
282,229,272515,5,0,0:0:0:0:
293,250,272615,1,0,0:0:0:0:
310,266,272715,1,0,0:0:0:0:
331,278,272815,1,0,0:0:0:0:
354,283,272915,1,0,0:0:0:0:
377,282,273015,1,0,0:0:0:0:
402,275,273115,2,0,L|409:226,1,47.3000014434815,0|0,0:0|0:0,0:0:0:0:
416,27,273315,1,0,0:0:0:0:
419,38,273415,1,0,0:0:0:0:
423,49,273515,1,0,0:0:0:0:
427,60,273615,1,0,0:0:0:0:
488,127,273715,5,0,0:0:0:0:
441,132,273815,1,0,0:0:0:0:
404,160,273915,2,0,L|344:155,1,47.3000014434815,0|0,0:0|0:0,0:0:0:0:
478,221,274115,1,0,0:0:0:0:
481,232,274215,1,0,0:0:0:0:
485,246,274315,2,0,L|498:291,1,25.7999992126465,0|0,0:0|0:0,0:0:0:0:
281,147,274515,2,0,L|293:88,1,47.3000014434815,0|0,0:0|0:0,0:0:0:0:
381,294,274715,1,0,0:0:0:0:
345,289,274815,1,0,0:0:0:0:
314,304,274915,5,0,0:0:0:0:
285,324,275015,1,0,0:0:0:0:
247,324,275115,2,0,L|182:314,1,47.3000014434815,0|0,0:0|0:0,0:0:0:0:
281,147,275315,1,0,0:0:0:0:
245,142,275415,1,0,0:0:0:0:
214,157,275515,1,0,0:0:0:0:
185,177,275615,1,0,0:0:0:0:
147,177,275715,2,0,L|82:167,1,47.3000014434815,0|0,0:0|0:0,0:0:0:0:
258,229,275915,2,0,L|252:282,1,47.3000014434815,0|0,0:0|0:0,0:0:0:0:
46,88,276115,6,0,L|-19:78,1,47.3000014434815,0|0,0:0|0:0,0:0:0:0:
179,0,276315,1,0,0:0:0:0:
225,18,276415,1,0,0:0:0:0:
250,57,276515,1,0,0:0:0:0:
287,32,276615,1,0,0:0:0:0:
333,23,276715,1,0,0:0:0:0:
380,29,276815,1,0,0:0:0:0:
424,46,276915,5,0,0:0:0:0:
423,57,277015,1,0,0:0:0:0:
422,69,277115,1,0,0:0:0:0:
421,81,277215,1,0,0:0:0:0:
383,112,277315,5,0,0:0:0:0:
382,123,277415,1,0,0:0:0:0:
381,134,277515,2,0,P|365:184|282:109,1,189.200005773926,0|0,0:0|0:0,0:0:0:0:
88,46,278115,1,0,0:0:0:0:
88,57,278215,1,0,0:0:0:0:
89,69,278315,1,0,0:0:0:0:
90,81,278415,1,0,0:0:0:0:
129,112,278515,5,0,0:0:0:0:
129,123,278615,1,0,0:0:0:0:
131,134,278715,2,0,P|147:184|168:194,1,47.3000014434815,0|0,0:0|0:0,0:0:0:0:
232,180,278915,2,0,P|251:122|242:76,1,94.600002886963,0|0,0:0|0:0,0:0:0:0:
284,32,279215,1,0,0:0:0:0:
352,51,279315,2,0,L|350:157,1,94.600002886963,0|0,0:0|0:0,0:0:0:0:
450,248,279715,5,0,0:0:0:0:
465,130,279915,2,0,P|399:137|335:234,1,189.200005773926,0|0,0:0|0:0,0:0:0:0:
211,90,280515,2,0,P|199:130|207:170,1,77.3999976379395,0|0,0:0|0:0,0:0:0:0:
106,188,280915,2,0,P|125:224|159:247,1,77.3999976379395,0|0,0:0|0:0,0:0:0:0:
161,345,281315,2,0,P|191:338|207:324,1,38.6999988189698,0|0,0:0|0:0,0:0:0:0:
279,353,281515,2,0,P|291:332|293:309,1,38.6999988189698,0|0,0:0|0:0,0:0:0:0:
364,272,281715,1,0,0:0:0:0:
364,252,281815,1,0,0:0:0:0:
360,233,281915,1,0,0:0:0:0:
351,216,282015,1,0,0:0:0:0:
288,261,282115,5,0,0:0:0:0:
249,268,282215,1,0,0:0:0:0:
211,275,282315,2,0,P|170:269|120:163,1,154.799995275879,0|0,0:0|0:0,0:0:0:0:
133,38,282915,2,0,L|99:86,1,38.6999988189698,0|0,0:0|0:0,0:0:0:0:
48,147,283115,1,0,0:0:0:0:
48,147,283215,1,0,0:0:0:0:
110,184,283315,5,0,0:0:0:0:
118,146,283415,1,0,0:0:0:0:
106,110,283515,1,0,0:0:0:0:
407,46,283715,2,0,P|399:100|365:134,1,77.3999976379395,0|0,0:0|0:0,0:0:0:0:
283,207,284115,1,0,0:0:0:0:
282,216,284215,1,0,0:0:0:0:
281,226,284315,1,0,0:0:0:0:
280,235,284415,1,0,0:0:0:0:
316,304,284515,5,0,0:0:0:0:
278,312,284615,1,0,0:0:0:0:
242,300,284715,2,0,P|195:281|98:322,1,154.799995275879,0|0,0:0|0:0,0:0:0:0:
162,192,285315,2,0,L|157:133,1,38.6999988189698,0|0,0:0|0:0,0:0:0:0:
145,54,285515,1,0,0:0:0:0:
145,54,285615,1,0,0:0:0:0:
217,55,285715,5,0,0:0:0:0:
205,90,285815,1,0,0:0:0:0:
176,115,285915,1,0,0:0:0:0:
316,304,286115,2,0,P|349:265|417:254,1,116.099996456909,0|0,0:0|0:0,0:0:0:0:
482,271,286515,1,0,0:0:0:0:
462,304,286615,1,0,0:0:0:0:
429,323,286715,1,0,0:0:0:0:
391,323,286815,1,0,0:0:0:0:
358,304,286915,5,0,0:0:0:0:
339,271,287015,1,0,0:0:0:0:
339,233,287115,2,0,B|378:174|345:115|345:115|271:176,1,206.399993701172,0|0,0:0|0:0,0:0:0:0:
150,351,287715,2,0,L|144:288,1,51.599998425293,0|0,0:0|0:0,0:0:0:0:
135,214,287915,1,0,0:0:0:0:
133,194,288015,1,0,0:0:0:0:
88,141,288115,5,0,0:0:0:0:
103,129,288215,1,0,0:0:0:0:
123,121,288315,2,0,P|150:120|181:143,1,51.599998425293,0|0,0:0|0:0,0:0:0:0:
225,291,288515,2,0,P|183:342|136:350,1,103.199996850586,0|0,0:0|0:0,0:0:0:0:
67,340,288815,1,0,0:0:0:0:
53,259,288915,2,0,L|134:193,1,103.199996850586,0|0,0:0|0:0,0:0:0:0:
268,59,289315,5,0,0:0:0:0:
36,179,289515,2,0,P|95:174|136:196,1,103.199996850586,0|0,0:0|0:0,0:0:0:0:
239,313,289915,1,0,0:0:0:0:
268,59,290115,1,0,0:0:0:0:
336,107,290215,5,0,0:0:0:0:
294,136,290315,1,0,0:0:0:0:
243,137,290415,5,0,0:0:0:0:
258,146,290515,1,0,0:0:0:0:
269,159,290615,1,0,0:0:0:0:
275,175,290715,1,0,0:0:0:0:
408,310,290915,1,0,0:0:0:0:
239,313,291115,1,0,0:0:0:0:
463,225,291315,1,0,0:0:0:0:
437,225,291415,1,0,0:0:0:0:
411,226,291515,1,0,0:0:0:0:
385,227,291615,1,0,0:0:0:0:
329,279,291715,5,0,0:0:0:0:
309,232,291815,1,0,0:0:0:0:
323,182,291915,2,0,B|389:142|370:62|370:62|389:96|441:109,1,206.399993701172,0|0,0:0|0:0,0:0:0:0:
115,27,292515,2,0,L|170:48,1,51.599998425293,0|0,0:0|0:0,0:0:0:0:
238,80,292715,1,0,0:0:0:0:
262,89,292815,1,0,0:0:0:0:
291,98,292915,5,0,0:0:0:0:
258,117,293015,1,0,0:0:0:0:
240,151,293115,2,0,P|231:184|237:216,1,51.599998425293,0|0,0:0|0:0,0:0:0:0:
252,366,293315,1,0,0:0:0:0:
323,182,293515,1,0,0:0:0:0:
174,298,293715,1,0,0:0:0:0:
199,293,293815,1,0,0:0:0:0:
224,288,293915,1,0,0:0:0:0:
250,283,294015,1,0,0:0:0:0:
316,321,294115,5,0,0:0:0:0:
326,271,294215,1,0,0:0:0:0:
300,228,294315,2,0,B|245:183|272:107|272:107|189:165,1,206.399993701172,0|0,0:0|0:0,0:0:0:0:
414,221,294915,1,0,0:0:0:0:
463,154,295015,5,0,0:0:0:0:
414,137,295115,1,0,0:0:0:0:
365,152,295215,5,0,0:0:0:0:
376,137,295315,2,0,P|394:106|394:85,2,51.599998425293,0|0|0,0:0|0:0|0:0,0:0:0:0:
256,68,295615,1,0,0:0:0:0:
256,17,295715,1,0,0:0:0:0:
154,151,295915,1,0,0:0:0:0:
174,166,296015,1,0,0:0:0:0:
196,183,296115,6,0,P|203:213|191:254,1,55.8999974411012,0|0,0:0|0:0,0:0:0:0:
155,324,296315,2,0,P|138:350|101:370,1,55.8999974411012,0|0,0:0|0:0,0:0:0:0:
320,198,296515,6,0,P|311:227|280:256,1,55.8999974411012,0|0,0:0|0:0,0:0:0:0:
170,347,296715,2,0,P|142:361|100:360,1,55.8999974411012,0|0,0:0|0:0,0:0:0:0:
104,123,296915,1,0,0:0:0:0:
122,315,297115,1,0,0:0:0:0:
224,140,297315,1,0,0:0:0:0:
240,117,297415,1,0,0:0:0:0:
261,99,297515,1,0,0:0:0:0:
286,86,297615,1,0,0:0:0:0:
311,78,297715,6,0,P|340:68|377:74,1,55.8999974411012,0|0,0:0|0:0,0:0:0:0:
256,224,297915,2,0,P|331:235|359:257,2,111.799994882202,0|0|0,0:0|0:0|0:0,0:0:0:0:
161,245,298415,1,0,0:0:0:0:
123,166,298515,2,0,P|98:105|38:70,1,111.799994882202,0|0,0:0|0:0,0:0:0:0:
161,245,298915,5,0,0:0:0:0:
313,78,299115,2,0,L|385:214,1,111.799994882202,0|0,0:0|0:0,0:0:0:0:
449,313,299515,1,0,0:0:0:0:
161,245,299715,1,0,0:0:0:0:
188,251,299815,1,0,0:0:0:0:
215,258,299915,1,0,0:0:0:0:
242,264,300015,1,0,0:0:0:0:
269,272,300115,6,0,L|293:325,1,55.8999974411012,0|0,0:0|0:0,0:0:0:0:
313,78,300315,2,0,L|385:214,1,111.799994882202,0|0,0:0|0:0,0:0:0:0:
449,313,300715,1,0,0:0:0:0:
502,89,300915,1,0,0:0:0:0:
469,84,301015,1,0,0:0:0:0:
437,90,301115,1,0,0:0:0:0:
409,105,301215,1,0,0:0:0:0:
384,126,301315,5,0,0:0:0:0:
358,145,301415,1,0,0:0:0:0:
327,157,301515,1,0,0:0:0:0:
295,156,301615,1,0,0:0:0:0:
265,142,301715,1,0,0:0:0:0:
244,118,301815,1,0,0:0:0:0:
233,88,301915,2,0,P|233:61|247:22,1,55.8999974411012,0|0,0:0|0:0,0:0:0:0:
259,232,302115,1,0,0:0:0:0:
232,223,302215,1,0,0:0:0:0:
208,209,302315,1,0,0:0:0:0:
188,189,302415,1,0,0:0:0:0:
173,165,302515,6,0,P|150:141|101:135,1,55.8999974411012,0|0,0:0|0:0,0:0:0:0:
145,285,302715,2,0,P|168:309|217:315,1,55.8999974411012,0|0,0:0|0:0,0:0:0:0:
243,62,302915,2,0,P|268:72|286:93,1,55.8999974411012,0|0,0:0|0:0,0:0:0:0:
275,254,303115,2,0,P|249:243|231:222,1,55.8999974411012,0|0,0:0|0:0,0:0:0:0:
316,117,303315,1,0,0:0:0:0:
343,126,303415,1,0,0:0:0:0:
367,140,303515,1,0,0:0:0:0:
387,160,303615,1,0,0:0:0:0:
402,184,303715,6,0,P|425:208|474:214,1,55.8999974411012,0|0,0:0|0:0,0:0:0:0:
494,223,303915,2,0,L|506:279,3,55.8999974411012,0|0|0|0,0:0|0:0|0:0|0:0,0:0:0:0:
463,141,304315,1,0,0:0:0:0:
418,292,304515,1,0,0:0:0:0:
391,283,304615,1,0,0:0:0:0:
367,269,304715,1,0,0:0:0:0:
347,249,304815,1,0,0:0:0:0:
325,224,304915,5,0,0:0:0:0:
324,237,305015,1,0,0:0:0:0:
324,251,305115,1,0,0:0:0:0:
159,109,305315,2,0,B|166:172|125:220|125:220|163:255,1,167.699992323304,0|0,0:0|0:0,0:0:0:0:
226,300,305715,2,0,P|249:316|271:345,1,55.8999974411012,0|0,0:0|0:0,0:0:0:0:
229,189,305915,2,0,P|252:173|274:144,1,55.8999974411012,0|0,0:0|0:0,0:0:0:0:
341,318,306115,6,0,P|364:334|386:363,1,55.8999974411012,0|0,0:0|0:0,0:0:0:0:
244,210,306315,2,0,P|267:194|289:165,1,55.8999974411012,0|0,0:0|0:0,0:0:0:0:
446,314,306515,2,0,P|469:330|491:359,1,55.8999974411012,0|0,0:0|0:0,0:0:0:0:
259,230,306715,2,0,P|282:214|304:185,1,55.8999974411012,0|0,0:0|0:0,0:0:0:0:
352,37,306915,2,0,P|375:21|397:-8,1,55.8999974411012,0|0,0:0|0:0,0:0:0:0:
402,151,307115,1,0,0:0:0:0:
424,166,307215,1,0,0:0:0:0:
442,188,307315,1,0,0:0:0:0:
415,197,307415,1,0,0:0:0:0:
391,211,307515,1,0,0:0:0:0:
371,231,307615,1,0,0:0:0:0:
356,255,307715,6,0,P|333:279|249:294,1,111.799994882202,0|0,0:0|0:0,0:0:0:0:
239,254,308015,1,0,0:0:0:0:
200,281,308115,1,0,0:0:0:0:
172,272,308215,1,0,0:0:0:0:
148,258,308315,1,0,0:0:0:0:
128,238,308415,1,0,0:0:0:0:
113,214,308515,6,0,P|90:190|41:184,1,55.8999974411012,0|0,0:0|0:0,0:0:0:0:
61,50,308715,2,0,B|84:74|128:82|128:82|163:38|220:47,1,167.699992323304,0|0,0:0|0:0,0:0:0:0:
251,46,309115,1,0,0:0:0:0:
394,226,309315,6,0,P|348:282|293:299,1,111.799994882202,0|0,0:0|0:0,0:0:0:0:
286,289,309615,1,0,0:0:0:0:
259,283,309715,1,0,0:0:0:0:
229,283,309815,1,0,0:0:0:0:
202,289,309915,1,0,0:0:0:0:
177,301,310015,1,0,0:0:0:0:
155,320,310115,6,0,P|125:335|77:326,1,55.8999974411012,0|0,0:0|0:0,0:0:0:0:
357,320,310315,2,0,P|386:335|434:326,1,55.8999974411012,0|0,0:0|0:0,0:0:0:0:
307,100,310515,1,0,0:0:0:0:
291,62,310615,1,0,0:0:0:0:
254,45,310715,1,0,0:0:0:0:
215,58,310815,1,0,0:0:0:0:
197,94,310915,6,0,L|185:170,1,55.8999974411012,0|0,0:0|0:0,0:0:0:0:
141,236,311115,2,0,L|128:311,1,55.8999974411012,0|0,0:0|0:0,0:0:0:0:
38,145,311315,2,0,L|93:153,1,55.8999974411012,0|0,0:0|0:0,0:0:0:0:
227,239,311515,2,0,L|283:248,1,55.8999974411012,0|0,0:0|0:0,0:0:0:0:
336,76,311715,1,0,0:0:0:0:
342,106,311815,1,0,0:0:0:0:
358,132,311915,2,0,P|376:156|410:167,1,55.8999974411012,0|0,0:0|0:0,0:0:0:0:
497,154,312115,5,0,0:0:0:0:
495,167,312215,1,0,0:0:0:0:
494,181,312315,2,0,L|484:255,1,55.8999974411012,0|0,0:0|0:0,0:0:0:0:
469,0,312515,2,0,L|462:55,1,55.8999974411012,0|0,0:0|0:0,0:0:0:0:
400,167,312715,2,0,L|390:241,1,55.8999974411012,0|0,0:0|0:0,0:0:0:0:
482,334,312915,1,0,0:0:0:0:
456,321,313015,1,0,0:0:0:0:
429,314,313115,1,0,0:0:0:0:
401,314,313215,1,0,0:0:0:0:
373,320,313315,6,0,P|339:320|300:290,1,55.8999974411012,0|0,0:0|0:0,0:0:0:0:
248,247,313515,2,0,P|230:196|232:152,1,55.8999974411012,0|0,0:0|0:0,0:0:0:0:
226,114,313715,1,0,0:0:0:0:
230,94,313815,1,0,0:0:0:0:
257,45,313915,1,0,0:0:0:0:
305,18,314015,1,0,0:0:0:0:
373,14,314115,2,0,L|358:136,1,111.799994882202,0|0,0:0|0:0,0:0:0:0:
400,189,314415,1,0,0:0:0:0:
485,122,314515,6,0,L|470:244,1,111.799994882202,0|0,0:0|0:0,0:0:0:0:
465,272,314815,2,0,P|431:309|360:321,1,111.799994882202,0|0,0:0|0:0,0:0:0:0:
332,319,315115,1,0,0:0:0:0:
78,110,315315,5,0,0:0:0:0:
103,71,315415,1,0,0:0:0:0:
142,45,315515,1,0,0:0:0:0:
187,36,315615,1,0,0:0:0:0:
233,45,315715,1,0,0:0:0:0:
271,70,315815,1,0,0:0:0:0:
298,108,315915,1,0,0:0:0:0:
307,153,316015,1,0,0:0:0:0:
299,199,316115,1,0,0:0:0:0:
275,238,316215,1,0,0:0:0:0:
237,265,316315,1,0,0:0:0:0:
192,275,316415,1,0,0:0:0:0:
145,272,316515,2,0,P|103:263|82:247,1,55.8999974411012,0|0,0:0|0:0,0:0:0:0:
187,161,316715,2,0,P|166:123|165:96,1,55.8999974411012,0|0,0:0|0:0,0:0:0:0:
307,153,316915,5,0,0:0:0:0:
319,128,317015,1,0,0:0:0:0:
339,109,317115,2,0,P|373:86|403:79,1,55.8999974411012,0|0,0:0|0:0,0:0:0:0:
490,4,317315,2,0,L|478:143,1,111.799994882202,0|0,0:0|0:0,0:0:0:0:
409,169,317615,1,0,0:0:0:0:
339,109,317715,2,0,P|286:61|194:56,1,167.699992323304,0|0,0:0|0:0,0:0:0:0:
166,71,318115,5,0,0:0:0:0:
22,192,318315,2,0,P|77:204|126:169,1,111.799994882202,0|0,0:0|0:0,0:0:0:0:
166,41,318715,1,0,0:0:0:0:
98,303,318915,2,0,P|131:284|148:263,1,55.8999974411012,0|0,0:0|0:0,0:0:0:0:
178,201,319115,2,0,P|178:165|168:138,1,55.8999974411012,0|0,0:0|0:0,0:0:0:0:
229,263,319315,5,0,0:0:0:0:
249,283,319415,1,0,0:0:0:0:
274,297,319515,2,0,P|301:306|338:305,1,55.8999974411012,0|0,0:0|0:0,0:0:0:0:
386,139,319715,2,0,P|365:109|347:162,1,111.799994882202,0|0,0:0|0:0,0:0:0:0:
510,245,320115,1,0,0:0:0:0:
482,239,320215,1,0,0:0:0:0:
454,242,320315,1,0,0:0:0:0:
429,252,320415,1,0,0:0:0:0:
406,269,320515,6,0,P|370:297|338:305,1,55.8999974411012,0|0,0:0|0:0,0:0:0:0:
277,136,320715,2,0,P|294:72|316:159,1,223.599989764405,0|0,0:0|0:0,0:0:0:0:
187,245,321315,1,0,0:0:0:0:
162,229,321415,1,0,0:0:0:0:
145,207,321515,1,0,0:0:0:0:
134,182,321615,1,0,0:0:0:0:
130,154,321715,6,0,P|135:119|146:94,1,55.8999974411012,0|0,0:0|0:0,0:0:0:0:
201,29,321915,2,0,P|229:7|254:-2,1,55.8999974411012,0|0,0:0|0:0,0:0:0:0:
437,0,322115,1,0,0:0:0:0:
345,52,322315,1,0,0:0:0:0:
438,186,322515,1,0,0:0:0:0:
415,202,322615,1,0,0:0:0:0:
390,214,322715,1,0,0:0:0:0:
362,219,322815,1,0,0:0:0:0:
335,217,322915,6,0,P|299:209|273:186,1,55.8999974411012,0|0,0:0|0:0,0:0:0:0:
199,59,323115,2,0,L|177:242,1,167.699992323304,0|0,0:0|0:0,0:0:0:0:
172,268,323515,1,0,0:0:0:0:
335,217,323715,2,0,P|351:188|355:161,1,55.8999974411012,0|0,0:0|0:0,0:0:0:0:
285,39,323915,1,0,0:0:0:0:
303,59,324015,1,0,0:0:0:0:
327,74,324115,5,0,0:0:0:0:
353,82,324215,1,0,0:0:0:0:
381,83,324315,2,0,P|417:73|452:78,1,55.8999974411012,0|0,0:0|0:0,0:0:0:0:
439,256,324515,2,0,L|326:213,1,111.799994882202,0|0,0:0|0:0,0:0:0:0:
268,135,324815,1,0,0:0:0:0:
224,120,324915,1,0,0:0:0:0:
204,139,325015,1,0,0:0:0:0:
191,164,325115,1,0,0:0:0:0:
185,191,325215,1,0,0:0:0:0:
186,219,325315,6,0,P|183:245|166:270,1,55.8999974411012,0|0,0:0|0:0,0:0:0:0:
324,109,325515,2,0,P|328:81|344:58,1,55.8999974411012,0|0,0:0|0:0,0:0:0:0:
141,97,325715,2,0,P|120:81|90:75,1,55.8999974411012,0|0,0:0|0:0,0:0:0:0:
283,279,325915,2,0,P|305:295|332:300,1,55.8999974411012,0|0,0:0|0:0,0:0:0:0:
98,184,326115,2,0,P|49:232|102:312,1,167.699992323304,0|0,0:0|0:0,0:0:0:0:
121,319,326515,5,0,0:0:0:0:
222,47,326715,2,0,B|195:125|271:125|230:209,1,167.699992323304,0|0,0:0|0:0,0:0:0:0:
213,240,327115,1,0,0:0:0:0:
315,66,327315,2,0,L|436:45,1,111.799994882202,0|0,0:0|0:0,0:0:0:0:
512,237,327715,5,0,0:0:0:0:
494,125,327915,2,0,P|435:150|403:254,1,167.699992323304,0|0,0:0|0:0,0:0:0:0:
404,276,328315,1,0,0:0:0:0:
325,384,328515,1,0,0:0:0:0:
320,356,328615,1,0,0:0:0:0:
315,328,328715,1,0,0:0:0:0:
311,301,328815,1,0,0:0:0:0:
306,273,328915,6,0,L|295:198,1,55.8999974411012,0|0,0:0|0:0,0:0:0:0:
223,123,329115,1,0,0:0:0:0:
218,150,329215,1,0,0:0:0:0:
213,178,329315,1,0,0:0:0:0:
209,205,329415,1,0,0:0:0:0:
204,234,329515,2,0,L|193:309,1,55.8999974411012,0|0,0:0|0:0,0:0:0:0:
439,353,329715,1,0,0:0:0:0:
461,336,329815,1,0,0:0:0:0:
476,313,329915,1,0,0:0:0:0:
484,286,330015,1,0,0:0:0:0:
482,258,330115,6,0,L|457:194,1,55.8999974411012,0|0,0:0|0:0,0:0:0:0:
338,23,330315,1,0,0:0:0:0:
316,40,330415,1,0,0:0:0:0:
301,63,330515,1,0,0:0:0:0:
293,90,330615,1,0,0:0:0:0:
295,118,330715,2,0,L|320:182,1,55.8999974411012,0|0,0:0|0:0,0:0:0:0:
144,280,330915,1,0,0:0:0:0:
157,255,331015,1,0,0:0:0:0:
163,228,331115,1,0,0:0:0:0:
161,201,331215,1,0,0:0:0:0:
150,175,331315,6,0,L|105:119,1,55.8999974411012,0|0,0:0|0:0,0:0:0:0:
295,118,331515,2,0,P|339:159|405:164,1,111.799994882202,0|0,0:0|0:0,0:0:0:0:
512,0,331915,1,0,0:0:0:0:
499,177,332115,1,0,0:0:0:0:
485,175,332215,1,0,0:0:0:0:
471,177,332315,1,0,0:0:0:0:
457,181,332415,1,0,0:0:0:0:
432,204,332515,5,0,0:0:0:0:
412,237,332615,1,0,0:0:0:0:
378,274,332715,1,0,0:0:0:0:
318,290,332815,1,0,0:0:0:0:
239,266,332915,1,0,0:0:0:0:
240,252,333015,1,0,0:0:0:0:
242,238,333115,1,0,0:0:0:0:
243,224,333215,1,0,0:0:0:0:
245,210,333315,2,0,P|244:182|219:134,1,55.8999974411012,0|0,0:0|0:0,0:0:0:0:
109,33,333515,1,0,0:0:0:0:
81,32,333615,1,0,0:0:0:0:
58,47,333715,6,0,P|36:76|30:112,1,55.8999974411012,0|0,0:0|0:0,0:0:0:0:
166,271,333915,1,0,0:0:0:0:
193,271,334015,1,0,0:0:0:0:
217,257,334115,2,0,P|239:228|245:192,1,55.8999974411012,0|0,0:0|0:0,0:0:0:0:
243,107,334315,2,0,P|223:71|189:50,1,55.8999974411012,0|0,0:0|0:0,0:0:0:0:
0,215,334515,5,0,0:0:0:0:
66,180,334615,1,0,0:0:0:0:
140,168,334715,1,0,0:0:0:0:
214,180,334815,1,0,0:0:0:0:
281,214,334915,1,0,0:0:0:0:
333,269,335015,1,0,0:0:0:0:
365,336,335115,2,0,L|329:347,1,34.4,0|0,0:0|0:0,0:0:0:0:
140,316,335715,5,0,0:0:0:0:
128,242,335815,1,0,0:0:0:0:
140,168,335915,1,0,0:0:0:0:
174,101,336015,1,0,0:0:0:0:
229,49,336115,1,0,0:0:0:0:
296,17,336215,2,0,L|307:53,1,34.4,0|0,0:0|0:0,0:0:0:0:
352,179,336715,1,0,0:0:0:0:
0,66,336915,2,0,L|102:105,1,103.2,0|0,0:0|0:0,0:0:0:0:
395,258,338515,5,0,0:0:0:0:
321,270,338615,1,0,0:0:0:0:
247,258,338715,1,0,0:0:0:0:
180,224,338815,1,0,0:0:0:0:
128,169,338915,1,0,0:0:0:0:
96,102,339015,2,0,L|142:89,1,43,0|0,0:0|0:0,0:0:0:0:
356,55,339715,5,0,0:0:0:0:
368,129,339815,1,0,0:0:0:0:
356,203,339915,1,0,0:0:0:0:
321,270,340015,1,0,0:0:0:0:
267,322,340115,1,0,0:0:0:0:
200,354,340215,2,0,L|189:318,1,34.4,0|0,0:0|0:0,0:0:0:0:
148,206,340715,1,0,0:0:0:0:
361,337,340915,6,0,B|425:390|533:300|442:212|380:242|380:242|392:197|436:183|436:183|386:179|358:137,1,421.399987139893,0|0,0:0|0:0,0:0:0:0:
439,85,342515,5,0,0:0:0:0:
366,104,342615,1,0,0:0:0:0:
294,123,342715,1,0,0:0:0:0:
223,142,342815,1,0,0:0:0:0:
150,162,342915,1,0,0:0:0:0:
78,181,343015,1,0,0:0:0:0:
7,200,343115,2,0,L|13:240,1,34.4,0|0,0:0|0:0,0:0:0:0:
7,85,343715,5,0,0:0:0:0:
80,104,343815,1,0,0:0:0:0:
152,123,343915,1,0,0:0:0:0:
223,142,344015,1,0,0:0:0:0:
296,162,344115,1,0,0:0:0:0:
368,181,344215,1,0,0:0:0:0:
439,200,344315,2,0,L|424:269,1,64.5,0|0,0:0|0:0,0:0:0:0:
391,384,344715,1,0,0:0:0:0:
389,85,344915,2,0,L|337:326,1,236.5,0|0,0:0|0:0,0:0:0:0:
333,364,346115,6,0,P|285:319|338:315,1,154.799995275879,0|0,0:0|0:0,0:0:0:0:
416,358,346515,5,0,0:0:0:0:
434,287,346615,1,0,0:0:0:0:
429,215,346715,1,0,0:0:0:0:
400,148,346815,1,0,0:0:0:0:
350,95,346915,1,0,0:0:0:0:
285,62,347015,1,0,0:0:0:0:
213,51,347115,2,0,L|212:89,1,34.4,0|0,0:0|0:0,0:0:0:0:
3,173,347715,5,0,0:0:0:0:
74,155,347815,1,0,0:0:0:0:
147,164,347915,1,0,0:0:0:0:
215,193,348015,1,0,0:0:0:0:
284,222,348115,1,0,0:0:0:0:
357,230,348215,1,0,0:0:0:0:
429,215,348315,2,0,L|451:195,1,25.8,0|0,0:0|0:0,0:0:0:0:
512,137,348715,1,0,0:0:0:0:
445,301,348915,1,0,0:0:0:0:
350,247,349115,6,0,L|327:229,3,21.5,0|0|0|0,0:0|0:0|0:0|0:0,0:0:0:0:
393,192,349315,2,0,L|357:171,5,28.6666666666667,0|0|0|0|0|0,0:0|0:0|0:0|0:0|0:0|0:0,0:0:0:0:
445,301,349715,6,0,L|422:283,3,21.5,0|0|0|0,0:0|0:0|0:0|0:0,0:0:0:0:
488,246,349915,2,0,L|452:225,5,28.6666666666667,0|0|0|0|0|0,0:0|0:0|0:0|0:0|0:0|0:0,0:0:0:0:
393,192,350315,2,0,L|342:163,1,43,0|0,0:0|0:0,0:0:0:0:
428,86,350515,5,0,0:0:0:0:
355,64,350615,1,0,0:0:0:0:
279,63,350715,1,0,0:0:0:0:
207,82,350815,1,0,0:0:0:0:
142,120,350915,1,0,0:0:0:0:
89,173,351015,1,0,0:0:0:0:
52,238,351115,2,0,L|13:236,1,34.4,0|0,0:0|0:0,0:0:0:0:
0,336,351715,5,0,0:0:0:0:
69,361,351815,1,0,0:0:0:0:
144,362,351915,1,0,0:0:0:0:
215,341,352015,1,0,0:0:0:0:
275,298,352115,1,0,0:0:0:0:
319,238,352215,1,0,0:0:0:0:
342,168,352315,2,0,L|340:138,1,25.8,0|0,0:0|0:0,0:0:0:0:
327,37,352715,1,0,0:0:0:0:
460,210,352915,2,0,L|487:216,5,21.5,0|0|0|0|0|0,0:0|0:0|0:0|0:0|0:0|0:0,0:0:0:0:
438,121,353315,5,0,0:0:0:0:
505,164,353448,1,0,0:0:0:0:
432,197,353581,1,0,0:0:0:0:
453,103,353714,1,0,0:0:0:0:
350,99,353848,5,0,0:0:0:0:
350,99,353981,1,0,0:0:0:0:
364,14,354115,5,0,0:0:0:0:
274,52,354248,1,0,0:0:0:0:
265,82,354381,1,0,0:0:0:0:
319,244,354515,5,0,0:0:0:0:
316,334,354615,2,0,L|361:354,1,43,0|0,0:0|0:0,0:0:0:0:
279,227,354815,1,0,0:0:0:0:
213,288,354915,2,0,L|230:333,1,43,0|0,0:0|0:0,0:0:0:0:
313,205,355115,6,0,L|319:171,1,34.4,0|0,0:0|0:0,0:0:0:0:
107,153,355715,1,0,0:0:0:0:
17,150,355815,2,0,L|-3:195,1,43,0|0,0:0|0:0,0:0:0:0:
124,113,356015,1,0,0:0:0:0:
63,47,356115,2,0,L|17:64,1,43,0|0,0:0|0:0,0:0:0:0:
146,147,356315,6,0,L|220:177,1,68.8,0|0,0:0|0:0,0:0:0:0:
414,263,356915,1,0,0:0:0:0:
452,158,357115,2,0,L|458:138,4,21.5,0|0|0|0|0,0:0|0:0|0:0|0:0|0:0,0:0:0:0:
369,85,357465,2,0,L|363:65,5,21.5,0|0|0|0|0|0,0:0|0:0|0:0|0:0|0:0|0:0,0:0:0:0:
290,140,357865,2,0,L|269:130,4,21.5,0|0|0|0|0,0:0|0:0|0:0|0:0|0:0,0:0:0:0:
357,194,358115,1,0,0:0:0:0:
354,198,358215,1,0,0:0:0:0:
351,203,358315,1,0,0:0:0:0:
349,208,358415,1,0,0:0:0:0:
327,236,358515,6,0,L|265:234,1,43,0|0,0:0|0:0,0:0:0:0:
196,270,358715,1,0,0:0:0:0:
117,243,358815,1,0,0:0:0:0:
67,306,358915,2,0,L|5:304,1,43,0|0,0:0|0:0,0:0:0:0:
205,304,359115,2,0,L|195:267,1,34.4,0|0,0:0|0:0,0:0:0:0:
185,69,359715,6,0,L|230:44,1,43,0|0,0:0|0:0,0:0:0:0:
307,78,359915,1,0,0:0:0:0:
386,105,360015,1,0,0:0:0:0:
436,42,360115,2,0,L|498:44,1,43,0|0,0:0|0:0,0:0:0:0:
304,52,360315,2,0,L|307:84,1,25.8,0|0,0:0|0:0,0:0:0:0:
312,113,360715,5,0,0:0:0:0:
115,68,360915,1,0,0:0:0:0:
32,157,361115,2,0,L|58:170,4,21.5,0|0|0|0|0,0:0|0:0|0:0|0:0|0:0,0:0:0:0:
143,177,361448,5,0,0:0:0:0:
143,177,361581,1,0,0:0:0:0:
200,83,361715,2,0,L|184:38,1,28.6666666666667,0|0,0:0|0:0,0:0:0:0:
280,84,361848,2,0,L|288:51,1,28.6666666666667,0|0,0:0|0:0,0:0:0:0:
256,304,362115,1,0,0:0:0:0:
251,262,362248,1,0,0:0:0:0:
507,28,362515,5,0,0:0:0:0:
511,99,362615,1,0,0:0:0:0:
494,170,362715,1,0,0:0:0:0:
455,232,362815,1,0,0:0:0:0:
398,277,362915,1,0,0:0:0:0:
329,302,363015,1,0,0:0:0:0:
256,304,363115,2,0,L|217:291,1,34.4,0|0,0:0|0:0,0:0:0:0:
5,28,363715,5,0,0:0:0:0:
1,99,363815,1,0,0:0:0:0:
18,170,363915,1,0,0:0:0:0:
57,232,364015,1,0,0:0:0:0:
114,277,364115,1,0,0:0:0:0:
183,302,364215,1,0,0:0:0:0:
256,304,364315,2,0,L|282:296,1,25.8,0|0,0:0|0:0,0:0:0:0:
367,273,364715,1,0,0:0:0:0:
390,91,364915,6,0,B|340:128|248:106|248:106|310:35|310:35|230:-28|110:33|139:186|247:194|247:194|345:187|391:349|259:440|131:328|131:328|174:276|246:283|246:283|119:268|89:160,1,1324.39995958252,0|0,0:0|0:0,0:0:0:0:
64,208,407311,5,0,0:0:0:0:
58,250,407404,1,0,0:0:0:0:
68,292,407498,1,0,0:0:0:0:
91,328,407592,1,0,0:0:0:0:
125,354,407686,2,0,L|180:371,1,43,0|0,0:0|0:0,0:0:0:0:
256,224,407873,1,0,0:0:0:0:
256,181,407966,1,0,0:0:0:0:
256,138,408060,1,0,0:0:0:0:
256,95,408154,1,0,0:0:0:0:
256,52,408248,2,0,L|200:31,1,43,0|0,0:0|0:0,0:0:0:0:
254,264,408436,2,0,L|310:285,1,43,0|0,0:0|0:0,0:0:0:0:
448,176,408623,1,0,0:0:0:0:
454,134,408716,1,0,0:0:0:0:
444,92,408810,5,0,0:0:0:0:
421,56,408904,1,0,0:0:0:0:
387,30,408998,2,0,L|331:12,1,43,0|0,0:0|0:0,0:0:0:0:
388,261,409186,2,0,L|443:278,1,43,0|0,0:0|0:0,0:0:0:0:
234,143,409373,1,0,0:0:0:0:
192,132,409466,1,0,0:0:0:0:
150,140,409560,1,0,0:0:0:0:
108,148,409654,1,0,0:0:0:0:
66,141,409748,2,0,L|21:125,1,43,0|0,0:0|0:0,0:0:0:0:
326,143,409936,2,0,L|370:127,1,43,0|0,0:0|0:0,0:0:0:0:
187,6,410123,1,0,0:0:0:0:
176,48,410216,1,0,0:0:0:0:
184,90,410310,5,0,0:0:0:0:
192,132,410404,1,0,0:0:0:0:
185,174,410498,2,0,L|169:218,1,43,0|0,0:0|0:0,0:0:0:0:
274,333,410686,2,0,L|288:373,1,43,0|0,0:0|0:0,0:0:0:0:
399,238,410873,1,0,0:0:0:0:
415,199,410966,1,0,0:0:0:0:
402,159,411060,1,0,0:0:0:0:
367,136,411154,1,0,0:0:0:0:
326,143,411248,2,0,L|274:179,1,43,0|0,0:0|0:0,0:0:0:0:
438,317,411436,2,0,L|489:280,1,43,0|0,0:0|0:0,0:0:0:0:
472,106,411623,1,0,0:0:0:0:
448,70,411716,1,0,0:0:0:0:
413,45,411810,5,0,0:0:0:0:
371,36,411904,1,0,0:0:0:0:
329,43,411998,2,0,L|266:71,1,43,0|0,0:0|0:0,0:0:0:0:
359,255,412186,2,0,L|422:227,1,43,0|0,0:0|0:0,0:0:0:0:
232,123,412373,1,0,0:0:0:0:
193,107,412466,1,0,0:0:0:0:
153,120,412560,1,0,0:0:0:0:
131,155,412654,1,0,0:0:0:0:
137,196,412748,2,0,L|173:247,1,43,0|0,0:0|0:0,0:0:0:0:
314,95,412936,2,0,L|277:43,1,43,0|0,0:0|0:0,0:0:0:0:
266,269,413124,1,0,0:0:0:0:
242,305,413217,1,0,0:0:0:0:
207,330,413311,5,0,0:0:0:0:
165,339,413405,1,0,0:0:0:0:
123,332,413499,2,0,L|60:304,1,43,0|0,0:0|0:0,0:0:0:0:
153,120,413687,2,0,L|216:148,1,43,0|0,0:0|0:0,0:0:0:0:
266,269,413873,1,0,0:0:0:0:
304,287,413966,1,0,0:0:0:0:
343,305,414060,1,0,0:0:0:0:
382,324,414154,1,0,0:0:0:0:
421,342,414248,2,0,L|474:343,1,43,0|0,0:0|0:0,0:0:0:0:
391,177,414436,2,0,L|382:124,1,43,0|0,0:0|0:0,0:0:0:0:
246,269,414623,1,0,0:0:0:0:
207,287,414716,1,0,0:0:0:0:
168,305,414810,5,0,0:0:0:0:
129,324,414904,1,0,0:0:0:0:
90,342,414998,2,0,L|38:343,1,43,0|0,0:0|0:0,0:0:0:0:
121,177,415186,2,0,L|130:124,1,43,0|0,0:0|0:0,0:0:0:0:
256,22,415373,1,0,0:0:0:0:
256,65,415466,1,0,0:0:0:0:
256,108,415561,2,0,L|233:144,1,43,0|0,0:0|0:0,0:0:0:0:
256,384,415748,2,0,L|278:347,1,43,0|0,0:0|0:0,0:0:0:0:
145,212,415936,2,0,L|109:159,1,43,0|0,0:0|0:0,0:0:0:0:
367,212,416123,2,0,L|403:159,1,43,0|0,0:0|0:0,0:0:0:0:
256,22,416311,5,0,0:0:0:0:
256,65,416404,1,0,0:0:0:0:
256,108,416498,1,0,0:0:0:0:
256,151,416592,1,0,0:0:0:0:
256,194,416686,2,0,L|256:244,1,43,0|0,0:0|0:0,0:0:0:0:
154,75,416873,1,0,0:0:0:0:
119,58,416966,1,0,0:0:0:0:
77,54,417060,1,0,0:0:0:0:
39,72,417154,1,0,0:0:0:0:
16,108,417248,2,0,L|11:176,1,43,0|0,0:0|0:0,0:0:0:0:
219,217,417436,2,0,L|259:191,1,43,0|0,0:0|0:0,0:0:0:0:
113,384,417623,1,0,0:0:0:0:
149,360,417716,1,0,0:0:0:0:
184,336,417811,6,0,L|224:310,1,43,0|0,0:0|0:0,0:0:0:0:
316,212,417998,1,0,0:0:0:0:
316,200,418092,1,0,0:0:0:0:
316,188,418186,1,0,0:0:0:0:
352,124,418279,1,0,0:0:0:0:
316,116,418373,1,0,0:0:0:0:
280,124,418467,1,0,0:0:0:0:
260,208,418561,5,0,0:0:0:0:
286,225,418654,1,0,0:0:0:0:
318,232,418748,1,0,0:0:0:0:
349,226,418842,1,0,0:0:0:0:
377,210,418936,1,0,0:0:0:0:
377,220,419029,1,0,0:0:0:0:
380,231,419123,1,0,0:0:0:0:
384,240,419217,1,0,0:0:0:0:
400,285,419311,5,0,0:0:0:0:
374,319,419404,1,0,0:0:0:0:
338,342,419498,1,0,0:0:0:0:
297,353,419592,1,0,0:0:0:0:
254,350,419686,2,0,L|199:337,1,43,0|0,0:0|0:0,0:0:0:0:
80,230,419873,1,0,0:0:0:0:
58,193,419966,1,0,0:0:0:0:
54,150,420060,1,0,0:0:0:0:
68,110,420154,1,0,0:0:0:0:
97,78,420248,1,0,0:0:0:0:
136,62,420341,1,0,0:0:0:0:
179,63,420436,2,0,L|260:75,1,43,0|0,0:0|0:0,0:0:0:0:
181,227,420623,1,0,0:0:0:0:
174,269,420716,1,0,0:0:0:0:
150,304,420810,5,0,0:0:0:0:
113,326,420904,1,0,0:0:0:0:
71,331,420998,1,0,0:0:0:0:
31,317,421091,1,0,0:0:0:0:
0,288,421186,2,0,L|-16:232,1,43,0|0,0:0|0:0,0:0:0:0:
108,160,421373,1,0,0:0:0:0:
142,135,421466,1,0,0:0:0:0:
184,127,421560,1,0,0:0:0:0:
226,138,421654,1,0,0:0:0:0:
259,164,421748,1,0,0:0:0:0:
277,202,421841,1,0,0:0:0:0:
279,244,421936,2,0,L|257:310,1,43,0|0,0:0|0:0,0:0:0:0:
358,384,422123,1,0,0:0:0:0:
355,341,422216,1,0,0:0:0:0:
357,298,422310,5,0,0:0:0:0:
364,255,422404,1,0,0:0:0:0:
374,213,422498,1,0,0:0:0:0:
389,173,422591,1,0,0:0:0:0:
408,134,422686,2,0,L|441:90,1,43,0|0,0:0|0:0,0:0:0:0:
302,0,422873,1,0,0:0:0:0:
304,42,422966,1,0,0:0:0:0:
302,85,423060,1,0,0:0:0:0:
295,128,423154,1,0,0:0:0:0:
285,170,423248,1,0,0:0:0:0:
270,210,423341,1,0,0:0:0:0:
251,249,423436,2,0,L|218:293,3,43,0|0|0|0,0:0|0:0|0:0|0:0,0:0:0:0:
137,365,423811,5,0,0:0:0:0:
141,322,423904,1,0,0:0:0:0:
130,281,423998,1,0,0:0:0:0:
106,246,424092,1,0,0:0:0:0:
70,222,424186,2,0,P|41:210|13:187,1,43,0|0,0:0|0:0,0:0:0:0:
88,116,424373,1,0,0:0:0:0:
116,147,424466,1,0,0:0:0:0:
157,155,424560,1,0,0:0:0:0:
196,138,424654,1,0,0:0:0:0:
216,101,424748,1,0,0:0:0:0:
211,59,424841,1,0,0:0:0:0:
186,30,424936,2,0,P|157:22|118:38,3,43,0|0|0|0,0:0|0:0|0:0|0:0,0:0:0:0:
196,138,425311,5,0,0:0:0:0:
220,172,425404,1,0,0:0:0:0:
258,191,425498,1,0,0:0:0:0:
301,191,425592,1,0,0:0:0:0:
339,171,425686,2,0,L|397:120,1,43,0|0,0:0|0:0,0:0:0:0:
429,0,425873,1,0,0:0:0:0:
433,42,425966,1,0,0:0:0:0:
436,85,426061,2,0,L|439:145,3,43,0|0|0|0,0:0|0:0|0:0|0:0,0:0:0:0:
339,171,426436,2,0,L|322:239,3,43,0|0|0|0,0:0|0:0|0:0|0:0,0:0:0:0:
308,65,426811,5,0,0:0:0:0:
266,54,426904,1,0,0:0:0:0:
224,59,426998,1,0,0:0:0:0:
186,79,427092,1,0,0:0:0:0:
157,110,427186,1,0,0:0:0:0:
142,150,427279,1,0,0:0:0:0:
141,193,427373,1,0,0:0:0:0:
156,233,427467,1,0,0:0:0:0:
184,265,427561,1,0,0:0:0:0:
222,285,427654,1,0,0:0:0:0:
264,291,427748,2,0,L|317:262,1,43,0|0,0:0|0:0,0:0:0:0:
142,150,427936,2,0,L|110:100,1,43,0|0,0:0|0:0,0:0:0:0:
369,150,428123,2,0,L|402:100,1,43,0|0,0:0|0:0,0:0:0:0:
256,0,428311,5,0,0:0:0:0:
256,43,428404,1,0,0:0:0:0:
256,86,428498,1,0,0:0:0:0:
256,129,428592,1,0,0:0:0:0:
256,172,428686,2,0,L|298:210,1,43,0|0,0:0|0:0,0:0:0:0:
233,319,428873,1,0,0:0:0:0:
203,288,428966,1,0,0:0:0:0:
165,268,429060,1,0,0:0:0:0:
122,263,429154,1,0,0:0:0:0:
81,272,429248,1,0,0:0:0:0:
44,295,429341,1,0,0:0:0:0:
18,329,429436,2,0,L|-2:368,1,43,0|0,0:0|0:0,0:0:0:0:
183,188,429623,1,0,0:0:0:0:
196,147,429716,1,0,0:0:0:0:
196,104,429811,6,0,L|159:47,1,43,0|0,0:0|0:0,0:0:0:0:
377,39,429998,1,0,0:0:0:0:
381,44,430091,1,0,0:0:0:0:
385,50,430185,1,0,0:0:0:0:
390,55,430279,1,0,0:0:0:0:
394,61,430373,1,0,0:0:0:0:
399,66,430466,1,0,0:0:0:0:
403,72,430560,1,0,0:0:0:0:
360,104,430654,1,0,0:0:0:0:
337,151,430748,1,0,0:0:0:0:
338,205,430842,1,0,0:0:0:0:
328,257,430936,1,0,0:0:0:0:
288,292,431029,1,0,0:0:0:0:
236,294,431123,1,0,0:0:0:0:
191,265,431217,1,0,0:0:0:0:
175,215,431311,6,0,P|191:158|151:85,1,111.799994882202,0|0,0:0|0:0,0:0:0:0:
139,25,431592,1,0,0:0:0:0:
98,114,431686,2,0,P|129:122|169:111,1,55.8999974411012,0|0,0:0|0:0,0:0:0:0:
349,26,431873,2,0,P|355:68|371:87,1,55.8999974411012,0|0,0:0|0:0,0:0:0:0:
452,261,432061,2,0,P|450:237|430:200,1,55.8999974411012,0|0,0:0|0:0,0:0:0:0:
365,17,432248,2,0,P|372:60|387:78,1,55.8999974411012,0|0,0:0|0:0,0:0:0:0:
468,252,432436,2,0,B|456:182|392:161,1,111.799994882202,0|0,0:0|0:0,0:0:0:0:
193,16,432811,6,0,B|195:85|269:107,1,111.799994882202,0|0,0:0|0:0,0:0:0:0:
469,171,433186,1,0,0:0:0:0:
107,1,433373,2,0,P|114:43|136:61,1,55.8999974411012,0|0,0:0|0:0,0:0:0:0:
295,272,433561,2,0,B|259:222|294:145,1,111.799994882202,0|0,0:0|0:0,0:0:0:0:
349,334,433936,2,0,P|295:355|239:332,1,111.799994882202,0|0,0:0|0:0,0:0:0:0:
40,176,434311,6,0,B|108:171|118:98,1,111.799994882202,0|0,0:0|0:0,0:0:0:0:
112,0,434592,1,0,0:0:0:0:
120,88,434686,2,0,P|152:95|189:88,1,55.8999974411012,0|0,0:0|0:0,0:0:0:0:
424,152,434873,2,0,P|396:146|368:152,1,55.8999974411012,0|0,0:0|0:0,0:0:0:0:
40,176,435061,2,0,P|68:182|105:174,1,55.8999974411012,0|0,0:0|0:0,0:0:0:0:
336,248,435248,2,0,P|309:240|280:248,1,55.8999974411012,0|0,0:0|0:0,0:0:0:0:
224,8,435436,2,0,P|223:73|248:112,1,111.799994882202,0|0,0:0|0:0,0:0:0:0:
424,282,435811,6,0,P|422:207|400:178,1,111.799994882202,0|0,0:0|0:0,0:0:0:0:
176,152,436186,1,0,0:0:0:0:
402,46,436373,2,0,P|411:79|410:126,1,55.8999974411012,0|0,0:0|0:0,0:0:0:0:
424,282,436561,2,0,P|361:244|313:257,1,111.799994882202,0|0,0:0|0:0,0:0:0:0:
100,318,436936,2,0,P|151:349|211:327,1,111.799994882202,0|0,0:0|0:0,0:0:0:0:
229,94,437311,6,0,B|176:52|120:95,1,111.799994882202,0|0,0:0|0:0,0:0:0:0:
176,152,437592,1,0,0:0:0:0:
175,55,437686,2,0,P|180:27|175:-2,1,55.8999974411012,0|0,0:0|0:0,0:0:0:0:
298,215,437873,2,0,P|292:249|298:272,1,55.8999974411012,0|0,0:0|0:0,0:0:0:0:
94,92,438061,2,0,P|102:70|94:35,1,55.8999974411012,0|0,0:0|0:0,0:0:0:0:
386,166,438248,2,0,P|379:198|386:223,1,55.8999974411012,0|0,0:0|0:0,0:0:0:0:
59,210,438436,2,0,B|127:229|165:178,1,111.799994882202,0|0,0:0|0:0,0:0:0:0:
374,0,438811,6,0,B|306:-7|275:41,1,111.799994882202,0|0,0:0|0:0,0:0:0:0:
298,215,439186,1,0,0:0:0:0:
141,51,439373,2,0,P|111:46|86:52,1,55.8999974411012,0|0,0:0|0:0,0:0:0:0:
144,244,439561,2,0,P|174:249|199:243,1,55.8999974411012,0|0,0:0|0:0,0:0:0:0:
275,39,439748,1,0,0:0:0:0:
298,215,439936,1,0,0:0:0:0:
316,236,440029,1,0,0:0:0:0:
339,251,440123,1,0,0:0:0:0:
366,258,440217,1,0,0:0:0:0:
394,258,440311,6,0,B|386:250|435:229|458:169,1,111.799994882202,0|0,0:0|0:0,0:0:0:0:
378,170,440592,1,0,0:0:0:0:
394,258,440686,2,0,L|412:335,1,55.8999974411012,0|0,0:0|0:0,0:0:0:0:
279,121,440873,2,0,L|261:44,1,55.8999974411012,0|0,0:0|0:0,0:0:0:0:
322,300,441061,2,0,L|340:377,1,55.8999974411012,0|0,0:0|0:0,0:0:0:0:
207,163,441248,2,0,L|189:86,1,55.8999974411012,0|0,0:0|0:0,0:0:0:0:
247,352,441436,1,0,0:0:0:0:
132,205,441623,1,0,0:0:0:0:
119,150,441716,1,0,0:0:0:0:
107,95,441811,6,0,P|107:70|131:43,1,55.8999974411012,0|0,0:0|0:0,0:0:0:0:
305,246,441998,2,0,L|322:301,1,55.8999974411012,0|0,0:0|0:0,0:0:0:0:
366,66,442186,1,0,0:0:0:0:
363,59,442279,1,0,0:0:0:0:
358,54,442373,1,0,0:0:0:0:
353,50,442467,1,0,0:0:0:0:
346,47,442561,1,0,0:0:0:0:
339,46,442654,1,0,0:0:0:0:
332,47,442748,1,0,0:0:0:0:
326,50,442842,1,0,0:0:0:0:
323,55,442936,2,0,L|324:120,1,55.8999974411012,0|0,0:0|0:0,0:0:0:0:
305,246,443123,1,0,0:0:0:0:
256,272,443216,1,0,0:0:0:0:
201,268,443311,6,0,L|134:231,1,55.8999974411012,0|0,0:0|0:0,0:0:0:0:
118,74,443498,1,0,0:0:0:0:
142,87,443591,1,0,0:0:0:0:
164,98,443686,2,0,L|231:134,1,55.8999974411012,0|0,0:0|0:0,0:0:0:0:
456,299,443873,2,0,L|389:263,1,55.8999974411012,0|0,0:0|0:0,0:0:0:0:
360,28,444061,2,0,L|346:103,1,55.8999974411012,0|0,0:0|0:0,0:0:0:0:
259,368,444248,2,0,L|273:293,1,55.8999974411012,0|0,0:0|0:0,0:0:0:0:
487,193,444436,2,0,L|411:204,1,55.8999974411012,0|0,0:0|0:0,0:0:0:0:
132,203,444623,1,0,0:0:0:0:
132,203,444717,1,0,0:0:0:0:
132,203,444811,6,0,L|208:192,1,55.8999974411012,0|0,0:0|0:0,0:0:0:0:
250,26,444998,1,0,0:0:0:0:
250,26,445091,1,0,0:0:0:0:
250,26,445185,2,0,L|275:77,1,55.8999974411012,0|0,0:0|0:0,0:0:0:0:
368,360,445373,2,0,L|344:310,1,55.8999974411012,0|0,0:0|0:0,0:0:0:0:
132,293,445561,1,0,0:0:0:0:
132,293,445655,1,0,0:0:0:0:
132,293,445749,2,0,L|207:282,1,55.8999974411012,0|0,0:0|0:0,0:0:0:0:
372,211,445936,1,0,0:0:0:0:
372,211,446030,1,0,0:0:0:0:
372,211,446124,2,0,L|296:200,1,55.8999974411012,0|0,0:0|0:0,0:0:0:0:
98,101,446311,6,0,L|22:90,1,55.8999974411012,0|0,0:0|0:0,0:0:0:0:
293,70,446498,1,0,0:0:0:0:
318,56,446591,1,0,0:0:0:0:
339,46,446686,2,0,L|406:10,1,55.8999974411012,0|0,0:0|0:0,0:0:0:0:
55,178,446873,2,0,L|0:170,1,55.8999974411012,0|0,0:0|0:0,0:0:0:0:
398,110,447061,2,0,L|447:83,1,55.8999974411012,0|0,0:0|0:0,0:0:0:0:
193,54,447248,2,0,L|180:-8,1,55.8999974411012,0|0,0:0|0:0,0:0:0:0:
116,272,447436,1,0,0:0:0:0:
116,272,447529,1,0,0:0:0:0:
116,272,447623,2,0,L|187:227,1,55.8999974411012,0|0,0:0|0:0,0:0:0:0:
360,212,447811,5,0,0:0:0:0:
360,212,447904,1,0,0:0:0:0:
360,212,447998,2,0,L|267:205,1,55.8999974411012,0|0,0:0|0:0,0:0:0:0:
193,54,448186,2,0,L|206:116,1,55.8999974411012,0|0,0:0|0:0,0:0:0:0:
252,276,448373,2,0,L|265:338,1,55.8999974411012,0|0,0:0|0:0,0:0:0:0:
457,304,448561,1,0,0:0:0:0:
457,304,448654,1,0,0:0:0:0:
457,304,448748,2,0,L|429:366,1,55.8999974411012,0|0,0:0|0:0,0:0:0:0:
461,122,448936,1,0,0:0:0:0:
461,122,449029,1,0,0:0:0:0:
461,122,449123,2,0,L|433:60,1,55.8999974411012,0|0,0:0|0:0,0:0:0:0:
512,213,449311,6,0,L|427:207,1,55.8999974411012,0|0,0:0|0:0,0:0:0:0:
332,123,449498,1,0,0:0:0:0:
310,110,449591,1,0,0:0:0:0:
286,99,449686,2,0,L|219:63,1,55.8999974411012,0|0,0:0|0:0,0:0:0:0:
286,285,449873,2,0,L|219:321,1,55.8999974411012,0|0,0:0|0:0,0:0:0:0:
213,79,450061,2,0,L|146:43,1,55.8999974411012,0|0,0:0|0:0,0:0:0:0:
213,298,450248,2,0,L|146:334,1,55.8999974411012,0|0,0:0|0:0,0:0:0:0:
100,100,450436,1,0,0:0:0:0:
100,100,450529,1,0,0:0:0:0:
100,100,450623,2,0,L|29:134,1,55.8999974411012,0|0,0:0|0:0,0:0:0:0:
85,295,450811,5,0,0:0:0:0:
85,295,450904,1,0,0:0:0:0:
85,295,450998,2,0,L|14:261,1,55.8999974411012,0|0,0:0|0:0,0:0:0:0:
191,192,451186,2,0,L|257:192,1,55.8999974411012,0|0,0:0|0:0,0:0:0:0:
380,301,451373,2,0,L|380:232,1,55.8999974411012,0|0,0:0|0:0,0:0:0:0:
380,83,451561,2,0,L|380:152,1,55.8999974411012,0|0,0:0|0:0,0:0:0:0:
377,377,451748,2,0,L|378:306,1,55.8999974411012,0|0,0:0|0:0,0:0:0:0:
483,121,451936,2,0,L|449:165,1,55.8999974411012,0|0,0:0|0:0,0:0:0:0:
270,343,452123,2,0,L|303:298,1,55.8999974411012,0|0,0:0|0:0,0:0:0:0:
483,347,452311,6,0,L|449:302,1,55.8999974411012,0|0,0:0|0:0,0:0:0:0:
263,127,452498,1,0,0:0:0:0:
263,127,452592,1,0,0:0:0:0:
263,127,452686,2,0,L|319:195,1,55.8999974411012,0|0,0:0|0:0,0:0:0:0:
163,336,452873,2,0,L|129:291,1,55.8999974411012,0|0,0:0|0:0,0:0:0:0:
351,233,453061,2,0,L|342:320,1,55.8999974411012,0|0,0:0|0:0,0:0:0:0:
88,228,453248,2,0,L|96:172,1,55.8999974411012,0|0,0:0|0:0,0:0:0:0:
265,355,453436,1,0,0:0:0:0:
291,345,453529,1,0,0:0:0:0:
317,336,453623,2,0,L|352:275,1,55.8999974411012,0|0,0:0|0:0,0:0:0:0:
317,48,453811,6,0,L|352:108,1,55.8999974411012,0|0,0:0|0:0,0:0:0:0:
498,186,453998,1,0,0:0:0:0:
471,182,454091,1,0,0:0:0:0:
444,187,454185,1,0,0:0:0:0:
423,207,454279,1,0,0:0:0:0:
403,226,454373,2,0,P|378:236|341:228,1,55.8999974411012,0|0,0:0|0:0,0:0:0:0:
197,16,454561,2,0,P|199:47|191:71,1,55.8999974411012,0|0,0:0|0:0,0:0:0:0:
97,158,454748,1,0,0:0:0:0:
101,150,454841,1,0,0:0:0:0:
110,146,454935,1,0,0:0:0:0:
118,148,455029,1,0,0:0:0:0:
124,155,455123,1,0,0:0:0:0:
126,164,455216,1,0,0:0:0:0:
121,174,455311,6,0,P|108:227|124:263,1,86,0|0,0:0|0:0,0:0:0:0:
173,309,455592,1,0,0:0:0:0:
250,312,455686,1,0,0:0:0:0:
293,74,455873,2,0,B|306:159|215:131|215:233,1,172,0|0,0:0|0:0,0:0:0:0:
387,193,456436,2,0,P|375:133|343:103,1,86,0|0,0:0|0:0,0:0:0:0:
293,74,456717,1,0,0:0:0:0:
215,78,456811,5,0,0:0:0:0:
328,262,456998,2,0,P|385:294|420:289,1,86,0|0,0:0|0:0,0:0:0:0:
512,51,457373,1,0,0:0:0:0:
482,294,457561,2,0,L|478:349,1,43,0|0,0:0|0:0,0:0:0:0:
391,151,457748,1,0,0:0:0:0:
389,172,457841,1,0,0:0:0:0:
387,193,457935,1,0,0:0:0:0:
393,130,458123,1,0,0:0:0:0:
391,151,458216,1,0,0:0:0:0:
389,172,458310,5,0,0:0:0:0:
395,109,458498,1,0,0:0:0:0:
393,130,458591,1,0,0:0:0:0:
391,151,458686,2,0,P|332:168|300:158,1,86,0|0,0:0|0:0,0:0:0:0:
252,109,458967,1,0,0:0:0:0:
244,31,459061,1,0,0:0:0:0:
260,247,459248,2,0,B|174:237|202:324|86:301,1,172,0|0,0:0|0:0,0:0:0:0:
147,152,459811,6,0,P|209:165|234:203,1,86,0|0,0:0|0:0,0:0:0:0:
260,247,460092,1,0,0:0:0:0:
251,324,460186,1,0,0:0:0:0:
386,182,460373,2,0,P|434:145|441:109,1,86,0|0,0:0|0:0,0:0:0:0:
431,0,460748,1,0,0:0:0:0:
480,280,460936,2,0,L|521:315,1,43,0|0,0:0|0:0,0:0:0:0:
260,247,461123,1,0,0:0:0:0:
276,233,461216,1,0,0:0:0:0:
292,219,461310,5,0,0:0:0:0:
244,261,461498,1,0,0:0:0:0:
260,247,461591,1,0,0:0:0:0:
276,233,461685,1,0,0:0:0:0:
228,275,461873,1,0,0:0:0:0:
244,261,461966,1,0,0:0:0:0:
260,247,462061,2,0,P|228:196|171:181,1,86,0|0,0:0|0:0,0:0:0:0:
128,185,462342,1,0,0:0:0:0:
77,249,462436,1,0,0:0:0:0:
87,37,462623,6,0,B|113:76|100:109|100:109|127:120|127:120|109:157|141:214,1,172,0|0,0:0|0:0,0:0:0:0:
219,99,463186,2,0,P|187:48|130:33,1,86,0|0,0:0|0:0,0:0:0:0:
87,37,463467,1,0,0:0:0:0:
36,101,463561,1,0,0:0:0:0:
305,145,463748,2,0,L|323:39,1,86,0|0,0:0|0:0,0:0:0:0:
471,121,464123,1,0,0:0:0:0:
210,141,464311,6,0,L|222:83,1,43,0|0,0:0|0:0,0:0:0:0:
275,297,464498,1,0,0:0:0:0:
279,275,464591,1,0,0:0:0:0:
283,254,464685,1,0,0:0:0:0:
271,319,464873,1,0,0:0:0:0:
275,297,464966,1,0,0:0:0:0:
279,276,465061,2,0,L|289:234,1,43,0|0,0:0|0:0,0:0:0:0:
267,341,465248,1,0,0:0:0:0:
271,319,465341,1,0,0:0:0:0:
275,297,465436,2,0,P|321:301|367:262,1,86,0|0,0:0|0:0,0:0:0:0:
385,205,465717,1,0,0:0:0:0:
391,123,465811,5,0,0:0:0:0:
256,9,465998,2,0,B|275:42|246:81|246:81|268:98|268:98|246:128|256:167,1,172,0|0,0:0|0:0,0:0:0:0:
237,297,466561,2,0,P|191:301|145:262,1,86,0|0,0:0|0:0,0:0:0:0:
127,205,466842,1,0,0:0:0:0:
121,123,466936,1,0,0:0:0:0:
256,9,467123,6,0,L|256:116,1,86,0|0,0:0|0:0,0:0:0:0:
157,281,467498,1,0,0:0:0:0:
334,107,467686,2,0,L|334:150,1,43,0|0,0:0|0:0,0:0:0:0:
418,57,467873,1,0,0:0:0:0:
418,78,467966,1,0,0:0:0:0:
418,100,468060,1,0,0:0:0:0:
418,36,468248,1,0,0:0:0:0:
418,57,468341,1,0,0:0:0:0:
418,79,468435,1,0,0:0:0:0:
418,15,468623,1,0,0:0:0:0:
418,36,468716,1,0,0:0:0:0:
418,57,468811,6,0,P|374:72|306:64,1,86,0|0,0:0|0:0,0:0:0:0:
254,54,469092,1,0,0:0:0:0:
189,3,469186,1,0,0:0:0:0:
245,213,469373,2,0,B|268:168|228:126|228:126|255:48,1,172,0|0,0:0|0:0,0:0:0:0:
403,180,469936,2,0,P|343:214|300:215,1,86,0|0,0:0|0:0,0:0:0:0:
245,213,470217,1,0,0:0:0:0:
177,166,470311,5,0,0:0:0:0:
214,384,470498,2,0,L|233:282,1,86,0|0,0:0|0:0,0:0:0:0:
266,103,470873,1,0,0:0:0:0:
328,384,471061,1,0,0:0:0:0:
355,235,471248,1,0,0:0:0:0:
334,240,471341,1,0,0:0:0:0:
313,246,471435,1,0,0:0:0:0:
376,230,471623,1,0,0:0:0:0:
355,235,471716,1,0,0:0:0:0:
334,241,471811,5,0,0:0:0:0:
397,225,471998,1,0,0:0:0:0:
376,230,472091,1,0,0:0:0:0:
355,235,472186,2,0,P|330:184|288:163,1,86,0|0,0:0|0:0,0:0:0:0:
225,155,472467,1,0,0:0:0:0:
170,215,472561,1,0,0:0:0:0:
133,22,472748,2,0,B|170:44|170:91|170:91|222:104|225:161,1,172,0|0,0:0|0:0,0:0:0:0:
283,71,473311,6,0,P|241:22|194:9,1,86,0|0,0:0|0:0,0:0:0:0:
133,22,473592,1,0,0:0:0:0:
99,96,473686,1,0,0:0:0:0:
360,156,473873,2,0,L|383:42,1,86,0|0,0:0|0:0,0:0:0:0:
498,19,474248,1,0,0:0:0:0:
459,250,474436,1,0,0:0:0:0:
314,278,474623,1,0,0:0:0:0:
321,257,474716,1,0,0:0:0:0:
329,237,474810,5,0,0:0:0:0:
307,299,474998,1,0,0:0:0:0:
314,278,475091,1,0,0:0:0:0:
322,258,475185,1,0,0:0:0:0:
300,320,475373,1,0,0:0:0:0:
307,299,475466,1,0,0:0:0:0:
314,278,475561,2,0,P|269:239|209:243,1,86,0|0,0:0|0:0,0:0:0:0:
165,256,475842,1,0,0:0:0:0:
147,336,475936,1,0,0:0:0:0:
111,198,476123,6,0,B|70:157|88:103|88:103|37:40,1,172,0|0,0:0|0:0,0:0:0:0:
242,127,476686,2,0,P|175:129|140:159,1,86,0|0,0:0|0:0,0:0:0:0:
111,198,476967,1,0,0:0:0:0:
165,256,477061,1,0,0:0:0:0:
320,19,477248,2,0,L|210:-7,1,86,0|0,0:0|0:0,0:0:0:0:
290,297,477623,1,0,0:0:0:0:
512,85,477811,5,0,0:0:0:0:
333,202,477998,1,0,0:0:0:0:
353,207,478091,1,0,0:0:0:0:
374,212,478185,1,0,0:0:0:0:
313,197,478373,1,0,0:0:0:0:
333,202,478466,1,0,0:0:0:0:
356,206,478561,2,0,L|394:243,1,43,0|0,0:0|0:0,0:0:0:0:
293,192,478748,1,0,0:0:0:0:
313,197,478841,1,0,0:0:0:0:
332,200,478936,2,0,P|382:176|404:130,1,86,0|0,0:0|0:0,0:0:0:0:
428,75,479217,1,0,0:0:0:0:
493,123,479311,5,0,0:0:0:0:
221,230,479498,2,0,B|199:180|228:141|228:141|204:97|240:45,1,172,0|0,0:0|0:0,0:0:0:0:
153,361,480061,2,0,P|203:337|225:291,1,86,0|0,0:0|0:0,0:0:0:0:
221,230,480342,1,0,0:0:0:0:
286,278,480436,1,0,0:0:0:0:
439,69,480623,6,0,L|345:5,1,86,0|0,0:0|0:0,0:0:0:0:
238,0,480998,1,0,0:0:0:0:
286,278,481186,1,0,0:0:0:0:
161,317,481373,1,0,0:0:0:0:
166,295,481466,1,0,0:0:0:0:
169,274,481560,1,0,0:0:0:0:
157,339,481748,1,0,0:0:0:0:
161,317,481841,1,0,0:0:0:0:
166,295,481935,1,0,0:0:0:0:
153,361,482123,1,0,0:0:0:0:
157,339,482216,1,0,0:0:0:0:
161,317,482311,6,0,L|168:287,1,22.3600007506104,0|0,0:0|0:0,0:0:0:0:
213,91,482873,6,0,L|208:120,1,25.8,0|0,0:0|0:0,0:0:0:0:
204,137,483248,6,0,L|216:74,1,47.3000014434815,0|0,0:0|0:0,0:0:0:0:
409,0,483436,1,0,0:0:0:0:
283,187,483623,1,0,0:0:0:0:
261,207,483716,1,0,0:0:0:0:
233,220,483810,5,0,0:0:0:0:
452,214,483998,1,0,0:0:0:0:
472,236,484091,1,0,0:0:0:0:
485,264,484185,1,0,0:0:0:0:
277,229,484373,1,0,0:0:0:0:
255,249,484466,1,0,0:0:0:0:
227,262,484560,1,0,0:0:0:0:
446,256,484748,1,0,0:0:0:0:
466,278,484841,1,0,0:0:0:0:
479,306,484936,2,0,B|415:335|378:378|378:378|328:341|254:327,1,240.799992651367,0|0,0:0|0:0,0:0:0:0:
365,221,485498,1,0,0:0:0:0:
360,250,485591,1,0,0:0:0:0:
356,280,485685,1,0,0:0:0:0:
377,130,485873,5,0,0:0:0:0:
372,100,485966,1,0,0:0:0:0:
358,73,486060,1,0,0:0:0:0:
338,51,486154,1,0,0:0:0:0:
313,35,486248,1,0,0:0:0:0:
284,27,486341,1,0,0:0:0:0:
254,28,486436,2,0,L|191:70,1,60.1999981628419,0|0,0:0|0:0,0:0:0:0:
70,146,486623,1,0,0:0:0:0:
48,166,486716,1,0,0:0:0:0:
20,179,486810,5,0,0:0:0:0:
239,173,486998,1,0,0:0:0:0:
259,195,487091,1,0,0:0:0:0:
272,223,487185,1,0,0:0:0:0:
64,188,487373,1,0,0:0:0:0:
42,208,487466,1,0,0:0:0:0:
14,221,487560,1,0,0:0:0:0:
233,215,487748,1,0,0:0:0:0:
253,237,487841,1,0,0:0:0:0:
266,265,487936,6,0,B|329:294|366:337|366:337|416:300|490:286,1,240.799992651367,0|0,0:0|0:0,0:0:0:0:
384,173,488498,1,0,0:0:0:0:
381,202,488591,1,0,0:0:0:0:
378,232,488685,1,0,0:0:0:0:
190,336,488873,1,0,0:0:0:0:
170,333,488966,1,0,0:0:0:0:
155,321,489060,1,0,0:0:0:0:
149,302,489154,1,0,0:0:0:0:
155,283,489248,1,0,0:0:0:0:
171,271,489341,1,0,0:0:0:0:
190,269,489436,2,0,L|264:279,1,60.1999981628419,0|0,0:0|0:0,0:0:0:0:
407,279,489623,1,0,0:0:0:0:
433,265,489716,1,0,0:0:0:0:
460,252,489810,5,0,0:0:0:0:
247,244,489998,1,0,0:0:0:0:
229,218,490091,1,0,0:0:0:0:
211,194,490185,1,0,0:0:0:0:
425,217,490373,1,0,0:0:0:0:
451,203,490466,1,0,0:0:0:0:
478,190,490560,1,0,0:0:0:0:
265,182,490748,1,0,0:0:0:0:
247,156,490841,1,0,0:0:0:0:
229,132,490936,6,0,B|182:98|117:119|117:119|110:45|48:23,1,240.799992651367,0|0,0:0|0:0,0:0:0:0:
118,119,491498,1,0,0:0:0:0:
102,144,491591,1,0,0:0:0:0:
86,170,491685,1,0,0:0:0:0:
320,214,491873,1,0,0:0:0:0:
328,196,491966,1,0,0:0:0:0:
326,176,492060,1,0,0:0:0:0:
312,162,492154,1,0,0:0:0:0:
293,157,492248,1,0,0:0:0:0:
275,165,492341,1,0,0:0:0:0:
264,181,492436,2,0,L|241:244,1,60.1999981628419,0|0,0:0|0:0,0:0:0:0:
329,336,492623,1,0,0:0:0:0:
354,351,492716,1,0,0:0:0:0:
383,358,492810,5,0,0:0:0:0:
367,185,492998,1,0,0:0:0:0:
341,169,493091,1,0,0:0:0:0:
312,162,493185,1,0,0:0:0:0:
226,332,493373,1,0,0:0:0:0:
251,347,493466,1,0,0:0:0:0:
280,354,493560,1,0,0:0:0:0:
264,181,493748,1,0,0:0:0:0:
238,165,493841,1,0,0:0:0:0:
209,158,493936,2,0,L|131:151,1,60.1999981628419,0|0,0:0|0:0,0:0:0:0:
60,265,494123,1,0,0:0:0:0:
42,322,494216,1,0,0:0:0:0:
24,380,494310,5,0,0:0:0:0:
226,354,494498,2,0,L|180:290,1,60.1999981628419,0|0,0:0|0:0,0:0:0:0:
98,166,494686,1,0,0:0:0:0:
94,151,494779,1,0,0:0:0:0:
97,136,494873,1,0,0:0:0:0:
104,123,494967,1,0,0:0:0:0:
115,113,495061,1,0,0:0:0:0:
128,107,495154,1,0,0:0:0:0:
143,107,495248,1,0,0:0:0:0:
158,112,495342,1,0,0:0:0:0:
171,123,495436,2,0,P|183:98|218:73,1,60.1999981628419,0|0,0:0|0:0,0:0:0:0:
367,37,495623,1,0,0:0:0:0:
397,35,495716,1,0,0:0:0:0:
427,34,495811,5,0,0:0:0:0:
363,205,495998,1,0,0:0:0:0:
393,203,496091,1,0,0:0:0:0:
423,202,496185,1,0,0:0:0:0:
307,40,496373,1,0,0:0:0:0:
337,38,496466,1,0,0:0:0:0:
367,37,496561,1,0,0:0:0:0:
303,208,496748,1,0,0:0:0:0:
333,206,496841,1,0,0:0:0:0:
363,204,496936,6,0,P|429:156|362:36,1,240.799992651367,0|0,0:0|0:0,0:0:0:0:
437,121,497498,1,0,0:0:0:0:
467,120,497591,1,0,0:0:0:0:
497,119,497685,1,0,0:0:0:0:
282,159,497873,1,0,0:0:0:0:
265,170,497966,1,0,0:0:0:0:
253,186,498060,1,0,0:0:0:0:
249,205,498154,1,0,0:0:0:0:
251,225,498248,1,0,0:0:0:0:
261,242,498341,1,0,0:0:0:0:
277,255,498436,2,0,L|336:273,1,60.1999981628419,0|0,0:0|0:0,0:0:0:0:
502,268,498623,1,0,0:0:0:0:
504,237,498716,1,0,0:0:0:0:
505,207,498811,5,0,0:0:0:0:
334,272,498998,1,0,0:0:0:0:
336,242,499091,1,0,0:0:0:0:
337,212,499185,1,0,0:0:0:0:
499,328,499373,1,0,0:0:0:0:
501,298,499466,1,0,0:0:0:0:
502,268,499561,1,0,0:0:0:0:
331,332,499748,1,0,0:0:0:0:
333,302,499841,1,0,0:0:0:0:
335,272,499936,6,0,P|383:206|503:273,1,240.799992651367,0|0,0:0|0:0,0:0:0:0:
418,198,500498,1,0,0:0:0:0:
419,168,500591,1,0,0:0:0:0:
420,138,500685,1,0,0:0:0:0:
380,344,500873,1,0,0:0:0:0:
369,361,500966,1,0,0:0:0:0:
353,373,501060,1,0,0:0:0:0:
334,377,501154,1,0,0:0:0:0:
314,375,501248,1,0,0:0:0:0:
297,365,501341,1,0,0:0:0:0:
284,349,501436,2,0,L|266:290,1,60.1999981628419,0|0,0:0|0:0,0:0:0:0:
244,175,501623,1,0,0:0:0:0:
250,145,501716,1,0,0:0:0:0:
246,115,501810,5,0,0:0:0:0:
179,286,501998,1,0,0:0:0:0:
162,310,502091,1,0,0:0:0:0:
138,328,502185,1,0,0:0:0:0:
162,137,502373,1,0,0:0:0:0:
168,107,502466,1,0,0:0:0:0:
164,77,502560,1,0,0:0:0:0:
97,248,502748,1,0,0:0:0:0:
80,272,502841,1,0,0:0:0:0:
56,290,502936,6,0,B|13:336|13:336|103:407|183:330,1,240.799992651367,0|0,0:0|0:0,0:0:0:0:
147,199,503498,1,0,0:0:0:0:
121,182,503591,1,0,0:0:0:0:
96,166,503685,1,0,0:0:0:0:
281,267,503873,1,0,0:0:0:0:
299,273,503966,1,0,0:0:0:0:
319,271,504060,1,0,0:0:0:0:
335,260,504154,1,0,0:0:0:0:
345,242,504248,1,0,0:0:0:0:
345,222,504341,1,0,0:0:0:0:
336,205,504436,2,0,P|322:171|328:133,1,60.1999981628419,0|0,0:0|0:0,0:0:0:0:
371,32,504623,1,0,0:0:0:0:
398,21,504716,1,0,0:0:0:0:
428,16,504810,5,0,0:0:0:0:
394,190,504998,1,0,0:0:0:0:
366,200,505091,1,0,0:0:0:0:
336,205,505185,1,0,0:0:0:0:
283,37,505373,1,0,0:0:0:0:
310,26,505466,1,0,0:0:0:0:
340,21,505560,1,0,0:0:0:0:
306,195,505748,1,0,0:0:0:0:
278,205,505841,1,0,0:0:0:0:
248,210,505936,2,0,P|210:206|177:192,1,60.1999981628419,0|0,0:0|0:0,0:0:0:0:
122,77,506123,2,0,L|113:8,1,60.1999981628419,0|0,0:0|0:0,0:0:0:0:
0,215,506311,5,0,0:0:0:0:
0,215,506404,1,0,0:0:0:0:
0,215,506498,2,0,P|44:202|69:204,1,60.1999981628419,0|0,0:0|0:0,0:0:0:0:
148,226,506686,1,0,0:0:0:0:
154,229,506779,1,0,0:0:0:0:
159,235,506873,1,0,0:0:0:0:
161,242,506967,1,0,0:0:0:0:
161,249,507061,1,0,0:0:0:0:
159,256,507154,1,0,0:0:0:0:
155,264,507248,5,0,0:0:0:0:
215,259,507341,1,0,0:0:0:0:
275,255,507436,2,0,L|342:252,1,60.1999981628419,0|0,0:0|0:0,0:0:0:0:
485,250,507623,1,0,0:0:0:0:
485,250,507717,1,0,0:0:0:0:
485,250,507811,6,0,L|441:183,1,60.1999981628419,0|0,0:0|0:0,0:0:0:0:
354,41,507998,2,0,L|317:112,1,60.1999981628419,0|0,0:0|0:0,0:0:0:0:
275,255,508186,2,0,L|355:250,1,60.1999981628419,0|0,0:0|0:0,0:0:0:0:
390,35,508373,2,0,L|353:106,1,60.1999981628419,0|0,0:0|0:0,0:0:0:0:
329,270,508561,1,0,0:0:0:0:
329,270,508654,1,0,0:0:0:0:
329,270,508748,2,0,L|409:265,1,60.1999981628419,0|0,0:0|0:0,0:0:0:0:
423,85,508936,1,0,0:0:0:0:
423,85,509029,1,0,0:0:0:0:
423,85,509123,2,0,L|342:89,1,60.1999981628419,0|0,0:0|0:0,0:0:0:0:
217,144,509311,6,0,L|136:148,1,60.1999981628419,0|0,0:0|0:0,0:0:0:0:
114,0,509498,2,0,L|77:70,1,60.1999981628419,0|0,0:0|0:0,0:0:0:0:
111,288,509686,1,0,0:0:0:0:
111,288,509779,1,0,0:0:0:0:
111,288,509873,2,0,L|66:218,1,60.1999981628419,0|0,0:0|0:0,0:0:0:0:
184,93,510061,1,0,0:0:0:0:
184,93,510154,1,0,0:0:0:0:
184,93,510248,2,0,L|229:163,1,60.1999981628419,0|0,0:0|0:0,0:0:0:0:
245,274,510436,6,0,L|245:352,1,60.1999981628419,0|0,0:0|0:0,0:0:0:0:
388,328,510623,1,0,0:0:0:0:
388,328,510717,1,0,0:0:0:0:
388,328,510811,2,0,P|414:298|419:264,1,60.1999981628419,0|0,0:0|0:0,0:0:0:0:
388,56,510998,2,0,P|414:86|419:120,1,60.1999981628419,0|0,0:0|0:0,0:0:0:0:
289,327,511186,2,0,P|309:303|313:275,1,60.1999981628419,0|0,0:0|0:0,0:0:0:0:
288,77,511373,2,0,P|308:101|312:128,1,60.1999981628419,0|0,0:0|0:0,0:0:0:0:
416,197,511561,1,0,0:0:0:0:
416,197,511654,1,0,0:0:0:0:
416,197,511748,2,0,L|336:194,1,60.1999981628419,0|0,0:0|0:0,0:0:0:0:
148,195,511936,1,0,0:0:0:0:
148,195,512029,1,0,0:0:0:0:
148,195,512123,2,0,L|228:192,1,60.1999981628419,0|0,0:0|0:0,0:0:0:0:
377,279,512311,6,0,L|327:242,1,60.1999981628419,0|0,0:0|0:0,0:0:0:0:
377,105,512498,2,0,L|327:142,1,60.1999981628419,0|0,0:0|0:0,0:0:0:0:
235,41,512686,1,0,0:0:0:0:
235,41,512779,1,0,0:0:0:0:
235,41,512873,2,0,L|248:118,1,60.1999981628419,0|0,0:0|0:0,0:0:0:0:
226,306,513061,1,0,0:0:0:0:
226,306,513154,1,0,0:0:0:0:
226,306,513248,2,0,L|239:229,1,60.1999981628419,0|0,0:0|0:0,0:0:0:0:
416,194,513436,2,0,L|344:194,1,60.1999981628419,0|0,0:0|0:0,0:0:0:0:
147,187,513623,1,0,0:0:0:0:
121,171,513716,1,0,0:0:0:0:
95,155,513811,6,0,L|83:94,1,60.1999981628419,0|0,0:0|0:0,0:0:0:0:
68,326,513998,2,0,L|56:265,1,60.1999981628419,0|0,0:0|0:0,0:0:0:0:
274,166,514186,2,0,L|286:105,1,60.1999981628419,0|0,0:0|0:0,0:0:0:0:
301,337,514373,2,0,L|313:276,1,60.1999981628419,0|0,0:0|0:0,0:0:0:0:
194,149,514561,1,0,0:0:0:0:
194,149,514654,1,0,0:0:0:0:
194,149,514748,2,0,L|194:72,1,60.1999981628419,0|0,0:0|0:0,0:0:0:0:
122,299,514936,1,0,0:0:0:0:
122,299,515029,1,0,0:0:0:0:
122,299,515123,2,0,L|58:330,1,60.1999981628419,0|0,0:0|0:0,0:0:0:0:
301,337,515311,6,0,L|239:296,1,60.1999981628419,0|0,0:0|0:0,0:0:0:0:
79,175,515498,2,0,L|141:216,1,60.1999981628419,0|0,0:0|0:0,0:0:0:0:
327,266,515686,2,0,L|265:225,1,60.1999981628419,0|0,0:0|0:0,0:0:0:0:
94,76,515873,2,0,L|43:42,1,60.1999981628419,0|0,0:0|0:0,0:0:0:0:
233,21,516061,2,0,P|243:72|232:103,1,60.1999981628419,0|0,0:0|0:0,0:0:0:0:
360,54,516248,2,0,P|331:97|301:112,1,60.1999981628419,0|0,0:0|0:0,0:0:0:0:
427,169,516436,1,0,0:0:0:0:
427,169,516529,1,0,0:0:0:0:
427,169,516623,2,0,P|376:179|345:168,1,60.1999981628419,0|0,0:0|0:0,0:0:0:0:
256,93,516811,6,0,L|256:171,1,60.1999981628419,0|0,0:0|0:0,0:0:0:0:
356,255,516998,2,0,L|431:300,1,60.1999981628419,0|0,0:0|0:0,0:0:0:0:
332,87,517186,2,0,L|332:165,1,60.1999981628419,0|0,0:0|0:0,0:0:0:0:
256,269,517373,2,0,L|256:348,1,60.1999981628419,0|0,0:0|0:0,0:0:0:0:
180,87,517561,2,0,L|180:165,1,60.1999981628419,0|0,0:0|0:0,0:0:0:0:
156,255,517748,2,0,L|81:300,1,60.1999981628419,0|0,0:0|0:0,0:0:0:0:
256,93,517936,2,0,L|256:171,1,60.1999981628419,0|0,0:0|0:0,0:0:0:0:
255,347,518123,1,0,0:0:0:0:
255,347,518217,1,0,0:0:0:0:
255,347,518311,5,0,0:0:0:0:
312,338,518404,1,0,0:0:0:0:
342,288,518498,1,0,0:0:0:0:
323,233,518592,1,0,0:0:0:0:
268,213,518686,1,0,0:0:0:0:
252,216,518779,1,0,0:0:0:0:
235,212,518873,1,0,0:0:0:0:
223,200,518967,1,0,0:0:0:0:
217,184,519061,1,0,0:0:0:0:
219,167,519154,1,0,0:0:0:0:
228,153,519248,1,0,0:0:0:0:
243,145,519342,1,0,0:0:0:0:
260,142,519436,6,0,P|325:140|368:96,1,111.799994882202,0|0,0:0|0:0,0:0:0:0:
291,61,519717,1,0,0:0:0:0:
318,144,519811,6,0,L|337:202,1,55.8999974411012,0|0,0:0|0:0,0:0:0:0:
192,61,519998,2,0,L|173:3,1,55.8999974411012,0|0,0:0|0:0,0:0:0:0:
235,187,520186,2,0,L|254:245,1,55.8999974411012,0|0,0:0|0:0,0:0:0:0:
109,104,520373,2,0,L|90:46,1,55.8999974411012,0|0,0:0|0:0,0:0:0:0:
146,230,520561,2,0,L|188:361,1,111.799994882202,0|0,0:0|0:0,0:0:0:0:
39,165,520936,2,0,L|-3:34,1,111.799994882202,0|0,0:0|0:0,0:0:0:0:
70,262,521311,5,0,0:0:0:0:
91,50,521498,1,0,0:0:0:0:
91,50,521592,1,0,0:0:0:0:
91,50,521686,2,0,P|113:33|154:22,1,55.8999974411012,0|0,0:0|0:0,0:0:0:0:
155,150,521873,1,0,0:0:0:0:
170,160,521966,1,0,0:0:0:0:
183,173,522060,1,0,0:0:0:0:
193,188,522154,1,0,0:0:0:0:
200,206,522248,1,0,0:0:0:0:
204,224,522341,1,0,0:0:0:0:
202,241,522436,2,0,P|204:306|248:349,1,111.799994882202,0|0,0:0|0:0,0:0:0:0:
283,272,522717,1,0,0:0:0:0:
200,298,522811,6,0,L|142:317,1,55.8999974411012,0|0,0:0|0:0,0:0:0:0:
365,315,522998,2,0,L|312:298,1,55.8999974411012,0|0,0:0|0:0,0:0:0:0:
168,203,523186,2,0,L|110:184,1,55.8999974411012,0|0,0:0|0:0,0:0:0:0:
383,189,523373,2,0,L|329:206,1,55.8999974411012,0|0,0:0|0:0,0:0:0:0:
160,104,523561,2,0,L|49:65,1,111.799994882202,0|0,0:0|0:0,0:0:0:0:
352,104,523936,2,0,L|463:65,1,111.799994882202,0|0,0:0|0:0,0:0:0:0:
255,35,524311,5,0,0:0:0:0:
256,191,524498,1,0,0:0:0:0:
256,191,524592,1,0,0:0:0:0:
256,191,524686,1,0,0:0:0:0:
136,84,524873,1,0,0:0:0:0:
129,101,524966,1,0,0:0:0:0:
122,118,525060,1,0,0:0:0:0:
115,135,525154,1,0,0:0:0:0:
108,153,525248,1,0,0:0:0:0:
101,170,525341,1,0,0:0:0:0:
94,187,525436,2,0,P|92:252|48:295,1,111.799994882202,0|0,0:0|0:0,0:0:0:0:
13,218,525717,1,0,0:0:0:0:
96,244,525811,6,0,L|154:263,1,55.8999974411012,0|0,0:0|0:0,0:0:0:0:
284,349,525998,2,0,L|244:311,1,55.8999974411012,0|0,0:0|0:0,0:0:0:0:
135,163,526186,2,0,L|193:182,1,55.8999974411012,0|0,0:0|0:0,0:0:0:0:
323,268,526373,2,0,L|283:230,1,55.8999974411012,0|0,0:0|0:0,0:0:0:0:
119,65,526561,2,0,L|233:102,1,111.799994882202,0|0,0:0|0:0,0:0:0:0:
390,217,526936,2,0,L|291:134,1,111.799994882202,0|0,0:0|0:0,0:0:0:0:
322,0,527311,5,0,0:0:0:0:
239,181,527498,1,0,0:0:0:0:
239,181,527592,1,0,0:0:0:0:
239,181,527686,1,0,0:0:0:0:
438,163,527873,1,0,0:0:0:0:
452,174,527966,1,0,0:0:0:0:
464,188,528060,1,0,0:0:0:0:
473,204,528154,1,0,0:0:0:0:
478,222,528248,1,0,0:0:0:0:
479,241,528341,1,0,0:0:0:0:
474,258,528436,2,0,L|440:312,1,55.8999974411012,0|0,0:0|0:0,0:0:0:0:
302,331,528623,1,0,0:0:0:0:
302,331,528717,1,0,0:0:0:0:
302,331,528811,6,0,L|279:254,1,55.8999974411012,0|0,0:0|0:0,0:0:0:0:
344,150,528998,1,0,0:0:0:0:
344,150,529092,1,0,0:0:0:0:
344,150,529186,1,0,0:0:0:0:
186,215,529373,1,0,0:0:0:0:
146,224,529466,1,0,0:0:0:0:
111,203,529560,1,0,0:0:0:0:
100,163,529654,1,0,0:0:0:0:
119,127,529748,2,0,L|159:83,1,55.8999974411012,0|0,0:0|0:0,0:0:0:0:
256,39,529936,1,0,0:0:0:0:
256,39,530029,1,0,0:0:0:0:
256,39,530123,1,0,0:0:0:0:
256,94,530216,1,0,0:0:0:0:
256,150,530311,6,0,L|257:223,1,55.8999974411012,0|0,0:0|0:0,0:0:0:0:
355,85,530498,2,0,L|392:127,1,55.8999974411012,0|0,0:0|0:0,0:0:0:0:
330,224,530686,2,0,L|330:296,1,55.8999974411012,0|0,0:0|0:0,0:0:0:0:
454,84,530873,2,0,L|491:125,1,55.8999974411012,0|0,0:0|0:0,0:0:0:0:
496,259,531061,1,0,0:0:0:0:
454,264,531154,1,0,0:0:0:0:
412,269,531248,1,0,0:0:0:0:
371,274,531342,1,0,0:0:0:0:
329,279,531436,5,0,0:0:0:0:
329,279,532186,5,0,0:0:0:0:
329,279,532936,5,0,0:0:0:0:
329,279,533686,5,0,0:0:0:0:
329,279,534436,5,0,0:0:0:0:
329,278,535186,5,0,0:0:0:0:
329,279,535936,5,0,0:0:0:0:
329,278,536686,5,0,0:0:0:0:
164,68,537436,5,0,0:0:0:0:
164,68,538186,5,0,0:0:0:0:
164,68,538936,5,0,0:0:0:0:
164,68,539686,5,0,0:0:0:0:
143,212,540436,5,0,0:0:0:0:
144,211,540811,5,0,0:0:0:0:
143,212,541186,5,0,0:0:0:0:
144,211,541561,5,0,0:0:0:0:
256,98,541748,6,0,L|250:89,1,10.75,0|0,0:0|0:0,0:0:0:0:
262,95,541842,6,0,L|256:78,1,10.75,0|0,0:0|0:0,0:0:0:0:
268,92,541936,6,0,L|323:66,1,43,0|0,0:0|0:0,0:0:0:0:
439,111,542123,1,0,0:0:0:0:
467,145,542216,1,0,0:0:0:0:
472,189,542311,6,0,L|461:260,1,43,0|0,0:0|0:0,0:0:0:0:
284,219,542498,1,0,0:0:0:0:
255,184,542591,1,0,0:0:0:0:
250,140,542686,2,0,L|258:80,1,43,0|0,0:0|0:0,0:0:0:0:
418,34,542873,1,0,0:0:0:0:
460,31,542966,1,0,0:0:0:0:
495,54,543061,2,0,L|504:112,1,43,0|0,0:0|0:0,0:0:0:0:
367,281,543248,5,0,0:0:0:0:
325,284,543341,1,0,0:0:0:0:
290,261,543436,2,0,L|281:203,1,43,0|0,0:0|0:0,0:0:0:0:
261,118,543623,1,0,0:0:0:0:
255,97,543716,1,0,0:0:0:0:
240,78,543811,2,0,L|207:50,1,43,0|0,0:0|0:0,0:0:0:0:
82,74,543998,2,0,L|125:100,1,43,0|0,0:0|0:0,0:0:0:0:
154,240,544186,1,0,0:0:0:0:
145,259,544279,1,0,0:0:0:0:
136,278,544373,2,0,L|114:324,1,43,0|0,0:0|0:0,0:0:0:0:
214,191,544561,5,0,0:0:0:0:
235,191,544654,1,0,0:0:0:0:
259,191,544748,2,0,L|315:191,1,43,0|0,0:0|0:0,0:0:0:0:
358,240,544936,5,0,0:0:0:0:
367,259,545029,1,0,0:0:0:0:
376,280,545123,2,0,L|400:325,1,43,0|0,0:0|0:0,0:0:0:0:
184,360,545311,5,0,0:0:0:0:
184,360,545404,1,0,0:0:0:0:
184,360,545498,2,0,L|205:312,1,43,0|0,0:0|0:0,0:0:0:0:
328,360,545686,5,0,0:0:0:0:
328,360,545779,1,0,0:0:0:0:
328,360,545873,2,0,L|307:312,1,43,0|0,0:0|0:0,0:0:0:0:
256,216,546061,5,0,0:0:0:0:
256,216,546154,1,0,0:0:0:0:
256,216,546248,2,0,L|256:161,1,43,0|0,0:0|0:0,0:0:0:0:
354,57,546436,5,0,0:0:0:0:
366,74,546529,1,0,0:0:0:0:
382,88,546623,1,0,0:0:0:0:
401,97,546717,1,0,0:0:0:0:
424,100,546811,2,0,L|476:94,1,43,0|0,0:0|0:0,0:0:0:0:
512,213,546998,2,0,L|459:220,1,43,0|0,0:0|0:0,0:0:0:0:
379,196,547186,5,0,0:0:0:0:
362,182,547279,1,0,0:0:0:0:
345,167,547373,2,0,L|312:135,1,43,0|0,0:0|0:0,0:0:0:0:
256,243,547561,5,0,0:0:0:0:
239,256,547654,1,0,0:0:0:0:
222,272,547748,2,0,L|188:304,1,43,0|0,0:0|0:0,0:0:0:0:
327,321,547936,5,0,0:0:0:0:
341,337,548029,1,0,0:0:0:0:
353,351,548123,2,0,L|387:391,1,43,0|0,0:0|0:0,0:0:0:0:
457,288,548311,5,0,0:0:0:0:
457,288,548404,1,0,0:0:0:0:
457,288,548498,2,0,L|407:275,1,43,0|0,0:0|0:0,0:0:0:0:
323,163,548686,5,0,0:0:0:0:
323,163,548779,1,0,0:0:0:0:
323,163,548873,2,0,L|331:241,1,43,0|0,0:0|0:0,0:0:0:0:
313,306,549061,5,0,0:0:0:0:
313,306,549154,1,0,0:0:0:0:
313,306,549248,2,0,L|281:348,1,43,0|0,0:0|0:0,0:0:0:0:
149,243,549436,5,0,0:0:0:0:
133,227,549529,1,0,0:0:0:0:
122,209,549623,1,0,0:0:0:0:
117,188,549717,1,0,0:0:0:0:
117,166,549811,2,0,L|123:119,1,43,0|0,0:0|0:0,0:0:0:0:
256,41,549998,2,0,L|256:88,1,43,0|0,0:0|0:0,0:0:0:0:
395,166,550186,1,0,0:0:0:0:
395,166,550279,1,0,0:0:0:0:
395,166,550373,6,0,L|376:113,1,43,0|0,0:0|0:0,0:0:0:0:
382,34,550561,2,0,L|410:-3,1,43,0|0,0:0|0:0,0:0:0:0:
512,88,550748,2,0,L|462:89,1,43,0|0,0:0|0:0,0:0:0:0:
283,97,550936,1,0,0:0:0:0:
283,97,551029,1,0,0:0:0:0:
283,97,551123,2,0,L|262:137,1,43,0|0,0:0|0:0,0:0:0:0:
262,229,551311,5,0,0:0:0:0:
262,229,551404,1,0,0:0:0:0:
262,229,551498,2,0,L|277:272,1,43,0|0,0:0|0:0,0:0:0:0:
362,319,551686,5,0,0:0:0:0:
362,319,551779,1,0,0:0:0:0:
362,319,551873,2,0,L|412:330,1,43,0|0,0:0|0:0,0:0:0:0:
432,140,552061,5,0,0:0:0:0:
432,140,552154,1,0,0:0:0:0:
432,140,552248,2,0,L|397:171,1,43,0|0,0:0|0:0,0:0:0:0:
498,273,552436,5,0,0:0:0:0:
498,273,552529,1,0,0:0:0:0:
498,273,552623,2,0,L|446:264,1,43,0|0,0:0|0:0,0:0:0:0:
343,201,552811,5,0,0:0:0:0:
343,201,552904,1,0,0:0:0:0:
343,201,552998,2,0,L|305:226,1,43,0|0,0:0|0:0,0:0:0:0:
386,303,553186,5,0,0:0:0:0:
386,303,553279,1,0,0:0:0:0:
386,303,553373,2,0,L|333:292,1,43,0|0,0:0|0:0,0:0:0:0:
269,293,553561,5,0,0:0:0:0:
269,293,553654,1,0,0:0:0:0:
269,293,553748,2,0,L|222:316,1,43,0|0,0:0|0:0,0:0:0:0:
137,365,553936,6,0,L|90:388,1,43,0|0,0:0|0:0,0:0:0:0:
100,244,554123,1,0,0:0:0:0:
100,238,554216,1,0,0:0:0:0:
101,233,554311,5,0,0:0:0:0:
101,227,554404,1,0,0:0:0:0:
102,222,554498,2,0,L|105:178,1,43,0|0,0:0|0:0,0:0:0:0:
218,0,554686,5,0,0:0:0:0:
218,0,554779,1,0,0:0:0:0:
218,0,554873,2,0,L|218:50,1,43,0|0,0:0|0:0,0:0:0:0:
282,238,555061,5,0,0:0:0:0:
282,238,555154,1,0,0:0:0:0:
282,238,555248,2,0,L|277:186,1,43,0|0,0:0|0:0,0:0:0:0:
164,108,555436,5,0,0:0:0:0:
182,119,555529,1,0,0:0:0:0:
202,125,555623,1,0,0:0:0:0:
224,125,555717,1,0,0:0:0:0:
245,117,555811,2,0,L|273:82,1,43,0|0,0:0|0:0,0:0:0:0:
370,9,555998,2,0,L|358:56,1,43,0|0,0:0|0:0,0:0:0:0:
418,171,556186,5,0,0:0:0:0:
429,188,556279,1,0,0:0:0:0:
448,199,556373,2,0,L|505:212,1,43,0|0,0:0|0:0,0:0:0:0:
320,184,556561,5,0,0:0:0:0:
313,204,556654,1,0,0:0:0:0:
306,223,556748,2,0,L|289:273,1,43,0|0,0:0|0:0,0:0:0:0:
245,117,556936,5,0,0:0:0:0:
224,121,557029,1,0,0:0:0:0:
203,115,557123,2,0,L|162:95,1,43,0|0,0:0|0:0,0:0:0:0:
56,21,557311,5,0,0:0:0:0:
56,21,557404,1,0,0:0:0:0:
56,21,557498,2,0,L|106:51,1,43,0|0,0:0|0:0,0:0:0:0:
36,149,557686,5,0,0:0:0:0:
36,149,557779,1,0,0:0:0:0:
36,149,557873,2,0,L|90:124,1,43,0|0,0:0|0:0,0:0:0:0:
139,223,558061,5,0,0:0:0:0:
139,223,558154,1,0,0:0:0:0:
139,223,558248,2,0,L|150:176,1,43,0|0,0:0|0:0,0:0:0:0:
219,81,558436,5,0,0:0:0:0:
233,65,558529,1,0,0:0:0:0:
252,54,558623,1,0,0:0:0:0:
273,49,558717,1,0,0:0:0:0:
295,52,558811,2,0,L|338:58,1,43,0|0,0:0|0:0,0:0:0:0:
281,194,558998,2,0,L|332:203,1,43,0|0,0:0|0:0,0:0:0:0:
153,182,559186,5,0,0:0:0:0:
145,202,559279,1,0,0:0:0:0:
138,224,559373,2,0,L|118:280,1,43,0|0,0:0|0:0,0:0:0:0:
226,306,559561,5,0,0:0:0:0:
244,316,559654,1,0,0:0:0:0:
266,327,559748,2,0,L|309:347,1,43,0|0,0:0|0:0,0:0:0:0:
402,325,559936,5,0,0:0:0:0:
409,304,560029,1,0,0:0:0:0:
419,283,560123,2,0,L|436:232,1,43,0|0,0:0|0:0,0:0:0:0:
355,121,560311,5,0,0:0:0:0:
355,121,560404,1,0,0:0:0:0:
355,121,560498,2,0,L|350:163,1,43,0|0,0:0|0:0,0:0:0:0:
246,257,560686,5,0,0:0:0:0:
246,257,560779,1,0,0:0:0:0:
246,257,560873,2,0,L|288:232,1,43,0|0,0:0|0:0,0:0:0:0:
419,283,561061,5,0,0:0:0:0:
419,283,561154,1,0,0:0:0:0:
419,283,561248,2,0,L|391:250,1,43,0|0,0:0|0:0,0:0:0:0:
298,341,561436,5,0,0:0:0:0:
279,351,561529,1,0,0:0:0:0:
258,356,561623,1,0,0:0:0:0:
236,356,561717,1,0,0:0:0:0:
216,348,561811,2,0,L|177:320,1,43,0|0,0:0|0:0,0:0:0:0:
83,210,561998,2,0,L|109:251,1,43,0|0,0:0|0:0,0:0:0:0:
26,384,562186,5,0,0:0:0:0:
26,384,562279,1,0,0:0:0:0:
26,384,562373,2,0,L|68:341,1,43,0|0,0:0|0:0,0:0:0:0:
194,238,562561,2,0,L|222:206,1,43,0|0,0:0|0:0,0:0:0:0:
50,231,562748,2,0,L|81:276,1,43,0|0,0:0|0:0,0:0:0:0:
186,356,562936,5,0,0:0:0:0:
186,356,563029,1,0,0:0:0:0:
186,356,563123,2,0,L|229:357,1,43,0|0,0:0|0:0,0:0:0:0:
304,303,563311,5,0,0:0:0:0:
304,303,563404,1,0,0:0:0:0:
304,303,563498,2,0,L|323:251,1,43,0|0,0:0|0:0,0:0:0:0:
280,179,563686,5,0,0:0:0:0:
280,179,563779,1,0,0:0:0:0:
280,179,563873,2,0,L|248:146,1,43,0|0,0:0|0:0,0:0:0:0:
110,285,564061,5,0,0:0:0:0:
110,285,564154,1,0,0:0:0:0:
110,285,564248,2,0,L|152:273,1,43,0|0,0:0|0:0,0:0:0:0:
163,157,564436,5,0,0:0:0:0:
163,157,564529,1,0,0:0:0:0:
163,157,564623,2,0,L|188:201,1,43,0|0,0:0|0:0,0:0:0:0:
192,354,564811,5,0,0:0:0:0:
192,354,564904,1,0,0:0:0:0:
192,354,564998,2,0,L|237:345,1,43,0|0,0:0|0:0,0:0:0:0:
284,183,565186,5,0,0:0:0:0:
284,183,565279,1,0,0:0:0:0:
284,183,565373,2,0,L|307:229,1,43,0|0,0:0|0:0,0:0:0:0:
304,304,565561,5,0,0:0:0:0:
304,304,565654,1,0,0:0:0:0:
304,304,565748,2,0,L|345:321,1,43,0|0,0:0|0:0,0:0:0:0:
512,354,565936,6,0,L|466:336,1,43,0|0,0:0|0:0,0:0:0:0:
437,189,566123,1,0,0:0:0:0:
437,189,566217,1,0,0:0:0:0:
437,189,566311,2,0,L|435:244,1,43,0|0,0:0|0:0,0:0:0:0:
399,384,566498,2,0,L|398:335,1,43,0|0,0:0|0:0,0:0:0:0:
348,162,566686,2,0,L|344:209,1,43,0|0,0:0|0:0,0:0:0:0:
512,355,566873,2,0,L|512:294,1,43,0|0,0:0|0:0,0:0:0:0:
440,146,567061,2,0,L|436:193,1,43,0|0,0:0|0:0,0:0:0:0:
318,326,567248,1,0,0:0:0:0:
264,341,567341,1,0,0:0:0:0:
208,335,567436,6,0,B|123:328|119:244|119:244|157:207|193:249,1,206.399993701172,0|0,0:0|0:0,0:0:0:0:
264,341,567998,1,0,0:0:0:0:
174,160,568186,2,0,B|156:109|189:60|189:60|247:84|264:144,1,206.399993701172,0|0,0:0|0:0,0:0:0:0:
264,341,568748,1,0,0:0:0:0:
305,199,568936,2,0,B|310:159|353:165|353:165|409:226|354:292,1,206.399993701172,0|0,0:0|0:0,0:0:0:0:
131,292,569498,1,0,0:0:0:0:
195,144,569686,1,0,0:0:0:0:
195,144,569779,1,0,0:0:0:0:
195,144,569873,2,0,L|215:204,1,51.599998425293,0|0,0:0|0:0,0:0:0:0:
345,220,570061,1,0,0:0:0:0:
345,220,570154,1,0,0:0:0:0:
345,220,570248,2,0,L|297:284,1,51.599998425293,0|0,0:0|0:0,0:0:0:0:
177,351,570436,6,0,B|127:326|75:360|75:360|27:326|49:270,1,206.399993701172,0|0,0:0|0:0,0:0:0:0:
256,192,570998,1,0,0:0:0:0:
95,211,571186,2,0,B|59:188|20:201|20:201|2:184|2:184|18:166|18:166|56:188|96:166,1,206.399993701172,0|0,0:0|0:0,0:0:0:0:
256,192,571748,1,0,0:0:0:0:
57,100,571936,2,0,B|36:47|84:13|84:13|136:47|186:22,1,206.399993701172,0|0,0:0|0:0,0:0:0:0:
256,192,572498,5,0,0:0:0:0:
297,63,572686,1,0,0:0:0:0:
323,60,572779,1,0,0:0:0:0:
347,50,572873,2,0,L|395:16,1,51.599998425293,0|0,0:0|0:0,0:0:0:0:
512,157,573061,1,0,0:0:0:0:
486,154,573154,1,0,0:0:0:0:
462,144,573248,2,0,L|414:110,1,51.599998425293,0|0,0:0|0:0,0:0:0:0:
256,192,573436,2,0,P|239:243|299:191,1,206.399993701172,0|0,0:0|0:0,0:0:0:0:
255,54,573998,5,0,0:0:0:0:
186,283,574186,2,0,P|231:325|282:335,1,103.199996850586,0|0,0:0|0:0,0:0:0:0:
420,267,574561,1,0,0:0:0:0:
401,103,574748,1,0,0:0:0:0:
348,336,574936,2,0,L|341:259,1,51.599998425293,0|0,0:0|0:0,0:0:0:0:
270,334,575123,2,0,L|263:257,1,51.599998425293,0|0,0:0|0:0,0:0:0:0:
246,128,575311,5,0,0:0:0:0:
76,50,575498,2,0,P|67:71|36:63,1,51.599998425293,0|0,0:0|0:0,0:0:0:0:
54,150,575686,2,0,P|76:113|135:99,1,103.199996850586,0|0,0:0|0:0,0:0:0:0:
45,308,576061,1,0,0:0:0:0:
280,219,576249,2,0,P|266:200|288:177,1,51.599998425293,0|0,0:0|0:0,0:0:0:0:
219,142,576436,2,0,P|239:180|222:238,1,103.199996850586,0|0,0:0|0:0,0:0:0:0:
76,50,576811,5,0,0:0:0:0:
45,308,576998,2,0,P|67:305|76:336,1,51.599998425293,0|0,0:0|0:0,0:0:0:0:
141,276,577186,2,0,P|98:274|56:230,1,103.199996850586,0|0,0:0|0:0,0:0:0:0:
280,219,577561,1,0,0:0:0:0:
76,50,577748,1,0,0:0:0:0:
141,276,577936,5,0,0:0:0:0:
92,263,578029,1,0,0:0:0:0:
71,217,578123,1,0,0:0:0:0:
91,172,578217,1,0,0:0:0:0:
138,157,578311,5,0,0:0:0:0:
138,170,578404,1,0,0:0:0:0:
138,183,578498,1,0,0:0:0:0:
138,196,578592,1,0,0:0:0:0:
136,211,578686,5,0,0:0:0:0:
147,204,578779,1,0,0:0:0:0:
159,199,578873,1,0,0:0:0:0:
171,197,578967,1,0,0:0:0:0:
184,198,579061,1,0,0:0:0:0:
197,201,579154,1,0,0:0:0:0:
209,206,579248,1,0,0:0:0:0:
219,213,579342,1,0,0:0:0:0:
230,222,579436,6,0,P|263:269|355:286,1,154.799995275879,0|0,0:0|0:0,0:0:0:0:
386,278,579811,1,0,0:0:0:0:
256,352,579998,1,0,0:0:0:0:
330,177,580186,2,0,B|369:148|369:148|400:158|426:140,1,103.199996850586,0|0,0:0|0:0,0:0:0:0:
256,112,580561,2,0,B|268:60|268:60|256:0,1,103.199996850586,0|0,0:0|0:0,0:0:0:0:
182,177,580936,2,0,B|143:148|143:148|112:158|86:140,1,103.199996850586,0|0,0:0|0:0,0:0:0:0:
0,277,581311,5,0,0:0:0:0:
149,352,581498,1,0,0:0:0:0:
102,188,581686,1,0,0:0:0:0:
98,162,581779,1,0,0:0:0:0:
94,137,581873,2,0,L|84:79,1,51.599998425293,0|0,0:0|0:0,0:0:0:0:
197,101,582061,1,0,0:0:0:0:
200,75,582154,1,0,0:0:0:0:
205,50,582248,2,0,L|214:-7,1,51.599998425293,0|0,0:0|0:0,0:0:0:0:
235,232,582436,6,0,B|293:171|293:171|309:215|343:235,1,154.799995275879,0|0,0:0|0:0,0:0:0:0:
360,248,582811,1,0,0:0:0:0:
512,246,582998,1,0,0:0:0:0:
465,110,583186,2,0,P|417:75|394:183,1,206.399993701172,0|0,0:0|0:0,0:0:0:0:
437,335,583748,1,0,0:0:0:0:
413,130,583936,2,0,L|351:120,1,51.599998425293,0|0,0:0|0:0,0:0:0:0:
360,248,584123,2,0,L|298:238,1,51.599998425293,0|0,0:0|0:0,0:0:0:0:
448,218,584311,5,0,0:0:0:0:
228,122,584498,1,0,0:0:0:0:
212,128,584591,1,0,0:0:0:0:
205,143,584685,1,0,0:0:0:0:
209,160,584779,1,0,0:0:0:0:
223,169,584873,1,0,0:0:0:0:
240,167,584966,1,0,0:0:0:0:
252,153,585061,2,0,L|257:95,1,51.599998425293,0|0,0:0|0:0,0:0:0:0:
333,127,585248,2,0,L|338:69,1,51.599998425293,0|0,0:0|0:0,0:0:0:0:
428,0,585436,2,0,L|418:120,1,103.199996850586,0|0,0:0|0:0,0:0:0:0:
394,353,585811,5,0,0:0:0:0:
333,127,585998,1,0,0:0:0:0:
451,272,586186,2,0,P|395:249|351:267,1,103.199996850586,0|0,0:0|0:0,0:0:0:0:
256,363,586561,2,0,L|256:260,1,103.199996850586,0|0,0:0|0:0,0:0:0:0:
35,150,586936,2,0,P|80:172|128:159,1,103.199996850586,0|0,0:0|0:0,0:0:0:0:
301,0,587311,5,0,0:0:0:0:
353,211,587498,2,0,P|358:242|352:282,1,51.599998425293,0|0,0:0|0:0,0:0:0:0:
277,83,587686,1,0,0:0:0:0:
226,259,587873,2,0,P|217:292|188:317,1,51.599998425293,0|0,0:0|0:0,0:0:0:0:
269,107,588061,1,0,0:0:0:0:
108,226,588248,2,0,P|72:233|45:226,1,51.599998425293,0|0,0:0|0:0,0:0:0:0:
255,139,588436,6,0,B|340:95|340:95|352:157|413:183,1,206.399993701172,0|0,0:0|0:0,0:0:0:0:
451,75,588998,1,0,0:0:0:0:
471,239,589186,2,0,P|425:227|411:157,1,103.199996850586,0|0,0:0|0:0,0:0:0:0:
384,14,589561,2,0,P|430:26|444:96,1,103.199996850586,0|0,0:0|0:0,0:0:0:0:
357,263,589936,1,0,0:0:0:0:
345,268,590029,1,0,0:0:0:0:
332,270,590123,1,0,0:0:0:0:
320,268,590217,1,0,0:0:0:0:
307,261,590311,6,0,L|301:205,1,51.599998425293,0|0,0:0|0:0,0:0:0:0:
225,35,590498,2,0,L|231:91,1,51.599998425293,0|0,0:0|0:0,0:0:0:0:
213,279,590686,1,0,0:0:0:0:
201,284,590779,1,0,0:0:0:0:
188,286,590873,1,0,0:0:0:0:
176,284,590967,1,0,0:0:0:0:
163,277,591061,6,0,B|152:214|152:214|136:199|136:199|123:119,1,154.799995275879,0|0,0:0|0:0,0:0:0:0:
115,91,591436,6,0,P|157:54|210:61,1,86,0|0,0:0|0:0,0:0:0:0:
250,93,591717,1,0,0:0:0:0:
253,15,591811,1,0,0:0:0:0:
390,333,591998,2,0,B|376:289|404:262|404:262|399:238|399:238|410:218|410:218|404:190|419:153,1,172,0|0,0:0|0:0,0:0:0:0:
251,204,592561,6,0,P|293:167|346:174,1,86,0|0,0:0|0:0,0:0:0:0:
413,171,592842,1,0,0:0:0:0:
416,93,592936,1,0,0:0:0:0:
253,15,593123,1,0,0:0:0:0:
251,204,593311,5,0,0:0:0:0:
309,110,593498,1,0,0:0:0:0:
169,342,593686,5,0,0:0:0:0:
251,204,593873,1,0,0:0:0:0:
280,235,593966,1,0,0:0:0:0:
309,267,594060,1,0,0:0:0:0:
222,173,594248,1,0,0:0:0:0:
251,204,594341,1,0,0:0:0:0:
280,236,594435,1,0,0:0:0:0:
193,142,594623,1,0,0:0:0:0:
222,173,594716,1,0,0:0:0:0:
251,204,594811,6,0,P|299:179|311:151,1,86,0|0,0:0|0:0,0:0:0:0:
279,80,595092,1,0,0:0:0:0:
354,62,595186,1,0,0:0:0:0:
128,359,595373,2,0,B|180:330|180:330|208:331|208:331|235:290|235:290|282:274,1,172,0|0,0:0|0:0,0:0:0:0:
400,358,595936,6,0,P|346:353|324:332,1,86,0|0,0:0|0:0,0:0:0:0:
268,278,596217,1,0,0:0:0:0:
310,214,596311,1,0,0:0:0:0:
512,289,596498,1,0,0:0:0:0:
397,86,596686,1,0,0:0:0:0:
479,221,596873,1,0,0:0:0:0:
400,0,597061,5,0,0:0:0:0:
394,203,597248,1,0,0:0:0:0:
436,211,597341,1,0,0:0:0:0:
478,220,597435,1,0,0:0:0:0:
352,195,597623,1,0,0:0:0:0:
394,203,597716,1,0,0:0:0:0:
436,212,597810,1,0,0:0:0:0:
310,187,597998,1,0,0:0:0:0:
352,195,598091,1,0,0:0:0:0:
394,203,598186,6,0,P|411:257|400:303,1,86,0|0,0:0|0:0,0:0:0:0:
362,349,598467,1,0,0:0:0:0:
290,319,598561,1,0,0:0:0:0:
379,38,598748,2,0,B|382:84|347:110|347:110|342:142|342:142|314:157|307:196,1,172,0|0,0:0|0:0,0:0:0:0:
160,158,599311,6,0,P|211:142|262:160,1,86,0|0,0:0|0:0,0:0:0:0:
309,186,599592,1,0,0:0:0:0:
277,256,599686,1,0,0:0:0:0:
143,71,599873,1,0,0:0:0:0:
113,300,600061,1,0,0:0:0:0:
160,158,600248,1,0,0:0:0:0:
231,384,600436,5,0,0:0:0:0:
191,264,600623,1,0,0:0:0:0:
151,281,600716,1,0,0:0:0:0:
112,299,600810,1,0,0:0:0:0:
231,247,600998,1,0,0:0:0:0:
191,264,601091,1,0,0:0:0:0:
152,282,601186,2,0,L|109:301,1,43,0|0,0:0|0:0,0:0:0:0:
271,230,601373,1,0,0:0:0:0:
231,247,601466,1,0,0:0:0:0:
191,264,601561,6,0,P|145:246|124:205,1,86,0|0,0:0|0:0,0:0:0:0:
112,139,601842,1,0,0:0:0:0:
183,108,601936,1,0,0:0:0:0:
209,354,602123,2,0,B|227:306|191:264|191:264|222:235|218:184,1,172,0|0,0:0|0:0,0:0:0:0:
354,267,602686,6,0,P|302:278|261:258,1,86,0|0,0:0|0:0,0:0:0:0:
218,196,602967,1,0,0:0:0:0:
242,122,603061,1,0,0:0:0:0:
397,57,603248,1,0,0:0:0:0:
354,267,603436,1,0,0:0:0:0:
477,94,603623,1,0,0:0:0:0:
338,352,603811,5,0,0:0:0:0:
278,226,603998,1,0,0:0:0:0:
315,246,604091,1,0,0:0:0:0:
353,266,604185,1,0,0:0:0:0:
126,143,604373,1,0,0:0:0:0:
163,163,604466,1,0,0:0:0:0:
201,184,604560,1,0,0:0:0:0:
239,204,604654,1,0,0:0:0:0:
278,226,604748,1,0,0:0:0:0:
315,246,604841,1,0,0:0:0:0:
353,266,604936,6,0,P|404:237|415:201,1,86,0|0,0:0|0:0,0:0:0:0:
387,140,605217,1,0,0:0:0:0:
464,142,605311,1,0,0:0:0:0:
114,315,605498,2,0,B|176:312|176:312|200:328|200:328|224:312|224:312|297:307,1,172,0|0,0:0|0:0,0:0:0:0:
197,199,606061,6,0,P|188:253|210:292,1,86,0|0,0:0|0:0,0:0:0:0:
276,308,606342,1,0,0:0:0:0:
224,366,606436,1,0,0:0:0:0:
364,15,606623,2,0,B|321:60|321:60|318:89|318:89|290:97|290:97|240:150,1,172,0|0,0:0|0:0,0:0:0:0:
276,308,607186,5,0,0:0:0:0:
197,199,607373,1,0,0:0:0:0:
225,166,607466,1,0,0:0:0:0:
254,134,607560,1,0,0:0:0:0:
169,232,607748,1,0,0:0:0:0:
197,199,607841,1,0,0:0:0:0:
226,167,607935,1,0,0:0:0:0:
141,265,608123,1,0,0:0:0:0:
169,232,608216,1,0,0:0:0:0:
197,199,608311,6,0,P|235:230|292:233,1,86,0|0,0:0|0:0,0:0:0:0:
338,198,608592,1,0,0:0:0:0:
343,275,608686,1,0,0:0:0:0:
387,0,608873,2,0,B|397:60|397:60|424:74|424:74|437:160,1,172,0|0,0:0|0:0,0:0:0:0:
343,275,609436,6,0,P|396:250|412:205,1,86,0|0,0:0|0:0,0:0:0:0:
436,153,609717,1,0,0:0:0:0:
484,213,609811,1,0,0:0:0:0:
67,69,609998,2,0,B|127:79|127:79|141:106|141:106|227:119,1,172,0|0,0:0|0:0,0:0:0:0:
436,153,610561,5,0,0:0:0:0:
343,275,610748,1,0,0:0:0:0:
310,246,610841,1,0,0:0:0:0:
277,218,610935,1,0,0:0:0:0:
376,304,611123,1,0,0:0:0:0:
343,275,611216,1,0,0:0:0:0:
310,247,611310,1,0,0:0:0:0:
409,333,611498,1,0,0:0:0:0:
376,304,611591,1,0,0:0:0:0:
343,275,611686,6,0,P|384:243|397:194,1,86,0|0,0:0|0:0,0:0:0:0:
343,143,611967,1,0,0:0:0:0:
401,79,612061,1,0,0:0:0:0:
116,384,612248,2,0,B|116:336|116:336|111:303|111:303|124:272|124:272|117:194,1,172,0|0,0:0|0:0,0:0:0:0:
54,68,612811,6,0,P|95:100|108:149,1,86,0|0,0:0|0:0,0:0:0:0:
118,215,613092,1,0,0:0:0:0:
60,279,613186,1,0,0:0:0:0:
321,0,613373,2,0,B|321:48|321:48|326:81|326:81|313:112|313:112|320:190,1,172,0|0,0:0|0:0,0:0:0:0:
396,303,613936,5,0,0:0:0:0:
215,184,614123,1,0,0:0:0:0:
257,189,614216,1,0,0:0:0:0:
300,194,614310,1,0,0:0:0:0:
173,179,614499,1,0,0:0:0:0:
215,184,614592,1,0,0:0:0:0:
258,189,614686,1,0,0:0:0:0:
131,174,614873,1,0,0:0:0:0:
173,179,614966,1,0,0:0:0:0:
215,184,615061,6,0,P|217:247|238:279,1,86,0|0,0:0|0:0,0:0:0:0:
285,316,615342,1,0,0:0:0:0:
221,361,615436,1,0,0:0:0:0:
342,97,615623,2,0,P|290:99|214:191,1,172,0|0,0:0|0:0,0:0:0:0:
415,214,616186,2,0,P|417:153|396:115,1,86,0|0,0:0|0:0,0:0:0:0:
342,97,616467,1,0,0:0:0:0:
406,52,616561,1,0,0:0:0:0:
352,273,616748,1,0,0:0:0:0:
512,162,616936,1,0,0:0:0:0:
342,97,617123,1,0,0:0:0:0:
512,301,617311,5,0,0:0:0:0:
415,214,617498,1,0,0:0:0:0:
383,243,617591,1,0,0:0:0:0:
351,272,617685,1,0,0:0:0:0:
479,156,617873,1,0,0:0:0:0:
447,185,617966,1,0,0:0:0:0:
415,214,618061,1,0,0:0:0:0:
407,194,618154,1,0,0:0:0:0:
392,178,618248,1,0,0:0:0:0:
372,171,618342,1,0,0:0:0:0:
327,176,618435,5,0,0:0:0:0:
354,144,618531,1,0,0:0:0:0:
358,102,618628,1,0,0:0:0:0:
337,65,618725,1,0,0:0:0:0:
288,116,618822,5,0,0:0:0:0:
266,115,618918,1,0,0:0:0:0:
245,113,619015,2,0,B|165:106|165:106|99:158,1,129,0|0,0:0|0:0,0:0:0:0:
93,166,619402,1,0,0:0:0:0:
201,324,619596,5,0,0:0:0:0:
173,293,619692,1,0,0:0:0:0:
169,251,619789,1,0,0:0:0:0:
190,214,619886,1,0,0:0:0:0:
240,264,619983,1,0,0:0:0:0:
261,264,620079,1,0,0:0:0:0:
283,265,620176,2,0,L|348:265,1,43,0|0,0:0|0:0,0:0:0:0:
447,164,620370,2,0,P|418:153|359:171,1,86,0|0,0:0|0:0,0:0:0:0:
347,341,620757,5,0,0:0:0:0:
377,369,620853,1,0,0:0:0:0:
420,373,620950,1,0,0:0:0:0:
457,352,621047,1,0,0:0:0:0:
407,302,621144,1,0,0:0:0:0:
407,281,621240,1,0,0:0:0:0:
406,259,621337,2,0,B|406:170|406:170|352:113,1,129,0|0,0:0|0:0,0:0:0:0:
345,113,621725,1,0,0:0:0:0:
249,246,621918,5,0,0:0:0:0:
218,274,622014,1,0,0:0:0:0:
176,278,622111,1,0,0:0:0:0:
139,257,622208,1,0,0:0:0:0:
189,207,622305,1,0,0:0:0:0:
189,186,622401,1,0,0:0:0:0:
190,163,622499,2,0,L|191:107,1,43,0|0,0:0|0:0,0:0:0:0:
67,6,622692,2,0,P|55:35|73:94,1,86,0|0,0:0|0:0,0:0:0:0:
90,134,622983,1,0,0:0:0:0:
44,162,623080,5,0,0:0:0:0:
16,192,623176,1,0,0:0:0:0:
12,235,623273,1,0,0:0:0:0:
33,272,623370,1,0,0:0:0:0:
83,223,623467,1,0,0:0:0:0:
116,233,623563,1,0,0:0:0:0:
138,232,623660,1,0,0:0:0:0:
276,336,623854,2,0,P|226:350|179:324,1,86,0|0,0:0|0:0,0:0:0:0:
303,194,624241,5,0,0:0:0:0:
337,214,624337,1,0,0:0:0:0:
353,254,624434,1,0,0:0:0:0:
345,295,624531,1,0,0:0:0:0:
282,262,624628,1,0,0:0:0:0:
261,268,624724,1,0,0:0:0:0:
240,274,624821,2,0,L|196:288,1,43,0|0,0:0|0:0,0:0:0:0:
0,241,625015,1,0,0:0:0:0:
125,287,625209,1,0,0:0:0:0:
137,57,625402,5,0,0:0:0:0:
109,87,625498,1,0,0:0:0:0:
105,130,625595,1,0,0:0:0:0:
126,167,625692,1,0,0:0:0:0:
176,117,625789,1,0,0:0:0:0:
197,117,625885,1,0,0:0:0:0:
219,116,625982,2,0,B|308:116|308:116|365:62,1,129,0|0,0:0|0:0,0:0:0:0:
365,55,626370,1,0,0:0:0:0:
351,318,626564,5,0,0:0:0:0:
379,288,626660,1,0,0:0:0:0:
383,245,626757,1,0,0:0:0:0:
362,208,626854,1,0,0:0:0:0:
312,258,626951,1,0,0:0:0:0:
291,258,627047,1,0,0:0:0:0:
269,259,627144,2,0,L|219:259,1,43,0|0,0:0|0:0,0:0:0:0:
83,120,627338,2,0,P|85:186|112:212,1,86,0|0,0:0|0:0,0:0:0:0:
146,246,627628,1,0,0:0:0:0:
183,188,627725,5,0,0:0:0:0:
184,146,627821,1,0,0:0:0:0:
211,113,627918,1,0,0:0:0:0:
253,102,628015,1,0,0:0:0:0:
253,173,628112,1,0,0:0:0:0:
267,188,628208,1,0,0:0:0:0:
282,204,628305,2,0,B|344:266|344:266|347:345,1,129,0|0,0:0|0:0,0:0:0:0:
342,350,628693,1,0,0:0:0:0:
477,145,628886,5,0,0:0:0:0:
447,117,628982,1,0,0:0:0:0:
404,113,629079,1,0,0:0:0:0:
367,134,629176,1,0,0:0:0:0:
417,184,629273,1,0,0:0:0:0:
417,205,629369,1,0,0:0:0:0:
418,227,629467,2,0,L|419:272,1,43,0|0,0:0|0:0,0:0:0:0:
464,369,629660,2,0,B|420:369|420:369|397:350|397:350|327:350,1,129,0|0,0:0|0:0,0:0:0:0:
256,350,630047,5,0,0:0:0:0:
228,320,630143,1,0,0:0:0:0:
224,277,630240,1,0,0:0:0:0:
245,240,630337,1,0,0:0:0:0:
295,290,630434,1,0,0:0:0:0:
316,290,630530,1,0,0:0:0:0:
338,291,630627,2,0,B|427:291|427:291|469:254,1,129,0|0,0:0|0:0,0:0:0:0:
486,232,631015,1,0,0:0:0:0:
458,34,631209,5,0,0:0:0:0:
428,6,631305,1,0,0:0:0:0:
385,2,631402,1,0,0:0:0:0:
348,23,631499,1,0,0:0:0:0:
398,73,631596,1,0,0:0:0:0:
398,94,631692,1,0,0:0:0:0:
399,116,631789,2,0,L|363:153,1,43,0|0,0:0|0:0,0:0:0:0:
224,277,631983,1,0,0:0:0:0:
347,229,632176,1,0,0:0:0:0:
360,267,632272,1,0,0:0:0:0:
367,281,632370,5,0,0:0:0:0:
403,302,632466,1,0,0:0:0:0:
446,304,632563,1,0,0:0:0:0:
484,285,632660,1,0,0:0:0:0:
428,231,632757,1,0,0:0:0:0:
429,209,632853,1,0,0:0:0:0:
430,186,632951,2,0,B|430:138|430:138|411:104|411:104|437:64|428:16,1,172,0|0,0:0|0:0,0:0:0:0:
347,248,633531,1,0,0:0:0:0:
279,284,633627,1,0,0:0:0:0:
286,298,633725,5,0,0:0:0:0:
322,319,633821,1,0,0:0:0:0:
365,321,633918,1,0,0:0:0:0:
403,302,634015,1,0,0:0:0:0:
347,248,634112,1,0,0:0:0:0:
348,226,634208,1,0,0:0:0:0:
349,203,634306,2,0,L|349:155,1,43,0|0,0:0|0:0,0:0:0:0:
351,42,634499,1,0,0:0:0:0:
230,133,634693,5,0,0:0:0:0:
203,150,634789,1,0,0:0:0:0:
171,157,634886,1,0,0:0:0:0:
140,152,634983,1,0,0:0:0:0:
112,137,635080,2,0,L|75:97,1,43,0|0,0:0|0:0,0:0:0:0:
264,94,635273,2,0,B|231:132|231:132|265:163|265:211,1,129,0|0,0:0|0:0,0:0:0:0:
261,238,635660,1,0,0:0:0:0:
407,25,635854,5,0,0:0:0:0:
408,43,635951,1,0,0:0:0:0:
467,95,636047,5,0,0:0:0:0:
440,112,636143,1,0,0:0:0:0:
408,119,636240,1,0,0:0:0:0:
377,114,636337,1,0,0:0:0:0:
349,99,636434,2,0,L|312:59,1,43,0|0,0:0|0:0,0:0:0:0:
419,290,636628,2,0,L|411:178,1,86,0|0,0:0|0:0,0:0:0:0:
377,114,636918,1,0,0:0:0:0:
337,202,637015,6,0,P|284:232|242:205,1,86,0|0,0:0|0:0,0:0:0:0:
218,162,637305,1,0,0:0:0:0:
217,141,637402,2,0,P|218:113|228:100,1,43,0|0,0:0|0:0,0:0:0:0:
336,117,637596,2,0,P|362:109|378:114,1,43,0|0,0:0|0:0,0:0:0:0:
418,214,637789,2,0,P|433:237|411:295,1,86,0|0,0:0|0:0,0:0:0:0:
154,299,638176,5,0,0:0:0:0:
114,273,638273,1,0,0:0:0:0:
109,244,638369,1,0,0:0:0:0:
105,216,638466,1,0,0:0:0:0:
101,187,638564,2,0,P|103:165|117:143,1,43,0|0,0:0|0:0,0:0:0:0:
284,150,638757,2,0,P|296:169|298:195,1,43,0|0,0:0|0:0,0:0:0:0:
198,146,638951,2,0,P|222:90|291:64,1,129,0|0,0:0|0:0,0:0:0:0:
325,60,639338,5,0,0:0:0:0:
336,89,639434,1,0,0:0:0:0:
360,111,639531,1,0,0:0:0:0:
390,120,639628,1,0,0:0:0:0:
422,116,639725,2,0,P|447:109|461:92,1,43,0|0,0:0|0:0,0:0:0:0:
410,220,639918,2,0,P|424:241|445:249,1,43,0|0,0:0|0:0,0:0:0:0:
325,60,640112,2,0,L|304:6,1,43,0|0,0:0|0:0,0:0:0:0:
228,152,640305,2,0,L|179:120,1,43,0|0,0:0|0:0,0:0:0:0:
261,292,640499,5,0,0:0:0:0:
217,271,640595,1,0,0:0:0:0:
185,276,640692,1,0,0:0:0:0:
153,281,640789,1,0,0:0:0:0:
121,286,640886,2,0,P|97:308|93:325,1,43,0|0,0:0|0:0,0:0:0:0:
40,214,641080,2,0,P|7:217|-5:228,1,43,0|0,0:0|0:0,0:0:0:0:
138,46,641273,5,0,0:0:0:0:
193,79,641370,1,0,0:0:0:0:
234,29,641467,2,0,L|287:26,1,43,0|0,0:0|0:0,0:0:0:0:
299,262,641660,6,0,P|246:292|204:265,1,86,0|0,0:0|0:0,0:0:0:0:
180,222,641950,1,0,0:0:0:0:
179,201,642047,2,0,P|180:173|190:160,1,43,0|0,0:0|0:0,0:0:0:0:
305,160,642241,1,0,0:0:0:0:
374,195,642338,1,0,0:0:0:0:
384,271,642434,2,0,P|399:294|377:352,1,86,0|0,0:0|0:0,0:0:0:0:
89,211,642822,6,0,P|59:158|85:116,1,86,0|0,0:0|0:0,0:0:0:0:
128,92,643112,1,0,0:0:0:0:
149,91,643209,2,0,P|177:92|190:101,1,43,0|0,0:0|0:0,0:0:0:0:
173,210,643403,2,0,P|181:236|176:252,1,43,0|0,0:0|0:0,0:0:0:0:
76,292,643596,2,0,P|53:307|-4:285,1,86,0|0,0:0|0:0,0:0:0:0:
173,210,643983,5,0,0:0:0:0:
205,212,644079,1,0,0:0:0:0:
237,215,644176,1,0,0:0:0:0:
269,217,644273,1,0,0:0:0:0:
301,220,644370,2,0,P|323:245|327:273,1,43,0|0,0:0|0:0,0:0:0:0:
393,157,644564,2,0,L|439:160,1,43,0|0,0:0|0:0,0:0:0:0:
353,27,644757,2,0,P|342:46|326:60,1,43,0|0,0:0|0:0,0:0:0:0:
250,135,644951,2,0,L|204:132,1,43,0|0,0:0|0:0,0:0:0:0:
58,23,645144,5,0,0:0:0:0:
73,62,645241,1,0,0:0:0:0:
56,81,645337,1,0,0:0:0:0:
47,105,645434,1,0,0:0:0:0:
46,131,645531,1,0,0:0:0:0:
53,156,645628,1,0,0:0:0:0:
69,177,645725,2,0,P|110:200|169:187,1,86,0|0,0:0|0:0,0:0:0:0:
195,142,646015,1,0,0:0:0:0:
230,206,646112,2,0,L|249:249,1,43,0|0,0:0|0:0,0:0:0:0:
424,138,646305,6,0,P|454:85|427:43,1,86,0|0,0:0|0:0,0:0:0:0:
385,19,646595,1,0,0:0:0:0:
364,18,646692,2,0,P|336:19|323:28,1,43,0|0,0:0|0:0,0:0:0:0:
340,137,646886,2,0,P|332:163|337:179,1,43,0|0,0:0|0:0,0:0:0:0:
437,219,647079,2,0,P|459:234|518:212,1,86,0|0,0:0|0:0,0:0:0:0:
340,137,647467,6,0,P|282:156|274:205,1,86,0|0,0:0|0:0,0:0:0:0:
290,252,647757,1,0,0:0:0:0:
305,266,647854,2,0,P|326:283|342:285,1,43,0|0,0:0|0:0,0:0:0:0:
437,219,648048,1,0,0:0:0:0:
457,145,648145,1,0,0:0:0:0:
408,86,648241,2,0,P|400:59|343:37,1,86,0|0,0:0|0:0,0:0:0:0:
220,181,648628,6,0,P|250:128|223:86,1,86,0|0,0:0|0:0,0:0:0:0:
180,62,648918,1,0,0:0:0:0:
159,61,649015,2,0,P|131:62|118:72,1,43,0|0,0:0|0:0,0:0:0:0:
24,148,649209,2,0,P|52:149|65:159,1,43,0|0,0:0|0:0,0:0:0:0:
259,171,649402,2,0,P|231:172|218:182,1,43,0|0,0:0|0:0,0:0:0:0:
202,301,649596,1,0,0:0:0:0:
171,343,649692,1,0,0:0:0:0:
120,354,649789,5,0,0:0:0:0:
75,326,649886,1,0,0:0:0:0:
61,275,649983,2,0,P|64:249|48:224,1,43,0|0,0:0|0:0,0:0:0:0:
216,163,650176,2,0,L|266:172,1,43,0|0,0:0|0:0,0:0:0:0:
44,152,650370,2,0,P|81:129|95:66,1,86,0|0,0:0|0:0,0:0:0:0:
96,17,650660,1,0,0:0:0:0:
161,49,650757,2,0,L|217:52,1,43,0|0,0:0|0:0,0:0:0:0:
328,119,650951,6,0,P|362:169|412:163,1,86,0|0,0:0|0:0,0:0:0:0:
452,135,651241,1,0,0:0:0:0:
462,116,651338,2,0,P|473:90|470:74,1,43,0|0,0:0|0:0,0:0:0:0:
366,43,651532,2,0,P|346:24|329:21,1,43,0|0,0:0|0:0,0:0:0:0:
249,94,651725,2,0,P|225:108|219:169,1,86,0|0,0:0|0:0,0:0:0:0:
283,318,652112,5,0,0:0:0:0:
257,278,652209,1,0,0:0:0:0:
228,273,652305,1,0,0:0:0:0:
200,269,652402,1,0,0:0:0:0:
171,265,652500,2,0,P|148:266|126:280,1,43,0|0,0:0|0:0,0:0:0:0:
142,142,652693,2,0,P|122:129|96:127,1,43,0|0,0:0|0:0,0:0:0:0:
277,89,652886,2,0,L|257:159,1,43,0|0,0:0|0:0,0:0:0:0:
328,243,653080,1,0,0:0:0:0:
170,15,653273,5,0,0:0:0:0:
277,89,653467,1,0,0:0:0:0:
315,70,653563,1,0,0:0:0:0:
354,52,653660,1,0,0:0:0:0:
367,60,653757,1,0,0:0:0:0:
379,67,653854,2,0,L|418:92,1,43,0|0,0:0|0:0,0:0:0:0:
406,265,654047,2,0,P|352:240|294:262,1,86,0|0,0:0|0:0,0:0:0:0:
91,335,654435,5,0,0:0:0:0:
113,324,654531,1,0,0:0:0:0:
116,310,654628,1,0,0:0:0:0:
119,296,654725,1,0,0:0:0:0:
102,278,654822,1,0,0:0:0:0:
125,268,654918,1,0,0:0:0:0:
128,254,655015,1,0,0:0:0:0:
131,240,655112,1,0,0:0:0:0:
114,222,655209,1,0,0:0:0:0:
137,212,655305,1,0,0:0:0:0:
166,200,655402,5,0,0:0:0:0:
140,165,655498,1,0,0:0:0:0:
115,130,655596,6,0,P|130:79|185:44,1,86,0|0,0:0|0:0,0:0:0:0:
190,48,655886,1,0,0:0:0:0:
214,82,655982,1,0,0:0:0:0:
253,99,656079,1,0,0:0:0:0:
295,95,656176,2,0,P|337:74|394:79,1,86,0|0,0:0|0:0,0:0:0:0:
512,118,656564,1,0,0:0:0:0:
376,186,656757,5,0,0:0:0:0:
368,228,656853,1,0,0:0:0:0:
361,270,656950,1,0,0:0:0:0:
326,246,657047,1,0,0:0:0:0:
283,242,657144,1,0,0:0:0:0:
244,258,657241,1,0,0:0:0:0:
218,292,657338,2,0,P|179:336|79:300,1,172,0|0,0:0|0:0,0:0:0:0:
63,275,657822,1,0,0:0:0:0:
108,280,657918,5,0,0:0:0:0:
139,250,658014,1,0,0:0:0:0:
155,211,658111,1,0,0:0:0:0:
151,168,658208,1,0,0:0:0:0:
145,126,658305,1,0,0:0:0:0:
158,86,658401,1,0,0:0:0:0:
190,57,658499,2,0,P|223:90|322:34,1,172,0|0,0:0|0:0,0:0:0:0:
324,0,658983,1,0,0:0:0:0:
351,36,659080,5,0,0:0:0:0:
393,37,659176,1,0,0:0:0:0:
436,39,659273,1,0,0:0:0:0:
411,68,659370,1,0,0:0:0:0:
395,107,659467,1,0,0:0:0:0:
394,150,659563,1,0,0:0:0:0:
404,191,659660,1,0,0:0:0:0:
512,380,659854,1,0,0:0:0:0:
512,252,660047,1,0,0:0:0:0:
376,335,660241,5,0,0:0:0:0:
339,356,660337,1,0,0:0:0:0:
296,360,660434,1,0,0:0:0:0:
256,346,660531,1,0,0:0:0:0:
225,316,660628,1,0,0:0:0:0:
210,277,660724,1,0,0:0:0:0:
212,234,660822,2,0,P|215:170|106:120,1,172,0|0,0:0|0:0,0:0:0:0:
143,321,661402,5,0,0:0:0:0:
183,310,661498,1,0,0:0:0:0:
210,277,661595,1,0,0:0:0:0:
244,298,661692,1,0,0:0:0:0:
286,308,661789,1,0,0:0:0:0:
328,303,661885,1,0,0:0:0:0:
365,282,661983,2,0,P|389:221|492:208,1,172,0|0,0:0|0:0,0:0:0:0:
505,241,662467,1,0,0:0:0:0:
459,229,662564,5,0,0:0:0:0:
450,271,662660,1,0,0:0:0:0:
442,313,662757,1,0,0:0:0:0:
406,290,662853,1,0,0:0:0:0:
365,282,662950,1,0,0:0:0:0:
322,289,663047,1,0,0:0:0:0:
286,312,663144,2,0,P|238:343|128:296,1,172,0|0,0:0|0:0,0:0:0:0:
283,220,663725,5,0,0:0:0:0:
302,258,663821,1,0,0:0:0:0:
322,289,663918,1,0,0:0:0:0:
357,266,664015,1,0,0:0:0:0:
399,256,664112,1,0,0:0:0:0:
442,260,664208,1,0,0:0:0:0:
482,275,664305,1,0,0:0:0:0:
391,143,664499,1,0,0:0:0:0:
409,367,664693,1,0,0:0:0:0:
302,258,664886,5,0,0:0:0:0:
264,237,664982,1,0,0:0:0:0:
222,235,665079,1,0,0:0:0:0:
182,251,665176,1,0,0:0:0:0:
141,264,665273,1,0,0:0:0:0:
99,257,665369,1,0,0:0:0:0:
61,236,665467,2,0,P|26:162|108:78,1,172,0|0,0:0|0:0,0:0:0:0:
222,235,666047,5,0,0:0:0:0:
218,192,666143,1,0,0:0:0:0:
214,149,666240,1,0,0:0:0:0:
255,160,666337,1,0,0:0:0:0:
297,152,666434,1,0,0:0:0:0:
330,125,666531,1,0,0:0:0:0:
346,86,666628,2,0,P|405:45|492:112,1,172,0|0,0:0|0:0,0:0:0:0:
512,124,667112,1,0,0:0:0:0:
468,121,667209,5,0,0:0:0:0:
454,161,667305,1,0,0:0:0:0:
441,202,667402,1,0,0:0:0:0:
400,191,667498,1,0,0:0:0:0:
357,195,667595,1,0,0:0:0:0:
320,217,667692,1,0,0:0:0:0:
293,250,667789,2,0,P|270:308|153:315,1,172,0|0,0:0|0:0,0:0:0:0:
134,303,668273,1,0,0:0:0:0:
176,280,668370,5,0,0:0:0:0:
166,238,668466,1,0,0:0:0:0:
156,196,668563,1,0,0:0:0:0:
113,200,668660,1,0,0:0:0:0:
72,191,668757,1,0,0:0:0:0:
41,162,668853,1,0,0:0:0:0:
27,121,668951,2,0,P|66:60|150:94,1,172,0|0,0:0|0:0,0:0:0:0:
161,125,669435,1,0,0:0:0:0:
191,94,669531,5,0,0:0:0:0:
233,88,669627,1,0,0:0:0:0:
276,83,669725,1,0,0:0:0:0:
269,124,669821,1,0,0:0:0:0:
296,156,669918,1,0,0:0:0:0:
338,156,670015,1,0,0:0:0:0:
364,124,670112,2,0,B|378:86|354:55|354:55|447:-1,1,172,0|0,0:0|0:0,0:0:0:0:
413,198,670693,5,0,0:0:0:0:
376,177,670789,1,0,0:0:0:0:
338,156,670886,5,0,0:0:0:0:
314,192,670982,1,0,0:0:0:0:
310,234,671079,1,0,0:0:0:0:
326,274,671176,1,0,0:0:0:0:
358,302,671273,2,0,B|400:266|453:297|453:297|489:278|496:218,1,172,0|0,0:0|0:0,0:0:0:0:
497,201,671757,1,0,0:0:0:0:
449,221,671854,5,0,0:0:0:0:
413,198,671950,1,0,0:0:0:0:
376,177,672047,1,0,0:0:0:0:
389,137,672143,1,0,0:0:0:0:
373,98,672240,1,0,0:0:0:0:
335,80,672337,1,0,0:0:0:0:
294,93,672435,2,0,P|253:126|150:69,1,172,0|0,0:0|0:0,0:0:0:0:
149,40,672918,1,0,0:0:0:0:
114,72,673015,5,0,0:0:0:0:
71,79,673111,1,0,0:0:0:0:
29,87,673208,1,0,0:0:0:0:
56,120,673305,1,0,0:0:0:0:
69,160,673402,1,0,0:0:0:0:
66,203,673499,1,0,0:0:0:0:
47,241,673596,2,0,P|30:262|25:285,1,43,0|0,0:0|0:0,0:0:0:0:
249,324,673789,1,0,0:0:0:0:
379,165,673983,1,0,0:0:0:0:
390,123,674079,1,0,0:0:0:0:
402,82,674176,5,0,0:0:0:0:
366,103,674272,1,0,0:0:0:0:
324,100,674369,1,0,0:0:0:0:
290,74,674466,1,0,0:0:0:0:
268,37,674564,1,0,0:0:0:0:
230,17,674660,1,0,0:0:0:0:
188,21,674757,6,0,B|118:46|118:46|149:73|147:141,1,172,0|0,0:0|0:0,0:0:0:0:
103,285,675338,5,0,0:0:0:0:
115,244,675434,1,0,0:0:0:0:
147,217,675531,1,0,0:0:0:0:
171,251,675627,1,0,0:0:0:0:
211,264,675724,1,0,0:0:0:0:
251,250,675821,1,0,0:0:0:0:
274,215,675918,2,0,B|286:167|256:107|256:107|321:115,1,172,0|0,0:0|0:0,0:0:0:0:
353,115,676402,1,0,0:0:0:0:
409,70,676499,5,0,0:0:0:0:
425,108,676595,1,0,0:0:0:0:
416,150,676692,1,0,0:0:0:0:
386,179,676789,1,0,0:0:0:0:
345,192,676886,1,0,0:0:0:0:
312,219,676982,1,0,0:0:0:0:
300,259,677080,2,0,P|314:323|410:321,1,172,0|0,0:0|0:0,0:0:0:0:
428,299,677564,1,0,0:0:0:0:
428,299,677660,5,0,0:0:0:0:
386,179,677854,1,0,0:0:0:0:
347,161,677950,1,0,0:0:0:0:
328,123,678047,1,0,0:0:0:0:
286,126,678143,1,0,0:0:0:0:
243,129,678241,2,0,L|196:134,1,43,0|0,0:0|0:0,0:0:0:0:
108,0,678435,1,0,0:0:0:0:
96,129,678628,1,0,0:0:0:0:
96,129,678725,1,0,0:0:0:0:
130,193,678822,5,0,0:0:0:0:
159,162,678918,1,0,0:0:0:0:
167,120,679015,1,0,0:0:0:0:
162,79,679112,1,0,0:0:0:0:
183,42,679209,1,0,0:0:0:0:
219,19,679305,1,0,0:0:0:0:
261,13,679402,2,0,B|294:16|294:16|259:88|310:152,1,172,0|0,0:0|0:0,0:0:0:0:
327,168,679886,1,0,0:0:0:0:
327,168,679983,5,0,0:0:0:0:
422,38,680176,1,0,0:0:0:0:
413,79,680272,1,0,0:0:0:0:
421,121,680369,1,0,0:0:0:0:
450,153,680466,1,0,0:0:0:0:
461,194,680564,2,0,P|419:247|336:196,1,172,0|0,0:0|0:0,0:0:0:0:
327,168,681047,1,0,0:0:0:0:
314,136,681144,5,0,0:0:0:0:
274,122,681240,1,0,0:0:0:0:
236,140,681337,1,0,0:0:0:0:
219,178,681434,1,0,0:0:0:0:
221,221,681531,1,0,0:0:0:0:
203,259,681627,1,0,0:0:0:0:
164,275,681725,2,0,B|119:295|119:295|128:219|71:193,1,172,0|0,0:0|0:0,0:0:0:0:
40,182,682209,1,0,0:0:0:0:
40,182,682305,5,0,0:0:0:0:
103,29,682499,1,0,0:0:0:0:
144,37,682595,1,0,0:0:0:0:
176,65,682692,1,0,0:0:0:0:
188,105,682789,1,0,0:0:0:0:
178,147,682886,2,0,P|162:215|241:275,1,172,0|0,0:0|0:0,0:0:0:0:
310,90,683467,5,0,0:0:0:0:
350,104,683563,1,0,0:0:0:0:
377,137,683660,1,0,0:0:0:0:
383,179,683757,1,0,0:0:0:0:
365,218,683854,1,0,0:0:0:0:
346,255,683950,1,0,0:0:0:0:
349,298,684047,2,0,B|366:341|366:341|302:296|222:338,1,172,0|0,0:0|0:0,0:0:0:0:
64,384,684628,5,0,0:0:0:0:
111,226,684822,1,0,0:0:0:0:
119,184,684918,1,0,0:0:0:0:
112,142,685015,1,0,0:0:0:0:
88,106,685112,1,0,0:0:0:0:
48,91,685209,2,0,L|-5:83,1,43,0|0,0:0|0:0,0:0:0:0:
193,0,685402,1,0,0:0:0:0:
229,130,685596,1,0,0:0:0:0:
229,130,685693,1,0,0:0:0:0:
236,200,685789,5,0,0:0:0:0:
274,182,685885,1,0,0:0:0:0:
296,146,685982,1,0,0:0:0:0:
293,104,686080,1,0,0:0:0:0:
293,62,686176,1,0,0:0:0:0:
325,35,686273,1,0,0:0:0:0:
367,35,686370,6,0,B|412:32|412:32|392:113|461:149,1,172,0|0,0:0|0:0,0:0:0:0:
488,151,686854,1,0,0:0:0:0:
476,197,686951,5,0,0:0:0:0:
441,172,687047,1,0,0:0:0:0:
399,166,687144,1,0,0:0:0:0:
359,180,687241,1,0,0:0:0:0:
329,211,687338,1,0,0:0:0:0:
301,242,687434,1,0,0:0:0:0:
259,250,687531,6,0,B|207:237|207:237|256:189|235:119,1,172,0|0,0:0|0:0,0:0:0:0:
220,92,688015,1,0,0:0:0:0:
263,110,688112,5,0,0:0:0:0:
305,100,688208,1,0,0:0:0:0:
347,91,688305,1,0,0:0:0:0:
335,131,688401,1,0,0:0:0:0:
345,173,688498,1,0,0:0:0:0:
374,204,688595,1,0,0:0:0:0:
415,217,688693,2,0,B|464:225|464:225|405:262|411:346,1,172,0|0,0:0|0:0,0:0:0:0:
411,372,689176,1,0,0:0:0:0:
377,343,689273,5,0,0:0:0:0:
334,334,689369,1,0,0:0:0:0:
292,325,689467,1,0,0:0:0:0:
323,296,689563,1,0,0:0:0:0:
337,256,689660,1,0,0:0:0:0:
332,213,689757,1,0,0:0:0:0:
307,179,689854,2,0,B|272:146|272:146|345:121|349:35,1,172,0|0,0:0|0:0,0:0:0:0:
347,23,690338,1,0,0:0:0:0:
385,50,690434,5,0,0:0:0:0:
342,75,690530,1,0,0:0:0:0:
293,83,690627,1,0,0:0:0:0:
246,66,690724,1,0,0:0:0:0:
202,43,690821,1,0,0:0:0:0:
153,31,690917,1,0,0:0:0:0:
104,39,691015,2,0,P|69:84|162:118,1,172,0|0,0:0|0:0,0:0:0:0:
385,50,691596,5,0,0:0:0:0:
434,213,691789,1,0,0:0:0:0:
386,230,691885,1,0,0:0:0:0:
335,227,691982,1,0,0:0:0:0:
289,205,692079,1,0,0:0:0:0:
255,167,692176,2,0,P|247:107|199:99,1,86,0|0,0:0|0:0,0:0:0:0:
53,268,692564,1,0,0:0:0:0:
53,268,692660,1,0,0:0:0:0:
55,342,692767,5,0,0:0:0:0:
122,319,692860,1,0,0:0:0:0:
191,296,692954,1,0,0:0:0:0:
223,231,693048,1,0,0:0:0:0:
255,167,693142,1,0,0:0:0:0:
287,103,693235,1,0,0:0:0:0:
319,39,693329,2,0,L|356:32,1,34.4,0|0,0:0|0:0,0:0:0:0:
453,127,693892,5,0,0:0:0:0:
388,159,693985,1,0,0:0:0:0:
324,190,694079,1,0,0:0:0:0:
255,167,694173,1,0,0:0:0:0:
187,144,694267,1,0,0:0:0:0:
119,122,694360,1,0,0:0:0:0:
52,99,694454,2,0,L|50:127,1,25.8,0|0,0:0|0:0,0:0:0:0:
42,209,694829,1,0,0:0:0:0:
203,0,695017,6,0,L|199:71,1,68.8,0|0,0:0|0:0,0:0:0:0:
370,26,696142,5,0,0:0:0:0:
409,85,696235,1,0,0:0:0:0:
420,158,696329,1,0,0:0:0:0:
347,154,696423,1,0,0:0:0:0:
276,171,696517,1,0,0:0:0:0:
213,206,696610,1,0,0:0:0:0:
162,257,696704,2,0,L|150:289,1,34.4,0|0,0:0|0:0,0:0:0:0:
361,287,697268,5,0,0:0:0:0:
404,230,697361,1,0,0:0:0:0:
420,158,697455,1,0,0:0:0:0:
347,154,697549,1,0,0:0:0:0:
278,132,697643,1,0,0:0:0:0:
217,93,697736,1,0,0:0:0:0:
170,39,697830,2,0,L|146:54,1,25.8,0|0,0:0|0:0,0:0:0:0:
76,93,698204,1,0,0:0:0:0:
394,8,698392,6,0,B|363:31|334:21|334:21|352:55|393:75|393:75|341:107|347:169,1,240.799992651367,0|0,0:0|0:0,0:0:0:0:
67,130,699517,5,0,0:0:0:0:
102,190,699610,1,0,0:0:0:0:
138,251,699704,1,0,0:0:0:0:
198,214,699798,1,0,0:0:0:0:
260,178,699892,1,0,0:0:0:0:
321,141,699985,1,0,0:0:0:0:
381,105,700079,2,0,L|411:88,1,34.4,0|0,0:0|0:0,0:0:0:0:
452,203,700642,5,0,0:0:0:0:
417,263,700735,1,0,0:0:0:0:
381,324,700829,1,0,0:0:0:0:
321,287,700923,1,0,0:0:0:0:
259,251,701017,1,0,0:0:0:0:
198,214,701110,1,0,0:0:0:0:
138,178,701204,2,0,L|113:164,1,25.8,0|0,0:0|0:0,0:0:0:0:
45,119,701579,1,0,0:0:0:0:
178,316,701767,6,0,L|66:224,1,129,0|0,0:0|0:0,0:0:0:0:
28,201,702517,6,0,P|79:168|60:236,1,154.799995275879,0|0,0:0|0:0,0:0:0:0:
72,348,702892,5,0,0:0:0:0:
136,315,702985,1,0,0:0:0:0:
177,256,703079,1,0,0:0:0:0:
186,185,703173,1,0,0:0:0:0:
160,118,703267,1,0,0:0:0:0:
105,72,703360,1,0,0:0:0:0:
35,56,703454,2,0,L|36:92,1,34.4,0|0,0:0|0:0,0:0:0:0:
44,210,704017,5,0,0:0:0:0:
77,274,704110,1,0,0:0:0:0:
136,315,704204,1,0,0:0:0:0:
207,324,704298,1,0,0:0:0:0:
274,298,704392,1,0,0:0:0:0:
319,243,704485,1,0,0:0:0:0:
336,172,704579,2,0,L|307:167,1,25.8,0|0,0:0|0:0,0:0:0:0:
231,145,704954,1,0,0:0:0:0:
156,81,705142,6,0,B|195:26|284:24|347:90|324:175|324:175|337:269|439:262,1,430,0|0,0:0|0:0,0:0:0:0:
440,40,706267,5,0,0:0:0:0:
436,61,706360,1,0,0:0:0:0:
432,82,706454,1,0,0:0:0:0:
429,103,706548,1,0,0:0:0:0:
425,124,706642,1,0,0:0:0:0:
422,146,706735,1,0,0:0:0:0:
413,189,706829,6,0,L|488:237,1,86,0|0,0:0|0:0,0:0:0:0:
343,71,707392,5,0,0:0:0:0:
339,92,707485,1,0,0:0:0:0:
335,113,707579,1,0,0:0:0:0:
332,134,707673,1,0,0:0:0:0:
328,155,707767,1,0,0:0:0:0:
325,177,707860,1,0,0:0:0:0:
322,196,707954,6,0,L|351:215,1,21.5,0|0,0:0|0:0,0:0:0:0:
464,300,708142,1,0,0:0:0:0:
236,205,708329,1,0,0:0:0:0:
233,227,708422,1,0,0:0:0:0:
229,248,708516,6,0,L|295:285,1,64.5,0|0,0:0|0:0,0:0:0:0:
313,318,708892,1,0,0:0:0:0:
292,324,708985,1,0,0:0:0:0:
272,331,709079,1,0,0:0:0:0:
251,338,709173,1,0,0:0:0:0:
212,349,709267,1,0,0:0:0:0:
191,356,709360,1,0,0:0:0:0:
166,363,709454,2,0,L|142:349,1,21.5,0|0,0:0|0:0,0:0:0:0:
16,282,709642,5,0,0:0:0:0:
24,262,709735,1,0,0:0:0:0:
32,242,709829,1,0,0:0:0:0:
40,222,709923,1,0,0:0:0:0:
48,202,710017,1,0,0:0:0:0:
57,182,710110,1,0,0:0:0:0:
65,159,710204,2,0,L|56:133,1,21.5,0|0,0:0|0:0,0:0:0:0:
28,0,710392,1,0,0:0:0:0:
109,75,710579,1,0,0:0:0:0:
240,7,710767,5,0,0:0:0:0:
246,27,710860,1,0,0:0:0:0:
253,47,710954,1,0,0:0:0:0:
260,68,711048,1,0,0:0:0:0:
267,88,711142,1,0,0:0:0:0:
274,108,711235,1,0,0:0:0:0:
286,152,711329,2,0,L|249:237,1,86,0|0,0:0|0:0,0:0:0:0:
57,285,711892,6,0,L|142:288,1,86,0|0,0:0|0:0,0:0:0:0:
172,321,712360,1,0,0:0:0:0:
193,321,712453,1,0,0:0:0:0:
214,322,712547,1,0,0:0:0:0:
253,324,712641,1,0,0:0:0:0:
274,325,712735,1,0,0:0:0:0:
296,326,712829,2,0,L|319:292,1,21.5,0|0,0:0|0:0,0:0:0:0:
378,174,713017,5,0,0:0:0:0:
368,154,713110,1,0,0:0:0:0:
358,135,713204,1,0,0:0:0:0:
348,116,713298,1,0,0:0:0:0:
338,97,713392,1,0,0:0:0:0:
328,78,713485,1,0,0:0:0:0:
310,42,713579,2,0,L|212:12,1,86,0|0,0:0|0:0,0:0:0:0:
66,131,714142,5,0,0:0:0:0:
87,138,714235,1,0,0:0:0:0:
107,144,714329,1,0,0:0:0:0:
128,150,714423,1,0,0:0:0:0:
148,157,714517,1,0,0:0:0:0:
169,163,714610,1,0,0:0:0:0:
189,170,714704,2,0,L|205:155,1,21.5,0|0,0:0|0:0,0:0:0:0:
310,42,714892,1,0,0:0:0:0:
295,218,715079,1,0,0:0:0:0:
316,224,715172,1,0,0:0:0:0:
337,228,715266,6,0,L|385:173,1,64.5,0|0,0:0|0:0,0:0:0:0:
413,152,715642,5,0,0:0:0:0:
420,172,715735,1,0,0:0:0:0:
427,192,715829,1,0,0:0:0:0:
435,212,715923,1,0,0:0:0:0:
447,248,716017,1,0,0:0:0:0:
454,269,716110,1,0,0:0:0:0:
460,287,716204,2,0,L|474:322,1,21.5,0|0,0:0|0:0,0:0:0:0:
407,384,716392,5,0,0:0:0:0:
385,380,716485,1,0,0:0:0:0:
364,376,716579,1,0,0:0:0:0:
343,372,716673,1,0,0:0:0:0:
322,368,716767,1,0,0:0:0:0:
301,365,716860,1,0,0:0:0:0:
281,361,716954,2,0,L|244:350,1,21.5,0|0,0:0|0:0,0:0:0:0:
31,294,717142,1,0,0:0:0:0:
172,331,717329,1,0,0:0:0:0:
110,197,717517,5,0,0:0:0:0:
107,175,717610,1,0,0:0:0:0:
104,154,717704,1,0,0:0:0:0:
101,133,717798,1,0,0:0:0:0:
98,111,717892,1,0,0:0:0:0:
96,90,717985,1,0,0:0:0:0:
92,68,718079,2,0,L|124:65,1,21.5,0|0,0:0|0:0,0:0:0:0:
338,36,718267,1,0,0:0:0:0:
201,53,718454,1,0,0:0:0:0:
420,21,718642,6,0,L|409:126,1,103.2,0|0,0:0|0:0,0:0:0:0:
305,381,720142,5,0,0:0:0:0:
296,381,720235,1,0,0:0:0:0:
288,379,720329,2,0,L|280:379,1,8.6,0|0,0:0|0:0,0:0:0:0:
175,335,720517,1,0,0:0:0:0:
192,333,720610,1,0,0:0:0:0:
209,331,720704,2,0,L|230:328,1,17.2,0|0,0:0|0:0,0:0:0:0:
349,299,720892,5,0,0:0:0:0:
324,291,720985,1,0,0:0:0:0:
299,283,721079,2,0,L|266:273,1,25.7999992126465,0|0,0:0|0:0,0:0:0:0:
123,239,721267,1,0,0:0:0:0:
156,233,721360,1,0,0:0:0:0:
190,228,721454,2,0,L|231:219,1,34.4,0|0,0:0|0:0,0:0:0:0:
402,207,721642,5,0,0:0:0:0:
360,195,721735,1,0,0:0:0:0:
319,183,721829,2,0,L|266:166,1,43,0|0,0:0|0:0,0:0:0:0:
67,132,722017,1,0,0:0:0:0:
117,117,722110,1,0,0:0:0:0:
166,103,722204,2,0,L|229:82,1,51.599998425293,0|0,0:0|0:0,0:0:0:0:
474,93,722392,5,0,0:0:0:0:
414,75,722485,1,0,0:0:0:0:
355,58,722579,2,0,L|278:33,1,60.1999981628419,0|0,0:0|0:0,0:0:0:0:
67,132,722767,1,0,0:0:0:0:
67,199,722860,1,0,0:0:0:0:
103,257,722954,1,0,0:0:0:0:
164,287,723048,1,0,0:0:0:0:
232,281,723140,5,0,0:0:0:0:
241,259,723233,1,0,0:0:0:0:
241,235,723327,1,0,0:0:0:0:
231,214,723421,1,0,0:0:0:0:
214,197,723515,2,0,P|199:188|167:182,1,47.3000014434815,0|0,0:0|0:0,0:0:0:0:
310,61,723702,2,0,P|306:84|294:104,1,47.3000014434815,0|0,0:0|0:0,0:0:0:0:
334,227,723890,1,0,0:0:0:0:
346,236,723983,1,0,0:0:0:0:
356,248,724077,1,0,0:0:0:0:
365,261,724171,1,0,0:0:0:0:
370,276,724265,2,0,P|362:298|336:324,1,47.3000014434815,0|0,0:0|0:0,0:0:0:0:
306,149,724452,2,0,P|296:127|296:91,1,47.3000014434815,0|0,0:0|0:0,0:0:0:0:
438,228,724640,5,0,0:0:0:0:
451,218,724733,1,0,0:0:0:0:
464,212,724827,2,0,P|487:208|522:221,1,47.3000014434815,0|0,0:0|0:0,0:0:0:0:
451,326,725015,1,0,0:0:0:0:
467,328,725108,1,0,0:0:0:0:
480,333,725202,2,0,P|499:347|514:380,1,47.3000014434815,0|0,0:0|0:0,0:0:0:0:
312,229,725390,5,0,0:0:0:0:
299,219,725483,1,0,0:0:0:0:
286,213,725577,2,0,P|262:209|227:222,1,47.3000014434815,0|0,0:0|0:0,0:0:0:0:
299,327,725765,1,0,0:0:0:0:
283,329,725858,1,0,0:0:0:0:
270,334,725952,2,0,P|250:348|235:381,1,47.3000014434815,0|0,0:0|0:0,0:0:0:0:
391,210,726140,5,0,0:0:0:0:
390,186,726233,1,0,0:0:0:0:
403,167,726327,1,0,0:0:0:0:
422,152,726421,1,0,0:0:0:0:
437,134,726515,1,0,0:0:0:0:
445,112,726608,1,0,0:0:0:0:
446,88,726702,2,0,P|439:51|420:24,1,47.3000014434815,0|0,0:0|0:0,0:0:0:0:
339,92,726890,1,0,0:0:0:0:
319,104,726983,1,0,0:0:0:0:
296,112,727077,1,0,0:0:0:0:
273,116,727171,1,0,0:0:0:0:
250,114,727265,1,0,0:0:0:0:
227,107,727358,1,0,0:0:0:0:
206,95,727452,2,0,P|187:79|173:50,1,47.3000014434815,0|0,0:0|0:0,0:0:0:0:
109,185,727640,5,0,0:0:0:0:
88,196,727733,1,0,0:0:0:0:
64,202,727827,2,0,P|39:204|8:193,1,47.3000014434815,0|0,0:0|0:0,0:0:0:0:
195,280,728015,1,0,0:0:0:0:
187,302,728108,1,0,0:0:0:0:
175,323,728202,2,0,P|159:342|130:356,1,47.3000014434815,0|0,0:0|0:0,0:0:0:0:
200,171,728390,1,0,0:0:0:0:
179,182,728483,1,0,0:0:0:0:
155,188,728577,2,0,P|130:190|99:179,1,47.3000014434815,0|0,0:0|0:0,0:0:0:0:
175,323,728765,2,0,P|159:342|130:356,1,47.3000014434815,0|0,0:0|0:0,0:0:0:0:
316,328,728952,2,0,P|318:352|307:383,1,47.3000014434815,0|0,0:0|0:0,0:0:0:0:
299,189,729140,5,0,0:0:0:0:
291,166,729233,1,0,0:0:0:0:
291,143,729327,1,0,0:0:0:0:
300,121,729421,1,0,0:0:0:0:
316,102,729515,2,0,P|340:94|379:102,1,47.3000014434815,0|0,0:0|0:0,0:0:0:0:
437,230,729702,2,0,P|445:254|437:293,1,47.3000014434815,0|0,0:0|0:0,0:0:0:0:
443,104,729890,1,0,0:0:0:0:
451,81,729984,1,0,0:0:0:0:
467,62,730078,2,0,P|491:54|530:62,1,47.3000014434815,0|0,0:0|0:0,0:0:0:0:
506,181,730265,1,0,0:0:0:0:
498,204,730359,1,0,0:0:0:0:
482,223,730453,2,0,P|458:231|419:223,1,47.3000014434815,0|0,0:0|0:0,0:0:0:0:
316,102,730640,5,0,0:0:0:0:
305,80,730734,1,0,0:0:0:0:
303,55,730828,2,0,P|314:32|347:10,1,47.3000014434815,0|0,0:0|0:0,0:0:0:0:
281,190,731014,1,0,0:0:0:0:
259,201,731108,1,0,0:0:0:0:
234,203,731202,2,0,P|211:191|189:158,1,47.3000014434815,0|0,0:0|0:0,0:0:0:0:
373,175,731389,1,0,0:0:0:0:
394,188,731483,1,0,0:0:0:0:
408,209,731577,2,0,P|409:234|391:270,1,47.3000014434815,0|0,0:0|0:0,0:0:0:0:
273,300,731765,1,0,0:0:0:0:
251,289,731859,1,0,0:0:0:0:
226,287,731953,2,0,P|203:299|181:332,1,47.3000014434815,0|0,0:0|0:0,0:0:0:0:
84,341,732140,5,0,0:0:0:0:
62,352,732234,1,0,0:0:0:0:
37,354,732328,2,0,P|14:342|-8:309,1,47.3000014434815,0|0,0:0|0:0,0:0:0:0:
50,215,732515,1,0,0:0:0:0:
26,206,732609,1,0,0:0:0:0:
8,188,732703,2,0,P|1:162|11:124,1,47.3000014434815,0|0,0:0|0:0,0:0:0:0:
150,134,732890,1,0,0:0:0:0:
172,123,732984,1,0,0:0:0:0:
197,121,733078,2,0,P|220:133|242:166,1,47.3000014434815,0|0,0:0|0:0,0:0:0:0:
184,260,733265,1,0,0:0:0:0:
208,269,733359,1,0,0:0:0:0:
226,287,733453,2,0,P|232:312|222:350,1,47.3000014434815,0|0,0:0|0:0,0:0:0:0:
90,384,733640,6,0,P|83:358|93:320,1,47.3000014434815,0|0,0:0|0:0,0:0:0:0:
99,214,733827,1,0,0:0:0:0:
104,166,733920,1,0,0:0:0:0:
109,119,734015,2,0,P|85:92|63:77,1,47.3000014434815,0|0,0:0|0:0,0:0:0:0:
179,0,734202,2,0,P|186:22|190:45,1,47.3000014434815,0|0,0:0|0:0,0:0:0:0:
181,239,734390,2,0,P|188:216|192:193,1,47.3000014434815,0|0,0:0|0:0,0:0:0:0:
283,117,734577,1,0,0:0:0:0:
286,109,734670,1,0,0:0:0:0:
293,106,734764,1,0,0:0:0:0:
300,106,734858,1,0,0:0:0:0:
306,111,734952,1,0,0:0:0:0:
308,119,735045,1,0,0:0:0:0:
307,125,735140,6,0,P|304:147|321:193,1,47.3000014434815,0|0,0:0|0:0,0:0:0:0:
181,239,735327,2,0,P|194:256|238:277,1,47.3000014434815,0|0,0:0|0:0,0:0:0:0:
388,281,735515,2,0,P|408:273|442:237,1,47.3000014434815,0|0,0:0|0:0,0:0:0:0:
391,109,735702,2,0,P|394:131|377:177,1,47.3000014434815,0|0,0:0|0:0,0:0:0:0:
221,150,735890,1,0,0:0:0:0:
218,126,735983,1,0,0:0:0:0:
224,101,736077,2,0,P|236:75|262:54,1,47.3000014434815,0|0,0:0|0:0,0:0:0:0:
124,164,736265,1,0,0:0:0:0:
108,146,736358,1,0,0:0:0:0:
98,122,736452,2,0,P|92:93|102:61,1,47.3000014434815,0|0,0:0|0:0,0:0:0:0:
0,226,736640,5,0,0:0:0:0:
23,232,736733,1,0,0:0:0:0:
45,245,736827,2,0,P|65:265|76:296,1,47.3000014434815,0|0,0:0|0:0,0:0:0:0:
124,164,737015,1,0,0:0:0:0:
139,182,737108,1,0,0:0:0:0:
149,205,737202,2,0,P|154:233|144:265,1,47.3000014434815,0|0,0:0|0:0,0:0:0:0:
253,208,737390,1,0,0:0:0:0:
256,232,737483,1,0,0:0:0:0:
251,256,737577,2,0,P|238:282|212:303,1,47.3000014434815,0|0,0:0|0:0,0:0:0:0:
127,384,737765,2,0,P|119:350|124:328,1,47.3000014434815,0|0,0:0|0:0,0:0:0:0:
147,158,737952,2,0,P|152:186|142:218,1,47.3000014434815,0|0,0:0|0:0,0:0:0:0:
257,346,738140,5,0,0:0:0:0:
277,356,738233,1,0,0:0:0:0:
301,361,738327,1,0,0:0:0:0:
324,358,738421,1,0,0:0:0:0:
347,348,738515,2,0,P|362:335|393:325,1,47.3000014434815,0|0,0:0|0:0,0:0:0:0:
512,229,738702,2,0,P|497:242|466:252,1,47.3000014434815,0|0,0:0|0:0,0:0:0:0:
329,227,738890,1,0,0:0:0:0:
317,230,738983,1,0,0:0:0:0:
306,227,739077,1,0,0:0:0:0:
298,219,739171,1,0,0:0:0:0:
295,207,739265,1,0,0:0:0:0:
299,196,739358,1,0,0:0:0:0:
308,189,739452,1,0,0:0:0:0:
319,187,739546,1,0,0:0:0:0:
333,192,739640,6,0,P|356:209|385:213,1,47.3000014434815,0|0,0:0|0:0,0:0:0:0:
512,326,739827,2,0,P|488:308|460:305,1,47.3000014434815,0|0,0:0|0:0,0:0:0:0:
308,311,740015,1,0,0:0:0:0:
284,313,740108,1,0,0:0:0:0:
262,326,740202,2,0,P|243:341|194:349,1,47.3000014434815,0|0,0:0|0:0,0:0:0:0:
159,228,740390,1,0,0:0:0:0:
151,205,740483,1,0,0:0:0:0:
152,182,740577,2,0,P|157:159|174:134,1,47.3000014434815,0|0,0:0|0:0,0:0:0:0:
276,237,740765,2,0,P|295:224|325:218,1,47.3000014434815,0|0,0:0|0:0,0:0:0:0:
228,90,740952,2,0,P|247:77|277:71,1,47.3000014434815,0|0,0:0|0:0,0:0:0:0:
398,222,741140,6,0,P|421:227|446:244,1,47.3000014434815,0|0,0:0|0:0,0:0:0:0:
378,119,741327,1,0,0:0:0:0:
366,98,741420,1,0,0:0:0:0:
361,75,741514,1,0,0:0:0:0:
362,51,741608,1,0,0:0:0:0:
369,29,741702,2,0,P|396:18|429:38,1,47.3000014434815,0|0,0:0|0:0,0:0:0:0:
466,169,741890,1,0,0:0:0:0:
457,190,741983,1,0,0:0:0:0:
441,208,742077,1,0,0:0:0:0:
420,218,742171,1,0,0:0:0:0:
398,222,742265,2,0,P|371:222|333:202,1,47.3000014434815,0|0,0:0|0:0,0:0:0:0:
286,52,742452,2,0,P|279:74|279:98,1,47.3000014434815,0|0,0:0|0:0,0:0:0:0:
263,221,742640,5,0,0:0:0:0:
248,239,742733,1,0,0:0:0:0:
224,252,742827,2,0,P|202:263|169:267,1,47.3000014434815,0|0,0:0|0:0,0:0:0:0:
96,206,743015,1,0,0:0:0:0:
73,212,743108,1,0,0:0:0:0:
46,209,743202,2,0,P|21:205|-7:189,1,47.3000014434815,0|0,0:0|0:0,0:0:0:0:
180,75,743390,1,0,0:0:0:0:
203,73,743483,1,0,0:0:0:0:
224,63,743577,1,0,0:0:0:0:
241,47,743671,1,0,0:0:0:0:
251,26,743765,1,0,0:0:0:0:
252,49,743858,1,0,0:0:0:0:
262,70,743952,1,0,0:0:0:0:
278,87,744046,1,0,0:0:0:0:
299,97,744140,5,0,0:0:0:0:
276,98,744233,1,0,0:0:0:0:
255,108,744327,1,0,0:0:0:0:
238,124,744421,1,0,0:0:0:0:
228,146,744515,5,0,0:0:0:0:
227,123,744608,1,0,0:0:0:0:
217,102,744702,1,0,0:0:0:0:
201,85,744796,1,0,0:0:0:0:
180,75,744890,2,0,P|157:65|126:62,1,47.3000014434815,0|0,0:0|0:0,0:0:0:0:
299,97,745077,2,0,P|323:99|352:111,1,47.3000014434815,0|0,0:0|0:0,0:0:0:0:
211,221,745265,1,0,0:0:0:0:
201,267,745358,1,0,0:0:0:0:
192,313,745452,1,0,0:0:0:0:
178,73,745640,6,0,B|187:36|253:9|300:48|300:96|300:96|317:93|328:63|328:63|336:114|383:131|383:131|336:135|322:189|322:189|306:136|262:131,1,473.000014434815,0|0,0:0|0:0,0:0:0:0:
151,150,746765,1,0,0:0:0:0:
144,208,746858,1,0,0:0:0:0:
170,260,746952,1,0,0:0:0:0:
220,290,747046,1,0,0:0:0:0:
278,290,747140,6,0,L|335:279,1,47.3000014434815,0|0,0:0|0:0,0:0:0:0:
478,113,747327,1,0,0:0:0:0:
473,160,747420,1,0,0:0:0:0:
468,207,747514,1,0,0:0:0:0:
446,103,747702,1,0,0:0:0:0:
441,150,747795,1,0,0:0:0:0:
436,197,747889,1,0,0:0:0:0:
414,93,748078,1,0,0:0:0:0:
409,140,748171,1,0,0:0:0:0:
404,187,748265,1,0,0:0:0:0:
382,83,748453,1,0,0:0:0:0:
377,130,748546,1,0,0:0:0:0:
372,177,748640,6,0,B|369:220|325:243|325:243|390:266|379:353,1,189.200005773926,0|0,0:0|0:0,0:0:0:0:
201,328,749202,1,0,0:0:0:0:
248,326,749295,1,0,0:0:0:0:
295,324,749389,1,0,0:0:0:0:
335,170,749577,1,0,0:0:0:0:
315,145,749670,1,0,0:0:0:0:
288,129,749764,1,0,0:0:0:0:
257,123,749858,1,0,0:0:0:0:
226,128,749952,1,0,0:0:0:0:
199,144,750045,1,0,0:0:0:0:
179,167,750140,6,0,L|194:215,1,47.3000014434815,0|0,0:0|0:0,0:0:0:0:
248,326,750327,1,0,0:0:0:0:
293,336,750420,1,0,0:0:0:0:
339,347,750514,1,0,0:0:0:0:
248,292,750702,1,0,0:0:0:0:
294,303,750795,1,0,0:0:0:0:
340,312,750889,1,0,0:0:0:0:
248,259,751078,1,0,0:0:0:0:
295,268,751171,1,0,0:0:0:0:
341,279,751265,1,0,0:0:0:0:
250,224,751453,1,0,0:0:0:0:
295,235,751546,1,0,0:0:0:0:
345,246,751640,6,0,B|383:256|419:222|419:222|418:286|477:305,1,189.200005773926,0|0,0:0|0:0,0:0:0:0:
509,138,752201,1,0,0:0:0:0:
501,184,752296,1,0,0:0:0:0:
494,231,752390,1,0,0:0:0:0:
257,127,752577,1,0,0:0:0:0:
259,103,752670,1,0,0:0:0:0:
256,80,752764,1,0,0:0:0:0:
247,58,752858,1,0,0:0:0:0:
234,38,752952,1,0,0:0:0:0:
216,23,753045,1,0,0:0:0:0:
193,9,753140,6,0,L|131:-2,1,47.3000014434815,0|0,0:0|0:0,0:0:0:0:
0,136,753327,1,0,0:0:0:0:
4,183,753420,1,0,0:0:0:0:
9,230,753514,1,0,0:0:0:0:
32,126,753702,1,0,0:0:0:0:
37,173,753795,1,0,0:0:0:0:
42,220,753889,1,0,0:0:0:0:
64,116,754078,1,0,0:0:0:0:
69,163,754171,1,0,0:0:0:0:
74,210,754265,1,0,0:0:0:0:
96,106,754453,1,0,0:0:0:0:
101,153,754546,1,0,0:0:0:0:
106,200,754640,6,0,B|109:243|153:266|153:266|88:289|99:376,1,189.200005773926,0|0,0:0|0:0,0:0:0:0:
272,327,755202,1,0,0:0:0:0:
225,334,755295,1,0,0:0:0:0:
178,341,755389,1,0,0:0:0:0:
251,188,755577,5,0,0:0:0:0:
250,164,755670,1,0,0:0:0:0:
257,142,755764,1,0,0:0:0:0:
272,124,755858,1,0,0:0:0:0:
292,112,755952,1,0,0:0:0:0:
316,107,756045,1,0,0:0:0:0:
339,110,756140,6,0,L|386:98,1,47.3000014434815,0|0,0:0|0:0,0:0:0:0:
490,248,756327,1,0,0:0:0:0:
453,277,756420,1,0,0:0:0:0:
416,307,756514,1,0,0:0:0:0:
474,218,756702,1,0,0:0:0:0:
437,248,756795,1,0,0:0:0:0:
400,277,756889,1,0,0:0:0:0:
458,188,757078,1,0,0:0:0:0:
422,218,757171,1,0,0:0:0:0:
385,248,757265,1,0,0:0:0:0:
443,158,757453,1,0,0:0:0:0:
406,188,757546,1,0,0:0:0:0:
369,218,757640,6,0,L|307:268,1,47.3000014434815,0|0,0:0|0:0,0:0:0:0:
143,218,757827,2,0,L|205:268,1,47.3000014434815,0|0,0:0|0:0,0:0:0:0:
211,48,758015,1,0,0:0:0:0:
255,33,758108,1,0,0:0:0:0:
299,47,758202,1,0,0:0:0:0:
257,103,758296,1,0,0:0:0:0:
265,108,758389,1,0,0:0:0:0:
275,113,758483,1,0,0:0:0:0:
285,116,758577,1,0,0:0:0:0:
295,118,758671,1,0,0:0:0:0:
306,117,758764,1,0,0:0:0:0:
316,116,758858,1,0,0:0:0:0:
326,112,758952,1,0,0:0:0:0:
335,108,759046,1,0,0:0:0:0:
344,102,759140,6,0,L|380:51,1,47.3000014434815,0|0,0:0|0:0,0:0:0:0:
448,284,759327,1,0,0:0:0:0:
416,319,759420,1,0,0:0:0:0:
384,354,759514,1,0,0:0:0:0:
335,194,759702,1,0,0:0:0:0:
304,228,759795,1,0,0:0:0:0:
271,263,759889,1,0,0:0:0:0:
418,271,760077,1,0,0:0:0:0:
387,305,760170,1,0,0:0:0:0:
355,340,760264,1,0,0:0:0:0:
350,214,760452,1,0,0:0:0:0:
319,249,760545,1,0,0:0:0:0:
286,282,760640,6,0,B|249:318|249:318|205:297|163:325|163:325|100:301,1,189.200005773926,0|0,0:0|0:0,0:0:0:0:
190,143,761202,1,0,0:0:0:0:
193,190,761295,1,0,0:0:0:0:
197,237,761389,1,0,0:0:0:0:
64,187,761577,5,0,0:0:0:0:
77,178,761670,1,0,0:0:0:0:
89,168,761764,1,0,0:0:0:0:
98,155,761858,1,0,0:0:0:0:
104,141,761952,1,0,0:0:0:0:
107,125,762045,1,0,0:0:0:0:
107,109,762140,6,0,L|59:56,1,47.3000014434815,0|0,0:0|0:0,0:0:0:0:
222,2,762327,1,0,0:0:0:0:
265,20,762420,1,0,0:0:0:0:
309,38,762514,1,0,0:0:0:0:
176,138,762702,1,0,0:0:0:0:
218,156,762795,1,0,0:0:0:0:
262,175,762889,1,0,0:0:0:0:
220,34,763077,1,0,0:0:0:0:
262,52,763170,1,0,0:0:0:0:
306,70,763264,1,0,0:0:0:0:
189,118,763452,1,0,0:0:0:0:
233,135,763545,1,0,0:0:0:0:
275,154,763640,6,0,B|321:176|321:176|316:224|357:254|357:254|356:322,1,189.200005773926,0|0,0:0|0:0,0:0:0:0:
491,141,764202,1,0,0:0:0:0:
448,161,764296,1,0,0:0:0:0:
404,181,764389,1,0,0:0:0:0:
292,301,764577,1,0,0:0:0:0:
298,331,764670,1,0,0:0:0:0:
283,357,764764,1,0,0:0:0:0:
253,367,764858,1,0,0:0:0:0:
225,355,764952,1,0,0:0:0:0:
212,327,765045,1,0,0:0:0:0:
220,298,765140,6,0,L|185:258,1,47.3000014434815,0|0,0:0|0:0,0:0:0:0:
317,263,765327,1,0,0:0:0:0:
325,216,765420,1,0,0:0:0:0:
334,170,765514,1,0,0:0:0:0:
189,263,765702,1,0,0:0:0:0:
181,216,765795,1,0,0:0:0:0:
172,170,765889,1,0,0:0:0:0:
320,148,766077,1,0,0:0:0:0:
328,101,766170,1,0,0:0:0:0:
337,55,766264,1,0,0:0:0:0:
192,148,766452,1,0,0:0:0:0:
184,101,766545,1,0,0:0:0:0:
175,55,766640,6,0,B|211:31|256:44|256:44|248:88|248:88|256:112|256:112|256:163,1,189.200005773926,0|0,0:0|0:0,0:0:0:0:
256,336,767202,1,0,0:0:0:0:
256,288,767295,1,0,0:0:0:0:
256,241,767389,1,0,0:0:0:0:
174,337,767578,5,0,0:0:0:0:
168,351,767671,1,0,0:0:0:0:
159,364,767765,1,0,0:0:0:0:
147,374,767859,1,0,0:0:0:0:
132,379,767953,1,0,0:0:0:0:
117,381,768046,1,0,0:0:0:0:
99,376,768140,6,0,L|44:346,1,47.3000014434815,0|0,0:0|0:0,0:0:0:0:
166,256,768327,1,0,0:0:0:0:
210,271,768420,1,0,0:0:0:0:
255,287,768514,1,0,0:0:0:0:
166,128,768702,1,0,0:0:0:0:
210,112,768795,1,0,0:0:0:0:
255,96,768889,1,0,0:0:0:0:
295,257,769077,1,0,0:0:0:0:
339,272,769170,1,0,0:0:0:0:
384,288,769265,2,0,L|436:305,1,47.3000014434815,0|0,0:0|0:0,0:0:0:0:
295,129,769452,1,0,0:0:0:0:
339,113,769545,1,0,0:0:0:0:
384,97,769640,6,0,L|396:33,1,47.3000014434815,0|0,0:0|0:0,0:0:0:0:
503,271,769827,2,0,L|512:318,1,47.3000014434815,0|0,0:0|0:0,0:0:0:0:
474,40,770015,1,0,0:0:0:0:
465,86,770108,1,0,0:0:0:0:
457,133,770202,1,0,0:0:0:0:
457,133,770296,1,0,0:0:0:0:
457,133,770390,2,0,L|491:179,1,47.3000014434815,0|0,0:0|0:0,0:0:0:0:
288,336,770577,2,0,L|254:290,1,47.3000014434815,0|0,0:0|0:0,0:0:0:0:
267,90,770765,2,0,L|300:135,1,47.3000014434815,0|0,0:0|0:0,0:0:0:0:
395,264,770952,1,0,0:0:0:0:
395,264,771046,1,0,0:0:0:0:
395,264,771140,5,0,0:0:0:0:
378,246,771233,1,0,0:0:0:0:
359,233,771327,1,0,0:0:0:0:
337,225,771421,1,0,0:0:0:0:
311,220,771515,2,0,L|258:251,1,47.3000014434815,0|0,0:0|0:0,0:0:0:0:
41,234,771702,2,0,L|81:257,1,47.3000014434815,0|0,0:0|0:0,0:0:0:0:
317,130,771890,2,0,L|264:161,1,47.3000014434815,0|0,0:0|0:0,0:0:0:0:
47,144,772077,2,0,L|87:167,1,47.3000014434815,0|0,0:0|0:0,0:0:0:0:
176,0,772265,2,0,L|178:47,1,47.3000014434815,0|0,0:0|0:0,0:0:0:0:
180,224,772452,1,0,0:0:0:0:
180,271,772545,1,0,0:0:0:0:
181,318,772639,5,0,0:0:0:0:
192,328,772733,1,0,0:0:0:0:
205,336,772827,1,0,0:0:0:0:
220,341,772921,1,0,0:0:0:0:
236,346,773015,2,0,L|297:335,1,47.3000014434815,0|0,0:0|0:0,0:0:0:0:
312,114,773202,2,0,L|321:198,1,47.3000014434815,0|0,0:0|0:0,0:0:0:0:
434,300,773390,1,0,0:0:0:0:
434,300,773483,1,0,0:0:0:0:
434,300,773577,2,0,L|384:315,1,47.3000014434815,0|0,0:0|0:0,0:0:0:0:
450,161,773765,1,0,0:0:0:0:
450,161,773858,1,0,0:0:0:0:
450,161,773952,2,0,L|400:176,1,47.3000014434815,0|0,0:0|0:0,0:0:0:0:
180,224,774140,6,0,L|241:213,1,47.3000014434815,0|0,0:0|0:0,0:0:0:0:
312,114,774327,1,0,0:0:0:0:
321,92,774420,1,0,0:0:0:0:
322,67,774515,2,0,L|279:9,1,47.3000014434815,0|0,0:0|0:0,0:0:0:0:
360,275,774702,2,0,L|403:333,1,47.3000014434815,0|0,0:0|0:0,0:0:0:0:
220,74,774890,2,0,L|151:51,1,47.3000014434815,0|0,0:0|0:0,0:0:0:0:
427,225,775077,2,0,L|495:247,1,47.3000014434815,0|0,0:0|0:0,0:0:0:0:
151,144,775265,2,0,L|81:164,1,47.3000014434815,0|0,0:0|0:0,0:0:0:0:
377,151,775452,1,0,0:0:0:0:
421,135,775546,1,0,0:0:0:0:
466,120,775639,5,0,0:0:0:0:
457,106,775733,1,0,0:0:0:0:
444,97,775827,1,0,0:0:0:0:
429,92,775921,1,0,0:0:0:0:
414,92,776015,1,0,0:0:0:0:
399,97,776108,1,0,0:0:0:0:
386,104,776202,2,0,L|374:160,1,47.3000014434815,0|0,0:0|0:0,0:0:0:0:
387,372,776390,1,0,0:0:0:0:
387,372,776483,1,0,0:0:0:0:
387,372,776577,2,0,L|367:299,1,47.3000014434815,0|0,0:0|0:0,0:0:0:0:
302,145,776765,1,0,0:0:0:0:
302,145,776858,1,0,0:0:0:0:
302,145,776952,2,0,L|282:218,1,47.3000014434815,0|0,0:0|0:0,0:0:0:0:
297,364,777140,6,0,L|277:291,1,47.3000014434815,0|0,0:0|0:0,0:0:0:0:
134,256,777327,1,0,0:0:0:0:
114,242,777420,1,0,0:0:0:0:
91,240,777515,2,0,L|35:265,1,47.3000014434815,0|0,0:0|0:0,0:0:0:0:
302,145,777702,2,0,L|358:120,1,47.3000014434815,0|0,0:0|0:0,0:0:0:0:
64,150,777890,2,0,L|-9:146,1,47.3000014434815,0|0,0:0|0:0,0:0:0:0:
248,65,778077,2,0,L|284:16,1,47.3000014434815,0|0,0:0|0:0,0:0:0:0:
119,21,778265,1,0,0:0:0:0:
119,21,778358,1,0,0:0:0:0:
119,21,778452,2,0,L|147:96,1,47.3000014434815,0|0,0:0|0:0,0:0:0:0:
198,227,778640,5,0,0:0:0:0:
202,241,778733,1,0,0:0:0:0:
215,250,778827,1,0,0:0:0:0:
230,249,778921,1,0,0:0:0:0:
241,238,779015,1,0,0:0:0:0:
243,223,779108,1,0,0:0:0:0:
232,209,779202,6,0,L|298:231,1,47.3000014434815,0|0,0:0|0:0,0:0:0:0:
418,343,779390,2,0,L|390:292,1,47.3000014434815,0|0,0:0|0:0,0:0:0:0:
94,343,779577,2,0,L|116:301,1,47.3000014434815,0|0,0:0|0:0,0:0:0:0:
227,107,779765,1,0,0:0:0:0:
233,128,779858,1,0,0:0:0:0:
254,138,779952,1,0,0:0:0:0:
274,128,780046,1,0,0:0:0:0:
278,105,780140,6,0,L|348:53,1,47.3000014434815,0|0,0:0|0:0,0:0:0:0:
278,279,780327,2,0,L|348:331,1,47.3000014434815,0|0,0:0|0:0,0:0:0:0:
173,190,780515,1,0,0:0:0:0:
160,180,780608,1,0,0:0:0:0:
145,176,780702,1,0,0:0:0:0:
130,180,780796,1,0,0:0:0:0:
117,189,780890,1,0,0:0:0:0:
110,203,780983,1,0,0:0:0:0:
110,222,781077,2,0,L|83:283,1,47.3000014434815,0|0,0:0|0:0,0:0:0:0:
207,111,781265,2,0,L|180:50,1,47.3000014434815,0|0,0:0|0:0,0:0:0:0:
237,299,781452,2,0,L|210:360,1,47.3000014434815,0|0,0:0|0:0,0:0:0:0:
334,53,781640,6,0,L|307:-8,1,47.3000014434815,0|0,0:0|0:0,0:0:0:0:
478,141,781827,1,0,0:0:0:0:
488,194,781920,1,0,0:0:0:0:
469,245,782014,1,0,0:0:0:0:
427,280,782108,1,0,0:0:0:0:
374,289,782202,1,0,0:0:0:0:
323,269,782295,1,0,0:0:0:0:
289,226,782389,5,0,0:0:0:0:
300,220,782483,1,0,0:0:0:0:
311,218,782577,1,0,0:0:0:0:
322,222,782671,1,0,0:0:0:0:
331,230,782765,1,0,0:0:0:0:
336,240,782858,1,0,0:0:0:0:
336,252,782952,1,0,0:0:0:0:
331,263,783046,1,0,0:0:0:0:
323,269,783140,5,0,0:0:0:0:
268,274,783233,1,0,0:0:0:0:
220,247,783327,2,0,P|199:218|194:190,1,55.8999974411012,0|0,0:0|0:0,0:0:0:0:
318,22,783515,1,0,0:0:0:0:
340,71,783608,1,0,0:0:0:0:
329,125,783702,2,0,P|307:154|282:167,1,55.8999974411012,0|0,0:0|0:0,0:0:0:0:
30,141,783890,1,0,0:0:0:0:
76,112,783983,1,0,0:0:0:0:
131,114,784077,1,0,0:0:0:0:
176,147,784171,1,0,0:0:0:0:
194,199,784265,2,0,P|180:252|155:280,1,55.8999974411012,0|0,0:0|0:0,0:0:0:0:
260,56,784452,2,0,P|274:3|299:-25,1,55.8999974411012,0|0,0:0|0:0,0:0:0:0:
470,228,784640,5,0,0:0:0:0:
467,282,784733,1,0,0:0:0:0:
433,326,784827,1,0,0:0:0:0:
380,341,784921,1,0,0:0:0:0:
328,322,785015,2,0,P|306:297|300:254,1,55.8999974411012,0|0,0:0|0:0,0:0:0:0:
337,67,785202,2,0,P|325:99|291:126,1,55.8999974411012,0|0,0:0|0:0,0:0:0:0:
90,221,785390,1,0,0:0:0:0:
139,196,785483,1,0,0:0:0:0:
194,199,785577,2,0,P|220:220|253:222,1,55.8999974411012,0|0,0:0|0:0,0:0:0:0:
445,41,785765,1,0,0:0:0:0:
430,94,785858,1,0,0:0:0:0:
415,148,785952,1,0,0:0:0:0:
401,202,786046,1,0,0:0:0:0:
386,256,786140,6,0,P|400:292|434:315,1,55.8999974411012,0|0,0:0|0:0,0:0:0:0:
328,116,786327,1,0,0:0:0:0:
279,89,786420,1,0,0:0:0:0:
226,100,786514,1,0,0:0:0:0:
192,143,786608,1,0,0:0:0:0:
193,198,786702,2,0,P|188:235|162:261,1,55.8999974411012,0|0,0:0|0:0,0:0:0:0:
386,256,786890,2,0,P|409:270|453:270,1,55.8999974411012,0|0,0:0|0:0,0:0:0:0:
242,49,787077,2,0,P|236:85|210:111,1,55.8999974411012,0|0,0:0|0:0,0:0:0:0:
255,321,787265,1,0,0:0:0:0:
308,330,787358,1,0,0:0:0:0:
354,300,787452,2,0,P|382:264|386:233,1,55.8999974411012,0|0,0:0|0:0,0:0:0:0:
78,137,787640,5,0,0:0:0:0:
42,178,787733,1,0,0:0:0:0:
42,233,787827,1,0,0:0:0:0:
78,274,787921,1,0,0:0:0:0:
132,281,788015,1,0,0:0:0:0:
178,251,788108,1,0,0:0:0:0:
193,198,788202,2,0,P|201:164|219:136,1,55.8999974411012,0|0,0:0|0:0,0:0:0:0:
354,300,788390,1,0,0:0:0:0:
401,328,788483,1,0,0:0:0:0:
456,332,788577,2,0,P|491:319|514:292,1,55.8999974411012,0|0,0:0|0:0,0:0:0:0:
319,198,788765,2,0,P|311:164|293:136,1,55.8999974411012,0|0,0:0|0:0,0:0:0:0:
215,384,788952,2,0,P|253:386|283:371,1,55.8999974411012,0|0,0:0|0:0,0:0:0:0:
497,162,789140,5,0,0:0:0:0:
503,108,789233,1,0,0:0:0:0:
466,68,789327,1,0,0:0:0:0:
412,72,789421,1,0,0:0:0:0:
381,116,789515,1,0,0:0:0:0:
365,168,789608,1,0,0:0:0:0:
319,198,789702,2,0,P|281:209|249:205,1,55.8999974411012,0|0,0:0|0:0,0:0:0:0:
56,33,789890,2,0,P|56:60|66:86,1,55.8999974411012,0|0,0:0|0:0,0:0:0:0:
54,291,790077,1,0,0:0:0:0:
66,237,790170,1,0,0:0:0:0:
110,205,790265,2,0,P|150:196|171:183,1,55.8999974411012,0|0,0:0|0:0,0:0:0:0:
263,0,790452,2,0,P|250:39|251:63,1,55.8999974411012,0|0,0:0|0:0,0:0:0:0:
349,322,790640,5,0,0:0:0:0:
357,342,790733,1,0,0:0:0:0:
373,358,790827,1,0,0:0:0:0:
393,365,790921,1,0,0:0:0:0:
416,364,791015,1,0,0:0:0:0:
435,354,791108,1,0,0:0:0:0:
449,336,791202,1,0,0:0:0:0:
455,315,791296,1,0,0:0:0:0:
451,293,791390,1,0,0:0:0:0:
439,275,791483,1,0,0:0:0:0:
420,260,791577,6,0,P|406:229|413:197,1,55.8999974411012,0|0,0:0|0:0,0:0:0:0:
324,0,791765,2,0,P|338:31|331:63,1,55.8999974411012,0|0,0:0|0:0,0:0:0:0:
303,274,791952,2,0,P|289:243|296:211,1,55.8999974411012,0|0,0:0|0:0,0:0:0:0:
96,79,792140,6,0,P|74:62|37:57,1,55.8999974411012,0|0,0:0|0:0,0:0:0:0:
46,253,792327,1,0,0:0:0:0:
41,307,792420,1,0,0:0:0:0:
76,348,792514,1,0,0:0:0:0:
131,353,792608,1,0,0:0:0:0:
172,319,792702,2,0,P|185:290|179:256,1,55.8999974411012,0|0,0:0|0:0,0:0:0:0:
96,79,792890,2,0,P|115:103|147:115,1,55.8999974411012,0|0,0:0|0:0,0:0:0:0:
344,147,793077,2,0,P|312:151|286:173,1,55.8999974411012,0|0,0:0|0:0,0:0:0:0:
172,319,793265,5,0,0:0:0:0:
97,306,793358,1,0,0:0:0:0:
23,294,793452,1,0,0:0:0:0:
96,79,793640,6,0,P|117:42|130:32,1,55.8999974411012,0|0,0:0|0:0,0:0:0:0:
131,204,793827,2,0,L|134:238,1,27.9499987205506,0|0,0:0|0:0,0:0:0:0:
186,212,793921,2,0,L|189:251,1,27.9499987205506,0|0,0:0|0:0,0:0:0:0:
241,221,794015,2,0,L|244:255,1,27.9499987205506,0|0,0:0|0:0,0:0:0:0:
232,194,794108,1,0,0:0:0:0:
224,167,794202,6,0,L|206:100,1,55.8999974411012,0|0,0:0|0:0,0:0:0:0:
421,303,794390,1,0,0:0:0:0:
428,314,794483,1,0,0:0:0:0:
428,328,794577,1,0,0:0:0:0:
422,340,794671,1,0,0:0:0:0:
409,346,794765,1,0,0:0:0:0:
396,344,794858,1,0,0:0:0:0:
385,336,794952,1,0,0:0:0:0:
380,323,795046,1,0,0:0:0:0:
382,310,795142,6,0,P|395:265|376:222,1,86,0|0,0:0|0:0,0:0:0:0:
316,187,795423,1,0,0:0:0:0:
362,124,795517,1,0,0:0:0:0:
205,269,795704,2,0,P|221:206|334:200,1,172,0|0,0:0|0:0,0:0:0:0:
131,371,796267,6,0,P|118:326|137:283,1,86,0|0,0:0|0:0,0:0:0:0:
205,269,796548,1,0,0:0:0:0:
159,206,796642,1,0,0:0:0:0:
19,243,796829,1,0,0:0:0:0:
251,187,797017,1,0,0:0:0:0:
131,371,797204,1,0,0:0:0:0:
96,152,797392,5,0,0:0:0:0:
233,300,797579,1,0,0:0:0:0:
219,284,797672,1,0,0:0:0:0:
205,269,797766,1,0,0:0:0:0:
247,316,797954,1,0,0:0:0:0:
233,300,798047,1,0,0:0:0:0:
219,284,798141,1,0,0:0:0:0:
261,332,798329,1,0,0:0:0:0:
247,316,798422,1,0,0:0:0:0:
233,300,798517,6,0,P|263:250|317:249,1,86,0|0,0:0|0:0,0:0:0:0:
362,259,798798,1,0,0:0:0:0:
338,184,798892,1,0,0:0:0:0:
139,285,799079,2,0,P|149:192|207:137,1,172,0|0,0:0|0:0,0:0:0:0:
77,347,799642,6,0,P|24:314|17:274,1,86,0|0,0:0|0:0,0:0:0:0:
16,216,799923,1,0,0:0:0:0:
87,246,800017,1,0,0:0:0:0:
192,358,800204,1,0,0:0:0:0:
340,159,800392,1,0,0:0:0:0:
182,272,800579,1,0,0:0:0:0:
162,96,800767,5,0,0:0:0:0:
306,185,800954,1,0,0:0:0:0:
289,198,801047,1,0,0:0:0:0:
273,212,801141,1,0,0:0:0:0:
323,172,801329,1,0,0:0:0:0:
306,185,801422,1,0,0:0:0:0:
289,198,801517,2,0,L|239:185,1,43,0|0,0:0|0:0,0:0:0:0:
340,159,801704,1,0,0:0:0:0:
323,172,801797,1,0,0:0:0:0:
306,185,801892,6,0,P|309:236|337:263,1,86,0|0,0:0|0:0,0:0:0:0:
393,313,802173,1,0,0:0:0:0:
416,234,802267,1,0,0:0:0:0:
187,307,802454,2,0,P|245:321|335:247,1,172,0|0,0:0|0:0,0:0:0:0:
197,150,803017,6,0,P|168:205|173:245,1,86,0|0,0:0|0:0,0:0:0:0:
187,307,803298,1,0,0:0:0:0:
255,262,803392,1,0,0:0:0:0:
94,199,803579,2,0,P|139:230|180:220,1,86,0|0,0:0|0:0,0:0:0:0:
208,35,803954,1,0,0:0:0:0:
187,307,804142,5,0,0:0:0:0:
135,186,804329,1,0,0:0:0:0:
114,192,804422,1,0,0:0:0:0:
94,199,804516,1,0,0:0:0:0:
156,180,804704,1,0,0:0:0:0:
135,186,804797,1,0,0:0:0:0:
115,193,804891,1,0,0:0:0:0:
177,174,805079,1,0,0:0:0:0:
156,180,805172,1,0,0:0:0:0:
135,186,805267,6,0,P|90:151|83:112,1,86,0|0,0:0|0:0,0:0:0:0:
63,45,805548,1,0,0:0:0:0:
141,80,805642,1,0,0:0:0:0:
49,300,805829,2,0,P|48:239|149:188,1,172,0|0,0:0|0:0,0:0:0:0:
299,322,806392,6,0,P|343:345|402:329,1,86,0|0,0:0|0:0,0:0:0:0:
462,327,806673,1,0,0:0:0:0:
401,265,806767,1,0,0:0:0:0:
512,95,806954,2,0,P|507:155|465:197,1,86,0|0,0:0|0:0,0:0:0:0:
241,257,807329,1,0,0:0:0:0:
462,327,807517,5,0,0:0:0:0:
378,228,807704,1,0,0:0:0:0:
389,246,807797,1,0,0:0:0:0:
400,264,807891,1,0,0:0:0:0:
334,156,808079,1,0,0:0:0:0:
345,174,808172,1,0,0:0:0:0:
356,192,808266,1,0,0:0:0:0:
367,210,808360,1,0,0:0:0:0:
378,228,808454,1,0,0:0:0:0:
389,246,808548,1,0,0:0:0:0:
400,264,808642,6,0,P|358:283|368:330,1,86,0|0,0:0|0:0,0:0:0:0:
409,373,808923,2,0,P|436:365|448:340,1,43,0|0,0:0|0:0,0:0:0:0:
356,192,809204,2,0,P|298:232|300:359,1,172,0|0,0:0|0:0,0:0:0:0:
397,137,809767,6,0,P|355:156|365:203,1,86,0|0,0:0|0:0,0:0:0:0:
406,246,810048,2,0,P|433:238|445:213,1,43,0|0,0:0|0:0,0:0:0:0:
353,65,810329,2,0,P|295:105|281:155,1,86,0|0,0:0|0:0,0:0:0:0:
369,262,810704,2,0,P|394:258|408:239,1,43,0|0,0:0|0:0,0:0:0:0:
474,117,810892,5,0,0:0:0:0:
322,233,811079,1,0,0:0:0:0:
345,247,811172,1,0,0:0:0:0:
369,262,811266,1,0,0:0:0:0:
275,262,811454,1,0,0:0:0:0:
298,248,811547,1,0,0:0:0:0:
322,233,811641,1,0,0:0:0:0:
228,233,811829,1,0,0:0:0:0:
251,247,811922,1,0,0:0:0:0:
275,262,812017,6,0,P|293:304|340:294,1,86,0|0,0:0|0:0,0:0:0:0:
383,252,812298,2,0,P|375:224|350:213,1,43,0|0,0:0|0:0,0:0:0:0:
202,306,812579,2,0,P|241:363|368:362,1,172,0|0,0:0|0:0,0:0:0:0:
193,197,813142,6,0,P|151:216|161:263,1,86,0|0,0:0|0:0,0:0:0:0:
202,306,813423,2,0,P|229:298|241:273,1,43,0|0,0:0|0:0,0:0:0:0:
149,125,813704,2,0,P|91:165|81:212,1,86,0|0,0:0|0:0,0:0:0:0:
166,324,814079,2,0,P|193:316|205:291,1,43,0|0,0:0|0:0,0:0:0:0:
283,158,814267,5,0,0:0:0:0:
377,321,814454,1,0,0:0:0:0:
391,344,814547,1,0,0:0:0:0:
406,368,814641,1,0,0:0:0:0:
406,274,814829,1,0,0:0:0:0:
392,297,814922,1,0,0:0:0:0:
377,321,815016,1,0,0:0:0:0:
377,227,815204,1,0,0:0:0:0:
391,250,815297,1,0,0:0:0:0:
406,274,815392,6,0,P|422:230|381:204,1,86,0|0,0:0|0:0,0:0:0:0:
322,205,815673,2,0,P|308:229|317:255,1,43,0|0,0:0|0:0,0:0:0:0:
512,299,815954,2,0,P|524:229|483:135,1,172,0|0,0:0|0:0,0:0:0:0:
226,174,816517,6,0,P|209:217|250:243,1,86,0|0,0:0|0:0,0:0:0:0:
310,243,816798,2,0,P|323:218|314:192,1,43,0|0,0:0|0:0,0:0:0:0:
120,149,817079,2,0,P|107:218|149:313,1,172,0|0,0:0|0:0,0:0:0:0:
321,204,817642,5,0,0:0:0:0:
192,338,817829,1,0,0:0:0:0:
214,324,817922,1,0,0:0:0:0:
239,309,818016,1,0,0:0:0:0:
145,309,818204,1,0,0:0:0:0:
168,323,818297,1,0,0:0:0:0:
192,338,818391,1,0,0:0:0:0:
98,338,818579,1,0,0:0:0:0:
121,324,818672,1,0,0:0:0:0:
145,309,818767,6,0,P|128:265|169:239,1,86,0|0,0:0|0:0,0:0:0:0:
229,240,819048,2,0,P|242:264|233:290,1,43,0|0,0:0|0:0,0:0:0:0:
39,334,819329,2,0,P|26:264|68:170,1,172,0|0,0:0|0:0,0:0:0:0:
324,209,819892,6,0,P|340:252|299:278,1,86,0|0,0:0|0:0,0:0:0:0:
240,278,820173,2,0,P|226:253|235:227,1,43,0|0,0:0|0:0,0:0:0:0:
430,184,820454,2,0,P|442:253|434:284,1,86,0|0,0:0|0:0,0:0:0:0:
298,340,820829,1,0,0:0:0:0:
268,308,820922,1,0,0:0:0:0:
239,277,821016,5,0,0:0:0:0:
292,204,821204,1,0,0:0:0:0:
262,172,821297,1,0,0:0:0:0:
233,141,821391,1,0,0:0:0:0:
307,79,821579,1,0,0:0:0:0:
277,47,821672,1,0,0:0:0:0:
248,16,821766,5,0,0:0:0:0:
185,16,821860,1,0,0:0:0:0:
150,68,821954,1,0,0:0:0:0:
172,126,822048,1,0,0:0:0:0:
233,141,822142,5,0,0:0:0:0:
223,146,822235,1,0,0:0:0:0:
215,153,822329,1,0,0:0:0:0:
209,161,822423,1,0,0:0:0:0:
203,171,822517,2,0,P|201:207|223:240,1,60.1999981628419,0|0,0:0|0:0,0:0:0:0:
378,366,822704,2,0,P|429:344|460:277,1,120.399996325684,0|0,0:0|0:0,0:0:0:0:
388,97,823079,1,0,0:0:0:0:
181,250,823267,5,0,0:0:0:0:
162,306,823360,1,0,0:0:0:0:
184,360,823454,1,0,0:0:0:0:
236,388,823548,1,0,0:0:0:0:
294,375,823642,2,0,P|328:358|349:317,1,60.1999981628419,0|0,0:0|0:0,0:0:0:0:
203,171,823829,1,0,0:0:0:0:
154,136,823922,1,0,0:0:0:0:
95,132,824016,1,0,0:0:0:0:
43,161,824110,1,0,0:0:0:0:
14,213,824204,2,0,P|8:244|20:290,1,60.1999981628419,0|0,0:0|0:0,0:0:0:0:
256,300,824392,6,0,P|262:269|251:236,1,55.8999974411012,0|0,0:0|0:0,0:0:0:0:
120,260,824579,1,0,0:0:0:0:
112,314,824672,1,0,0:0:0:0:
131,366,824766,1,0,0:0:0:0:
210,72,824954,1,0,0:0:0:0:
217,127,825047,1,0,0:0:0:0:
198,179,825141,1,0,0:0:0:0:
157,218,825235,1,0,0:0:0:0:
120,260,825329,1,0,0:0:0:0:
112,314,825422,1,0,0:0:0:0:
131,366,825517,6,0,P|176:372|204:364,1,55.8999974411012,0|0,0:0|0:0,0:0:0:0:
270,226,825704,1,0,0:0:0:0:
302,180,825797,1,0,0:0:0:0:
309,125,825892,2,0,P|300:86|279:53,1,55.8999974411012,0|0,0:0|0:0,0:0:0:0:
492,345,826079,1,0,0:0:0:0:
442,319,826172,1,0,0:0:0:0:
387,314,826266,1,0,0:0:0:0:
333,329,826360,1,0,0:0:0:0:
279,342,826454,1,0,0:0:0:0:
224,332,826547,1,0,0:0:0:0:
176,304,826642,6,0,P|154:276|140:241,1,55.8999974411012,0|0,0:0|0:0,0:0:0:0:
0,196,826829,2,0,P|3:159|18:125,1,55.8999974411012,0|0,0:0|0:0,0:0:0:0:
148,33,827017,2,0,P|176:10|211:-3,1,55.8999974411012,0|0,0:0|0:0,0:0:0:0:
204,172,827204,1,0,0:0:0:0:
237,214,827297,1,0,0:0:0:0:
291,224,827391,1,0,0:0:0:0:
338,196,827485,1,0,0:0:0:0:
354,143,827579,2,0,L|342:85,1,55.8999974411012,0|0,0:0|0:0,0:0:0:0:
512,7,827767,5,0,0:0:0:0:
442,198,827954,1,0,0:0:0:0:
389,214,828047,1,0,0:0:0:0:
338,195,828141,1,0,0:0:0:0:
273,315,828329,1,0,0:0:0:0:
220,331,828422,1,0,0:0:0:0:
169,312,828516,1,0,0:0:0:0:
193,262,828610,1,0,0:0:0:0:
189,206,828704,1,0,0:0:0:0:
160,160,828798,1,0,0:0:0:0:
112,133,828892,6,0,P|88:157|54:165,1,55.8999974411012,0|0,0:0|0:0,0:0:0:0:
0,331,829080,1,0,0:0:0:0:
53,318,829173,1,0,0:0:0:0:
101,344,829267,2,0,P|127:363|143:400,1,55.8999974411012,0|0,0:0|0:0,0:0:0:0:
338,195,829454,1,0,0:0:0:0:
342,140,829547,1,0,0:0:0:0:
314,92,829641,1,0,0:0:0:0:
265,68,829735,1,0,0:0:0:0:
210,77,829829,2,0,P|178:79|143:61,1,55.8999974411012,0|0,0:0|0:0,0:0:0:0:
15,199,830017,5,0,0:0:0:0:
36,235,830110,1,0,0:0:0:0:
57,271,830204,1,0,0:0:0:0:
79,307,830298,1,0,0:0:0:0:
100,343,830392,2,0,L|156:370,1,55.8999974411012,0|0,0:0|0:0,0:0:0:0:
224,232,830579,5,0,0:0:0:0:
234,190,830672,1,0,0:0:0:0:
245,149,830766,1,0,0:0:0:0:
255,108,830860,1,0,0:0:0:0:
265,68,830954,2,0,L|244:9,1,55.8999974411012,0|0,0:0|0:0,0:0:0:0:
377,185,831142,5,0,0:0:0:0:
398,221,831235,1,0,0:0:0:0:
419,257,831329,1,0,0:0:0:0:
441,293,831423,1,0,0:0:0:0:
462,329,831517,2,0,L|512:353,1,55.8999974411012,0|0,0:0|0:0,0:0:0:0:
462,167,831704,2,0,L|512:191,1,55.8999974411012,0|0,0:0|0:0,0:0:0:0:
316,324,831892,1,0,0:0:0:0:
270,355,831985,1,0,0:0:0:0:
215,358,832079,1,0,0:0:0:0:
165,333,832173,1,0,0:0:0:0:
136,286,832267,6,0,L|62:255,1,55.8999974411012,0|0,0:0|0:0,0:0:0:0:
99,50,832454,1,0,0:0:0:0:
112,49,832547,1,0,0:0:0:0:
125,55,832641,1,0,0:0:0:0:
134,65,832735,1,0,0:0:0:0:
139,77,832829,2,0,B|145:135|145:135|119:181|119:181|163:231|130:301,1,223.599989764405,0|0,0:0|0:0,0:0:0:0:
375,286,833392,6,0,L|450:255,1,55.8999974411012,0|0,0:0|0:0,0:0:0:0:
413,50,833579,1,0,0:0:0:0:
400,49,833672,1,0,0:0:0:0:
387,55,833766,1,0,0:0:0:0:
378,65,833860,1,0,0:0:0:0:
373,77,833954,2,0,B|367:135|367:135|393:181|393:181|349:231|382:301,1,223.599989764405,0|0,0:0|0:0,0:0:0:0:
481,113,834517,5,0,0:0:0:0:
512,257,834704,2,0,L|507:293,1,27.9499987205506,0|0,0:0|0:0,0:0:0:0:
484,251,834798,6,0,L|479:287,1,27.9499987205506,0|0,0:0|0:0,0:0:0:0:
457,245,834892,6,0,L|453:326,1,55.8999974411012,0|0,0:0|0:0,0:0:0:0:
352,57,835079,2,0,L|348:-24,1,55.8999974411012,0|0,0:0|0:0,0:0:0:0:
352,247,835267,6,0,L|315:251,1,27.9499987205506,0|0,0:0|0:0,0:0:0:0:
357,275,835361,6,0,L|320:279,1,27.9499987205506,0|0,0:0|0:0,0:0:0:0:
363,302,835455,2,0,L|282:306,1,55.8999974411012,0|0,0:0|0:0,0:0:0:0:
71,320,835642,5,0,0:0:0:0:
186,226,835829,1,0,0:0:0:0:
207,175,835922,1,0,0:0:0:0:
195,121,836017,2,0,P|176:93|131:73,1,55.8999974411012,0|0,0:0|0:0,0:0:0:0:
363,302,836204,5,0,0:0:0:0:
413,279,836297,1,0,0:0:0:0:
437,230,836391,1,0,0:0:0:0:
426,177,836485,1,0,0:0:0:0:
383,143,836579,2,0,L|371:78,1,55.8999974411012,0|0,0:0|0:0,0:0:0:0:
255,329,836767,6,0,L|242:394,1,55.8999974411012,0|0,0:0|0:0,0:0:0:0:
195,121,836954,2,0,L|182:55,1,55.8999974411012,0|0,0:0|0:0,0:0:0:0:
66,306,837142,2,0,L|53:371,1,55.8999974411012,0|0,0:0|0:0,0:0:0:0:
100,110,837329,1,0,0:0:0:0:
120,58,837422,1,0,0:0:0:0:
165,27,837516,1,0,0:0:0:0:
220,26,837610,1,0,0:0:0:0:
266,56,837704,2,0,L|327:61,1,55.8999974411012,0|0,0:0|0:0,0:0:0:0:
499,80,837892,5,0,0:0:0:0:
512,132,837985,1,0,0:0:0:0:
484,178,838079,2,0,P|456:197|416:201,1,55.8999974411012,0|0,0:0|0:0,0:0:0:0:
289,375,838267,2,0,P|262:353|246:316,1,55.8999974411012,0|0,0:0|0:0,0:0:0:0:
239,104,838454,2,0,P|251:72|281:45,1,55.8999974411012,0|0,0:0|0:0,0:0:0:0:
447,345,838642,2,0,P|420:323|404:286,1,55.8999974411012,0|0,0:0|0:0,0:0:0:0:
373,105,838829,2,0,P|385:73|415:46,1,55.8999974411012,0|0,0:0|0:0,0:0:0:0:
194,226,839017,6,0,L|133:234,1,55.8999974411012,0|0,0:0|0:0,0:0:0:0:
289,375,839204,1,0,0:0:0:0:
291,319,839297,1,0,0:0:0:0:
315,269,839392,2,0,P|339:247|371:235,1,55.8999974411012,0|0,0:0|0:0,0:0:0:0:
175,91,839579,1,0,0:0:0:0:
216,126,839672,1,0,0:0:0:0:
224,180,839766,1,0,0:0:0:0:
194,226,839860,1,0,0:0:0:0:
142,241,839954,1,0,0:0:0:0:
92,217,840047,1,0,0:0:0:0:
71,167,840142,6,0,P|67:132|43:94,1,55.8999974411012,0|0,0:0|0:0,0:0:0:0:
160,381,840329,1,0,0:0:0:0:
215,384,840422,1,0,0:0:0:0:
268,364,840517,2,0,P|297:339|308:296,1,55.8999974411012,0|0,0:0|0:0,0:0:0:0:
337,91,840704,1,0,0:0:0:0:
296,126,840797,1,0,0:0:0:0:
288,180,840891,1,0,0:0:0:0:
318,226,840985,1,0,0:0:0:0:
370,241,841079,1,0,0:0:0:0:
420,217,841172,1,0,0:0:0:0:
441,167,841267,6,0,P|445:132|469:94,1,55.8999974411012,0|0,0:0|0:0,0:0:0:0:
512,359,841454,2,0,P|477:355|439:331,1,55.8999974411012,0|0,0:0|0:0,0:0:0:0:
406,142,841642,2,0,P|433:120|477:110,1,55.8999974411012,0|0,0:0|0:0,0:0:0:0:
320,327,841829,2,0,P|298:299|288:255,1,55.8999974411012,0|0,0:0|0:0,0:0:0:0:
399,100,842017,2,0,P|434:103|472:128,1,55.8999974411012,0|0,0:0|0:0,0:0:0:0:
207,170,842204,2,0,P|211:135|235:97,1,55.8999974411012,0|0,0:0|0:0,0:0:0:0:
320,327,842392,6,0,P|292:348|248:358,1,55.8999974411012,0|0,0:0|0:0,0:0:0:0:
83,312,842579,1,0,0:0:0:0:
68,257,842672,1,0,0:0:0:0:
54,203,842767,2,0,L|-2:151,1,55.8999974411012,0|0,0:0|0:0,0:0:0:0:
248,111,842954,5,0,0:0:0:0:
227,60,843047,1,0,0:0:0:0:
175,43,843141,1,0,0:0:0:0:
129,70,843235,1,0,0:0:0:0:
118,124,843329,1,0,0:0:0:0:
152,166,843422,1,0,0:0:0:0:
206,169,843517,6,0,L|276:229,1,55.8999974411012,0|0,0:0|0:0,0:0:0:0:
320,327,843704,1,0,0:0:0:0:
250,334,843797,1,0,0:0:0:0:
181,342,843892,2,0,L|135:395,1,55.8999974411012,0|0,0:0|0:0,0:0:0:0:
372,249,844079,5,0,0:0:0:0:
426,246,844174,1,0,0:0:0:0:
460,204,844267,1,0,0:0:0:0:
449,150,844361,1,0,0:0:0:0:
403,123,844454,2,0,P|375:105|363:67,1,55.8999974411012,0|0,0:0|0:0,0:0:0:0:
222,196,844642,5,0,0:0:0:0:
194,148,844735,1,0,0:0:0:0:
148,116,844829,1,0,0:0:0:0:
93,108,844923,1,0,0:0:0:0:
40,125,845017,2,0,P|21:152|16:179,1,55.8999974411012,0|0,0:0|0:0,0:0:0:0:
200,327,845204,1,0,0:0:0:0:
253,318,845297,1,0,0:0:0:0:
283,272,845391,1,0,0:0:0:0:
269,220,845485,1,0,0:0:0:0:
222,196,845579,2,0,P|187:209|160:245,1,55.8999974411012,0|0,0:0|0:0,0:0:0:0:
366,333,845767,6,0,P|410:342|439:328,1,55.8999974411012,0|0,0:0|0:0,0:0:0:0:
385,61,845954,1,0,0:0:0:0:
399,38,846047,1,0,0:0:0:0:
386,15,846141,1,0,0:0:0:0:
359,17,846235,1,0,0:0:0:0:
349,42,846329,2,0,B|342:97|342:97|376:143|376:143|341:188|358:255,1,223.599989764405,0|0,0:0|0:0,0:0:0:0:
146,333,846892,6,0,P|102:342|73:328,1,55.8999974411012,0|0,0:0|0:0,0:0:0:0:
127,61,847079,1,0,0:0:0:0:
113,38,847172,1,0,0:0:0:0:
126,15,847266,1,0,0:0:0:0:
153,17,847360,1,0,0:0:0:0:
163,42,847454,2,0,B|170:97|170:97|136:143|136:143|171:188|160:234,1,167.699992323304,0|0,0:0|0:0,0:0:0:0:
159,236,847829,1,0,0:0:0:0:
386,15,848017,5,0,0:0:0:0:
435,291,848204,2,0,L|472:346,1,55.8999974411012,0|0,0:0|0:0,0:0:0:0:
271,228,848392,1,0,0:0:0:0:
215,232,848485,1,0,0:0:0:0:
159,236,848579,2,0,L|128:291,1,55.8999974411012,0|0,0:0|0:0,0:0:0:0:
0,97,848767,1,0,0:0:0:0:
56,101,848860,1,0,0:0:0:0:
112,105,848954,2,0,L|143:160,1,55.8999974411012,0|0,0:0|0:0,0:0:0:0:
256,320,849142,5,0,0:0:0:0:
256,320,849235,1,0,0:0:0:0:
256,363,849329,2,0,P|328:361|376:311,1,111.799994882202,0|0,0:0|0:0,0:0:0:0:
276,174,849704,1,0,0:0:0:0:
247,126,849797,1,0,0:0:0:0:
214,80,849891,2,0,P|142:82|94:132,1,111.799994882202,0|0,0:0|0:0,0:0:0:0:
64,318,850267,5,0,0:0:0:0:
276,174,850454,2,0,P|348:176|396:226,1,111.799994882202,0|0,0:0|0:0,0:0:0:0:
212,313,850829,1,0,0:0:0:0:
138,348,850922,1,0,0:0:0:0:
64,318,851017,2,0,L|53:244,1,55.8999974411012,0|0,0:0|0:0,0:0:0:0:
121,128,851204,2,0,L|33:115,1,55.8999974411012,0|0,0:0|0:0,0:0:0:0:
251,52,851392,1,0,0:0:0:0:
262,114,851485,1,0,0:0:0:0:
270,178,851579,2,0,L|243:232,1,55.8999974411012,0|0,0:0|0:0,0:0:0:0:
456,214,851767,1,0,0:0:0:0:
454,200,851860,1,0,0:0:0:0:
453,186,851954,6,0,L|473:125,1,55.8999974411012,0|0,0:0|0:0,0:0:0:0:
439,356,852142,5,0,0:0:0:0:
363,326,852235,1,0,0:0:0:0:
339,248,852329,2,0,P|362:180|243:86,1,223.599989764405,0|0,0:0|0:0,0:0:0:0:
115,337,852892,5,0,0:0:0:0:
153,316,852985,1,0,0:0:0:0:
175,277,853079,1,0,0:0:0:0:
172,233,853173,1,0,0:0:0:0:
145,198,853267,1,0,0:0:0:0:
104,182,853360,1,0,0:0:0:0:
93,262,853454,6,0,B|125:217|125:217|104:183|104:183|157:121|104:51,1,223.599989764405,0|0,0:0|0:0,0:0:0:0:
366,33,854017,5,0,0:0:0:0:
405,54,854110,1,0,0:0:0:0:
427,93,854204,1,0,0:0:0:0:
424,137,854298,1,0,0:0:0:0:
397,172,854392,1,0,0:0:0:0:
356,188,854485,1,0,0:0:0:0:
344,108,854579,6,0,B|376:153|376:153|355:187|355:187|394:227|379:283,1,167.699992323304,0|0,0:0|0:0,0:0:0:0:
369,353,854954,1,0,0:0:0:0:
249,123,855142,6,0,L|235:246,1,103.2,0|0,0:0|0:0,0:0:0:0:
212,310,855517,5,0,0:0:0:0:
140,270,855610,1,0,0:0:0:0:
63,294,855704,6,0,B|52:233|96:203|96:203|58:121,1,167.699992323304,0|0,0:0|0:0,0:0:0:0:
155,137,856079,1,0,0:0:0:0:
232,114,856172,1,0,0:0:0:0:
270,42,856266,2,0,B|321:77|311:129|311:129|396:160,1,167.699992323304,0|0,0:0|0:0,0:0:0:0:
453,149,856642,1,0,0:0:0:0:
454,176,856735,1,0,0:0:0:0:
454,205,856829,5,0,0:0:0:0:
430,191,856922,1,0,0:0:0:0:
404,199,857016,1,0,0:0:0:0:
392,223,857110,1,0,0:0:0:0:
403,249,857204,5,0,0:0:0:0:
352,313,857297,1,0,0:0:0:0:
271,324,857392,2,0,P|237:318|210:302,1,55.8999974411012,0|0,0:0|0:0,0:0:0:0:
286,101,857579,5,0,0:0:0:0:
276,47,857672,1,0,0:0:0:0:
232,14,857766,1,0,0:0:0:0:
223,26,857860,5,0,0:0:0:0:
220,43,857953,1,0,0:0:0:0:
229,60,858047,1,0,0:0:0:0:
286,101,858204,6,0,L|226:113,1,43,0|0,0:0|0:0,0:0:0:0:
268,174,858413,6,0,L|208:186,1,43,0|0,0:0|0:0,0:0:0:0:
252,247,858635,6,0,L|176:259,1,43,0|0,0:0|0:0,0:0:0:0:
413,294,858883,5,0,0:0:0:0:
417,272,858943,1,0,0:0:0:0:
421,251,859003,1,0,0:0:0:0:
425,230,859063,1,0,0:0:0:0:
430,207,859123,6,0,L|445:121,1,86,0|0,0:0|0:0,0:0:0:0:
336,185,859634,6,0,L|351:94,1,86,0|0,0:0|0:0,0:0:0:0:
95,62,860204,6,0,B|130:128|130:128|108:233,1,172,0|0,0:0|0:0,0:0:0:0:
75,338,861004,2,0,L|124:354,1,43,0|0,0:0|0:0,0:0:0:0:
222,358,861204,2,0,P|193:321|202:268,1,86,0|0,0:0|0:0,0:0:0:0:
268,300,861504,6,0,B|351:287|400:352|400:352|423:260|520:254,1,301,0|0,0:0|0:0,0:0:0:0:
380,242,862304,1,0,0:0:0:0:
255,23,862679,5,0,0:0:0:0:
174,278,863054,5,0,0:0:0:0:
175,267,863147,1,0,0:0:0:0:
171,257,863241,1,0,0:0:0:0:
163,251,863335,1,0,0:0:0:0:
153,249,863429,1,0,0:0:0:0:
143,254,863522,1,0,0:0:0:0:
137,263,863616,1,0,0:0:0:0:
137,273,863710,1,0,0:0:0:0:
142,282,863804,5,0,0:0:0:0:
136,280,863897,1,0,0:0:0:0:
131,279,863991,1,0,0:0:0:0:
126,278,864085,1,0,0:0:0:0:
121,277,864179,1,0,0:0:0:0:
115,275,864272,1,0,0:0:0:0:
110,274,864366,1,0,0:0:0:0:
105,273,864460,1,0,0:0:0:0:
100,272,864554,5,0,0:0:0:0:
100,266,864647,1,0,0:0:0:0:
100,261,864741,1,0,0:0:0:0:
100,255,864835,1,0,0:0:0:0:
100,250,864929,1,0,0:0:0:0:
100,245,865022,1,0,0:0:0:0:
100,239,865116,1,0,0:0:0:0:
100,234,865210,1,0,0:0:0:0:
100,228,865304,1,0,0:0:0:0:
100,222,865397,1,0,0:0:0:0:
100,216,865491,6,0,L|74:167,1,43,0|0,0:0|0:0,0:0:0:0:
121,35,865679,5,0,0:0:0:0:
141,96,865772,1,0,0:0:0:0:
162,157,865866,2,0,P|177:167|201:167,1,43,0|0,0:0|0:0,0:0:0:0:
350,139,866054,1,0,0:0:0:0:
336,181,866147,1,0,0:0:0:0:
321,224,866241,1,0,0:0:0:0:
303,234,866304,6,0,L|270:227,3,28.6666666666667,0|0|0|0,0:0|0:0|0:0|0:0,0:0:0:0:
271,308,866554,2,0,L|236:302,3,28.6666666666667,0|0|0|0,0:0|0:0|0:0|0:0,0:0:0:0:
145,296,866804,6,0,L|110:307,2,28.6666666666667,0|0|0,0:0|0:0|0:0,0:0:0:0:
100,216,867054,2,0,L|58:226,2,28.6666666666667,0|0|0,0:0|0:0|0:0,0:0:0:0:
44,125,867304,5,0,0:0:0:0:
69,112,867366,1,0,0:0:0:0:
97,107,867429,1,0,0:0:0:0:
126,111,867491,1,0,0:0:0:0:
152,123,867554,1,0,0:0:0:0:
173,142,867616,1,0,0:0:0:0:
188,166,867679,2,0,L|222:154,2,28.6666666666667,0|0|0,0:0|0:0|0:0,0:0:0:0:
256,240,867866,6,0,L|290:228,5,28.6666666666667,0|0|0|0|0|0,0:0|0:0|0:0|0:0|0:0|0:0,0:0:0:0:
341,307,868241,2,0,L|375:295,3,28.6666666666667,0|0|0|0,0:0|0:0|0:0|0:0,0:0:0:0:
370,202,868491,2,0,L|404:190,4,28.6666666666667,0|0|0|0|0,0:0|0:0|0:0|0:0|0:0,0:0:0:0:
256,240,868804,5,0,0:0:0:0:
227,234,868866,1,0,0:0:0:0:
199,229,868929,1,0,0:0:0:0:
171,224,868991,1,0,0:0:0:0:
142,218,869054,2,0,L|128:196,1,20.0666660542806,0|0,0:0|0:0,0:0:0:0:
108,62,869179,2,0,B|144:80|192:80|192:80|176:128|160:160|160:160|224:176|256:240|256:240|288:176|352:160|352:160|336:128|320:80|320:80|368:80|408:65,1,601.999981628418,0|0,0:0|0:0,0:0:0:0:
