osu file format v14

[General]
AudioFilename: Wintersun - ,Starchild - Winter Madness.mp3
AudioLeadIn: 0
PreviewTime: 135397
Countdown: 0
SampleSet: Normal
StackLeniency: 0.7
Mode: 1
LetterboxInBreaks: 0
WidescreenStoryboard: 1

[Editor]
DistanceSpacing: 1
BeatDivisor: 4
GridSize: 32
TimelineZoom: 1.9

[Metadata]
Title:Starchild
TitleUnicode:Starchild
Artist:Wintersun
ArtistUnicode:Wintersun
Creator:Wishkey
Version:Vortex's Timeless Oni
Source:
Tags:Folk metal heavy viking power ensiferum jari Mäenpää marathon darkvortex
BeatmapID:934699
BeatmapSetID:375516

[Difficulty]
HPDrainRate:4
CircleSize:2
OverallDifficulty:6
ApproachRate:5
SliderMultiplier:1.4
SliderTickRate:1

[Events]
//Background and Video events
0,0,"bg wintersun.jpg",0,0
//Break Periods
2,171884,183964
//Storyboard Layer 0 (Background)
//Storyboard Layer 1 (Fail)
//Storyboard Layer 2 (Pass)
//Storyboard Layer 3 (Foreground)
//Storyboard Sound Samples

[TimingPoints]
299,320.950012035625,3,1,0,100,1,0
46515,320.950012035625,4,1,0,100,1,0
78618,320.950012035625,3,1,0,100,1,0
94023,320.950012035625,4,1,0,100,1,0
104285,320.950012035625,3,1,0,100,1,0
140873,-100,3,1,0,100,0,1
171684,-100,3,1,0,100,0,0
251430,320.950012035625,3,1,0,100,1,8
251590,320.950012035625,3,1,0,100,1,0
252553,320.950012035625,3,1,0,100,1,0
253847,320.950012035625,3,1,0,100,1,8
254488,320.950012035625,3,1,0,100,1,0
266346,320.950012035625,3,1,0,100,1,8
266987,320.950012035625,3,1,0,100,1,0
273747,320.950012035625,3,1,0,100,1,8
277258,320.950012035625,3,1,0,100,1,8
277578,320.950012035625,3,1,0,100,1,0
278883,320.950012035625,3,1,0,100,1,8
279524,320.950012035625,3,1,0,100,1,0
296863,320.950012035625,5,1,0,100,1,0
300072,320.950012035625,3,1,0,100,1,0
318366,320.950012035625,5,1,0,100,1,0
321575,320.950012035625,3,1,0,100,1,0
333129,320.950012035625,4,1,0,100,1,0
334412,320.950012035625,3,1,0,100,1,0
338263,320.950012035625,4,1,0,100,1,0
339546,320.950012035625,3,1,0,100,1,0
343397,320.950012035625,4,1,0,100,1,0
349816,320.950012035625,3,1,0,100,1,0
353667,320.950012035625,4,1,0,100,1,0
380610,320.950012035625,3,1,0,100,1,0

[HitObjects]
256,192,299,5,12,0:0:0:0:
256,192,459,1,0,0:0:0:0:
256,192,539,1,0,0:0:0:0:
256,192,619,1,8,0:0:0:0:
256,192,700,1,0,0:0:0:0:
256,192,780,1,8,0:0:0:0:
256,192,860,1,8,0:0:0:0:
256,192,940,1,0,0:0:0:0:
256,192,1021,1,0,0:0:0:0:
256,192,1101,1,8,0:0:0:0:
256,192,1181,1,0,0:0:0:0:
256,192,1261,1,8,0:0:0:0:
256,192,1342,1,8,0:0:0:0:
256,192,1422,1,0,0:0:0:0:
256,192,1502,1,0,0:0:0:0:
256,192,1582,1,8,0:0:0:0:
256,192,1743,1,0,0:0:0:0:
256,192,1823,1,0,0:0:0:0:
256,192,1903,1,8,0:0:0:0:
256,192,2064,1,0,0:0:0:0:
256,192,2224,1,8,0:0:0:0:
256,192,2304,1,8,0:0:0:0:
256,192,2385,1,0,0:0:0:0:
256,192,2465,1,0,0:0:0:0:
256,192,2545,1,8,0:0:0:0:
256,192,2706,1,0,0:0:0:0:
256,192,2866,1,8,0:0:0:0:
256,192,3027,1,0,0:0:0:0:
256,192,3107,1,0,0:0:0:0:
256,192,3187,1,8,0:0:0:0:
256,192,3267,1,0,0:0:0:0:
256,192,3348,1,0,0:0:0:0:
256,192,3508,1,8,0:0:0:0:
256,192,3668,1,0,0:0:0:0:
256,192,3749,1,0,0:0:0:0:
256,192,3829,1,8,0:0:0:0:
256,192,3989,1,8,0:0:0:0:
256,192,4150,1,8,0:0:0:0:
256,192,4310,1,0,0:0:0:0:
256,192,4391,1,0,0:0:0:0:
256,192,4471,1,8,0:0:0:0:
256,192,4631,1,8,0:0:0:0:
256,192,4712,1,8,0:0:0:0:
256,192,4792,1,0,0:0:0:0:
256,192,4872,1,0,0:0:0:0:
256,192,4952,1,8,0:0:0:0:
256,192,5113,1,8,0:0:0:0:
256,192,5273,1,0,0:0:0:0:
256,192,5353,1,0,0:0:0:0:
256,192,5434,1,8,0:0:0:0:
256,192,5514,1,8,0:0:0:0:
256,192,5594,1,0,0:0:0:0:
256,192,5755,1,8,0:0:0:0:
256,192,5835,1,8,0:0:0:0:
256,192,5915,1,0,0:0:0:0:
256,192,6076,1,8,0:0:0:0:
256,192,6156,1,0,0:0:0:0:
256,192,6236,1,0,0:0:0:0:
256,192,6397,1,0,0:0:0:0:
256,192,6557,1,0,0:0:0:0:
256,192,6718,1,8,0:0:0:0:
256,192,6798,1,0,0:0:0:0:
256,192,6878,1,0,0:0:0:0:
256,192,6958,1,0,0:0:0:0:
256,192,7038,1,8,0:0:0:0:
256,192,7199,1,0,0:0:0:0:
256,192,7359,1,8,0:0:0:0:
256,192,7440,1,8,0:0:0:0:
256,192,7520,1,0,0:0:0:0:
256,192,7600,1,0,0:0:0:0:
256,192,7680,1,8,0:0:0:0:
256,192,7841,1,0,0:0:0:0:
256,192,8001,1,8,0:0:0:0:
256,192,8322,1,8,0:0:0:0:
256,192,8402,1,8,0:0:0:0:
256,192,8483,1,0,0:0:0:0:
256,192,8563,1,0,0:0:0:0:
256,192,8643,1,8,0:0:0:0:
256,192,8723,1,0,0:0:0:0:
256,192,8804,1,8,0:0:0:0:
256,192,8884,1,0,0:0:0:0:
256,192,8964,1,8,0:0:0:0:
256,192,9044,1,8,0:0:0:0:
256,192,9125,1,0,0:0:0:0:
256,192,9205,1,0,0:0:0:0:
256,192,9285,1,8,0:0:0:0:
256,192,9365,1,8,0:0:0:0:
256,192,9446,1,0,0:0:0:0:
256,192,9526,1,0,0:0:0:0:
256,192,9606,1,8,0:0:0:0:
256,192,9767,1,8,0:0:0:0:
256,192,9927,1,8,0:0:0:0:
256,192,10007,1,0,0:0:0:0:
256,192,10087,1,0,0:0:0:0:
256,192,10168,1,0,0:0:0:0:
256,192,10248,1,8,0:0:0:0:
256,192,10408,1,0,0:0:0:0:
256,192,10489,1,0,0:0:0:0:
256,192,10569,1,8,0:0:0:0:
256,192,10649,1,0,0:0:0:0:
256,192,10729,1,8,0:0:0:0:
256,192,10890,1,8,0:0:0:0:
256,192,11050,1,0,0:0:0:0:
256,192,11131,1,0,0:0:0:0:
256,192,11211,1,8,0:0:0:0:
256,192,11371,1,0,0:0:0:0:
256,192,11532,1,8,0:0:0:0:
256,192,11612,1,8,0:0:0:0:
256,192,11692,1,0,0:0:0:0:
256,192,11853,1,8,0:0:0:0:
256,192,12013,1,0,0:0:0:0:
256,192,12174,1,8,0:0:0:0:
256,192,12334,1,0,0:0:0:0:
256,192,12414,1,0,0:0:0:0:
256,192,12495,1,8,0:0:0:0:
256,192,12575,1,0,0:0:0:0:
256,192,12655,1,0,0:0:0:0:
256,192,12816,1,8,0:0:0:0:
256,192,12976,1,0,0:0:0:0:
256,192,13137,1,8,0:0:0:0:
256,192,13297,1,0,0:0:0:0:
256,192,13377,1,0,0:0:0:0:
256,192,13457,1,8,0:0:0:0:
256,192,13618,1,0,0:0:0:0:
256,192,13698,1,0,0:0:0:0:
256,192,13778,1,8,0:0:0:0:
256,192,13939,1,0,0:0:0:0:
256,192,14099,1,8,0:0:0:0:
256,192,14180,1,0,0:0:0:0:
256,192,14260,1,8,0:0:0:0:
256,192,14340,1,8,0:0:0:0:
256,192,14420,1,0,0:0:0:0:
256,192,14581,1,0,0:0:0:0:
256,192,14741,1,8,0:0:0:0:
256,192,14821,1,8,0:0:0:0:
256,192,14902,1,8,0:0:0:0:
256,192,14982,1,8,0:0:0:0:
256,192,15062,1,8,0:0:0:0:
256,192,15142,1,8,0:0:0:0:
256,192,15223,1,0,0:0:0:0:
256,192,15303,1,0,0:0:0:0:
256,192,15383,1,0,0:0:0:0:
256,192,15463,1,0,0:0:0:0:
256,192,15544,1,0,0:0:0:0:
256,192,15704,1,12,0:0:0:0:
256,192,15865,1,0,0:0:0:0:
256,192,15945,1,0,0:0:0:0:
256,192,16025,1,8,0:0:0:0:
256,192,16105,1,0,0:0:0:0:
256,192,16186,1,8,0:0:0:0:
256,192,16266,1,8,0:0:0:0:
256,192,16346,1,0,0:0:0:0:
256,192,16426,1,0,0:0:0:0:
256,192,16506,1,8,0:0:0:0:
256,192,16587,1,0,0:0:0:0:
256,192,16667,1,8,0:0:0:0:
256,192,16747,1,8,0:0:0:0:
256,192,16827,1,0,0:0:0:0:
256,192,16908,1,0,0:0:0:0:
256,192,16988,1,8,0:0:0:0:
256,192,17148,1,0,0:0:0:0:
256,192,17229,1,0,0:0:0:0:
256,192,17309,1,8,0:0:0:0:
256,192,17469,1,0,0:0:0:0:
256,192,17630,1,8,0:0:0:0:
256,192,17710,1,8,0:0:0:0:
256,192,17790,1,0,0:0:0:0:
256,192,17871,1,0,0:0:0:0:
256,192,17951,1,8,0:0:0:0:
256,192,18111,1,0,0:0:0:0:
256,192,18272,1,8,0:0:0:0:
256,192,18432,1,0,0:0:0:0:
256,192,18512,1,0,0:0:0:0:
256,192,18593,1,8,0:0:0:0:
256,192,18673,1,0,0:0:0:0:
256,192,18753,1,0,0:0:0:0:
256,192,18914,1,8,0:0:0:0:
256,192,19074,1,0,0:0:0:0:
256,192,19154,1,0,0:0:0:0:
256,192,19235,1,8,0:0:0:0:
256,192,19395,1,8,0:0:0:0:
256,192,19475,1,8,0:0:0:0:
256,192,19556,1,8,0:0:0:0:
256,192,19716,1,0,0:0:0:0:
256,192,19796,1,0,0:0:0:0:
256,192,19876,1,8,0:0:0:0:
256,192,20037,1,8,0:0:0:0:
256,192,20117,1,8,0:0:0:0:
256,192,20197,1,0,0:0:0:0:
256,192,20278,1,0,0:0:0:0:
256,192,20358,1,8,0:0:0:0:
256,192,20518,1,8,0:0:0:0:
256,192,20679,1,0,0:0:0:0:
256,192,20759,1,0,0:0:0:0:
256,192,20839,1,8,0:0:0:0:
256,192,20920,1,8,0:0:0:0:
256,192,21000,1,8,0:0:0:0:
256,192,21080,1,0,0:0:0:0:
256,192,21160,1,8,0:0:0:0:
256,192,21240,1,8,0:0:0:0:
256,192,21321,1,0,0:0:0:0:
256,192,21481,1,8,0:0:0:0:
256,192,21561,1,0,0:0:0:0:
256,192,21642,1,0,0:0:0:0:
256,192,21802,1,0,0:0:0:0:
256,192,21963,1,0,0:0:0:0:
256,192,22123,1,8,0:0:0:0:
256,192,22203,1,0,0:0:0:0:
256,192,22284,1,0,0:0:0:0:
256,192,22364,1,0,0:0:0:0:
256,192,22444,1,8,0:0:0:0:
256,192,22524,1,8,0:0:0:0:
256,192,22605,1,8,0:0:0:0:
256,192,22685,1,0,0:0:0:0:
256,192,22765,1,8,0:0:0:0:
256,192,22845,1,8,0:0:0:0:
256,192,22925,1,0,0:0:0:0:
256,192,23006,1,0,0:0:0:0:
256,192,23086,1,8,0:0:0:0:
256,192,23246,1,0,0:0:0:0:
256,192,23407,1,8,0:0:0:0:
256,192,23728,1,8,0:0:0:0:
256,192,23808,1,8,0:0:0:0:
256,192,23888,1,0,0:0:0:0:
256,192,23969,1,0,0:0:0:0:
256,192,24049,1,8,0:0:0:0:
256,192,24129,1,0,0:0:0:0:
256,192,24209,1,8,0:0:0:0:
256,192,24290,1,0,0:0:0:0:
256,192,24370,1,8,0:0:0:0:
256,192,24450,1,8,0:0:0:0:
256,192,24530,1,0,0:0:0:0:
256,192,24610,1,0,0:0:0:0:
256,192,24691,1,8,0:0:0:0:
256,192,24771,1,8,0:0:0:0:
256,192,24851,1,0,0:0:0:0:
256,192,24931,1,0,0:0:0:0:
256,192,25012,1,8,0:0:0:0:
256,192,25172,1,0,0:0:0:0:
256,192,25333,1,8,0:0:0:0:
256,192,25413,1,8,0:0:0:0:
256,192,25493,1,8,0:0:0:0:
256,192,25573,1,0,0:0:0:0:
256,192,25654,1,8,0:0:0:0:
256,192,25734,1,0,0:0:0:0:
256,192,25814,1,0,0:0:0:0:
256,192,25894,1,0,0:0:0:0:
256,192,25975,1,8,0:0:0:0:
256,192,26055,1,0,0:0:0:0:
256,192,26135,1,8,0:0:0:0:
256,192,26295,1,8,0:0:0:0:
256,192,26456,1,0,0:0:0:0:
256,192,26536,1,0,0:0:0:0:
256,192,26616,1,8,0:0:0:0:
256,192,26777,1,0,0:0:0:0:
256,192,26937,1,8,0:0:0:0:
256,192,27018,1,8,0:0:0:0:
256,192,27098,1,0,0:0:0:0:
256,192,27258,1,8,0:0:0:0:
256,192,27419,1,0,0:0:0:0:
256,192,27579,1,8,0:0:0:0:
256,192,27740,1,0,0:0:0:0:
256,192,27820,1,0,0:0:0:0:
256,192,27900,1,8,0:0:0:0:
256,192,27980,1,8,0:0:0:0:
256,192,28061,1,0,0:0:0:0:
256,192,28141,1,0,0:0:0:0:
256,192,28221,1,8,0:0:0:0:
256,192,28382,1,0,0:0:0:0:
256,192,28542,1,8,0:0:0:0:
256,192,28703,1,0,0:0:0:0:
256,192,28783,1,0,0:0:0:0:
256,192,28863,1,8,0:0:0:0:
256,192,29024,1,0,0:0:0:0:
256,192,29184,1,8,0:0:0:0:
256,192,29291,1,8,0:0:0:0:
256,192,29398,1,8,0:0:0:0:
256,192,29505,1,8,0:0:0:0:
256,192,29612,1,8,0:0:0:0:
256,192,29719,1,8,0:0:0:0:
256,192,29826,1,8,0:0:0:0:
256,192,29933,1,8,0:0:0:0:
256,192,30040,1,8,0:0:0:0:
256,192,30147,1,8,0:0:0:0:
256,192,30254,1,0,0:0:0:0:
256,192,30361,1,0,0:0:0:0:
256,192,30468,1,0,0:0:0:0:
256,192,30575,1,0,0:0:0:0:
256,192,30682,1,0,0:0:0:0:
256,192,30789,1,0,0:0:0:0:
256,192,30896,1,0,0:0:0:0:
256,192,31003,1,0,0:0:0:0:
256,192,31110,1,12,0:0:0:0:
256,192,31431,1,8,0:0:0:0:
256,192,31752,1,8,0:0:0:0:
256,192,32073,1,0,0:0:0:0:
256,192,32714,1,8,0:0:0:0:
256,192,33035,1,4,0:0:0:0:
256,192,33677,1,8,0:0:0:0:
256,192,33998,1,0,0:0:0:0:
256,192,34319,1,0,0:0:0:0:
256,192,34480,1,0,0:0:0:0:
256,192,34640,1,0,0:0:0:0:
256,192,34961,1,12,0:0:0:0:
256,192,35282,1,0,0:0:0:0:
256,192,35603,1,8,0:0:0:0:
256,192,35924,1,8,0:0:0:0:
256,192,36566,1,8,0:0:0:0:
256,192,36887,1,0,0:0:0:0:
256,192,37529,1,8,0:0:0:0:
256,192,37850,1,8,0:0:0:0:
256,192,37957,1,0,0:0:0:0:
256,192,38064,1,0,0:0:0:0:
256,192,38171,1,8,0:0:0:0:
256,192,38278,1,0,0:0:0:0:
256,192,38385,1,0,0:0:0:0:
256,192,38492,1,8,0:0:0:0:
256,192,38599,1,0,0:0:0:0:
256,192,38706,1,0,0:0:0:0:
256,192,38813,1,12,0:0:0:0:
256,192,39454,1,0,0:0:0:0:
256,192,39775,1,8,0:0:0:0:
256,192,40096,1,8,0:0:0:0:
256,192,40417,1,0,0:0:0:0:
256,192,40738,1,12,0:0:0:0:
256,192,41059,1,0,0:0:0:0:
256,192,41380,1,8,0:0:0:0:
256,192,41701,1,8,0:0:0:0:
256,192,42022,1,0,0:0:0:0:
256,192,42182,1,0,0:0:0:0:
256,192,42343,1,0,0:0:0:0:
256,192,42664,1,12,0:0:0:0:
256,192,43306,1,8,0:0:0:0:
256,192,43627,1,8,0:0:0:0:
256,192,43948,1,0,0:0:0:0:
256,192,44108,1,0,0:0:0:0:
256,192,44269,1,8,0:0:0:0:
256,192,44429,1,8,0:0:0:0:
256,192,44590,1,8,0:0:0:0:
256,192,44750,1,0,0:0:0:0:
256,192,44911,1,8,0:0:0:0:
256,192,45071,1,8,0:0:0:0:
256,192,45232,1,0,0:0:0:0:
256,192,45392,1,0,0:0:0:0:
256,192,45552,1,8,0:0:0:0:
256,192,45633,1,0,0:0:0:0:
256,192,45713,1,0,0:0:0:0:
256,192,45793,1,0,0:0:0:0:
256,192,45873,1,8,0:0:0:0:
256,192,45954,1,0,0:0:0:0:
256,192,46034,1,0,0:0:0:0:
256,192,46114,1,0,0:0:0:0:
256,192,46194,1,8,0:0:0:0:
256,192,46275,1,0,0:0:0:0:
256,192,46355,1,0,0:0:0:0:
256,192,46515,1,12,0:0:0:0:
256,192,47798,1,4,0:0:0:0:
256,192,47959,1,8,0:0:0:0:
256,192,48039,1,0,0:0:0:0:
256,192,48119,1,0,0:0:0:0:
256,192,48199,1,0,0:0:0:0:
256,192,48280,1,8,0:0:0:0:
256,192,48440,1,0,0:0:0:0:
256,192,48520,1,0,0:0:0:0:
256,192,48601,1,8,0:0:0:0:
256,192,48681,1,0,0:0:0:0:
256,192,48761,1,8,0:0:0:0:
256,192,48841,1,8,0:0:0:0:
256,192,48922,1,0,0:0:0:0:
256,192,49002,1,0,0:0:0:0:
256,192,49082,1,8,0:0:0:0:
256,192,49243,1,8,0:0:0:0:
256,192,49323,1,0,0:0:0:0:
256,192,49403,1,0,0:0:0:0:
256,192,49483,1,0,0:0:0:0:
256,192,49564,1,8,0:0:0:0:
256,192,49724,1,0,0:0:0:0:
256,192,49804,1,0,0:0:0:0:
256,192,49884,1,8,0:0:0:0:
256,192,49965,1,8,0:0:0:0:
256,192,50045,1,0,0:0:0:0:
256,192,50125,1,0,0:0:0:0:
256,192,50205,1,8,0:0:0:0:
256,192,50366,1,0,0:0:0:0:
256,192,50526,1,8,0:0:0:0:
256,192,50607,1,0,0:0:0:0:
256,192,50687,1,0,0:0:0:0:
256,192,50767,1,0,0:0:0:0:
256,192,50847,1,8,0:0:0:0:
256,192,51168,1,8,0:0:0:0:
256,192,51249,1,0,0:0:0:0:
256,192,51329,1,0,0:0:0:0:
256,192,51409,1,0,0:0:0:0:
256,192,51489,1,8,0:0:0:0:
256,192,51569,1,8,0:0:0:0:
256,192,51650,1,8,0:0:0:0:
256,192,51810,1,8,0:0:0:0:
256,192,51971,1,0,0:0:0:0:
256,192,52131,1,8,0:0:0:0:
256,192,52211,1,8,0:0:0:0:
256,192,52292,1,8,0:0:0:0:
256,192,52372,1,0,0:0:0:0:
256,192,52452,1,8,0:0:0:0:
256,192,52532,1,0,0:0:0:0:
256,192,52613,1,0,0:0:0:0:
256,192,52693,1,0,0:0:0:0:
256,192,52773,1,8,0:0:0:0:
256,192,52853,1,8,0:0:0:0:
256,192,52934,1,0,0:0:0:0:
256,192,53094,1,8,0:0:0:0:
256,192,53174,1,0,0:0:0:0:
256,192,53254,1,0,0:0:0:0:
256,192,53335,1,0,0:0:0:0:
256,192,53415,1,8,0:0:0:0:
256,192,53575,1,0,0:0:0:0:
256,192,53656,1,0,0:0:0:0:
256,192,53736,1,8,0:0:0:0:
256,192,53816,1,0,0:0:0:0:
256,192,53896,1,8,0:0:0:0:
256,192,53977,1,8,0:0:0:0:
256,192,54057,1,0,0:0:0:0:
256,192,54137,1,0,0:0:0:0:
256,192,54217,1,8,0:0:0:0:
256,192,54378,1,8,0:0:0:0:
256,192,54458,1,0,0:0:0:0:
256,192,54538,1,0,0:0:0:0:
256,192,54618,1,0,0:0:0:0:
256,192,54699,1,8,0:0:0:0:
256,192,54859,1,0,0:0:0:0:
256,192,54939,1,0,0:0:0:0:
256,192,55020,1,8,0:0:0:0:
256,192,55100,1,8,0:0:0:0:
256,192,55180,1,0,0:0:0:0:
256,192,55260,1,0,0:0:0:0:
256,192,55341,1,8,0:0:0:0:
256,192,55501,1,0,0:0:0:0:
256,192,55662,1,8,0:0:0:0:
256,192,55742,1,0,0:0:0:0:
256,192,55822,1,0,0:0:0:0:
256,192,55902,1,0,0:0:0:0:
256,192,55983,1,8,0:0:0:0:
256,192,56303,1,8,0:0:0:0:
256,192,56384,1,0,0:0:0:0:
256,192,56464,1,8,0:0:0:0:
256,192,56544,1,8,0:0:0:0:
256,192,56624,1,8,0:0:0:0:
256,192,56705,1,8,0:0:0:0:
256,192,56785,1,0,0:0:0:0:
256,192,56945,1,0,0:0:0:0:
256,192,57026,1,0,0:0:0:0:
256,192,57106,1,0,0:0:0:0:
256,192,57186,1,0,0:0:0:0:
256,192,57266,1,0,0:0:0:0:
256,192,57347,1,0,0:0:0:0:
256,192,57427,1,8,0:0:0:0:
256,192,57587,1,0,0:0:0:0:
256,192,57668,1,0,0:0:0:0:
256,192,57748,1,0,0:0:0:0:
256,192,57828,1,0,0:0:0:0:
256,192,57908,1,8,0:0:0:0:
256,192,58069,1,4,0:0:0:0:
256,192,58229,1,8,0:0:0:0:
256,192,58309,1,0,0:0:0:0:
256,192,58390,1,0,0:0:0:0:
256,192,58470,1,0,0:0:0:0:
256,192,58550,1,8,0:0:0:0:
256,192,58711,1,0,0:0:0:0:
256,192,58791,1,0,0:0:0:0:
256,192,58871,1,8,0:0:0:0:
256,192,58951,1,0,0:0:0:0:
256,192,59032,1,8,0:0:0:0:
256,192,59112,1,8,0:0:0:0:
256,192,59192,1,0,0:0:0:0:
256,192,59272,1,0,0:0:0:0:
256,192,59353,1,8,0:0:0:0:
256,192,59513,1,8,0:0:0:0:
256,192,59593,1,0,0:0:0:0:
256,192,59673,1,0,0:0:0:0:
256,192,59754,1,0,0:0:0:0:
256,192,59834,1,8,0:0:0:0:
256,192,59994,1,0,0:0:0:0:
256,192,60075,1,0,0:0:0:0:
256,192,60155,1,8,0:0:0:0:
256,192,60235,1,0,0:0:0:0:
256,192,60315,1,8,0:0:0:0:
256,192,60396,1,0,0:0:0:0:
256,192,60476,1,0,0:0:0:0:
256,192,60556,1,0,0:0:0:0:
256,192,60636,1,8,0:0:0:0:
256,192,60797,1,8,0:0:0:0:
256,192,60877,1,0,0:0:0:0:
256,192,60957,1,0,0:0:0:0:
256,192,61037,1,0,0:0:0:0:
256,192,61118,1,8,0:0:0:0:
256,192,61439,1,8,0:0:0:0:
256,192,61519,1,0,0:0:0:0:
256,192,61599,1,0,0:0:0:0:
256,192,61679,1,0,0:0:0:0:
256,192,61760,1,8,0:0:0:0:
256,192,61840,1,8,0:0:0:0:
256,192,61920,1,8,0:0:0:0:
256,192,62081,1,8,0:0:0:0:
256,192,62241,1,0,0:0:0:0:
256,192,62321,1,0,0:0:0:0:
256,192,62402,1,8,0:0:0:0:
256,192,62482,1,8,0:0:0:0:
256,192,62562,1,8,0:0:0:0:
256,192,62642,1,0,0:0:0:0:
256,192,62722,1,8,0:0:0:0:
256,192,62883,1,0,0:0:0:0:
256,192,62963,1,0,0:0:0:0:
256,192,63043,1,8,0:0:0:0:
256,192,63124,1,8,0:0:0:0:
256,192,63204,1,0,0:0:0:0:
256,192,63284,1,0,0:0:0:0:
256,192,63364,1,8,0:0:0:0:
256,192,63445,1,0,0:0:0:0:
256,192,63525,1,0,0:0:0:0:
256,192,63605,1,0,0:0:0:0:
256,192,63685,1,8,0:0:0:0:
256,192,63846,1,0,0:0:0:0:
256,192,63926,1,0,0:0:0:0:
256,192,64006,1,8,0:0:0:0:
256,192,64087,1,0,0:0:0:0:
256,192,64167,1,8,0:0:0:0:
256,192,64247,1,8,0:0:0:0:
256,192,64327,1,0,0:0:0:0:
256,192,64488,1,8,0:0:0:0:
256,192,64648,1,8,0:0:0:0:
256,192,64728,1,0,0:0:0:0:
256,192,64809,1,0,0:0:0:0:
256,192,64889,1,0,0:0:0:0:
256,192,64969,1,8,0:0:0:0:
256,192,65130,1,0,0:0:0:0:
256,192,65210,1,0,0:0:0:0:
256,192,65290,1,8,0:0:0:0:
256,192,65370,1,0,0:0:0:0:
256,192,65451,1,8,0:0:0:0:
256,192,65531,1,8,0:0:0:0:
256,192,65611,1,0,0:0:0:0:
256,192,65772,1,8,0:0:0:0:
256,192,65932,1,8,0:0:0:0:
256,192,66012,1,0,0:0:0:0:
256,192,66092,1,0,0:0:0:0:
256,192,66173,1,0,0:0:0:0:
256,192,66253,1,8,0:0:0:0:
256,192,66574,1,8,0:0:0:0:
256,192,66654,1,0,0:0:0:0:
256,192,66734,1,0,0:0:0:0:
256,192,66815,1,0,0:0:0:0:
256,192,66895,1,8,0:0:0:0:
256,192,66975,1,8,0:0:0:0:
256,192,67055,1,8,0:0:0:0:
256,192,67216,1,0,0:0:0:0:
256,192,67296,1,0,0:0:0:0:
256,192,67376,1,0,0:0:0:0:
256,192,67456,1,0,0:0:0:0:
256,192,67537,1,0,0:0:0:0:
256,192,67617,1,0,0:0:0:0:
256,192,67697,1,8,0:0:0:0:
256,192,67858,1,0,0:0:0:0:
256,192,67938,1,0,0:0:0:0:
256,192,68018,1,0,0:0:0:0:
256,192,68098,1,0,0:0:0:0:
256,192,68179,1,0,0:0:0:0:
256,192,68259,1,0,0:0:0:0:
256,192,68339,1,8,0:0:0:0:
256,192,68419,1,0,0:0:0:0:
256,192,68500,1,8,0:0:0:0:
256,192,68821,1,8,0:0:0:0:
256,192,69141,1,8,0:0:0:0:
256,192,69222,1,0,0:0:0:0:
256,192,69302,1,0,0:0:0:0:
256,192,69382,1,0,0:0:0:0:
256,192,69462,1,8,0:0:0:0:
256,192,69783,1,8,0:0:0:0:
256,192,70104,1,8,0:0:0:0:
256,192,70185,1,0,0:0:0:0:
256,192,70265,1,0,0:0:0:0:
256,192,70345,1,0,0:0:0:0:
256,192,70425,1,8,0:0:0:0:
256,192,70746,1,8,0:0:0:0:
256,192,70907,1,0,0:0:0:0:
256,192,70987,1,0,0:0:0:0:
256,192,71067,1,8,0:0:0:0:
256,192,71147,1,0,0:0:0:0:
256,192,71228,1,0,0:0:0:0:
256,192,71388,1,8,0:0:0:0:
256,192,71709,1,8,0:0:0:0:
256,192,71789,1,0,0:0:0:0:
256,192,71870,1,0,0:0:0:0:
256,192,71950,1,0,0:0:0:0:
256,192,72030,1,8,0:0:0:0:
256,192,72351,1,8,0:0:0:0:
256,192,72672,1,8,0:0:0:0:
256,192,72752,1,0,0:0:0:0:
256,192,72832,1,0,0:0:0:0:
256,192,72913,1,0,0:0:0:0:
256,192,72993,1,8,0:0:0:0:
256,192,73314,1,8,0:0:0:0:
256,192,73394,1,0,0:0:0:0:
256,192,73474,1,0,0:0:0:0:
256,192,73555,1,0,0:0:0:0:
256,192,73635,1,8,0:0:0:0:
256,192,73715,1,0,0:0:0:0:
256,192,73795,1,0,0:0:0:0:
256,192,73956,1,8,0:0:0:0:
256,192,74277,1,8,0:0:0:0:
256,192,74437,1,0,0:0:0:0:
256,192,74517,1,0,0:0:0:0:
256,192,74598,1,8,0:0:0:0:
256,192,74678,1,0,0:0:0:0:
256,192,74758,1,0,0:0:0:0:
256,192,74919,1,8,0:0:0:0:
256,192,75240,1,8,0:0:0:0:
256,192,75400,1,0,0:0:0:0:
256,192,75480,1,0,0:0:0:0:
256,192,75560,1,8,0:0:0:0:
256,192,75641,1,0,0:0:0:0:
256,192,75721,1,0,0:0:0:0:
256,192,75881,1,8,0:0:0:0:
256,192,76202,1,8,0:0:0:0:
256,192,76283,1,0,0:0:0:0:
256,192,76363,1,0,0:0:0:0:
256,192,76443,1,0,0:0:0:0:
256,192,76523,1,8,0:0:0:0:
256,192,76844,1,8,0:0:0:0:
256,192,77005,1,0,0:0:0:0:
256,192,77085,1,0,0:0:0:0:
256,192,77165,1,8,0:0:0:0:
256,192,77245,1,0,0:0:0:0:
256,192,77326,1,8,0:0:0:0:
256,192,77406,1,8,0:0:0:0:
256,192,77486,1,0,0:0:0:0:
256,192,77566,1,0,0:0:0:0:
256,192,77647,1,0,0:0:0:0:
256,192,77727,1,0,0:0:0:0:
256,192,77807,1,0,0:0:0:0:
256,192,77887,1,0,0:0:0:0:
256,192,77968,1,0,0:0:0:0:
256,192,78048,1,0,0:0:0:0:
256,192,78128,1,8,0:0:0:0:
256,192,78208,1,0,0:0:0:0:
256,192,78289,1,8,0:0:0:0:
256,192,78369,1,8,0:0:0:0:
256,192,78449,1,0,0:0:0:0:
256,192,78529,1,0,0:0:0:0:
256,192,78618,1,8,0:0:0:0:
256,192,78778,1,0,0:0:0:0:
256,192,78858,1,0,0:0:0:0:
256,192,78938,1,8,0:0:0:0:
256,192,79019,1,0,0:0:0:0:
256,192,79099,1,8,0:0:0:0:
256,192,79179,1,8,0:0:0:0:
256,192,79259,1,0,0:0:0:0:
256,192,79340,1,0,0:0:0:0:
256,192,79420,1,8,0:0:0:0:
256,192,79500,1,0,0:0:0:0:
256,192,79580,1,8,0:0:0:0:
256,192,79661,1,8,0:0:0:0:
256,192,79741,1,0,0:0:0:0:
256,192,79821,1,0,0:0:0:0:
256,192,79901,1,8,0:0:0:0:
256,192,80062,1,0,0:0:0:0:
256,192,80142,1,0,0:0:0:0:
256,192,80222,1,8,0:0:0:0:
256,192,80383,1,0,0:0:0:0:
256,192,80543,1,8,0:0:0:0:
256,192,80623,1,8,0:0:0:0:
256,192,80704,1,0,0:0:0:0:
256,192,80784,1,0,0:0:0:0:
256,192,80864,1,8,0:0:0:0:
256,192,81025,1,0,0:0:0:0:
256,192,81185,1,8,0:0:0:0:
256,192,81346,1,0,0:0:0:0:
256,192,81426,1,0,0:0:0:0:
256,192,81506,1,8,0:0:0:0:
256,192,81586,1,0,0:0:0:0:
256,192,81667,1,0,0:0:0:0:
256,192,81827,1,8,0:0:0:0:
256,192,81987,1,0,0:0:0:0:
256,192,82068,1,0,0:0:0:0:
256,192,82148,1,8,0:0:0:0:
256,192,82308,1,8,0:0:0:0:
256,192,82469,1,8,0:0:0:0:
256,192,82629,1,0,0:0:0:0:
256,192,82710,1,0,0:0:0:0:
256,192,82790,1,8,0:0:0:0:
256,192,82950,1,8,0:0:0:0:
256,192,83031,1,8,0:0:0:0:
256,192,83111,1,0,0:0:0:0:
256,192,83191,1,0,0:0:0:0:
256,192,83271,1,8,0:0:0:0:
256,192,83432,1,8,0:0:0:0:
256,192,83592,1,0,0:0:0:0:
256,192,83672,1,0,0:0:0:0:
256,192,83753,1,8,0:0:0:0:
256,192,83833,1,8,0:0:0:0:
256,192,83913,1,0,0:0:0:0:
256,192,84074,1,8,0:0:0:0:
256,192,84154,1,8,0:0:0:0:
256,192,84234,1,0,0:0:0:0:
256,192,84395,1,8,0:0:0:0:
256,192,84475,1,0,0:0:0:0:
256,192,84555,1,0,0:0:0:0:
256,192,84716,1,0,0:0:0:0:
256,192,84876,1,0,0:0:0:0:
256,192,85037,1,8,0:0:0:0:
256,192,85117,1,0,0:0:0:0:
256,192,85197,1,0,0:0:0:0:
256,192,85277,1,0,0:0:0:0:
256,192,85357,1,8,0:0:0:0:
256,192,85518,1,0,0:0:0:0:
256,192,85678,1,8,0:0:0:0:
256,192,85759,1,8,0:0:0:0:
256,192,85839,1,0,0:0:0:0:
256,192,85919,1,0,0:0:0:0:
256,192,85999,1,8,0:0:0:0:
256,192,86160,1,0,0:0:0:0:
256,192,86320,1,8,0:0:0:0:
256,192,86641,1,8,0:0:0:0:
256,192,86721,1,8,0:0:0:0:
256,192,86802,1,0,0:0:0:0:
256,192,86882,1,0,0:0:0:0:
256,192,86962,1,8,0:0:0:0:
256,192,87042,1,0,0:0:0:0:
256,192,87123,1,8,0:0:0:0:
256,192,87203,1,0,0:0:0:0:
256,192,87283,1,8,0:0:0:0:
256,192,87363,1,8,0:0:0:0:
256,192,87444,1,0,0:0:0:0:
256,192,87524,1,0,0:0:0:0:
256,192,87604,1,8,0:0:0:0:
256,192,87684,1,8,0:0:0:0:
256,192,87765,1,0,0:0:0:0:
256,192,87845,1,0,0:0:0:0:
256,192,87925,1,8,0:0:0:0:
256,192,88086,1,0,0:0:0:0:
256,192,88246,1,8,0:0:0:0:
256,192,88326,1,0,0:0:0:0:
256,192,88406,1,0,0:0:0:0:
256,192,88487,1,0,0:0:0:0:
256,192,88567,1,8,0:0:0:0:
256,192,88647,1,0,0:0:0:0:
256,192,88727,1,0,0:0:0:0:
256,192,88808,1,0,0:0:0:0:
256,192,88888,1,8,0:0:0:0:
256,192,89048,1,8,0:0:0:0:
256,192,89129,1,8,0:0:0:0:
256,192,89209,1,8,0:0:0:0:
256,192,89369,1,0,0:0:0:0:
256,192,89450,1,0,0:0:0:0:
256,192,89530,1,0,0:0:0:0:
256,192,89690,1,0,0:0:0:0:
256,192,89851,1,8,0:0:0:0:
256,192,89931,1,8,0:0:0:0:
256,192,90011,1,0,0:0:0:0:
256,192,90091,1,0,0:0:0:0:
256,192,90172,1,8,0:0:0:0:
256,192,90332,1,0,0:0:0:0:
256,192,90493,1,8,0:0:0:0:
256,192,90653,1,0,0:0:0:0:
256,192,90733,1,0,0:0:0:0:
256,192,90814,1,8,0:0:0:0:
256,192,90894,1,8,0:0:0:0:
256,192,90974,1,0,0:0:0:0:
256,192,91054,1,0,0:0:0:0:
256,192,91135,1,8,0:0:0:0:
256,192,91295,1,0,0:0:0:0:
256,192,91456,1,8,0:0:0:0:
256,192,91616,1,0,0:0:0:0:
256,192,91696,1,0,0:0:0:0:
256,192,91776,1,8,0:0:0:0:
256,192,91937,1,0,0:0:0:0:
256,192,92017,1,0,0:0:0:0:
256,192,92097,1,8,0:0:0:0:
256,192,92258,1,8,0:0:0:0:
256,192,92338,1,8,0:0:0:0:
256,192,92418,1,0,0:0:0:0:
256,192,92499,1,0,0:0:0:0:
256,192,92579,1,8,0:0:0:0:
256,192,92659,1,8,0:0:0:0:
256,192,92739,1,0,0:0:0:0:
256,192,92899,1,8,0:0:0:0:
256,192,92979,1,8,0:0:0:0:
256,192,93059,1,0,0:0:0:0:
256,192,93139,1,0,0:0:0:0:
256,192,93220,1,0,0:0:0:0:
256,192,93300,1,0,0:0:0:0:
256,192,93380,1,0,0:0:0:0:
256,192,93460,1,0,0:0:0:0:
256,192,93541,1,0,0:0:0:0:
256,192,93621,1,0,0:0:0:0:
256,192,93701,1,0,0:0:0:0:
256,192,93781,1,0,0:0:0:0:
256,192,93862,1,0,0:0:0:0:
256,192,93942,1,0,0:0:0:0:
256,192,94023,1,8,0:0:0:0:
256,192,94183,1,0,0:0:0:0:
256,192,94263,1,0,0:0:0:0:
256,192,94343,1,0,0:0:0:0:
256,192,94424,1,0,0:0:0:0:
256,192,94504,1,8,0:0:0:0:
256,192,94664,1,0,0:0:0:0:
256,192,94745,1,0,0:0:0:0:
256,192,94825,1,8,0:0:0:0:
256,192,94905,1,0,0:0:0:0:
256,192,94985,1,8,0:0:0:0:
256,192,95066,1,8,0:0:0:0:
256,192,95146,1,0,0:0:0:0:
256,192,95226,1,0,0:0:0:0:
256,192,95306,1,8,0:0:0:0:
256,192,95467,1,0,0:0:0:0:
256,192,95547,1,0,0:0:0:0:
256,192,95627,1,0,0:0:0:0:
256,192,95707,1,0,0:0:0:0:
256,192,95788,1,8,0:0:0:0:
256,192,95948,1,0,0:0:0:0:
256,192,96028,1,0,0:0:0:0:
256,192,96109,1,8,0:0:0:0:
256,192,96189,1,0,0:0:0:0:
256,192,96269,1,8,0:0:0:0:
256,192,96349,1,8,0:0:0:0:
256,192,96430,1,0,0:0:0:0:
256,192,96510,1,0,0:0:0:0:
256,192,96590,1,8,0:0:0:0:
256,192,96751,1,0,0:0:0:0:
256,192,96831,1,0,0:0:0:0:
256,192,96911,1,0,0:0:0:0:
256,192,96991,1,0,0:0:0:0:
256,192,97072,1,8,0:0:0:0:
256,192,97392,1,0,0:0:0:0:
256,192,97473,1,0,0:0:0:0:
256,192,97553,1,8,0:0:0:0:
256,192,97633,1,8,0:0:0:0:
256,192,97713,1,0,0:0:0:0:
256,192,97794,1,0,0:0:0:0:
256,192,97874,1,8,0:0:0:0:
256,192,98034,1,8,0:0:0:0:
256,192,98115,1,8,0:0:0:0:
256,192,98195,1,0,0:0:0:0:
256,192,98355,1,8,0:0:0:0:
256,192,98436,1,8,0:0:0:0:
256,192,98516,1,8,0:0:0:0:
256,192,98596,1,8,0:0:0:0:
256,192,98676,1,0,0:0:0:0:
256,192,98757,1,0,0:0:0:0:
256,192,98837,1,8,0:0:0:0:
256,192,98917,1,8,0:0:0:0:
256,192,98997,1,8,0:0:0:0:
256,192,99158,1,8,0:0:0:0:
256,192,99318,1,0,0:0:0:0:
256,192,99398,1,0,0:0:0:0:
256,192,99479,1,0,0:0:0:0:
256,192,99559,1,0,0:0:0:0:
256,192,99639,1,8,0:0:0:0:
256,192,99800,1,0,0:0:0:0:
256,192,99880,1,0,0:0:0:0:
256,192,99960,1,8,0:0:0:0:
256,192,100040,1,0,0:0:0:0:
256,192,100121,1,8,0:0:0:0:
256,192,100201,1,8,0:0:0:0:
256,192,100281,1,0,0:0:0:0:
256,192,100361,1,0,0:0:0:0:
256,192,100442,1,8,0:0:0:0:
256,192,100602,1,0,0:0:0:0:
256,192,100682,1,0,0:0:0:0:
256,192,100762,1,0,0:0:0:0:
256,192,100843,1,0,0:0:0:0:
256,192,100923,1,8,0:0:0:0:
256,192,101083,1,0,0:0:0:0:
256,192,101164,1,0,0:0:0:0:
256,192,101244,1,8,0:0:0:0:
256,192,101324,1,0,0:0:0:0:
256,192,101404,1,8,0:0:0:0:
256,192,101485,1,8,0:0:0:0:
256,192,101565,1,0,0:0:0:0:
256,192,101645,1,0,0:0:0:0:
256,192,101725,1,8,0:0:0:0:
256,192,101886,1,0,0:0:0:0:
256,192,101966,1,0,0:0:0:0:
256,192,102046,1,0,0:0:0:0:
256,192,102126,1,0,0:0:0:0:
256,192,102207,1,8,0:0:0:0:
256,192,102528,1,0,0:0:0:0:
256,192,102608,1,0,0:0:0:0:
256,192,102688,1,8,0:0:0:0:
256,192,102768,1,0,0:0:0:0:
256,192,102849,1,0,0:0:0:0:
256,192,103009,1,8,0:0:0:0:
256,192,103170,1,8,0:0:0:0:
256,192,103250,1,8,0:0:0:0:
256,192,103330,1,8,0:0:0:0:
256,192,103410,1,8,0:0:0:0:
256,192,103491,1,8,0:0:0:0:
256,192,103571,1,8,0:0:0:0:
256,192,103651,1,0,0:0:0:0:
256,192,103731,1,0,0:0:0:0:
256,192,103811,1,0,0:0:0:0:
256,192,103892,1,0,0:0:0:0:
256,192,103972,1,0,0:0:0:0:
256,192,104052,1,0,0:0:0:0:
256,192,104132,1,0,0:0:0:0:
256,192,104213,1,0,0:0:0:0:
256,192,104285,1,8,0:0:0:0:
256,192,104605,1,0,0:0:0:0:
256,192,104686,1,0,0:0:0:0:
256,192,104766,1,0,0:0:0:0:
256,192,104846,1,0,0:0:0:0:
256,192,104926,1,8,0:0:0:0:
256,192,105087,1,0,0:0:0:0:
256,192,105247,1,0,0:0:0:0:
256,192,105328,1,0,0:0:0:0:
256,192,105408,1,0,0:0:0:0:
256,192,105488,1,0,0:0:0:0:
256,192,105568,1,8,0:0:0:0:
256,192,105729,1,0,0:0:0:0:
256,192,105889,1,0,0:0:0:0:
256,192,105969,1,0,0:0:0:0:
256,192,106050,1,8,0:0:0:0:
256,192,106210,1,8,0:0:0:0:
256,192,106290,1,0,0:0:0:0:
256,192,106371,1,8,0:0:0:0:
256,192,106451,1,0,0:0:0:0:
256,192,106531,1,8,0:0:0:0:
256,192,106611,1,8,0:0:0:0:
256,192,106692,1,0,0:0:0:0:
256,192,106772,1,0,0:0:0:0:
256,192,106852,1,8,0:0:0:0:
256,192,106932,1,8,0:0:0:0:
256,192,107013,1,8,0:0:0:0:
256,192,107093,1,0,0:0:0:0:
256,192,107173,1,8,0:0:0:0:
256,192,107334,1,0,0:0:0:0:
256,192,107414,1,0,0:0:0:0:
256,192,107494,1,8,0:0:0:0:
256,192,107574,1,8,0:0:0:0:
256,192,107654,1,8,0:0:0:0:
256,192,107735,1,8,0:0:0:0:
256,192,107815,1,0,0:0:0:0:
256,192,107895,1,0,0:0:0:0:
256,192,107975,1,0,0:0:0:0:
256,192,108056,1,0,0:0:0:0:
256,192,108136,1,8,0:0:0:0:
256,192,108216,1,8,0:0:0:0:
256,192,108296,1,0,0:0:0:0:
256,192,108377,1,0,0:0:0:0:
256,192,108457,1,8,0:0:0:0:
256,192,108617,1,0,0:0:0:0:
256,192,108698,1,8,0:0:0:0:
256,192,108778,1,0,0:0:0:0:
256,192,108938,1,0,0:0:0:0:
256,192,109099,1,8,0:0:0:0:
256,192,109179,1,8,0:0:0:0:
256,192,109259,1,0,0:0:0:0:
256,192,109420,1,0,0:0:0:0:
256,192,109500,1,0,0:0:0:0:
256,192,109580,1,0,0:0:0:0:
256,192,109741,1,0,0:0:0:0:
256,192,109821,1,0,0:0:0:0:
256,192,109901,1,0,0:0:0:0:
256,192,110062,1,8,0:0:0:0:
256,192,110142,1,0,0:0:0:0:
256,192,110222,1,8,0:0:0:0:
256,192,110302,1,8,0:0:0:0:
256,192,110383,1,8,0:0:0:0:
256,192,110463,1,0,0:0:0:0:
256,192,110543,1,8,0:0:0:0:
256,192,110623,1,8,0:0:0:0:
256,192,110704,1,8,0:0:0:0:
256,192,110784,1,0,0:0:0:0:
256,192,110864,1,8,0:0:0:0:
256,192,110944,1,0,0:0:0:0:
256,192,111024,1,8,0:0:0:0:
256,192,111185,1,0,0:0:0:0:
256,192,111265,1,0,0:0:0:0:
256,192,111345,1,8,0:0:0:0:
256,192,111506,1,0,0:0:0:0:
256,192,111586,1,8,0:0:0:0:
256,192,111666,1,8,0:0:0:0:
256,192,111827,1,8,0:0:0:0:
256,192,111987,1,0,0:0:0:0:
256,192,112308,1,8,0:0:0:0:
256,192,112388,1,8,0:0:0:0:
256,192,112469,1,0,0:0:0:0:
256,192,112549,1,0,0:0:0:0:
256,192,112629,1,8,0:0:0:0:
256,192,112790,1,0,0:0:0:0:
256,192,112870,1,0,0:0:0:0:
256,192,112950,1,0,0:0:0:0:
256,192,113111,1,0,0:0:0:0:
256,192,113271,1,8,0:0:0:0:
256,192,113351,1,8,0:0:0:0:
256,192,113432,1,0,0:0:0:0:
256,192,113512,1,0,0:0:0:0:
256,192,113592,1,8,0:0:0:0:
256,192,113753,1,0,0:0:0:0:
256,192,113833,1,0,0:0:0:0:
256,192,113913,1,8,0:0:0:0:
256,192,114073,1,0,0:0:0:0:
256,192,114234,1,8,0:0:0:0:
256,192,114314,1,8,0:0:0:0:
256,192,114394,1,0,0:0:0:0:
256,192,114475,1,0,0:0:0:0:
256,192,114555,1,8,0:0:0:0:
256,192,114715,1,0,0:0:0:0:
256,192,114796,1,0,0:0:0:0:
256,192,114876,1,8,0:0:0:0:
256,192,115036,1,0,0:0:0:0:
256,192,115117,1,0,0:0:0:0:
256,192,115197,1,0,0:0:0:0:
256,192,115357,1,0,0:0:0:0:
256,192,115438,1,0,0:0:0:0:
256,192,115518,1,8,0:0:0:0:
256,192,115678,1,8,0:0:0:0:
256,192,115839,1,8,0:0:0:0:
256,192,116160,1,8,0:0:0:0:
256,192,116240,1,8,0:0:0:0:
256,192,116320,1,0,0:0:0:0:
256,192,116400,1,0,0:0:0:0:
256,192,116481,1,8,0:0:0:0:
256,192,116641,1,0,0:0:0:0:
256,192,116802,1,8,0:0:0:0:
256,192,116962,1,0,0:0:0:0:
256,192,117123,1,8,0:0:0:0:
256,192,117203,1,0,0:0:0:0:
256,192,117283,1,0,0:0:0:0:
256,192,117363,1,0,0:0:0:0:
256,192,117443,1,8,0:0:0:0:
256,192,117524,1,0,0:0:0:0:
256,192,117604,1,0,0:0:0:0:
256,192,117684,1,0,0:0:0:0:
256,192,117764,1,8,0:0:0:0:
256,192,117925,1,8,0:0:0:0:
256,192,118085,1,0,0:0:0:0:
256,192,118166,1,0,0:0:0:0:
256,192,118246,1,0,0:0:0:0:
256,192,118326,1,0,0:0:0:0:
256,192,118406,1,8,0:0:0:0:
256,192,118567,1,8,0:0:0:0:
256,192,118727,1,0,0:0:0:0:
256,192,118807,1,8,0:0:0:0:
256,192,118888,1,0,0:0:0:0:
256,192,118968,1,0,0:0:0:0:
256,192,119048,1,8,0:0:0:0:
256,192,119209,1,8,0:0:0:0:
256,192,119369,1,0,0:0:0:0:
256,192,119449,1,0,0:0:0:0:
256,192,119530,1,0,0:0:0:0:
256,192,119610,1,0,0:0:0:0:
256,192,119690,1,8,0:0:0:0:
256,192,120011,1,8,0:0:0:0:
256,192,120091,1,0,0:0:0:0:
256,192,120172,1,0,0:0:0:0:
256,192,120252,1,0,0:0:0:0:
256,192,120332,1,8,0:0:0:0:
256,192,120492,1,0,0:0:0:0:
256,192,120653,1,0,0:0:0:0:
256,192,120733,1,0,0:0:0:0:
256,192,120813,1,0,0:0:0:0:
256,192,120974,1,8,0:0:0:0:
256,192,121054,1,0,0:0:0:0:
256,192,121134,1,8,0:0:0:0:
256,192,121215,1,8,0:0:0:0:
256,192,121295,1,0,0:0:0:0:
256,192,121455,1,0,0:0:0:0:
256,192,121616,1,8,0:0:0:0:
256,192,121776,1,8,0:0:0:0:
256,192,121937,1,0,0:0:0:0:
256,192,122097,1,8,0:0:0:0:
256,192,122258,1,0,0:0:0:0:
256,192,122338,1,0,0:0:0:0:
256,192,122418,1,0,0:0:0:0:
256,192,122498,1,0,0:0:0:0:
256,192,122579,1,8,0:0:0:0:
256,192,122739,1,0,0:0:0:0:
256,192,122819,1,0,0:0:0:0:
256,192,122900,1,8,0:0:0:0:
256,192,123060,1,0,0:0:0:0:
256,192,123140,1,8,0:0:0:0:
256,192,123221,1,0,0:0:0:0:
256,192,123381,1,0,0:0:0:0:
256,192,123542,1,8,0:0:0:0:
256,192,123622,1,0,0:0:0:0:
256,192,123702,1,0,0:0:0:0:
256,192,123782,1,0,0:0:0:0:
256,192,123862,1,8,0:0:0:0:
256,192,123943,1,8,0:0:0:0:
256,192,124023,1,0,0:0:0:0:
256,192,124103,1,0,0:0:0:0:
256,192,124183,1,8,0:0:0:0:
256,192,124504,1,0,0:0:0:0:
256,192,124585,1,0,0:0:0:0:
256,192,124665,1,0,0:0:0:0:
256,192,124745,1,8,0:0:0:0:
256,192,124825,1,8,0:0:0:0:
256,192,124906,1,8,0:0:0:0:
256,192,124986,1,0,0:0:0:0:
256,192,125066,1,0,0:0:0:0:
256,192,125146,1,8,0:0:0:0:
256,192,125307,1,0,0:0:0:0:
256,192,125387,1,0,0:0:0:0:
256,192,125467,1,0,0:0:0:0:
256,192,125628,1,0,0:0:0:0:
256,192,125788,1,8,0:0:0:0:
256,192,125949,1,0,0:0:0:0:
256,192,126109,1,8,0:0:0:0:
256,192,126270,1,8,0:0:0:0:
256,192,126430,1,0,0:0:0:0:
256,192,126591,1,8,0:0:0:0:
256,192,126671,1,8,0:0:0:0:
256,192,126751,1,0,0:0:0:0:
256,192,126911,1,8,0:0:0:0:
256,192,126992,1,0,0:0:0:0:
256,192,127072,1,0,0:0:0:0:
256,192,127393,1,8,0:0:0:0:
256,192,127553,1,0,0:0:0:0:
256,192,127634,1,0,0:0:0:0:
256,192,127714,1,8,0:0:0:0:
256,192,127874,1,0,0:0:0:0:
256,192,127955,1,0,0:0:0:0:
256,192,128035,1,8,0:0:0:0:
256,192,128195,1,0,0:0:0:0:
256,192,128276,1,0,0:0:0:0:
256,192,128356,1,8,0:0:0:0:
256,192,128516,1,0,0:0:0:0:
256,192,128596,1,0,0:0:0:0:
256,192,128677,1,8,0:0:0:0:
256,192,128757,1,8,0:0:0:0:
256,192,128837,1,0,0:0:0:0:
256,192,128917,1,0,0:0:0:0:
256,192,128998,1,0,0:0:0:0:
256,192,129078,1,0,0:0:0:0:
256,192,129158,1,0,0:0:0:0:
256,192,129238,1,0,0:0:0:0:
256,192,129319,1,8,0:0:0:0:
256,192,129640,1,0,0:0:0:0:
256,192,129720,1,0,0:0:0:0:
256,192,129800,1,8,0:0:0:0:
256,192,129880,1,0,0:0:0:0:
256,192,129961,1,8,0:0:0:0:
256,192,130041,1,8,0:0:0:0:
256,192,130121,1,0,0:0:0:0:
256,192,130201,1,0,0:0:0:0:
256,192,130281,1,8,0:0:0:0:
256,192,130442,1,0,0:0:0:0:
256,192,130522,1,0,0:0:0:0:
256,192,130602,1,0,0:0:0:0:
256,192,130763,1,0,0:0:0:0:
256,192,130843,1,0,0:0:0:0:
256,192,130923,1,8,0:0:0:0:
256,192,131004,1,8,0:0:0:0:
256,192,131084,1,0,0:0:0:0:
256,192,131164,1,0,0:0:0:0:
256,192,131244,1,8,0:0:0:0:
256,192,131405,1,0,0:0:0:0:
256,192,131565,1,0,0:0:0:0:
256,192,131726,1,8,0:0:0:0:
256,192,131806,1,0,0:0:0:0:
256,192,131886,1,8,0:0:0:0:
256,192,131966,1,8,0:0:0:0:
256,192,132047,1,0,0:0:0:0:
256,192,132127,1,0,0:0:0:0:
256,192,132207,1,8,0:0:0:0:
256,192,132368,1,0,0:0:0:0:
256,192,132528,1,0,0:0:0:0:
256,192,132689,1,8,0:0:0:0:
256,192,132769,1,8,0:0:0:0:
256,192,132849,1,8,0:0:0:0:
256,192,132929,1,8,0:0:0:0:
256,192,133010,1,0,0:0:0:0:
256,192,133090,1,0,0:0:0:0:
256,192,133170,1,8,0:0:0:0:
256,192,133330,1,0,0:0:0:0:
256,192,133491,1,0,0:0:0:0:
256,192,133651,1,0,0:0:0:0:
256,192,133812,1,8,0:0:0:0:
256,192,133892,1,8,0:0:0:0:
256,192,133972,1,0,0:0:0:0:
256,192,134053,1,0,0:0:0:0:
256,192,134133,1,8,0:0:0:0:
256,192,134293,1,0,0:0:0:0:
256,192,134374,1,0,0:0:0:0:
256,192,134454,1,8,0:0:0:0:
256,192,134614,1,8,0:0:0:0:
256,192,134695,1,0,0:0:0:0:
256,192,134775,1,8,0:0:0:0:
256,192,134855,1,8,0:0:0:0:
256,192,134935,1,0,0:0:0:0:
256,192,135015,1,0,0:0:0:0:
256,192,135096,1,8,0:0:0:0:
256,192,135256,1,0,0:0:0:0:
256,192,135336,1,0,0:0:0:0:
256,192,135417,1,8,0:0:0:0:
256,192,135577,1,0,0:0:0:0:
256,192,135657,1,0,0:0:0:0:
256,192,135738,1,8,0:0:0:0:
256,192,135898,1,8,0:0:0:0:
256,192,135978,1,8,0:0:0:0:
256,192,136059,1,8,0:0:0:0:
256,192,136219,1,0,0:0:0:0:
256,192,136299,1,0,0:0:0:0:
256,192,136380,1,0,0:0:0:0:
256,192,136460,1,0,0:0:0:0:
256,192,136540,1,0,0:0:0:0:
256,192,136620,1,0,0:0:0:0:
256,192,136700,1,8,0:0:0:0:
256,192,136781,1,8,0:0:0:0:
256,192,136861,1,0,0:0:0:0:
256,192,137021,1,12,0:0:0:0:
256,192,137342,1,0,0:0:0:0:
256,192,137423,1,0,0:0:0:0:
256,192,137503,1,0,0:0:0:0:
256,192,137583,1,0,0:0:0:0:
256,192,137663,1,8,0:0:0:0:
256,192,137744,1,0,0:0:0:0:
256,192,137824,1,8,0:0:0:0:
256,192,137904,1,8,0:0:0:0:
256,192,137984,1,0,0:0:0:0:
256,192,138064,1,0,0:0:0:0:
256,192,138145,1,8,0:0:0:0:
256,192,138225,1,8,0:0:0:0:
256,192,138305,1,8,0:0:0:0:
256,192,138385,1,8,0:0:0:0:
256,192,138466,1,8,0:0:0:0:
256,192,138546,1,8,0:0:0:0:
256,192,138626,1,0,0:0:0:0:
256,192,138706,1,0,0:0:0:0:
256,192,138787,1,0,0:0:0:0:
256,192,138867,1,0,0:0:0:0:
256,192,138947,1,8,0:0:0:0:
256,192,139027,1,8,0:0:0:0:
256,192,139108,1,8,0:0:0:0:
256,192,139188,1,8,0:0:0:0:
256,192,139268,1,8,0:0:0:0:
256,192,139348,1,8,0:0:0:0:
256,192,139429,1,8,0:0:0:0:
256,192,139509,1,8,0:0:0:0:
256,192,139589,1,0,0:0:0:0:
256,192,139669,1,0,0:0:0:0:
256,192,139749,1,0,0:0:0:0:
256,192,139830,1,0,0:0:0:0:
256,192,139910,1,0,0:0:0:0:
256,192,139990,1,0,0:0:0:0:
256,192,140070,1,0,0:0:0:0:
256,192,140151,1,0,0:0:0:0:
256,192,140231,1,0,0:0:0:0:
256,192,140311,1,0,0:0:0:0:
256,192,140391,1,0,0:0:0:0:
256,192,140472,1,0,0:0:0:0:
256,192,140552,1,0,0:0:0:0:
256,192,140632,1,0,0:0:0:0:
256,192,140712,1,0,0:0:0:0:
256,192,140793,1,0,0:0:0:0:
256,192,140873,1,8,0:0:0:0:
256,192,141194,1,8,0:0:0:0:
256,192,141274,1,8,0:0:0:0:
256,192,141354,1,0,0:0:0:0:
256,192,141434,1,0,0:0:0:0:
256,192,141515,1,8,0:0:0:0:
256,192,141595,1,0,0:0:0:0:
256,192,141675,1,8,0:0:0:0:
256,192,141755,1,0,0:0:0:0:
256,192,141836,1,8,0:0:0:0:
256,192,141916,1,8,0:0:0:0:
256,192,141996,1,0,0:0:0:0:
256,192,142076,1,0,0:0:0:0:
256,192,142157,1,8,0:0:0:0:
256,192,142317,1,0,0:0:0:0:
256,192,142397,1,0,0:0:0:0:
256,192,142478,1,8,0:0:0:0:
256,192,142558,1,0,0:0:0:0:
256,192,142638,1,8,0:0:0:0:
256,192,142718,1,8,0:0:0:0:
256,192,142799,1,8,0:0:0:0:
256,192,142879,1,0,0:0:0:0:
256,192,142959,1,8,0:0:0:0:
256,192,143119,1,0,0:0:0:0:
256,192,143200,1,0,0:0:0:0:
256,192,143280,1,0,0:0:0:0:
256,192,143360,1,0,0:0:0:0:
256,192,143440,1,8,0:0:0:0:
256,192,143521,1,0,0:0:0:0:
256,192,143601,1,8,0:0:0:0:
256,192,143681,1,8,0:0:0:0:
256,192,143761,1,0,0:0:0:0:
256,192,143922,1,0,0:0:0:0:
256,192,144002,1,0,0:0:0:0:
256,192,144082,1,8,0:0:0:0:
256,192,144243,1,0,0:0:0:0:
256,192,144403,1,8,0:0:0:0:
256,192,144483,1,0,0:0:0:0:
256,192,144564,1,8,0:0:0:0:
256,192,144644,1,0,0:0:0:0:
256,192,144724,1,8,0:0:0:0:
256,192,144885,1,0,0:0:0:0:
256,192,144965,1,0,0:0:0:0:
256,192,145045,1,8,0:0:0:0:
256,192,145206,1,8,0:0:0:0:
256,192,145286,1,0,0:0:0:0:
256,192,145366,1,8,0:0:0:0:
256,192,145446,1,8,0:0:0:0:
256,192,145527,1,0,0:0:0:0:
256,192,145607,1,8,0:0:0:0:
256,192,145687,1,8,0:0:0:0:
256,192,145848,1,0,0:0:0:0:
256,192,145928,1,0,0:0:0:0:
256,192,146008,1,8,0:0:0:0:
256,192,146088,1,8,0:0:0:0:
256,192,146168,1,0,0:0:0:0:
256,192,146249,1,8,0:0:0:0:
256,192,146329,1,0,0:0:0:0:
256,192,146489,1,0,0:0:0:0:
256,192,146570,1,8,0:0:0:0:
256,192,146650,1,0,0:0:0:0:
256,192,146810,1,0,0:0:0:0:
256,192,146971,1,8,0:0:0:0:
256,192,147131,1,0,0:0:0:0:
256,192,147292,1,8,0:0:0:0:
256,192,147452,1,0,0:0:0:0:
256,192,147533,1,0,0:0:0:0:
256,192,147613,1,8,0:0:0:0:
256,192,147773,1,0,0:0:0:0:
256,192,147934,1,8,0:0:0:0:
256,192,148014,1,8,0:0:0:0:
256,192,148094,1,0,0:0:0:0:
256,192,148174,1,0,0:0:0:0:
256,192,148255,1,8,0:0:0:0:
256,192,148415,1,0,0:0:0:0:
256,192,148576,1,8,0:0:0:0:
256,192,148897,1,8,0:0:0:0:
256,192,148977,1,0,0:0:0:0:
256,192,149057,1,8,0:0:0:0:
256,192,149137,1,8,0:0:0:0:
256,192,149218,1,0,0:0:0:0:
256,192,149298,1,0,0:0:0:0:
256,192,149378,1,8,0:0:0:0:
256,192,149458,1,0,0:0:0:0:
256,192,149538,1,8,0:0:0:0:
256,192,149619,1,8,0:0:0:0:
256,192,149699,1,0,0:0:0:0:
256,192,149779,1,0,0:0:0:0:
256,192,149859,1,8,0:0:0:0:
256,192,149940,1,8,0:0:0:0:
256,192,150020,1,0,0:0:0:0:
256,192,150100,1,0,0:0:0:0:
256,192,150180,1,8,0:0:0:0:
256,192,150341,1,0,0:0:0:0:
256,192,150421,1,0,0:0:0:0:
256,192,150501,1,8,0:0:0:0:
256,192,150582,1,0,0:0:0:0:
256,192,150662,1,8,0:0:0:0:
256,192,150742,1,8,0:0:0:0:
256,192,150822,1,0,0:0:0:0:
256,192,150983,1,0,0:0:0:0:
256,192,151063,1,8,0:0:0:0:
256,192,151143,1,0,0:0:0:0:
256,192,151304,1,0,0:0:0:0:
256,192,151464,1,8,0:0:0:0:
256,192,151625,1,0,0:0:0:0:
256,192,151705,1,0,0:0:0:0:
256,192,151785,1,0,0:0:0:0:
256,192,151946,1,0,0:0:0:0:
256,192,152026,1,0,0:0:0:0:
256,192,152106,1,8,0:0:0:0:
256,192,152186,1,8,0:0:0:0:
256,192,152267,1,0,0:0:0:0:
256,192,152347,1,0,0:0:0:0:
256,192,152427,1,8,0:0:0:0:
256,192,152587,1,0,0:0:0:0:
256,192,152668,1,0,0:0:0:0:
256,192,152748,1,0,0:0:0:0:
256,192,152908,1,0,0:0:0:0:
256,192,152989,1,0,0:0:0:0:
256,192,153069,1,8,0:0:0:0:
256,192,153229,1,0,0:0:0:0:
256,192,153310,1,8,0:0:0:0:
256,192,153390,1,8,0:0:0:0:
256,192,153550,1,0,0:0:0:0:
256,192,153631,1,0,0:0:0:0:
256,192,153711,1,0,0:0:0:0:
256,192,153791,1,0,0:0:0:0:
256,192,153871,1,8,0:0:0:0:
256,192,153952,1,0,0:0:0:0:
256,192,154032,1,8,0:0:0:0:
256,192,154112,1,8,0:0:0:0:
256,192,154192,1,0,0:0:0:0:
256,192,154272,1,0,0:0:0:0:
256,192,154353,1,8,0:0:0:0:
256,192,154513,1,0,0:0:0:0:
256,192,154674,1,0,0:0:0:0:
256,192,154754,1,0,0:0:0:0:
256,192,154834,1,8,0:0:0:0:
256,192,154914,1,0,0:0:0:0:
256,192,154995,1,8,0:0:0:0:
256,192,155075,1,8,0:0:0:0:
256,192,155155,1,8,0:0:0:0:
256,192,155235,1,8,0:0:0:0:
256,192,155316,1,0,0:0:0:0:
256,192,155396,1,0,0:0:0:0:
256,192,155476,1,0,0:0:0:0:
256,192,155556,1,0,0:0:0:0:
256,192,155637,1,0,0:0:0:0:
256,192,155717,1,0,0:0:0:0:
256,192,155797,1,0,0:0:0:0:
256,192,155877,1,0,0:0:0:0:
256,192,155957,1,0,0:0:0:0:
256,192,156278,1,8,0:0:0:0:
256,192,156439,1,0,0:0:0:0:
256,192,156519,1,0,0:0:0:0:
256,192,156599,1,8,0:0:0:0:
256,192,156760,1,0,0:0:0:0:
256,192,156840,1,0,0:0:0:0:
256,192,156920,1,8,0:0:0:0:
256,192,157001,1,0,0:0:0:0:
256,192,157081,1,8,0:0:0:0:
256,192,157161,1,0,0:0:0:0:
256,192,157241,1,8,0:0:0:0:
256,192,157321,1,8,0:0:0:0:
256,192,157402,1,0,0:0:0:0:
256,192,157482,1,0,0:0:0:0:
256,192,157562,1,8,0:0:0:0:
256,192,157723,1,0,0:0:0:0:
256,192,157803,1,0,0:0:0:0:
256,192,157883,1,8,0:0:0:0:
256,192,157963,1,0,0:0:0:0:
256,192,158044,1,0,0:0:0:0:
256,192,158204,1,8,0:0:0:0:
256,192,158365,1,0,0:0:0:0:
256,192,158445,1,8,0:0:0:0:
256,192,158525,1,0,0:0:0:0:
256,192,158686,1,0,0:0:0:0:
256,192,158766,1,0,0:0:0:0:
256,192,158846,1,8,0:0:0:0:
256,192,159006,1,0,0:0:0:0:
256,192,159087,1,0,0:0:0:0:
256,192,159167,1,8,0:0:0:0:
256,192,159327,1,0,0:0:0:0:
256,192,159488,1,0,0:0:0:0:
256,192,159648,1,0,0:0:0:0:
256,192,159729,1,0,0:0:0:0:
256,192,159809,1,8,0:0:0:0:
256,192,159889,1,0,0:0:0:0:
256,192,159969,1,8,0:0:0:0:
256,192,160050,1,0,0:0:0:0:
256,192,160130,1,8,0:0:0:0:
256,192,160290,1,0,0:0:0:0:
256,192,160451,1,0,0:0:0:0:
256,192,160531,1,0,0:0:0:0:
256,192,160611,1,8,0:0:0:0:
256,192,160691,1,8,0:0:0:0:
256,192,160772,1,0,0:0:0:0:
256,192,160852,1,0,0:0:0:0:
256,192,160932,1,8,0:0:0:0:
256,192,161012,1,8,0:0:0:0:
256,192,161093,1,0,0:0:0:0:
256,192,161253,1,0,0:0:0:0:
256,192,161414,1,8,0:0:0:0:
256,192,161494,1,8,0:0:0:0:
256,192,161574,1,0,0:0:0:0:
256,192,161654,1,0,0:0:0:0:
256,192,161735,1,8,0:0:0:0:
256,192,161895,1,0,0:0:0:0:
256,192,162056,1,8,0:0:0:0:
256,192,162376,1,0,0:0:0:0:
256,192,162537,1,0,0:0:0:0:
256,192,162697,1,8,0:0:0:0:
256,192,162778,1,8,0:0:0:0:
256,192,162858,1,0,0:0:0:0:
256,192,162938,1,0,0:0:0:0:
256,192,163018,1,8,0:0:0:0:
256,192,163099,1,8,0:0:0:0:
256,192,163179,1,0,0:0:0:0:
256,192,163259,1,0,0:0:0:0:
256,192,163339,1,8,0:0:0:0:
256,192,163420,1,0,0:0:0:0:
256,192,163500,1,8,0:0:0:0:
256,192,163580,1,8,0:0:0:0:
256,192,163660,1,0,0:0:0:0:
256,192,163821,1,0,0:0:0:0:
256,192,163981,1,8,0:0:0:0:
256,192,164142,1,0,0:0:0:0:
256,192,164302,1,8,0:0:0:0:
256,192,164382,1,0,0:0:0:0:
256,192,164463,1,8,0:0:0:0:
256,192,164543,1,0,0:0:0:0:
256,192,164623,1,8,0:0:0:0:
256,192,164703,1,8,0:0:0:0:
256,192,164784,1,0,0:0:0:0:
256,192,164864,1,0,0:0:0:0:
256,192,164944,1,8,0:0:0:0:
256,192,165024,1,8,0:0:0:0:
256,192,165105,1,8,0:0:0:0:
256,192,165185,1,0,0:0:0:0:
256,192,165265,1,8,0:0:0:0:
256,192,165345,1,8,0:0:0:0:
256,192,165425,1,0,0:0:0:0:
256,192,165506,1,0,0:0:0:0:
256,192,165586,1,8,0:0:0:0:
256,192,165746,1,0,0:0:0:0:
256,192,165907,1,8,0:0:0:0:
256,192,165987,1,0,0:0:0:0:
256,192,166067,1,8,0:0:0:0:
256,192,166148,1,8,0:0:0:0:
256,192,166228,1,0,0:0:0:0:
256,192,166549,1,0,0:0:0:0:
256,192,166629,1,0,0:0:0:0:
256,192,166709,1,8,0:0:0:0:
256,192,166790,1,8,0:0:0:0:
256,192,166870,1,8,0:0:0:0:
256,192,167030,1,0,0:0:0:0:
256,192,167110,1,0,0:0:0:0:
256,192,167191,1,0,0:0:0:0:
256,192,167351,1,0,0:0:0:0:
256,192,167431,1,8,0:0:0:0:
256,192,167512,1,0,0:0:0:0:
256,192,167592,1,8,0:0:0:0:
256,192,167672,1,0,0:0:0:0:
256,192,167752,1,0,0:0:0:0:
256,192,167833,1,8,0:0:0:0:
256,192,167993,1,0,0:0:0:0:
256,192,168073,1,0,0:0:0:0:
256,192,168154,1,0,0:0:0:0:
256,192,168314,1,8,0:0:0:0:
256,192,168394,1,0,0:0:0:0:
256,192,168475,1,8,0:0:0:0:
256,192,168635,1,0,0:0:0:0:
256,192,168715,1,0,0:0:0:0:
256,192,168795,1,8,0:0:0:0:
256,192,168956,1,0,0:0:0:0:
256,192,169116,1,0,0:0:0:0:
256,192,169197,1,0,0:0:0:0:
256,192,169277,1,0,0:0:0:0:
256,192,169357,1,0,0:0:0:0:
256,192,169437,1,8,0:0:0:0:
256,192,169518,1,8,0:0:0:0:
256,192,169598,1,0,0:0:0:0:
256,192,169678,1,0,0:0:0:0:
256,192,169758,1,8,0:0:0:0:
256,192,169919,1,0,0:0:0:0:
256,192,169999,1,0,0:0:0:0:
256,192,170079,1,0,0:0:0:0:
256,192,170159,1,0,0:0:0:0:
256,192,170240,1,8,0:0:0:0:
256,192,170400,1,8,0:0:0:0:
256,192,170480,1,8,0:0:0:0:
256,192,170561,1,0,0:0:0:0:
256,192,170721,1,8,0:0:0:0:
256,192,170828,1,0,0:0:0:0:
256,192,170935,1,0,0:0:0:0:
256,192,171042,1,0,0:0:0:0:
256,192,171149,1,0,0:0:0:0:
256,192,171256,1,0,0:0:0:0:
256,192,171363,1,0,0:0:0:0:
256,192,171470,1,0,0:0:0:0:
256,192,171577,1,0,0:0:0:0:
256,192,171684,1,8,0:0:0:0:
256,192,185164,5,8,0:0:0:0:
256,192,185244,1,8,0:0:0:0:
256,192,185324,1,8,0:0:0:0:
256,192,185405,1,8,0:0:0:0:
256,192,185485,1,0,0:0:0:0:
256,192,185565,1,0,0:0:0:0:
256,192,185645,1,0,0:0:0:0:
256,192,185726,1,0,0:0:0:0:
256,192,185806,1,8,0:0:0:0:
256,192,185886,1,8,0:0:0:0:
256,192,185966,1,8,0:0:0:0:
256,192,186047,1,8,0:0:0:0:
256,192,186127,1,0,0:0:0:0:
256,192,186207,1,0,0:0:0:0:
256,192,186287,1,0,0:0:0:0:
256,192,186367,1,0,0:0:0:0:
256,192,186448,1,0,0:0:0:0:
256,192,186528,1,0,0:0:0:0:
256,192,186608,1,0,0:0:0:0:
256,192,186688,1,0,0:0:0:0:
256,192,186769,1,0,0:0:0:0:
256,192,187090,1,12,0:0:0:0:
256,192,187411,1,0,0:0:0:0:
256,192,187571,1,0,0:0:0:0:
256,192,187732,1,8,0:0:0:0:
256,192,187892,1,0,0:0:0:0:
256,192,188052,1,8,0:0:0:0:
256,192,188213,1,8,0:0:0:0:
256,192,188373,1,0,0:0:0:0:
256,192,188534,1,0,0:0:0:0:
256,192,188694,1,8,0:0:0:0:
256,192,189015,1,8,0:0:0:0:
256,192,189336,1,0,0:0:0:0:
256,192,189497,1,0,0:0:0:0:
256,192,189657,1,8,0:0:0:0:
256,192,189978,1,8,0:0:0:0:
256,192,190299,1,0,0:0:0:0:
256,192,190460,1,0,0:0:0:0:
256,192,190620,1,8,0:0:0:0:
256,192,190781,1,8,0:0:0:0:
256,192,190941,1,0,0:0:0:0:
256,192,191262,1,0,0:0:0:0:
256,192,191422,1,8,0:0:0:0:
256,192,191583,1,0,0:0:0:0:
256,192,191743,1,0,0:0:0:0:
256,192,191904,1,8,0:0:0:0:
256,192,192225,1,8,0:0:0:0:
256,192,192385,1,8,0:0:0:0:
256,192,192546,1,0,0:0:0:0:
256,192,192706,1,8,0:0:0:0:
256,192,192867,1,0,0:0:0:0:
256,192,193188,1,0,0:0:0:0:
256,192,193348,1,0,0:0:0:0:
256,192,193509,1,8,0:0:0:0:
256,192,193830,1,8,0:0:0:0:
256,192,194151,1,8,0:0:0:0:
256,192,194311,1,0,0:0:0:0:
256,192,194391,1,0,0:0:0:0:
256,192,194471,1,8,0:0:0:0:
256,192,194632,1,0,0:0:0:0:
256,192,194712,1,0,0:0:0:0:
256,192,194792,1,0,0:0:0:0:
256,192,195113,1,0,0:0:0:0:
256,192,195274,1,0,0:0:0:0:
256,192,195434,1,0,0:0:0:0:
256,192,195755,1,8,0:0:0:0:
256,192,195916,1,0,0:0:0:0:
256,192,196076,1,8,0:0:0:0:
256,192,196237,1,0,0:0:0:0:
256,192,196397,1,8,0:0:0:0:
256,192,196718,1,8,0:0:0:0:
256,192,196879,1,8,0:0:0:0:
256,192,197039,1,0,0:0:0:0:
256,192,197360,1,0,0:0:0:0:
256,192,197520,1,0,0:0:0:0:
256,192,197681,1,8,0:0:0:0:
256,192,197841,1,0,0:0:0:0:
256,192,198002,1,0,0:0:0:0:
256,192,198162,1,0,0:0:0:0:
256,192,198243,1,0,0:0:0:0:
256,192,198323,1,8,0:0:0:0:
256,192,198483,1,8,0:0:0:0:
256,192,198644,1,0,0:0:0:0:
256,192,198965,1,0,0:0:0:0:
256,192,199125,1,0,0:0:0:0:
256,192,199286,1,8,0:0:0:0:
256,192,199607,1,8,0:0:0:0:
256,192,199928,1,0,0:0:0:0:
256,192,200088,1,0,0:0:0:0:
256,192,200168,1,0,0:0:0:0:
256,192,200249,1,8,0:0:0:0:
256,192,200409,1,0,0:0:0:0:
256,192,200570,1,0,0:0:0:0:
256,192,200890,1,8,0:0:0:0:
256,192,200971,1,8,0:0:0:0:
256,192,201051,1,0,0:0:0:0:
256,192,201131,1,0,0:0:0:0:
256,192,201211,1,0,0:0:0:0:
256,192,201292,1,0,0:0:0:0:
256,192,201372,1,0,0:0:0:0:
256,192,201452,1,0,0:0:0:0:
256,192,201532,1,8,0:0:0:0:
256,192,202174,1,0,0:0:0:0:
256,192,202495,1,8,0:0:0:0:
256,192,203137,1,0,0:0:0:0:
256,192,203458,1,0,0:0:0:0:
256,192,203699,1,0,0:0:0:0:
256,192,203939,1,0,0:0:0:0:
256,192,204180,1,0,0:0:0:0:
256,192,204421,1,0,0:0:0:0:
256,192,204742,1,4,0:0:0:0:
256,192,205063,1,4,0:0:0:0:
256,192,205384,1,4,0:0:0:0:
256,192,206026,1,0,0:0:0:0:
256,192,206347,1,8,0:0:0:0:
256,192,206989,1,0,0:0:0:0:
256,192,207309,1,0,0:0:0:0:
256,192,207951,1,0,0:0:0:0:
256,192,208272,1,8,0:0:0:0:
256,192,208914,1,0,0:0:0:0:
256,192,209235,1,0,0:0:0:0:
256,192,209877,1,0,0:0:0:0:
256,192,210198,1,8,0:0:0:0:
256,192,210519,1,0,0:0:0:0:
256,192,210840,1,0,0:0:0:0:
256,192,211161,1,0,0:0:0:0:
256,192,211803,1,0,0:0:0:0:
256,192,212124,1,12,0:0:0:0:
256,192,212766,1,0,0:0:0:0:
256,192,213087,1,4,0:0:0:0:
256,192,213728,1,0,0:0:0:0:
256,192,214049,1,8,0:0:0:0:
256,192,214691,1,0,0:0:0:0:
256,192,215012,1,0,0:0:0:0:
256,192,215654,1,0,0:0:0:0:
256,192,215975,1,8,0:0:0:0:
256,192,216617,1,0,0:0:0:0:
256,192,216938,1,0,0:0:0:0:
256,192,217580,1,0,0:0:0:0:
256,192,217901,1,8,0:0:0:0:
256,192,218222,1,0,0:0:0:0:
256,192,218543,1,0,0:0:0:0:
256,192,218864,1,8,0:0:0:0:
256,192,219506,1,0,0:0:0:0:
256,192,219827,1,8,0:0:0:0:
256,192,220468,1,8,0:0:0:0:
256,192,220629,1,0,0:0:0:0:
256,192,220789,1,12,0:0:0:0:
256,192,221431,1,0,0:0:0:0:
256,192,221752,1,8,0:0:0:0:
256,192,222394,1,0,0:0:0:0:
256,192,222715,1,0,0:0:0:0:
256,192,223357,1,0,0:0:0:0:
256,192,223678,1,8,0:0:0:0:
256,192,224320,1,0,0:0:0:0:
256,192,224641,1,0,0:0:0:0:
256,192,225283,1,0,0:0:0:0:
256,192,225604,1,8,0:0:0:0:
256,192,226246,1,0,0:0:0:0:
256,192,226566,1,0,0:0:0:0:
256,192,227208,1,0,0:0:0:0:
256,192,227529,1,8,0:0:0:0:
256,192,227850,1,0,0:0:0:0:
256,192,228171,1,0,0:0:0:0:
256,192,228492,1,4,0:0:0:0:
256,192,229134,1,0,0:0:0:0:
256,192,229455,1,8,0:0:0:0:
256,192,229776,1,8,0:0:0:0:
256,192,230097,1,0,0:0:0:0:
256,192,230418,1,12,0:0:0:0:
256,192,231060,1,0,0:0:0:0:
256,192,231381,1,8,0:0:0:0:
256,192,232023,1,0,0:0:0:0:
256,192,232344,1,0,0:0:0:0:
256,192,232985,1,0,0:0:0:0:
256,192,233306,1,8,0:0:0:0:
256,192,233788,1,0,0:0:0:0:
256,192,233948,1,0,0:0:0:0:
256,192,234269,1,0,0:0:0:0:
256,192,234590,1,8,0:0:0:0:
256,192,234697,1,8,0:0:0:0:
256,192,234804,1,8,0:0:0:0:
256,192,234911,1,8,0:0:0:0:
256,192,235018,1,8,0:0:0:0:
256,192,235125,1,8,0:0:0:0:
256,192,235232,1,0,0:0:0:0:
256,192,235553,1,0,0:0:0:0:
256,192,235714,1,0,0:0:0:0:
256,192,235874,1,0,0:0:0:0:
256,192,236034,1,0,0:0:0:0:
256,192,236195,1,12,0:0:0:0:
256,192,236837,1,0,0:0:0:0:
256,192,237158,1,8,0:0:0:0:
256,192,237639,1,0,0:0:0:0:
256,192,237800,1,0,0:0:0:0:
256,192,238121,1,0,0:0:0:0:
256,192,238602,1,0,0:0:0:0:
256,192,238763,1,0,0:0:0:0:
256,192,239084,1,8,0:0:0:0:
256,192,239565,1,0,0:0:0:0:
256,192,239725,1,0,0:0:0:0:
256,192,240046,1,0,0:0:0:0:
256,192,240528,1,0,0:0:0:0:
256,192,240688,1,0,0:0:0:0:
256,192,241009,1,8,0:0:0:0:
256,192,241491,1,0,0:0:0:0:
256,192,241651,1,0,0:0:0:0:
256,192,241972,1,0,0:0:0:0:
256,192,242453,1,0,0:0:0:0:
256,192,242614,1,0,0:0:0:0:
256,192,242935,1,8,0:0:0:0:
256,192,243416,1,0,0:0:0:0:
256,192,243577,1,0,0:0:0:0:
256,192,243898,1,4,0:0:0:0:
256,192,244379,1,0,0:0:0:0:
256,192,244540,1,0,0:0:0:0:
256,192,244861,1,8,0:0:0:0:
256,192,245342,1,0,0:0:0:0:
256,192,245503,1,0,0:0:0:0:
256,192,245823,1,0,0:0:0:0:
256,192,246305,1,0,0:0:0:0:
256,192,246465,1,0,0:0:0:0:
256,192,246786,1,8,0:0:0:0:
256,192,247268,1,0,0:0:0:0:
256,192,247428,1,0,0:0:0:0:
256,192,247749,1,0,0:0:0:0:
256,192,248231,1,0,0:0:0:0:
256,192,248391,1,0,0:0:0:0:
256,192,248712,1,8,0:0:0:0:
256,192,249193,1,0,0:0:0:0:
256,192,249354,1,0,0:0:0:0:
256,192,249675,1,0,0:0:0:0:
256,192,249996,1,8,0:0:0:0:
256,192,250076,1,8,0:0:0:0:
256,192,250156,1,8,0:0:0:0:
256,192,250237,1,8,0:0:0:0:
256,192,250317,1,0,0:0:0:0:
256,192,250397,1,0,0:0:0:0:
256,192,250477,1,0,0:0:0:0:
256,192,250557,1,0,0:0:0:0:
256,192,250638,1,8,0:0:0:0:
256,192,250718,1,8,0:0:0:0:
256,192,250798,1,0,0:0:0:0:
256,192,250878,1,0,0:0:0:0:
256,192,250959,1,0,0:0:0:0:
256,192,251039,1,0,0:0:0:0:
256,192,251119,1,0,0:0:0:0:
256,192,251199,1,0,0:0:0:0:
256,192,251280,1,8,0:0:0:0:
256,192,251360,1,0,0:0:0:0:
256,192,251430,1,0,0:0:0:0:
256,192,251510,1,0,0:0:0:0:
256,192,251590,1,0,0:0:0:0:
256,192,251910,1,8,0:0:0:0:
256,192,252071,1,0,0:0:0:0:
256,192,252232,1,0,0:0:0:0:
256,192,252553,1,8,0:0:0:0:
256,192,252873,1,0,0:0:0:0:
256,192,253034,1,0,0:0:0:0:
256,192,253194,1,0,0:0:0:0:
256,192,253515,1,0,0:0:0:0:
256,192,253836,1,8,0:0:0:0:
256,192,254007,1,0,0:0:0:0:
256,192,254167,1,0,0:0:0:0:
256,192,254488,1,8,0:0:0:0:
256,192,254808,1,0,0:0:0:0:
256,192,254969,1,0,0:0:0:0:
256,192,255129,1,8,0:0:0:0:
256,192,255450,1,0,0:0:0:0:
256,192,255931,1,0,0:0:0:0:
256,192,256092,1,0,0:0:0:0:
256,192,256413,1,8,0:0:0:0:
256,192,256894,1,0,0:0:0:0:
256,192,257055,1,0,0:0:0:0:
256,192,257376,1,0,0:0:0:0:
256,192,258018,1,0,0:0:0:0:
256,192,258339,1,8,0:0:0:0:
256,192,258659,1,0,0:0:0:0:
256,192,258820,1,0,0:0:0:0:
256,192,258981,1,8,0:0:0:0:
256,192,259302,1,0,0:0:0:0:
256,192,259463,1,0,0:0:0:0:
256,192,259623,1,0,0:0:0:0:
256,192,259784,1,0,0:0:0:0:
256,192,259944,1,0,0:0:0:0:
256,192,260265,1,12,0:0:0:0:
256,192,260585,1,0,0:0:0:0:
256,192,260906,1,0,0:0:0:0:
256,192,261227,1,8,0:0:0:0:
256,192,261869,1,0,0:0:0:0:
256,192,262190,1,8,0:0:0:0:
256,192,262511,1,0,0:0:0:0:
256,192,262671,1,0,0:0:0:0:
256,192,262832,1,8,0:0:0:0:
256,192,263153,1,8,0:0:0:0:
256,192,263233,1,8,0:0:0:0:
256,192,263314,1,8,0:0:0:0:
256,192,263474,1,0,0:0:0:0:
256,192,263554,1,0,0:0:0:0:
256,192,263634,1,0,0:0:0:0:
256,192,263795,1,8,0:0:0:0:
256,192,263875,1,0,0:0:0:0:
256,192,263955,1,0,0:0:0:0:
256,192,264035,1,0,0:0:0:0:
256,192,264116,1,8,0:0:0:0:
256,192,264276,1,0,0:0:0:0:
256,192,264437,1,0,0:0:0:0:
256,192,264598,1,0,0:0:0:0:
256,192,264678,1,0,0:0:0:0:
256,192,264759,1,8,0:0:0:0:
256,192,264839,1,8,0:0:0:0:
256,192,264919,1,8,0:0:0:0:
256,192,264999,1,8,0:0:0:0:
256,192,265079,1,0,0:0:0:0:
256,192,265400,1,8,0:0:0:0:
256,192,265507,1,8,0:0:0:0:
256,192,265614,1,8,0:0:0:0:
256,192,265721,1,0,0:0:0:0:
256,192,266042,1,8,0:0:0:0:
256,192,266346,1,0,0:0:0:0:
256,192,266666,1,0,0:0:0:0:
256,192,266987,1,12,0:0:0:0:
256,192,267308,1,0,0:0:0:0:
256,192,267469,1,0,0:0:0:0:
256,192,267629,1,0,0:0:0:0:
256,192,267790,1,0,0:0:0:0:
256,192,267950,1,8,0:0:0:0:
256,192,268271,1,8,0:0:0:0:
256,192,268431,1,0,0:0:0:0:
256,192,268592,1,0,0:0:0:0:
256,192,268913,1,8,0:0:0:0:
256,192,269234,1,0,0:0:0:0:
256,192,269394,1,0,0:0:0:0:
256,192,269555,1,0,0:0:0:0:
256,192,269715,1,0,0:0:0:0:
256,192,269876,1,8,0:0:0:0:
256,192,270197,1,0,0:0:0:0:
256,192,270357,1,8,0:0:0:0:
256,192,270518,1,0,0:0:0:0:
256,192,270839,1,0,0:0:0:0:
256,192,271159,1,0,0:0:0:0:
256,192,271319,1,0,0:0:0:0:
256,192,271480,1,8,0:0:0:0:
256,192,271640,1,0,0:0:0:0:
256,192,271801,1,8,0:0:0:0:
256,192,271961,1,0,0:0:0:0:
256,192,272122,1,0,0:0:0:0:
256,192,272282,1,0,0:0:0:0:
256,192,272444,1,8,0:0:0:0:
256,192,272604,1,0,0:0:0:0:
256,192,272764,1,8,0:0:0:0:
256,192,272925,1,0,0:0:0:0:
256,192,273085,1,0,0:0:0:0:
256,192,273246,1,0,0:0:0:0:
256,192,273406,1,0,0:0:0:0:
256,192,273486,1,0,0:0:0:0:
256,192,273567,1,0,0:0:0:0:
256,192,273746,1,8,0:0:0:0:
256,192,273853,1,8,0:0:0:0:
256,192,273960,1,0,0:0:0:0:
256,192,274067,1,8,0:0:0:0:
256,192,274174,1,8,0:0:0:0:
256,192,274281,1,0,0:0:0:0:
256,192,274388,1,0,0:0:0:0:
256,192,274495,1,8,0:0:0:0:
256,192,274602,1,8,0:0:0:0:
256,192,274709,1,0,0:0:0:0:
256,192,275030,1,8,0:0:0:0:
256,192,275137,1,0,0:0:0:0:
256,192,275244,1,8,0:0:0:0:
256,192,275351,1,0,0:0:0:0:
256,192,275458,1,0,0:0:0:0:
256,192,275565,1,8,0:0:0:0:
256,192,275672,1,8,0:0:0:0:
256,192,275993,1,0,0:0:0:0:
256,192,276153,1,0,0:0:0:0:
256,192,276314,1,8,0:0:0:0:
256,192,276474,1,0,0:0:0:0:
256,192,276635,1,8,0:0:0:0:
256,192,276795,1,0,0:0:0:0:
256,192,276956,1,0,0:0:0:0:
256,192,277258,1,0,0:0:0:0:
256,192,277418,1,0,0:0:0:0:
256,192,277579,1,8,0:0:0:0:
256,192,277739,1,0,0:0:0:0:
256,192,277899,1,0,0:0:0:0:
256,192,278219,1,0,0:0:0:0:
256,192,278380,1,0,0:0:0:0:
256,192,278540,1,8,0:0:0:0:
256,192,278883,1,0,0:0:0:0:
256,192,279044,1,0,0:0:0:0:
256,192,279204,1,8,0:0:0:0:
256,192,279365,1,0,0:0:0:0:
256,192,279525,1,8,0:0:0:0:
256,192,279845,1,0,0:0:0:0:
256,192,280006,1,0,0:0:0:0:
256,192,280327,1,0,0:0:0:0:
256,192,280487,1,8,0:0:0:0:
256,192,280808,1,8,0:0:0:0:
256,192,280888,1,8,0:0:0:0:
256,192,280968,1,8,0:0:0:0:
256,192,281049,1,8,0:0:0:0:
256,192,281129,1,0,0:0:0:0:
256,192,281209,1,0,0:0:0:0:
256,192,281289,1,0,0:0:0:0:
256,192,281370,1,0,0:0:0:0:
256,192,281450,1,8,0:0:0:0:
256,192,281771,1,0,0:0:0:0:
256,192,281931,1,0,0:0:0:0:
256,192,282092,1,0,0:0:0:0:
256,192,282413,1,12,0:0:0:0:
256,192,282733,1,0,0:0:0:0:
256,192,282893,1,0,0:0:0:0:
256,192,283054,1,0,0:0:0:0:
256,192,283214,1,0,0:0:0:0:
256,192,283375,1,8,0:0:0:0:
256,192,283696,1,0,0:0:0:0:
256,192,283857,1,0,0:0:0:0:
256,192,284017,1,8,0:0:0:0:
256,192,284338,1,8,0:0:0:0:
256,192,284659,1,0,0:0:0:0:
256,192,284820,1,0,0:0:0:0:
256,192,284980,1,8,0:0:0:0:
256,192,285141,1,0,0:0:0:0:
256,192,285301,1,8,0:0:0:0:
256,192,285622,1,0,0:0:0:0:
256,192,285782,1,8,0:0:0:0:
256,192,285943,1,0,0:0:0:0:
256,192,286264,1,8,0:0:0:0:
256,192,286585,1,0,0:0:0:0:
256,192,286745,1,0,0:0:0:0:
256,192,286906,1,0,0:0:0:0:
256,192,287066,1,0,0:0:0:0:
256,192,287227,1,8,0:0:0:0:
256,192,287548,1,8,0:0:0:0:
256,192,287708,1,0,0:0:0:0:
256,192,287869,1,8,0:0:0:0:
256,192,288190,1,8,0:0:0:0:
256,192,288511,1,0,0:0:0:0:
256,192,288671,1,0,0:0:0:0:
256,192,288832,1,0,0:0:0:0:
256,192,288992,1,0,0:0:0:0:
256,192,289152,1,8,0:0:0:0:
256,192,289634,1,0,0:0:0:0:
256,192,289714,1,0,0:0:0:0:
256,192,289795,1,8,0:0:0:0:
256,192,290116,1,4,0:0:0:0:
256,192,290437,1,0,0:0:0:0:
256,192,290597,1,0,0:0:0:0:
256,192,290758,1,0,0:0:0:0:
256,192,290918,1,0,0:0:0:0:
256,192,291079,1,8,0:0:0:0:
256,192,291400,1,0,0:0:0:0:
256,192,291560,1,0,0:0:0:0:
256,192,291721,1,8,0:0:0:0:
256,192,292041,1,8,0:0:0:0:
256,192,292361,1,8,0:0:0:0:
256,192,292522,1,0,0:0:0:0:
256,192,292682,1,0,0:0:0:0:
256,192,292843,1,0,0:0:0:0:
256,192,292923,1,0,0:0:0:0:
256,192,293003,1,8,0:0:0:0:
256,192,293324,1,0,0:0:0:0:
256,192,293485,1,0,0:0:0:0:
256,192,293645,1,8,0:0:0:0:
256,192,293966,1,8,0:0:0:0:
256,192,294287,1,0,0:0:0:0:
256,192,294448,1,0,0:0:0:0:
256,192,294609,1,0,0:0:0:0:
256,192,294769,1,0,0:0:0:0:
256,192,294930,1,8,0:0:0:0:
256,192,295251,1,0,0:0:0:0:
256,192,295411,1,8,0:0:0:0:
256,192,295572,1,0,0:0:0:0:
256,192,295893,1,12,0:0:0:0:
256,192,296214,1,0,0:0:0:0:
256,192,296294,1,0,0:0:0:0:
256,192,296374,1,0,0:0:0:0:
256,192,296455,1,0,0:0:0:0:
256,192,296535,1,8,0:0:0:0:
256,192,296863,1,0,0:0:0:0:
256,192,297183,1,0,0:0:0:0:
256,192,297264,1,0,0:0:0:0:
256,192,297344,1,0,0:0:0:0:
256,192,297424,1,0,0:0:0:0:
256,192,297504,1,8,0:0:0:0:
256,192,297825,1,0,0:0:0:0:
256,192,297986,1,0,0:0:0:0:
256,192,298146,1,8,0:0:0:0:
256,192,298467,1,0,0:0:0:0:
256,192,298788,1,0,0:0:0:0:
256,192,298868,1,0,0:0:0:0:
256,192,298949,1,0,0:0:0:0:
256,192,299029,1,0,0:0:0:0:
256,192,299109,1,8,0:0:0:0:
256,192,299430,1,0,0:0:0:0:
256,192,299751,1,8,0:0:0:0:
256,192,299831,1,8,0:0:0:0:
256,192,299912,1,0,0:0:0:0:
256,192,299992,1,0,0:0:0:0:
256,192,300072,1,8,0:0:0:0:
256,192,300392,1,0,0:0:0:0:
256,192,300713,1,0,0:0:0:0:
256,192,301034,1,8,0:0:0:0:
256,192,301355,1,0,0:0:0:0:
256,192,301676,1,0,0:0:0:0:
256,192,301837,1,0,0:0:0:0:
256,192,301997,1,8,0:0:0:0:
256,192,302318,1,0,0:0:0:0:
256,192,302398,1,0,0:0:0:0:
256,192,302479,1,0,0:0:0:0:
256,192,302639,1,0,0:0:0:0:
256,192,302719,1,0,0:0:0:0:
256,192,302800,1,0,0:0:0:0:
256,192,302960,1,0,0:0:0:0:
256,192,303040,1,0,0:0:0:0:
256,192,303121,1,0,0:0:0:0:
256,192,303201,1,0,0:0:0:0:
256,192,303281,1,0,0:0:0:0:
256,192,303361,1,0,0:0:0:0:
256,192,303441,1,0,0:0:0:0:
256,192,303522,1,0,0:0:0:0:
256,192,303602,1,0,0:0:0:0:
256,192,303682,1,0,0:0:0:0:
256,192,303762,1,0,0:0:0:0:
256,192,303843,1,0,0:0:0:0:
256,192,303923,1,8,0:0:0:0:
256,192,304244,1,0,0:0:0:0:
256,192,304404,1,0,0:0:0:0:
256,192,304565,1,8,0:0:0:0:
256,192,304725,1,0,0:0:0:0:
256,192,304886,1,8,0:0:0:0:
256,192,305046,1,0,0:0:0:0:
256,192,305207,1,0,0:0:0:0:
256,192,305367,1,8,0:0:0:0:
256,192,305528,1,8,0:0:0:0:
256,192,305688,1,0,0:0:0:0:
256,192,305849,1,8,0:0:0:0:
256,192,306009,1,8,0:0:0:0:
256,192,306170,1,0,0:0:0:0:
256,192,306330,1,0,0:0:0:0:
256,192,306491,1,8,0:0:0:0:
256,192,306651,1,0,0:0:0:0:
256,192,306811,1,8,0:0:0:0:
256,192,306972,1,0,0:0:0:0:
256,192,307132,1,0,0:0:0:0:
256,192,307293,1,0,0:0:0:0:
256,192,307453,1,8,0:0:0:0:
256,192,307614,1,8,0:0:0:0:
256,192,307774,1,8,0:0:0:0:
256,192,307935,1,0,0:0:0:0:
256,192,308095,1,0,0:0:0:0:
256,192,308256,1,0,0:0:0:0:
256,192,308416,1,8,0:0:0:0:
256,192,308577,1,0,0:0:0:0:
256,192,308737,1,8,0:0:0:0:
256,192,308898,1,0,0:0:0:0:
256,192,309058,1,0,0:0:0:0:
256,192,309219,1,0,0:0:0:0:
256,192,309379,1,8,0:0:0:0:
256,192,309540,1,8,0:0:0:0:
256,192,309700,1,8,0:0:0:0:
256,192,309860,1,0,0:0:0:0:
256,192,310021,1,8,0:0:0:0:
256,192,310181,1,8,0:0:0:0:
256,192,310342,1,0,0:0:0:0:
256,192,310502,1,0,0:0:0:0:
256,192,310663,1,8,0:0:0:0:
256,192,310823,1,0,0:0:0:0:
256,192,310984,1,0,0:0:0:0:
256,192,311144,1,0,0:0:0:0:
256,192,311305,1,8,0:0:0:0:
256,192,311465,1,8,0:0:0:0:
256,192,311626,1,8,0:0:0:0:
256,192,311786,1,0,0:0:0:0:
256,192,311947,1,0,0:0:0:0:
256,192,312107,1,0,0:0:0:0:
256,192,312268,1,8,0:0:0:0:
256,192,312428,1,0,0:0:0:0:
256,192,312589,1,8,0:0:0:0:
256,192,312749,1,0,0:0:0:0:
256,192,312910,1,0,0:0:0:0:
256,192,313070,1,0,0:0:0:0:
256,192,313230,1,8,0:0:0:0:
256,192,313391,1,0,0:0:0:0:
256,192,313551,1,8,0:0:0:0:
256,192,313712,1,8,0:0:0:0:
256,192,313872,1,0,0:0:0:0:
256,192,314033,1,0,0:0:0:0:
256,192,314193,1,8,0:0:0:0:
256,192,314354,1,0,0:0:0:0:
256,192,314514,1,8,0:0:0:0:
256,192,314675,1,0,0:0:0:0:
256,192,314835,1,0,0:0:0:0:
256,192,314996,1,0,0:0:0:0:
256,192,315156,1,8,0:0:0:0:
256,192,315317,1,8,0:0:0:0:
256,192,315477,1,8,0:0:0:0:
256,192,315638,1,0,0:0:0:0:
256,192,315798,1,0,0:0:0:0:
256,192,315959,1,0,0:0:0:0:
256,192,316119,1,8,0:0:0:0:
256,192,316279,1,0,0:0:0:0:
256,192,316440,1,8,0:0:0:0:
256,192,316600,1,0,0:0:0:0:
256,192,316761,1,8,0:0:0:0:
256,192,316921,1,0,0:0:0:0:
256,192,317082,1,8,0:0:0:0:
256,192,317162,1,8,0:0:0:0:
256,192,317242,1,8,0:0:0:0:
256,192,317323,1,8,0:0:0:0:
256,192,317403,1,0,0:0:0:0:
256,192,317724,1,0,0:0:0:0:
256,192,317804,1,0,0:0:0:0:
256,192,317884,1,0,0:0:0:0:
256,192,317964,1,0,0:0:0:0:
256,192,318045,1,8,0:0:0:0:
256,192,318366,1,0,0:0:0:0:
256,192,318686,1,0,0:0:0:0:
256,192,318847,1,0,0:0:0:0:
256,192,318927,1,0,0:0:0:0:
256,192,319007,1,8,0:0:0:0:
256,192,319328,1,0,0:0:0:0:
256,192,319409,1,0,0:0:0:0:
256,192,319489,1,0,0:0:0:0:
256,192,319569,1,0,0:0:0:0:
256,192,319649,1,8,0:0:0:0:
256,192,319970,1,0,0:0:0:0:
256,192,320291,1,0,0:0:0:0:
256,192,320371,1,8,0:0:0:0:
256,192,320452,1,0,0:0:0:0:
256,192,320532,1,0,0:0:0:0:
256,192,320612,1,8,0:0:0:0:
256,192,320933,1,8,0:0:0:0:
256,192,321254,1,8,0:0:0:0:
256,192,321334,1,8,0:0:0:0:
256,192,321415,1,0,0:0:0:0:
256,192,321495,1,0,0:0:0:0:
256,192,321575,1,8,0:0:0:0:
256,192,322216,1,0,0:0:0:0:
256,192,322297,1,0,0:0:0:0:
256,192,322377,1,0,0:0:0:0:
256,192,322457,1,0,0:0:0:0:
256,192,322537,1,8,0:0:0:0:
256,192,323179,1,0,0:0:0:0:
256,192,323259,1,0,0:0:0:0:
256,192,323340,1,0,0:0:0:0:
256,192,323420,1,0,0:0:0:0:
256,192,323500,1,8,0:0:0:0:
256,192,324142,1,0,0:0:0:0:
256,192,324222,1,0,0:0:0:0:
256,192,324303,1,0,0:0:0:0:
256,192,324383,1,0,0:0:0:0:
256,192,324463,1,8,0:0:0:0:
256,192,324784,1,8,0:0:0:0:
256,192,324891,1,8,0:0:0:0:
256,192,324998,1,0,0:0:0:0:
256,192,325105,1,8,0:0:0:0:
256,192,325426,1,8,0:0:0:0:
256,192,325747,1,0,0:0:0:0:
256,192,326068,1,0,0:0:0:0:
256,192,326228,1,0,0:0:0:0:
256,192,326389,1,8,0:0:0:0:
256,192,326710,1,0,0:0:0:0:
256,192,327031,1,8,0:0:0:0:
256,192,327352,1,0,0:0:0:0:
256,192,327512,1,0,0:0:0:0:
256,192,327673,1,0,0:0:0:0:
256,192,327994,1,0,0:0:0:0:
256,192,328154,1,0,0:0:0:0:
256,192,328314,1,8,0:0:0:0:
256,192,328635,1,8,0:0:0:0:
256,192,328742,1,8,0:0:0:0:
256,192,328849,1,0,0:0:0:0:
256,192,328956,1,8,0:0:0:0:
256,192,329277,1,12,0:0:0:0:
256,192,329598,1,0,0:0:0:0:
256,192,329678,1,0,0:0:0:0:
256,192,329759,1,0,0:0:0:0:
256,192,329839,1,0,0:0:0:0:
256,192,329919,1,8,0:0:0:0:
256,192,330240,1,8,0:0:0:0:
256,192,330561,1,0,0:0:0:0:
256,192,330641,1,0,0:0:0:0:
256,192,330722,1,0,0:0:0:0:
256,192,330802,1,0,0:0:0:0:
256,192,330882,1,8,0:0:0:0:
256,192,331203,1,0,0:0:0:0:
256,192,331283,1,0,0:0:0:0:
256,192,331363,1,0,0:0:0:0:
256,192,331444,1,0,0:0:0:0:
256,192,331524,1,8,0:0:0:0:
256,192,331845,1,8,0:0:0:0:
256,192,332166,1,8,0:0:0:0:
256,192,332487,1,0,0:0:0:0:
256,192,332567,1,0,0:0:0:0:
256,192,332647,1,0,0:0:0:0:
256,192,332728,1,0,0:0:0:0:
256,192,332808,1,8,0:0:0:0:
256,192,333129,1,8,0:0:0:0:
256,192,333449,1,0,0:0:0:0:
256,192,333610,1,8,0:0:0:0:
256,192,333690,1,0,0:0:0:0:
256,192,333770,1,0,0:0:0:0:
256,192,333931,1,8,0:0:0:0:
256,192,334011,1,0,0:0:0:0:
256,192,334091,1,0,0:0:0:0:
256,192,334252,1,8,0:0:0:0:
256,192,334332,1,8,0:0:0:0:
256,192,334412,1,8,0:0:0:0:
256,192,334732,1,0,0:0:0:0:
256,192,334813,1,0,0:0:0:0:
256,192,334893,1,0,0:0:0:0:
256,192,334973,1,0,0:0:0:0:
256,192,335053,1,8,0:0:0:0:
256,192,335374,1,8,0:0:0:0:
256,192,335695,1,0,0:0:0:0:
256,192,335776,1,0,0:0:0:0:
256,192,335856,1,0,0:0:0:0:
256,192,335936,1,0,0:0:0:0:
256,192,336016,1,8,0:0:0:0:
256,192,336337,1,0,0:0:0:0:
256,192,336417,1,0,0:0:0:0:
256,192,336498,1,0,0:0:0:0:
256,192,336578,1,0,0:0:0:0:
256,192,336658,1,8,0:0:0:0:
256,192,336979,1,8,0:0:0:0:
256,192,337300,1,0,0:0:0:0:
256,192,337461,1,8,0:0:0:0:
256,192,337541,1,8,0:0:0:0:
256,192,337621,1,0,0:0:0:0:
256,192,337781,1,8,0:0:0:0:
256,192,337862,1,0,0:0:0:0:
256,192,337942,1,8,0:0:0:0:
256,192,338263,5,8,0:0:0:0:
256,192,338343,1,0,0:0:0:0:
256,192,338423,1,0,0:0:0:0:
256,192,338503,1,8,0:0:0:0:
256,192,338583,1,0,0:0:0:0:
256,192,338664,1,0,0:0:0:0:
256,192,338744,1,8,0:0:0:0:
256,192,338824,1,0,0:0:0:0:
256,192,338904,1,0,0:0:0:0:
256,192,338985,1,8,0:0:0:0:
256,192,339065,1,0,0:0:0:0:
256,192,339145,1,0,0:0:0:0:
256,192,339225,1,8,0:0:0:0:
256,192,339306,1,8,0:0:0:0:
256,192,339386,1,8,0:0:0:0:
256,192,339466,1,8,0:0:0:0:
256,192,339546,1,0,0:0:0:0:
256,192,339626,1,0,0:0:0:0:
256,192,339706,1,8,0:0:0:0:
256,192,339786,1,0,0:0:0:0:
256,192,339866,1,0,0:0:0:0:
256,192,339947,1,0,0:0:0:0:
256,192,340027,1,8,0:0:0:0:
256,192,340107,1,0,0:0:0:0:
256,192,340187,1,8,0:0:0:0:
256,192,340268,1,8,0:0:0:0:
256,192,340348,1,0,0:0:0:0:
256,192,340428,1,0,0:0:0:0:
256,192,340508,1,8,0:0:0:0:
256,192,340589,1,0,0:0:0:0:
256,192,340669,1,0,0:0:0:0:
256,192,340749,1,8,0:0:0:0:
256,192,340829,1,0,0:0:0:0:
256,192,340910,1,0,0:0:0:0:
256,192,340990,1,0,0:0:0:0:
256,192,341070,1,0,0:0:0:0:
256,192,341150,1,8,0:0:0:0:
256,192,341230,1,8,0:0:0:0:
256,192,341311,1,0,0:0:0:0:
256,192,341391,1,0,0:0:0:0:
256,192,341471,1,8,0:0:0:0:
256,192,341551,1,0,0:0:0:0:
256,192,341632,1,0,0:0:0:0:
256,192,341712,1,0,0:0:0:0:
256,192,341792,1,0,0:0:0:0:
256,192,341872,1,0,0:0:0:0:
256,192,341953,1,8,0:0:0:0:
256,192,342033,1,8,0:0:0:0:
256,192,342113,1,8,0:0:0:0:
256,192,342193,1,0,0:0:0:0:
256,192,342274,1,8,0:0:0:0:
256,192,342354,1,0,0:0:0:0:
256,192,342434,1,8,0:0:0:0:
256,192,342514,1,0,0:0:0:0:
256,192,342595,1,0,0:0:0:0:
256,192,342675,1,0,0:0:0:0:
256,192,342755,1,8,0:0:0:0:
256,192,342835,1,8,0:0:0:0:
256,192,342915,1,0,0:0:0:0:
256,192,342996,1,8,0:0:0:0:
256,192,343076,1,8,0:0:0:0:
256,192,343156,1,0,0:0:0:0:
256,192,343236,1,0,0:0:0:0:
256,192,343317,1,0,0:0:0:0:
256,192,343397,1,8,0:0:0:0:
256,192,343477,1,8,0:0:0:0:
256,192,343557,1,0,0:0:0:0:
256,192,343637,1,0,0:0:0:0:
256,192,343717,1,8,0:0:0:0:
256,192,343878,1,8,0:0:0:0:
256,192,344038,1,0,0:0:0:0:
256,192,344119,1,0,0:0:0:0:
256,192,344199,1,8,0:0:0:0:
256,192,344359,1,0,0:0:0:0:
256,192,344440,1,0,0:0:0:0:
256,192,344520,1,8,0:0:0:0:
256,192,344680,1,8,0:0:0:0:
256,192,344761,1,0,0:0:0:0:
256,192,344841,1,8,0:0:0:0:
256,192,344921,1,8,0:0:0:0:
256,192,345001,1,0,0:0:0:0:
256,192,345081,1,0,0:0:0:0:
256,192,345162,1,8,0:0:0:0:
256,192,345242,1,0,0:0:0:0:
256,192,345322,1,8,0:0:0:0:
256,192,345402,1,8,0:0:0:0:
256,192,345483,1,0,0:0:0:0:
256,192,345563,1,0,0:0:0:0:
256,192,345643,1,8,0:0:0:0:
256,192,345723,1,8,0:0:0:0:
256,192,345804,1,0,0:0:0:0:
256,192,345884,1,0,0:0:0:0:
256,192,345964,1,8,0:0:0:0:
256,192,346044,1,0,0:0:0:0:
256,192,346125,1,8,0:0:0:0:
256,192,346205,1,8,0:0:0:0:
256,192,346285,1,0,0:0:0:0:
256,192,346365,1,0,0:0:0:0:
256,192,346446,1,8,0:0:0:0:
256,192,346526,1,0,0:0:0:0:
256,192,346606,1,8,0:0:0:0:
256,192,346686,1,0,0:0:0:0:
256,192,346766,1,0,0:0:0:0:
256,192,346847,1,0,0:0:0:0:
256,192,346927,1,8,0:0:0:0:
256,192,347007,1,8,0:0:0:0:
256,192,347087,1,8,0:0:0:0:
256,192,347168,1,8,0:0:0:0:
256,192,347248,1,0,0:0:0:0:
256,192,347328,1,0,0:0:0:0:
256,192,347408,1,8,0:0:0:0:
256,192,347489,1,0,0:0:0:0:
256,192,347569,1,0,0:0:0:0:
256,192,347649,1,0,0:0:0:0:
256,192,347729,1,8,0:0:0:0:
256,192,347810,1,0,0:0:0:0:
256,192,347890,1,8,0:0:0:0:
256,192,347970,1,0,0:0:0:0:
256,192,348050,1,8,0:0:0:0:
256,192,348131,1,0,0:0:0:0:
256,192,348211,1,8,0:0:0:0:
256,192,348291,1,0,0:0:0:0:
256,192,348371,1,0,0:0:0:0:
256,192,348451,1,0,0:0:0:0:
256,192,348532,1,8,0:0:0:0:
256,192,348692,1,8,0:0:0:0:
256,192,348772,1,8,0:0:0:0:
256,192,348853,1,8,0:0:0:0:
256,192,348933,1,8,0:0:0:0:
256,192,349013,1,0,0:0:0:0:
256,192,349093,1,0,0:0:0:0:
256,192,349174,1,8,0:0:0:0:
256,192,349254,1,8,0:0:0:0:
256,192,349334,1,8,0:0:0:0:
256,192,349414,1,0,0:0:0:0:
256,192,349495,1,8,0:0:0:0:
256,192,349575,1,0,0:0:0:0:
256,192,349655,1,0,0:0:0:0:
256,192,349816,1,0,0:0:0:0:
256,192,349896,1,0,0:0:0:0:
256,192,349976,1,8,0:0:0:0:
256,192,350056,1,0,0:0:0:0:
256,192,350136,1,0,0:0:0:0:
256,192,350217,1,0,0:0:0:0:
256,192,350297,1,8,0:0:0:0:
256,192,350377,1,8,0:0:0:0:
256,192,350457,1,8,0:0:0:0:
256,192,350538,1,0,0:0:0:0:
256,192,350618,1,0,0:0:0:0:
256,192,350698,1,0,0:0:0:0:
256,192,350778,1,8,0:0:0:0:
256,192,350859,1,0,0:0:0:0:
256,192,350939,1,0,0:0:0:0:
256,192,351019,1,8,0:0:0:0:
256,192,351099,1,0,0:0:0:0:
256,192,351180,1,0,0:0:0:0:
256,192,351260,1,0,0:0:0:0:
256,192,351340,1,0,0:0:0:0:
256,192,351420,1,8,0:0:0:0:
256,192,351500,1,8,0:0:0:0:
256,192,351581,1,0,0:0:0:0:
256,192,351661,1,8,0:0:0:0:
256,192,351741,1,8,0:0:0:0:
256,192,351821,1,0,0:0:0:0:
256,192,351902,1,0,0:0:0:0:
256,192,351982,1,0,0:0:0:0:
256,192,352062,1,0,0:0:0:0:
256,192,352142,1,0,0:0:0:0:
256,192,352223,1,8,0:0:0:0:
256,192,352303,1,8,0:0:0:0:
256,192,352383,1,8,0:0:0:0:
256,192,352463,1,0,0:0:0:0:
256,192,352544,1,8,0:0:0:0:
256,192,352624,1,0,0:0:0:0:
256,192,352704,1,8,0:0:0:0:
256,192,352784,1,0,0:0:0:0:
256,192,352865,1,0,0:0:0:0:
256,192,352945,1,0,0:0:0:0:
256,192,353025,1,8,0:0:0:0:
256,192,353105,1,8,0:0:0:0:
256,192,353185,1,0,0:0:0:0:
256,192,353266,1,8,0:0:0:0:
256,192,353346,1,8,0:0:0:0:
256,192,353426,1,0,0:0:0:0:
256,192,353506,1,0,0:0:0:0:
256,192,353587,1,0,0:0:0:0:
256,192,353667,1,8,0:0:0:0:
256,192,353747,1,0,0:0:0:0:
256,192,353827,1,0,0:0:0:0:
256,192,353907,1,0,0:0:0:0:
256,192,353987,1,8,0:0:0:0:
256,192,354148,1,8,0:0:0:0:
256,192,354308,1,0,0:0:0:0:
256,192,354389,1,0,0:0:0:0:
256,192,354469,1,8,0:0:0:0:
256,192,354629,1,0,0:0:0:0:
256,192,354710,1,0,0:0:0:0:
256,192,354790,1,8,0:0:0:0:
256,192,354950,1,8,0:0:0:0:
256,192,355031,1,0,0:0:0:0:
256,192,355111,1,8,0:0:0:0:
256,192,355191,1,8,0:0:0:0:
256,192,355271,1,0,0:0:0:0:
256,192,355351,1,0,0:0:0:0:
256,192,355432,1,8,0:0:0:0:
256,192,355512,1,0,0:0:0:0:
256,192,355592,1,8,0:0:0:0:
256,192,355672,1,8,0:0:0:0:
256,192,355753,1,0,0:0:0:0:
256,192,355833,1,0,0:0:0:0:
256,192,355913,1,8,0:0:0:0:
256,192,355993,1,0,0:0:0:0:
256,192,356074,1,0,0:0:0:0:
256,192,356154,1,0,0:0:0:0:
256,192,356234,1,8,0:0:0:0:
256,192,356314,1,0,0:0:0:0:
256,192,356395,1,8,0:0:0:0:
256,192,356475,1,8,0:0:0:0:
256,192,356555,1,0,0:0:0:0:
256,192,356635,1,0,0:0:0:0:
256,192,356716,1,8,0:0:0:0:
256,192,356796,1,0,0:0:0:0:
256,192,356876,1,8,0:0:0:0:
256,192,356956,1,0,0:0:0:0:
256,192,357036,1,0,0:0:0:0:
256,192,357117,1,0,0:0:0:0:
256,192,357197,1,8,0:0:0:0:
256,192,357277,1,8,0:0:0:0:
256,192,357357,1,8,0:0:0:0:
256,192,357438,1,0,0:0:0:0:
256,192,357518,1,8,0:0:0:0:
256,192,357598,1,8,0:0:0:0:
256,192,357678,1,0,0:0:0:0:
256,192,357759,1,8,0:0:0:0:
256,192,357839,1,0,0:0:0:0:
256,192,357919,1,0,0:0:0:0:
256,192,357999,1,8,0:0:0:0:
256,192,358080,1,8,0:0:0:0:
256,192,358160,1,8,0:0:0:0:
256,192,358240,1,0,0:0:0:0:
256,192,358320,1,8,0:0:0:0:
256,192,358401,1,8,0:0:0:0:
256,192,358481,1,8,0:0:0:0:
256,192,358561,1,0,0:0:0:0:
256,192,358641,1,0,0:0:0:0:
256,192,358721,1,0,0:0:0:0:
256,192,358802,1,8,0:0:0:0:
256,192,358882,1,8,0:0:0:0:
256,192,358962,1,8,0:0:0:0:
256,192,359042,1,8,0:0:0:0:
256,192,359123,1,8,0:0:0:0:
256,192,359203,1,8,0:0:0:0:
256,192,359283,1,8,0:0:0:0:
256,192,359363,1,8,0:0:0:0:
256,192,359444,1,0,0:0:0:0:
256,192,359524,1,0,0:0:0:0:
256,192,359604,1,0,0:0:0:0:
256,192,359684,1,0,0:0:0:0:
256,192,359765,1,0,0:0:0:0:
256,192,359925,1,0,0:0:0:0:
256,192,360086,1,8,0:0:0:0:
256,192,360246,1,0,0:0:0:0:
256,192,360326,1,8,0:0:0:0:
256,192,360406,1,0,0:0:0:0:
256,192,360487,1,8,0:0:0:0:
256,192,360567,1,0,0:0:0:0:
256,192,360647,1,0,0:0:0:0:
256,192,360727,1,8,0:0:0:0:
256,192,360808,1,0,0:0:0:0:
256,192,360888,1,0,0:0:0:0:
256,192,360968,1,0,0:0:0:0:
256,192,361048,1,8,0:0:0:0:
256,192,361129,1,0,0:0:0:0:
256,192,361209,1,0,0:0:0:0:
256,192,361289,1,0,0:0:0:0:
256,192,361369,1,8,0:0:0:0:
256,192,361450,1,8,0:0:0:0:
256,192,361530,1,0,0:0:0:0:
256,192,361610,1,8,0:0:0:0:
256,192,361690,1,0,0:0:0:0:
256,192,361770,1,0,0:0:0:0:
256,192,361851,1,8,0:0:0:0:
256,192,361931,1,8,0:0:0:0:
256,192,362011,1,8,0:0:0:0:
256,192,362091,1,0,0:0:0:0:
256,192,362172,1,0,0:0:0:0:
256,192,362252,1,0,0:0:0:0:
256,192,362332,1,8,0:0:0:0:
256,192,362412,1,0,0:0:0:0:
256,192,362493,1,8,0:0:0:0:
256,192,362573,1,8,0:0:0:0:
256,192,362653,1,0,0:0:0:0:
256,192,362733,1,8,0:0:0:0:
256,192,362814,1,8,0:0:0:0:
256,192,362894,1,0,0:0:0:0:
256,192,362974,1,8,0:0:0:0:
256,192,363054,1,0,0:0:0:0:
256,192,363135,1,0,0:0:0:0:
256,192,363215,1,0,0:0:0:0:
256,192,363295,1,8,0:0:0:0:
256,192,363375,1,8,0:0:0:0:
256,192,363455,1,0,0:0:0:0:
256,192,363536,1,0,0:0:0:0:
256,192,363616,1,8,0:0:0:0:
256,192,363696,1,0,0:0:0:0:
256,192,363776,1,0,0:0:0:0:
256,192,363857,1,0,0:0:0:0:
256,192,363937,1,8,0:0:0:0:
256,192,364097,1,0,0:0:0:0:
256,192,364178,1,0,0:0:0:0:
256,192,364258,1,0,0:0:0:0:
256,192,364338,1,0,0:0:0:0:
256,192,364418,1,0,0:0:0:0:
256,192,364579,1,0,0:0:0:0:
256,192,364659,1,0,0:0:0:0:
256,192,364739,1,0,0:0:0:0:
256,192,364820,1,0,0:0:0:0:
256,192,364900,1,0,0:0:0:0:
256,192,364980,1,0,0:0:0:0:
256,192,365060,1,0,0:0:0:0:
256,192,365221,1,8,0:0:0:0:
256,192,365301,1,0,0:0:0:0:
256,192,365381,1,8,0:0:0:0:
256,192,365461,1,8,0:0:0:0:
256,192,365542,1,0,0:0:0:0:
256,192,365622,1,0,0:0:0:0:
256,192,365702,1,8,0:0:0:0:
256,192,365782,1,0,0:0:0:0:
256,192,365863,1,8,0:0:0:0:
256,192,365943,1,8,0:0:0:0:
256,192,366023,1,0,0:0:0:0:
256,192,366103,1,0,0:0:0:0:
256,192,366184,1,8,0:0:0:0:
256,192,366264,1,8,0:0:0:0:
256,192,366344,1,0,0:0:0:0:
256,192,366424,1,0,0:0:0:0:
256,192,366505,1,8,0:0:0:0:
256,192,366585,1,0,0:0:0:0:
256,192,366665,1,8,0:0:0:0:
256,192,366745,1,8,0:0:0:0:
256,192,366825,1,0,0:0:0:0:
256,192,366906,1,0,0:0:0:0:
256,192,366986,1,8,0:0:0:0:
256,192,367066,1,0,0:0:0:0:
256,192,367146,1,8,0:0:0:0:
256,192,367227,1,8,0:0:0:0:
256,192,367307,1,0,0:0:0:0:
256,192,367387,1,0,0:0:0:0:
256,192,367467,1,0,0:0:0:0:
256,192,367548,1,0,0:0:0:0:
256,192,367628,1,8,0:0:0:0:
256,192,367708,1,0,0:0:0:0:
256,192,367788,1,8,0:0:0:0:
256,192,367869,1,0,0:0:0:0:
256,192,367949,1,8,0:0:0:0:
256,192,368109,1,0,0:0:0:0:
256,192,368189,1,0,0:0:0:0:
256,192,368270,1,8,0:0:0:0:
256,192,368350,1,8,0:0:0:0:
256,192,368430,1,8,0:0:0:0:
256,192,368510,1,0,0:0:0:0:
256,192,368591,1,8,0:0:0:0:
256,192,368671,1,8,0:0:0:0:
256,192,368751,1,8,0:0:0:0:
256,192,368831,1,0,0:0:0:0:
256,192,368912,1,0,0:0:0:0:
256,192,368992,1,0,0:0:0:0:
256,192,369072,1,8,0:0:0:0:
256,192,369233,1,0,0:0:0:0:
256,192,369313,1,0,0:0:0:0:
256,192,369393,1,8,0:0:0:0:
256,192,369473,1,0,0:0:0:0:
256,192,369554,1,0,0:0:0:0:
256,192,369634,1,0,0:0:0:0:
256,192,369714,1,8,0:0:0:0:
256,192,369794,1,8,0:0:0:0:
256,192,369874,1,0,0:0:0:0:
256,192,369955,1,0,0:0:0:0:
256,192,370035,1,8,0:0:0:0:
256,192,370195,1,0,0:0:0:0:
256,192,370356,1,8,0:0:0:0:
256,192,370436,1,8,0:0:0:0:
256,192,370516,1,0,0:0:0:0:
256,192,370597,1,8,0:0:0:0:
256,192,370677,1,0,0:0:0:0:
256,192,370757,1,0,0:0:0:0:
256,192,370837,1,8,0:0:0:0:
256,192,370918,1,0,0:0:0:0:
256,192,370998,1,0,0:0:0:0:
256,192,371078,1,0,0:0:0:0:
256,192,371158,1,8,0:0:0:0:
256,192,371239,1,0,0:0:0:0:
256,192,371319,1,8,0:0:0:0:
256,192,371399,1,8,0:0:0:0:
256,192,371479,1,0,0:0:0:0:
256,192,371559,1,0,0:0:0:0:
256,192,371640,1,8,0:0:0:0:
256,192,371720,1,0,0:0:0:0:
256,192,371800,1,0,0:0:0:0:
256,192,371880,1,0,0:0:0:0:
256,192,371961,1,8,0:0:0:0:
256,192,372041,1,8,0:0:0:0:
256,192,372121,1,0,0:0:0:0:
256,192,372201,1,0,0:0:0:0:
256,192,372282,1,8,0:0:0:0:
256,192,372362,1,0,0:0:0:0:
256,192,372442,1,0,0:0:0:0:
256,192,372522,1,0,0:0:0:0:
256,192,372603,1,0,0:0:0:0:
256,192,372683,1,0,0:0:0:0:
256,192,372763,1,8,0:0:0:0:
256,192,372843,1,8,0:0:0:0:
256,192,372924,1,8,0:0:0:0:
256,192,373004,1,0,0:0:0:0:
256,192,373084,1,8,0:0:0:0:
256,192,373164,1,8,0:0:0:0:
256,192,373244,1,8,0:0:0:0:
256,192,373325,1,0,0:0:0:0:
256,192,373405,1,0,0:0:0:0:
256,192,373485,1,0,0:0:0:0:
256,192,373565,1,8,0:0:0:0:
256,192,373646,1,8,0:0:0:0:
256,192,373726,1,0,0:0:0:0:
256,192,373806,1,0,0:0:0:0:
256,192,373886,1,8,0:0:0:0:
256,192,373967,1,0,0:0:0:0:
256,192,374047,1,0,0:0:0:0:
256,192,374127,1,0,0:0:0:0:
256,192,374207,1,8,0:0:0:0:
256,192,374368,1,0,0:0:0:0:
256,192,374448,1,0,0:0:0:0:
256,192,374528,1,8,0:0:0:0:
256,192,374689,1,8,0:0:0:0:
256,192,374849,1,0,0:0:0:0:
256,192,374929,1,0,0:0:0:0:
256,192,375010,1,8,0:0:0:0:
256,192,375170,1,0,0:0:0:0:
256,192,375250,1,0,0:0:0:0:
256,192,375331,1,8,0:0:0:0:
256,192,375491,1,8,0:0:0:0:
256,192,375571,1,0,0:0:0:0:
256,192,375652,1,8,0:0:0:0:
256,192,375732,1,8,0:0:0:0:
256,192,375812,1,0,0:0:0:0:
256,192,375892,1,0,0:0:0:0:
256,192,375973,1,8,0:0:0:0:
256,192,376053,1,0,0:0:0:0:
256,192,376133,1,8,0:0:0:0:
256,192,376213,1,8,0:0:0:0:
256,192,376293,1,0,0:0:0:0:
256,192,376374,1,0,0:0:0:0:
256,192,376454,1,8,0:0:0:0:
256,192,376534,1,0,0:0:0:0:
256,192,376614,1,0,0:0:0:0:
256,192,376695,1,0,0:0:0:0:
256,192,376775,1,8,0:0:0:0:
256,192,376855,1,0,0:0:0:0:
256,192,376935,1,8,0:0:0:0:
256,192,377016,1,8,0:0:0:0:
256,192,377096,1,0,0:0:0:0:
256,192,377176,1,0,0:0:0:0:
256,192,377256,1,8,0:0:0:0:
256,192,377337,1,0,0:0:0:0:
256,192,377417,1,8,0:0:0:0:
256,192,377497,1,0,0:0:0:0:
256,192,377577,1,0,0:0:0:0:
256,192,377658,1,0,0:0:0:0:
256,192,377738,1,8,0:0:0:0:
256,192,377818,1,8,0:0:0:0:
256,192,377898,1,8,0:0:0:0:
256,192,377978,1,0,0:0:0:0:
256,192,378059,1,8,0:0:0:0:
256,192,378139,1,8,0:0:0:0:
256,192,378219,1,0,0:0:0:0:
256,192,378299,1,8,0:0:0:0:
256,192,378380,1,0,0:0:0:0:
256,192,378540,1,8,0:0:0:0:
256,192,378620,1,8,0:0:0:0:
256,192,378701,1,0,0:0:0:0:
256,192,378861,1,8,0:0:0:0:
256,192,378941,1,8,0:0:0:0:
256,192,379022,1,0,0:0:0:0:
256,192,379182,1,0,0:0:0:0:
256,192,379262,1,0,0:0:0:0:
256,192,379343,1,8,0:0:0:0:
256,192,379503,1,8,0:0:0:0:
256,192,379583,1,8,0:0:0:0:
256,192,379663,1,8,0:0:0:0:
256,192,379744,1,8,0:0:0:0:
256,192,379824,1,0,0:0:0:0:
256,192,379904,1,0,0:0:0:0:
256,192,379984,1,0,0:0:0:0:
256,192,380065,1,0,0:0:0:0:
256,192,380145,1,0,0:0:0:0:
256,192,380225,1,0,0:0:0:0:
256,192,380305,1,0,0:0:0:0:
256,192,380386,1,0,0:0:0:0:
256,192,380466,1,0,0:0:0:0:
256,192,380546,1,0,0:0:0:0:
256,192,380610,1,8,0:0:0:0:
256,192,380930,1,8,0:0:0:0:
256,192,381091,1,0,0:0:0:0:
256,192,381171,1,0,0:0:0:0:
256,192,381251,1,8,0:0:0:0:
256,192,381412,1,0,0:0:0:0:
256,192,381492,1,8,0:0:0:0:
256,192,381572,1,0,0:0:0:0:
256,192,381733,1,0,0:0:0:0:
256,192,381813,1,0,0:0:0:0:
256,192,381893,1,8,0:0:0:0:
256,192,382054,1,0,0:0:0:0:
256,192,382134,1,0,0:0:0:0:
256,192,382214,1,8,0:0:0:0:
256,192,382375,1,0,0:0:0:0:
256,192,382455,1,8,0:0:0:0:
256,192,382535,1,0,0:0:0:0:
256,192,382696,1,0,0:0:0:0:
256,192,382776,1,0,0:0:0:0:
256,192,382856,1,8,0:0:0:0:
256,192,383017,1,0,0:0:0:0:
256,192,383097,1,0,0:0:0:0:
256,192,383177,1,8,0:0:0:0:
256,192,383338,1,0,0:0:0:0:
256,192,383418,1,0,0:0:0:0:
256,192,383498,1,8,0:0:0:0:
256,192,383659,1,0,0:0:0:0:
256,192,383819,1,0,0:0:0:0:
256,192,383899,1,0,0:0:0:0:
256,192,383979,1,8,0:0:0:0:
256,192,384060,1,0,0:0:0:0:
256,192,384140,1,8,0:0:0:0:
256,192,384220,1,8,0:0:0:0:
256,192,384300,1,0,0:0:0:0:
256,192,384461,1,8,0:0:0:0:
256,192,384621,1,0,0:0:0:0:
256,192,384702,1,0,0:0:0:0:
256,192,384782,1,8,0:0:0:0:
256,192,384942,1,8,0:0:0:0:
256,192,385023,1,8,0:0:0:0:
256,192,385103,1,0,0:0:0:0:
256,192,385183,1,8,0:0:0:0:
256,192,385263,1,0,0:0:0:0:
256,192,385344,1,0,0:0:0:0:
256,192,385424,1,8,0:0:0:0:
256,192,385584,1,0,0:0:0:0:
256,192,385745,1,8,0:0:0:0:
256,192,385825,1,0,0:0:0:0:
256,192,385905,1,0,0:0:0:0:
256,192,385985,1,0,0:0:0:0:
256,192,386066,1,8,0:0:0:0:
256,192,386146,1,0,0:0:0:0:
256,192,386226,1,8,0:0:0:0:
256,192,386306,1,8,0:0:0:0:
256,192,386387,1,8,0:0:0:0:
256,192,386547,1,0,0:0:0:0:
256,192,386708,1,8,0:0:0:0:
256,192,386868,1,0,0:0:0:0:
256,192,386948,1,0,0:0:0:0:
256,192,387029,1,8,0:0:0:0:
256,192,387189,1,0,0:0:0:0:
256,192,387349,1,8,0:0:0:0:
256,192,387430,1,0,0:0:0:0:
256,192,387510,1,0,0:0:0:0:
256,192,387590,1,0,0:0:0:0:
256,192,387670,1,8,0:0:0:0:
256,192,387751,1,0,0:0:0:0:
256,192,387831,1,8,0:0:0:0:
256,192,387911,1,8,0:0:0:0:
256,192,387991,1,0,0:0:0:0:
256,192,388072,1,8,0:0:0:0:
256,192,388152,1,0,0:0:0:0:
256,192,388232,1,0,0:0:0:0:
256,192,388312,1,8,0:0:0:0:
256,192,388633,1,0,0:0:0:0:
256,192,388713,1,0,0:0:0:0:
256,192,388794,1,0,0:0:0:0:
256,192,388874,1,0,0:0:0:0:
256,192,388954,1,8,0:0:0:0:
256,192,389115,1,0,0:0:0:0:
256,192,389275,1,8,0:0:0:0:
256,192,389436,1,0,0:0:0:0:
256,192,389516,1,0,0:0:0:0:
256,192,389596,1,8,0:0:0:0:
256,192,389757,1,0,0:0:0:0:
256,192,389837,1,0,0:0:0:0:
256,192,389917,1,8,0:0:0:0:
256,192,389997,1,0,0:0:0:0:
256,192,390078,1,0,0:0:0:0:
256,192,390238,1,8,0:0:0:0:
256,192,390398,1,0,0:0:0:0:
256,192,390559,1,0,0:0:0:0:
256,192,390639,1,0,0:0:0:0:
256,192,390719,1,8,0:0:0:0:
256,192,390800,1,8,0:0:0:0:
256,192,390880,1,0,0:0:0:0:
256,192,390960,1,0,0:0:0:0:
256,192,391040,1,8,0:0:0:0:
256,192,391121,1,0,0:0:0:0:
256,192,391201,1,8,0:0:0:0:
256,192,391281,1,8,0:0:0:0:
256,192,391361,1,0,0:0:0:0:
256,192,391442,1,0,0:0:0:0:
256,192,391522,1,0,0:0:0:0:
256,192,391602,1,0,0:0:0:0:
256,192,391682,1,8,0:0:0:0:
256,192,391763,1,8,0:0:0:0:
256,192,391843,1,0,0:0:0:0:
256,192,391923,1,0,0:0:0:0:
256,192,392003,1,0,0:0:0:0:
256,192,392083,1,0,0:0:0:0:
256,192,392164,1,8,0:0:0:0:
256,192,392485,1,0,0:0:0:0:
256,192,392565,1,0,0:0:0:0:
256,192,392645,1,0,0:0:0:0:
256,192,392725,1,0,0:0:0:0:
256,192,392806,1,8,0:0:0:0:
256,192,392966,1,0,0:0:0:0:
256,192,393046,1,0,0:0:0:0:
256,192,393127,1,8,0:0:0:0:
256,192,393207,1,0,0:0:0:0:
256,192,393287,1,0,0:0:0:0:
256,192,393367,1,0,0:0:0:0:
256,192,393448,1,8,0:0:0:0:
256,192,393608,1,0,0:0:0:0:
256,192,393688,1,0,0:0:0:0:
256,192,393768,1,8,0:0:0:0:
256,192,393929,1,0,0:0:0:0:
256,192,394009,1,0,0:0:0:0:
256,192,394089,1,8,0:0:0:0:
256,192,394170,1,8,0:0:0:0:
256,192,394250,1,8,0:0:0:0:
256,192,394330,1,8,0:0:0:0:
256,192,394410,1,8,0:0:0:0:
256,192,394624,1,0,0:0:0:0:
256,192,394678,1,0,0:0:0:0:
256,192,394731,1,0,0:0:0:0:
256,192,394945,1,0,0:0:0:0:
256,192,394999,1,0,0:0:0:0:
256,192,395052,1,0,0:0:0:0:
256,192,395266,1,0,0:0:0:0:
256,192,395320,1,0,0:0:0:0:
256,192,395373,1,0,0:0:0:0:
256,192,395587,1,0,0:0:0:0:
256,192,395641,1,0,0:0:0:0:
256,192,395694,1,0,0:0:0:0:
256,192,395908,1,0,0:0:0:0:
256,192,395962,1,0,0:0:0:0:
256,192,396015,1,8,0:0:0:0:
256,192,396336,1,0,0:0:0:0:
256,192,396416,1,0,0:0:0:0:
256,192,396497,1,8,0:0:0:0:
256,192,396577,1,0,0:0:0:0:
256,192,396657,1,8,0:0:0:0:
256,192,396737,1,8,0:0:0:0:
256,192,396817,1,0,0:0:0:0:
256,192,396898,1,0,0:0:0:0:
256,192,396978,1,8,0:0:0:0:
256,192,397138,1,0,0:0:0:0:
256,192,397299,1,8,0:0:0:0:
256,192,397379,1,0,0:0:0:0:
256,192,397459,1,0,0:0:0:0:
256,192,397540,1,0,0:0:0:0:
256,192,397620,1,8,0:0:0:0:
256,192,397700,1,8,0:0:0:0:
256,192,397780,1,0,0:0:0:0:
256,192,397861,1,0,0:0:0:0:
256,192,397941,1,8,0:0:0:0:
256,192,398101,1,0,0:0:0:0:
256,192,398182,1,0,0:0:0:0:
256,192,398262,1,8,0:0:0:0:
256,192,398422,1,0,0:0:0:0:
256,192,398583,1,8,0:0:0:0:
256,192,398663,1,8,0:0:0:0:
256,192,398743,1,0,0:0:0:0:
256,192,398823,1,8,0:0:0:0:
256,192,398904,1,8,0:0:0:0:
256,192,399064,1,0,0:0:0:0:
256,192,399225,1,8,0:0:0:0:
256,192,399305,1,8,0:0:0:0:
256,192,399385,1,0,0:0:0:0:
256,192,399465,1,0,0:0:0:0:
256,192,399546,1,8,0:0:0:0:
256,192,399706,1,0,0:0:0:0:
256,192,399867,1,8,0:0:0:0:
256,192,399947,1,8,0:0:0:0:
256,192,400027,1,0,0:0:0:0:
256,192,400107,1,0,0:0:0:0:
256,192,400187,1,0,0:0:0:0:
256,192,400348,1,0,0:0:0:0:
256,192,400508,1,8,0:0:0:0:
256,192,400669,1,0,0:0:0:0:
256,192,400749,1,0,0:0:0:0:
256,192,400829,1,8,0:0:0:0:
256,192,400990,1,0,0:0:0:0:
256,192,401150,1,0,0:0:0:0:
256,192,401311,1,0,0:0:0:0:
256,192,401391,1,0,0:0:0:0:
256,192,401471,1,8,0:0:0:0:
256,192,401632,1,0,0:0:0:0:
256,192,401792,1,8,0:0:0:0:
256,192,401872,1,8,0:0:0:0:
256,192,401953,1,0,0:0:0:0:
256,192,402033,1,0,0:0:0:0:
256,192,402113,1,0,0:0:0:0:
256,192,402274,1,0,0:0:0:0:
256,192,402434,1,8,0:0:0:0:
256,192,402514,1,0,0:0:0:0:
256,192,402595,1,8,0:0:0:0:
256,192,402675,1,8,0:0:0:0:
256,192,402755,1,0,0:0:0:0:
256,192,403076,1,0,0:0:0:0:
256,192,403156,1,0,0:0:0:0:
256,192,403236,1,0,0:0:0:0:
256,192,403317,1,0,0:0:0:0:
256,192,403397,1,8,0:0:0:0:
256,192,403477,1,0,0:0:0:0:
256,192,403557,1,0,0:0:0:0:
256,192,403638,1,8,0:0:0:0:
256,192,403718,1,0,0:0:0:0:
256,192,403878,1,0,0:0:0:0:
256,192,404039,1,8,0:0:0:0:
256,192,404119,1,8,0:0:0:0:
256,192,404199,1,0,0:0:0:0:
256,192,404280,1,8,0:0:0:0:
256,192,404360,1,0,0:0:0:0:
256,192,404520,1,0,0:0:0:0:
256,192,404681,1,8,0:0:0:0:
256,192,404841,1,0,0:0:0:0:
256,192,405002,1,8,0:0:0:0:
256,192,405082,1,8,0:0:0:0:
256,192,405162,1,0,0:0:0:0:
256,192,405242,1,0,0:0:0:0:
256,192,405323,1,8,0:0:0:0:
256,192,405403,1,8,0:0:0:0:
256,192,405483,1,0,0:0:0:0:
256,192,405563,1,0,0:0:0:0:
256,192,405644,1,8,0:0:0:0:
256,192,405804,1,0,0:0:0:0:
256,192,405884,1,0,0:0:0:0:
256,192,405965,1,8,0:0:0:0:
256,192,406045,1,0,0:0:0:0:
256,192,406125,1,8,0:0:0:0:
256,192,406205,1,8,0:0:0:0:
256,192,406286,1,8,0:0:0:0:
256,192,406366,1,0,0:0:0:0:
256,192,406446,1,8,0:0:0:0:
256,192,406526,1,8,0:0:0:0:
256,192,406606,1,8,0:0:0:0:
256,192,406687,1,0,0:0:0:0:
256,192,406767,1,0,0:0:0:0:
256,192,406847,1,0,0:0:0:0:
256,192,406927,1,0,0:0:0:0:
256,192,407008,1,0,0:0:0:0:
256,192,407088,1,8,0:0:0:0:
256,192,407168,1,0,0:0:0:0:
256,192,407248,1,0,0:0:0:0:
256,192,407329,1,0,0:0:0:0:
256,192,407409,1,0,0:0:0:0:
256,192,407489,1,0,0:0:0:0:
256,192,407569,1,8,0:0:0:0:
256,192,407890,1,0,0:0:0:0:
256,192,407970,1,0,0:0:0:0:
256,192,408051,1,0,0:0:0:0:
256,192,408131,1,0,0:0:0:0:
256,192,408211,1,8,0:0:0:0:
256,192,408372,1,0,0:0:0:0:
256,192,408532,1,8,0:0:0:0:
256,192,408853,1,0,0:0:0:0:
256,192,408933,1,0,0:0:0:0:
256,192,409014,1,0,0:0:0:0:
256,192,409094,1,0,0:0:0:0:
256,192,409174,1,8,0:0:0:0:
256,192,409335,1,0,0:0:0:0:
256,192,409495,1,8,0:0:0:0:
256,192,409575,1,8,0:0:0:0:
256,192,409655,1,0,0:0:0:0:
256,192,409736,1,0,0:0:0:0:
256,192,409816,1,0,0:0:0:0:
256,192,409896,1,8,0:0:0:0:
256,192,409976,1,0,0:0:0:0:
256,192,410057,1,8,0:0:0:0:
256,192,410137,1,8,0:0:0:0:
256,192,410217,1,8,0:0:0:0:
256,192,410297,1,0,0:0:0:0:
256,192,410378,1,8,0:0:0:0:
256,192,410458,1,0,0:0:0:0:
256,192,410618,1,0,0:0:0:0:
256,192,410699,1,0,0:0:0:0:
256,192,410779,1,0,0:0:0:0:
256,192,410939,1,0,0:0:0:0:
256,192,411020,1,0,0:0:0:0:
256,192,411100,1,0,0:0:0:0:
256,192,411260,1,0,0:0:0:0:
256,192,411340,1,0,0:0:0:0:
256,192,411421,1,8,0:0:0:0:
256,192,411742,1,0,0:0:0:0:
256,192,411822,1,0,0:0:0:0:
256,192,411902,1,0,0:0:0:0:
256,192,411982,1,8,0:0:0:0:
256,192,412063,1,0,0:0:0:0:
256,192,412223,1,0,0:0:0:0:
256,192,412303,1,8,0:0:0:0:
256,192,412384,1,0,0:0:0:0:
256,192,412464,1,0,0:0:0:0:
256,192,412544,1,8,0:0:0:0:
256,192,412624,1,0,0:0:0:0:
256,192,412705,1,8,0:0:0:0:
256,192,412865,1,0,0:0:0:0:
256,192,412945,1,8,0:0:0:0:
256,192,413025,1,0,0:0:0:0:
256,192,413186,1,0,0:0:0:0:
256,192,413346,1,8,0:0:0:0:
256,192,413507,1,0,0:0:0:0:
256,192,413587,1,0,0:0:0:0:
256,192,413667,1,8,0:0:0:0:
256,192,413828,1,0,0:0:0:0:
256,192,413988,1,8,0:0:0:0:
256,192,414069,1,0,0:0:0:0:
256,192,414149,1,0,0:0:0:0:
256,192,414229,1,8,0:0:0:0:
256,192,414309,1,0,0:0:0:0:
256,192,414470,1,0,0:0:0:0:
256,192,414550,1,0,0:0:0:0:
256,192,414630,1,8,0:0:0:0:
256,192,414791,1,0,0:0:0:0:
256,192,414951,1,8,0:0:0:0:
256,192,415031,1,8,0:0:0:0:
256,192,415112,1,0,0:0:0:0:
256,192,415192,1,0,0:0:0:0:
256,192,415272,1,8,0:0:0:0:
256,192,415433,1,0,0:0:0:0:
256,192,415513,1,0,0:0:0:0:
256,192,415593,1,0,0:0:0:0:
256,192,415754,1,0,0:0:0:0:
256,192,415914,1,8,0:0:0:0:
256,192,415994,1,0,0:0:0:0:
256,192,416074,1,0,0:0:0:0:
256,192,416155,1,0,0:0:0:0:
256,192,416235,1,8,0:0:0:0:
256,192,416395,1,0,0:0:0:0:
256,192,416476,1,0,0:0:0:0:
256,192,416556,1,0,0:0:0:0:
256,192,416716,1,0,0:0:0:0:
256,192,416797,1,0,0:0:0:0:
256,192,416877,1,8,0:0:0:0:
256,192,417037,1,0,0:0:0:0:
256,192,417198,1,8,0:0:0:0:
256,192,417278,1,0,0:0:0:0:
256,192,417358,1,0,0:0:0:0:
256,192,417439,1,0,0:0:0:0:
256,192,417519,1,8,0:0:0:0:
256,192,417599,1,8,0:0:0:0:
256,192,417679,1,0,0:0:0:0:
256,192,417759,1,0,0:0:0:0:
256,192,417840,1,0,0:0:0:0:
256,192,418000,1,0,0:0:0:0:
256,192,418161,1,8,0:0:0:0:
256,192,418241,1,8,0:0:0:0:
256,192,418321,1,0,0:0:0:0:
256,192,418401,1,0,0:0:0:0:
256,192,418482,1,0,0:0:0:0:
256,192,418562,1,0,0:0:0:0:
256,192,418642,1,0,0:0:0:0:
256,192,418722,1,0,0:0:0:0:
256,192,418803,1,0,0:0:0:0:
256,192,418883,1,0,0:0:0:0:
256,192,418963,1,0,0:0:0:0:
256,192,419043,1,0,0:0:0:0:
256,192,419124,1,8,0:0:0:0:
256,192,419444,1,0,0:0:0:0:
256,192,419525,1,0,0:0:0:0:
256,192,419605,1,0,0:0:0:0:
256,192,419685,1,0,0:0:0:0:
256,192,419765,1,0,0:0:0:0:
256,192,419846,1,0,0:0:0:0:
256,192,419926,1,0,0:0:0:0:
256,192,420006,1,0,0:0:0:0:
256,192,420086,1,8,0:0:0:0:
256,192,420247,1,0,0:0:0:0:
256,192,420327,1,0,0:0:0:0:
256,192,420407,1,8,0:0:0:0:
256,192,420568,1,0,0:0:0:0:
256,192,420648,1,0,0:0:0:0:
256,192,420728,1,0,0:0:0:0:
256,192,420808,1,0,0:0:0:0:
256,192,420889,1,0,0:0:0:0:
256,192,420969,1,0,0:0:0:0:
256,192,421049,1,8,0:0:0:0:
256,192,421210,1,0,0:0:0:0:
256,192,421290,1,0,0:0:0:0:
256,192,421370,1,0,0:0:0:0:
256,192,421450,1,0,0:0:0:0:
256,192,421531,1,0,0:0:0:0:
256,192,421611,1,0,0:0:0:0:
256,192,421691,1,8,0:0:0:0:
256,192,421852,1,0,0:0:0:0:
256,192,421932,1,0,0:0:0:0:
256,192,422012,1,8,0:0:0:0:
256,192,422173,1,0,0:0:0:0:
256,192,422253,1,0,0:0:0:0:
256,192,422333,1,8,0:0:0:0:
256,192,422413,1,8,0:0:0:0:
256,192,422493,1,0,0:0:0:0:
256,192,422574,1,0,0:0:0:0:
256,192,422654,1,8,0:0:0:0:
256,192,422734,1,8,0:0:0:0:
256,192,422814,1,0,0:0:0:0:
256,192,422895,1,0,0:0:0:0:
256,192,422975,1,8,0:0:0:0:
256,192,423296,1,8,0:0:0:0:
256,192,423456,1,0,0:0:0:0:
256,192,423537,1,0,0:0:0:0:
256,192,423617,1,8,0:0:0:0:
256,192,423777,1,0,0:0:0:0:
256,192,423858,1,0,0:0:0:0:
256,192,423938,1,0,0:0:0:0:
256,192,424018,1,8,0:0:0:0:
256,192,424098,1,0,0:0:0:0:
256,192,424178,1,0,0:0:0:0:
256,192,424259,1,8,0:0:0:0:
256,192,424339,1,8,0:0:0:0:
256,192,424419,1,0,0:0:0:0:
256,192,424499,1,0,0:0:0:0:
256,192,424580,1,8,0:0:0:0:
256,192,424660,1,8,0:0:0:0:
256,192,424740,1,0,0:0:0:0:
256,192,424820,1,0,0:0:0:0:
256,192,424901,1,8,0:0:0:0:
256,192,425222,1,0,0:0:0:0:
256,192,425302,1,0,0:0:0:0:
256,192,425382,1,8,0:0:0:0:
256,192,425462,1,0,0:0:0:0:
256,192,425543,1,8,0:0:0:0:
256,192,425623,1,8,0:0:0:0:
256,192,425703,1,8,0:0:0:0:
256,192,425783,1,0,0:0:0:0:
256,192,425863,1,8,0:0:0:0:
256,192,425944,1,0,0:0:0:0:
256,192,426024,1,0,0:0:0:0:
256,192,426104,1,0,0:0:0:0:
256,192,426184,1,8,0:0:0:0:
256,192,426265,1,0,0:0:0:0:
256,192,426345,1,8,0:0:0:0:
256,192,426425,1,0,0:0:0:0:
256,192,426505,1,8,0:0:0:0:
256,192,426586,1,8,0:0:0:0:
256,192,426666,1,8,0:0:0:0:
256,192,426746,1,0,0:0:0:0:
256,192,426826,1,8,0:0:0:0:
256,192,426987,1,0,0:0:0:0:
256,192,427067,1,0,0:0:0:0:
256,192,427147,1,8,0:0:0:0:
256,192,427227,1,8,0:0:0:0:
256,192,427308,1,0,0:0:0:0:
256,192,427388,1,0,0:0:0:0:
256,192,427468,1,8,0:0:0:0:
256,192,427548,1,0,0:0:0:0:
256,192,427629,1,0,0:0:0:0:
256,192,427709,1,0,0:0:0:0:
256,192,427789,1,8,0:0:0:0:
256,192,427869,1,0,0:0:0:0:
256,192,427950,1,0,0:0:0:0:
256,192,428030,1,0,0:0:0:0:
256,192,428110,1,8,0:0:0:0:
256,192,428190,1,0,0:0:0:0:
256,192,428271,1,0,0:0:0:0:
256,192,428351,1,0,0:0:0:0:
256,192,428431,1,8,0:0:0:0:
256,192,428511,1,0,0:0:0:0:
256,192,428592,1,0,0:0:0:0:
256,192,428672,1,0,0:0:0:0:
256,192,428752,1,8,0:0:0:0:
256,192,429073,1,0,0:0:0:0:
256,192,429153,1,0,0:0:0:0:
256,192,429233,1,0,0:0:0:0:
256,192,429314,1,0,0:0:0:0:
256,192,429394,1,8,0:0:0:0:
256,192,429554,1,0,0:0:0:0:
256,192,429635,1,0,0:0:0:0:
256,192,429715,1,8,0:0:0:0:
256,192,429875,1,0,0:0:0:0:
256,192,429956,1,0,0:0:0:0:
256,192,430036,1,8,0:0:0:0:
256,192,430116,1,8,0:0:0:0:
256,192,430196,1,0,0:0:0:0:
256,192,430277,1,0,0:0:0:0:
256,192,430357,1,8,0:0:0:0:
256,192,430437,1,0,0:0:0:0:
256,192,430517,1,0,0:0:0:0:
256,192,430597,1,0,0:0:0:0:
256,192,430678,1,8,0:0:0:0:
256,192,430838,1,0,0:0:0:0:
256,192,430918,1,0,0:0:0:0:
256,192,430999,1,8,0:0:0:0:
256,192,431079,1,0,0:0:0:0:
256,192,431159,1,0,0:0:0:0:
256,192,431239,1,0,0:0:0:0:
256,192,431320,1,8,0:0:0:0:
256,192,431400,1,0,0:0:0:0:
256,192,431480,1,0,0:0:0:0:
256,192,431560,1,0,0:0:0:0:
256,192,431641,1,8,0:0:0:0:
256,192,431801,1,0,0:0:0:0:
256,192,431962,1,8,0:0:0:0:
256,192,432042,1,0,0:0:0:0:
256,192,432122,1,0,0:0:0:0:
256,192,432202,1,0,0:0:0:0:
256,192,432282,1,8,0:0:0:0:
256,192,432363,1,0,0:0:0:0:
256,192,432443,1,0,0:0:0:0:
256,192,432523,1,0,0:0:0:0:
256,192,432603,1,8,0:0:0:0:
256,192,432764,1,0,0:0:0:0:
256,192,432844,1,0,0:0:0:0:
256,192,432924,1,8,0:0:0:0:
256,192,433005,1,0,0:0:0:0:
256,192,433085,1,0,0:0:0:0:
256,192,433165,1,0,0:0:0:0:
256,192,433245,1,8,0:0:0:0:
256,192,433406,1,8,0:0:0:0:
256,192,433486,1,0,0:0:0:0:
256,192,433566,1,8,0:0:0:0:
256,192,433727,1,0,0:0:0:0:
256,192,433807,1,0,0:0:0:0:
256,192,433887,1,8,0:0:0:0:
256,192,433967,1,0,0:0:0:0:
256,192,434048,1,0,0:0:0:0:
256,192,434128,1,0,0:0:0:0:
256,192,434208,1,8,0:0:0:0:
256,192,434369,1,0,0:0:0:0:
256,192,434449,1,0,0:0:0:0:
256,192,434529,1,8,0:0:0:0:
256,192,434609,1,8,0:0:0:0:
256,192,434690,1,0,0:0:0:0:
256,192,434770,1,0,0:0:0:0:
256,192,434850,1,8,0:0:0:0:
256,192,434930,1,8,0:0:0:0:
256,192,435011,1,0,0:0:0:0:
256,192,435091,1,0,0:0:0:0:
256,192,435171,1,8,0:0:0:0:
256,192,435251,1,8,0:0:0:0:
256,192,435331,1,0,0:0:0:0:
256,192,435412,1,0,0:0:0:0:
256,192,435492,1,8,0:0:0:0:
256,192,435652,1,0,0:0:0:0:
256,192,435733,1,0,0:0:0:0:
256,192,435813,1,8,0:0:0:0:
256,192,435973,1,0,0:0:0:0:
256,192,436054,1,0,0:0:0:0:
256,192,436134,1,8,0:0:0:0:
256,192,436294,1,0,0:0:0:0:
256,192,436375,1,0,0:0:0:0:
256,192,436455,1,8,0:0:0:0:
256,192,436615,1,0,0:0:0:0:
256,192,436696,1,0,0:0:0:0:
256,192,436776,1,8,0:0:0:0:
256,192,436856,1,0,0:0:0:0:
256,192,436936,1,0,0:0:0:0:
256,192,437016,1,0,0:0:0:0:
256,192,437097,1,8,0:0:0:0:
256,192,437177,1,8,0:0:0:0:
256,192,437257,1,0,0:0:0:0:
256,192,437337,1,0,0:0:0:0:
256,192,437418,1,8,0:0:0:0:
256,192,437578,1,0,0:0:0:0:
256,192,437658,1,0,0:0:0:0:
256,192,437739,1,8,0:0:0:0:
256,192,437819,1,0,0:0:0:0:
256,192,437899,1,0,0:0:0:0:
256,192,437979,1,0,0:0:0:0:
256,192,438060,1,8,0:0:0:0:
256,192,438140,1,0,0:0:0:0:
256,192,438220,1,0,0:0:0:0:
256,192,438300,1,0,0:0:0:0:
256,192,438381,1,8,0:0:0:0:
256,192,438541,1,0,0:0:0:0:
256,192,438621,1,0,0:0:0:0:
256,192,438701,1,8,0:0:0:0:
256,192,438862,1,0,0:0:0:0:
256,192,438942,1,0,0:0:0:0:
256,192,439022,1,8,0:0:0:0:
256,192,439183,1,0,0:0:0:0:
256,192,439263,1,0,0:0:0:0:
256,192,439343,1,8,0:0:0:0:
256,192,439424,1,0,0:0:0:0:
256,192,439504,1,0,0:0:0:0:
256,192,439584,1,0,0:0:0:0:
256,192,439664,1,8,0:0:0:0:
256,192,439745,1,0,0:0:0:0:
256,192,439825,1,0,0:0:0:0:
256,192,439905,1,0,0:0:0:0:
256,192,439985,1,8,0:0:0:0:
256,192,440065,1,0,0:0:0:0:
256,192,440146,1,0,0:0:0:0:
256,192,440226,1,0,0:0:0:0:
256,192,440306,1,8,0:0:0:0:
256,192,440467,1,0,0:0:0:0:
256,192,440547,1,0,0:0:0:0:
256,192,440627,1,8,0:0:0:0:
256,192,440707,1,0,0:0:0:0:
256,192,440788,1,0,0:0:0:0:
256,192,440868,1,0,0:0:0:0:
256,192,440948,1,8,0:0:0:0:
256,192,441028,1,0,0:0:0:0:
256,192,441109,1,8,0:0:0:0:
256,192,441189,1,8,0:0:0:0:
256,192,441269,1,8,0:0:0:0:
256,192,441430,1,0,0:0:0:0:
256,192,441510,1,0,0:0:0:0:
256,192,441590,1,0,0:0:0:0:
256,192,441670,1,0,0:0:0:0:
256,192,441750,1,0,0:0:0:0:
256,192,441831,1,0,0:0:0:0:
256,192,441911,1,8,0:0:0:0:
256,192,441991,1,8,0:0:0:0:
256,192,442071,1,0,0:0:0:0:
256,192,442152,1,0,0:0:0:0:
256,192,442232,1,8,0:0:0:0:
256,192,442312,1,8,0:0:0:0:
256,192,442392,1,8,0:0:0:0:
256,192,442473,1,8,0:0:0:0:
256,192,442553,1,0,0:0:0:0:
256,192,442633,1,0,0:0:0:0:
256,192,442713,1,0,0:0:0:0:
256,192,442794,1,0,0:0:0:0:
256,192,442874,1,8,0:0:0:0:
256,192,442954,1,8,0:0:0:0:
256,192,443034,1,8,0:0:0:0:
256,192,443115,1,8,0:0:0:0:
256,192,443195,1,0,0:0:0:0:
256,192,443275,1,0,0:0:0:0:
256,192,443355,1,0,0:0:0:0:
256,192,443516,1,0,0:0:0:0:
256,192,443596,1,0,0:0:0:0:
256,192,443676,1,0,0:0:0:0:
256,192,443837,1,0,0:0:0:0:
256,192,443917,1,0,0:0:0:0:
256,192,443997,1,0,0:0:0:0:
256,192,444158,1,8,0:0:0:0:
256,192,444238,1,0,0:0:0:0:
256,192,444318,1,0,0:0:0:0:
256,192,444398,1,0,0:0:0:0:
256,192,444479,1,8,0:0:0:0:
256,192,444639,1,0,0:0:0:0:
256,192,444719,1,0,0:0:0:0:
256,192,444800,1,8,0:0:0:0:
256,192,444880,1,0,0:0:0:0:
256,192,444960,1,0,0:0:0:0:
256,192,445120,1,8,0:0:0:0:
256,192,445281,1,0,0:0:0:0:
256,192,445361,1,0,0:0:0:0:
256,192,445441,1,8,0:0:0:0:
256,192,445602,1,0,0:0:0:0:
256,192,445762,1,8,0:0:0:0:
256,192,445843,1,8,0:0:0:0:
256,192,445923,1,0,0:0:0:0:
256,192,446003,1,0,0:0:0:0:
256,192,446083,1,8,0:0:0:0:
256,192,446244,1,0,0:0:0:0:
256,192,446324,1,0,0:0:0:0:
256,192,446404,1,8,0:0:0:0:
256,192,446565,1,0,0:0:0:0:
256,192,446645,1,0,0:0:0:0:
256,192,446725,1,8,0:0:0:0:
256,192,446886,1,0,0:0:0:0:
256,192,446966,1,0,0:0:0:0:
256,192,447046,1,8,0:0:0:0:
256,192,447207,1,0,0:0:0:0:
256,192,447287,1,0,0:0:0:0:
256,192,447367,1,8,0:0:0:0:
256,192,447447,1,8,0:0:0:0:
256,192,447528,1,0,0:0:0:0:
256,192,447608,1,0,0:0:0:0:
256,192,447688,1,8,0:0:0:0:
256,192,447849,1,0,0:0:0:0:
256,192,447929,1,0,0:0:0:0:
256,192,448009,1,8,0:0:0:0:
256,192,448169,1,0,0:0:0:0:
256,192,448250,1,0,0:0:0:0:
256,192,448330,1,0,0:0:0:0:
256,192,448410,1,0,0:0:0:0:
256,192,448490,1,0,0:0:0:0:
256,192,448571,1,0,0:0:0:0:
256,192,448651,1,8,0:0:0:0:
256,192,448731,1,0,0:0:0:0:
256,192,448811,1,8,0:0:0:0:
256,192,448892,1,0,0:0:0:0:
256,192,448972,1,8,0:0:0:0:
256,192,449132,1,0,0:0:0:0:
256,192,449213,1,0,0:0:0:0:
256,192,449293,1,0,0:0:0:0:
256,192,449373,1,0,0:0:0:0:
256,192,449453,1,0,0:0:0:0:
256,192,449534,1,0,0:0:0:0:
256,192,449614,1,8,0:0:0:0:
256,192,449694,1,8,0:0:0:0:
256,192,449774,1,0,0:0:0:0:
256,192,449854,1,0,0:0:0:0:
256,192,449935,1,8,0:0:0:0:
256,192,450095,1,0,0:0:0:0:
256,192,450175,1,0,0:0:0:0:
256,192,450256,1,8,0:0:0:0:
256,192,450416,1,0,0:0:0:0:
256,192,450496,1,0,0:0:0:0:
256,192,450577,1,8,0:0:0:0:
256,192,450737,1,0,0:0:0:0:
256,192,450817,1,0,0:0:0:0:
256,192,450898,1,8,0:0:0:0:
256,192,451058,1,0,0:0:0:0:
256,192,451138,1,0,0:0:0:0:
256,192,451219,1,8,0:0:0:0:
256,192,451379,1,0,0:0:0:0:
256,192,451459,1,8,0:0:0:0:
256,192,451539,1,0,0:0:0:0:
256,192,451620,1,0,0:0:0:0:
256,192,451700,1,8,0:0:0:0:
256,192,451780,1,0,0:0:0:0:
256,192,451860,1,8,0:0:0:0:
256,192,452021,1,0,0:0:0:0:
256,192,452101,1,0,0:0:0:0:
256,192,452181,1,8,0:0:0:0:
256,192,452262,1,0,0:0:0:0:
256,192,452342,1,0,0:0:0:0:
256,192,452422,1,0,0:0:0:0:
256,192,452502,1,8,0:0:0:0:
256,192,452583,1,8,0:0:0:0:
256,192,452663,1,0,0:0:0:0:
256,192,452743,1,0,0:0:0:0:
256,192,452823,1,8,0:0:0:0:
256,192,452984,1,0,0:0:0:0:
256,192,453064,1,0,0:0:0:0:
256,192,453144,1,8,0:0:0:0:
256,192,453305,1,0,0:0:0:0:
256,192,453385,1,0,0:0:0:0:
256,192,453465,1,8,0:0:0:0:
256,192,453545,1,8,0:0:0:0:
256,192,453626,1,0,0:0:0:0:
256,192,453706,1,0,0:0:0:0:
256,192,453786,1,8,0:0:0:0:
256,192,453866,1,8,0:0:0:0:
256,192,453947,1,0,0:0:0:0:
256,192,454027,1,0,0:0:0:0:
256,192,454107,1,8,0:0:0:0:
256,192,454187,1,8,0:0:0:0:
256,192,454268,1,0,0:0:0:0:
256,192,454348,1,0,0:0:0:0:
256,192,454428,1,8,0:0:0:0:
256,192,454508,1,8,0:0:0:0:
256,192,454588,1,0,0:0:0:0:
256,192,454669,1,0,0:0:0:0:
256,192,454749,1,8,0:0:0:0:
256,192,454909,1,0,0:0:0:0:
256,192,455070,1,0,0:0:0:0:
256,192,455150,1,0,0:0:0:0:
256,192,455230,1,0,0:0:0:0:
256,192,455311,1,0,0:0:0:0:
256,192,455391,1,8,0:0:0:0:
256,192,455551,1,0,0:0:0:0:
256,192,455632,1,8,0:0:0:0:
256,192,455712,1,8,0:0:0:0:
256,192,455792,1,0,0:0:0:0:
256,192,455872,1,8,0:0:0:0:
256,192,455953,1,8,0:0:0:0:
256,192,456033,1,0,0:0:0:0:
256,192,456193,1,0,0:0:0:0:
256,192,456273,1,0,0:0:0:0:
256,192,456354,1,8,0:0:0:0:
256,192,456434,1,0,0:0:0:0:
256,192,456514,1,8,0:0:0:0:
256,192,456594,1,8,0:0:0:0:
256,192,456675,1,8,0:0:0:0:
256,192,456835,1,0,0:0:0:0:
256,192,456915,1,0,0:0:0:0:
256,192,456996,1,8,0:0:0:0:
256,192,457156,1,0,0:0:0:0:
256,192,457236,1,0,0:0:0:0:
256,192,457317,1,8,0:0:0:0:
256,192,457397,1,8,0:0:0:0:
256,192,457477,1,0,0:0:0:0:
256,192,457557,1,0,0:0:0:0:
256,192,457638,1,8,0:0:0:0:
256,192,457718,1,8,0:0:0:0:
256,192,457798,1,8,0:0:0:0:
256,192,457878,1,8,0:0:0:0:
256,192,457958,1,0,0:0:0:0:
256,192,458039,1,0,0:0:0:0:
256,192,458119,1,0,0:0:0:0:
256,192,458199,1,0,0:0:0:0:
256,192,458279,1,8,0:0:0:0:
256,192,458360,1,0,0:0:0:0:
256,192,458440,1,8,0:0:0:0:
256,192,458520,1,8,0:0:0:0:
256,192,458600,1,8,0:0:0:0:
256,192,458841,1,0,0:0:0:0:
256,192,458921,1,8,0:0:0:0:
256,192,459082,1,0,0:0:0:0:
256,192,459162,1,0,0:0:0:0:
256,192,459242,1,8,0:0:0:0:
256,192,459403,1,0,0:0:0:0:
256,192,459483,1,0,0:0:0:0:
256,192,459563,1,8,0:0:0:0:
256,192,459724,1,0,0:0:0:0:
256,192,459804,1,0,0:0:0:0:
256,192,459884,1,8,0:0:0:0:
256,192,460045,1,0,0:0:0:0:
256,192,460125,1,0,0:0:0:0:
256,192,460205,1,8,0:0:0:0:
256,192,460366,1,0,0:0:0:0:
256,192,460446,1,0,0:0:0:0:
256,192,460526,1,8,0:0:0:0:
256,192,460687,1,0,0:0:0:0:
256,192,460767,1,0,0:0:0:0:
256,192,460847,1,8,0:0:0:0:
256,192,461007,1,0,0:0:0:0:
256,192,461088,1,0,0:0:0:0:
256,192,461168,1,8,0:0:0:0:
256,192,461328,1,0,0:0:0:0:
256,192,461409,1,0,0:0:0:0:
256,192,461489,1,8,0:0:0:0:
256,192,461649,1,0,0:0:0:0:
256,192,461730,1,0,0:0:0:0:
256,192,461810,1,8,0:0:0:0:
256,192,461970,1,0,0:0:0:0:
256,192,462051,1,0,0:0:0:0:
256,192,462131,1,8,0:0:0:0:
256,192,462211,1,0,0:0:0:0:
256,192,462291,1,8,0:0:0:0:
256,192,462372,1,0,0:0:0:0:
256,192,462452,1,8,0:0:0:0:
256,192,462532,1,8,0:0:0:0:
256,192,462612,1,8,0:0:0:0:
256,192,462692,1,8,0:0:0:0:
256,192,462773,1,0,0:0:0:0:
256,192,462853,1,0,0:0:0:0:
256,192,462933,1,8,0:0:0:0:
256,192,463013,1,8,0:0:0:0:
256,192,463094,1,8,0:0:0:0:
256,192,463174,1,8,0:0:0:0:
256,192,463254,1,0,0:0:0:0:
256,192,463334,1,0,0:0:0:0:
256,192,463415,1,8,0:0:0:0:
256,192,463495,1,8,0:0:0:0:
256,192,463575,1,0,0:0:0:0:
256,192,463655,1,0,0:0:0:0:
256,192,463736,1,0,0:0:0:0:
256,192,463816,1,0,0:0:0:0:
256,192,463896,1,0,0:0:0:0:
256,192,463976,1,0,0:0:0:0:
256,192,464057,1,0,0:0:0:0:
256,192,464137,1,0,0:0:0:0:
256,192,464217,1,0,0:0:0:0:
256,192,464377,1,12,0:0:0:0:
256,192,464538,12,0,474648,0:0:0:0:
