osu file format v14

[General]
AudioFilename: Wintersun - ,Starchild - Winter Madness.mp3
AudioLeadIn: 0
PreviewTime: 135397
Countdown: 0
SampleSet: Normal
StackLeniency: 0.7
Mode: 0
LetterboxInBreaks: 0
WidescreenStoryboard: 1
SamplesMatchPlaybackRate: 1

[Editor]
Bookmarks: 21949,53094,84862,104435,123140,201542,282432,300392,305528,315798,339558,380610,380788,403649,432770,436134,445123
DistanceSpacing: 1.2
BeatDivisor: 4
GridSize: 4
TimelineZoom: 2.5

[Metadata]
Title:Starchild
TitleUnicode:Starchild
Artist:Wintersun
ArtistUnicode:Wintersun
Creator:Wishkey
Version:Time
Source:
Tags:Folk metal heavy viking power ensiferum jari Mäenpää marathon darkvortex
BeatmapID:822384
BeatmapSetID:375516

[Difficulty]
HPDrainRate:5
CircleSize:4
OverallDifficulty:8
ApproachRate:9.4
SliderMultiplier:1.8
SliderTickRate:1

[Events]
//Background and Video events
0,0,"bg wintersun.jpg",0,0
//Break Periods
2,171884,183724
//Storyboard Layer 0 (Background)
//Storyboard Layer 1 (Fail)
//Storyboard Layer 2 (Pass)
//Storyboard Layer 3 (Foreground)
//Storyboard Sound Samples

[TimingPoints]
299,320.950012035625,3,1,2,50,1,0
14741,-100,3,1,2,30,0,0
15704,-100,3,1,2,50,0,0
29184,-142.857142857143,3,1,2,30,0,0
31110,-100,3,1,2,50,0,0
34961,-100,3,1,2,50,0,0
37850,-142.857142857143,4,1,2,30,0,0
39133,-100,4,1,2,50,0,0
45552,-100,4,1,2,30,0,0
46515,320.950012035625,4,1,2,60,1,0
47798,-100,4,1,2,50,0,0
51650,-83.3333333333333,4,1,2,50,0,0
52131,-100,4,1,2,50,0,0
52292,-83.3333333333333,4,1,2,50,0,0
52934,-100,4,1,2,50,0,0
56785,-83.3333333333333,4,1,2,50,0,0
57266,-100,4,1,2,50,0,0
57427,-83.3333333333333,4,1,2,50,0,0
58069,-100,4,1,2,50,0,0
61920,-83.3333333333333,4,1,2,50,0,0
63043,-100,4,1,2,50,0,0
67055,-83.3333333333333,4,1,2,50,0,0
68339,-100,4,1,2,40,0,0
77486,-100,4,3,2,30,0,0
78618,320.950012035625,3,1,2,60,1,0
78618,-100,4,1,2,60,0,0
93060,-100,3,1,2,30,0,0
94023,320.950012035625,4,1,2,50,1,0
98810,-86.9565217391304,4,1,2,50,0,0
99275,-100,4,1,2,50,0,0
104285,320.950012035625,3,1,2,50,1,0
117123,-100,3,1,2,30,0,0
117764,-100,3,1,2,50,0,0
129319,-83.3333333333333,4,1,2,50,0,0
136059,-100,4,1,2,50,0,0
136700,-100,4,1,2,30,0,0
137102,-100,4,2,2,5,0,0
137342,-83.3333333333333,4,1,2,50,0,0
140231,-83.3333333333333,4,1,2,30,0,0
140873,-100,4,1,2,70,0,1
142799,-83.3333333333333,4,1,2,85,0,1
142959,-83.3333333333333,4,1,2,85,0,1
144243,-100,4,1,2,70,0,1
154995,-100,4,1,2,50,0,0
156278,-100,4,1,2,70,0,1
158204,-83.3333333333333,4,1,2,85,0,1
158365,-83.3333333333333,4,1,2,85,0,1
159648,-100,4,1,2,70,0,1
170721,-100,4,1,2,50,0,1
171684,-100,4,2,2,70,0,0
187090,-100,4,2,2,50,0,0
194552,-100,4,2,2,5,0,0
194632,-100,4,2,2,50,0,0
202174,-166.666666666667,4,2,2,40,0,0
203458,-166.666666666667,4,1,2,60,0,0
204742,-200,4,1,2,60,0,0
204983,-200,4,2,2,5,0,0
205063,-200,4,1,2,60,0,0
205304,-200,4,2,2,5,0,0
205384,-166.666666666667,4,1,2,40,0,0
205705,-166.666666666667,4,2,2,40,0,0
220468,-142.857142857143,4,2,2,40,0,0
220789,-142.857142857143,4,2,2,50,0,0
236195,-111.111111111111,4,1,2,60,0,0
250317,-111.111111111111,4,1,2,40,0,0
250638,-111.111111111111,4,1,2,60,0,0
251430,320.950012035625,3,1,2,50,1,0
251590,320.950012035625,3,1,2,50,1,0
252553,320.950012035625,3,1,2,50,1,0
253847,320.950012035625,3,1,2,50,1,0
254488,320.950012035625,3,1,2,50,1,0
266346,320.950012035625,3,1,2,50,1,0
266987,320.950012035625,3,1,2,50,1,0
267308,-166.666666666667,3,3,2,40,0,0
273747,320.950012035625,3,3,2,40,1,0
273747,-166.666666666667,3,3,2,40,0,0
277258,320.950012035625,3,3,2,40,1,0
277258,-166.666666666667,3,3,2,40,0,0
277578,320.950012035625,3,3,2,40,1,0
277578,-166.666666666667,3,3,2,40,0,0
278883,320.950012035625,3,3,2,40,1,0
278883,-166.666666666667,3,3,2,40,0,0
279524,320.950012035625,3,3,2,40,1,0
279524,-166.666666666667,3,3,2,40,0,0
279844,-125,3,3,2,50,0,0
281449,-100,3,3,2,50,0,0
282414,-100,3,1,2,60,0,0
296863,320.950012035625,5,1,2,60,1,0
299751,-100,5,3,2,50,0,0
300072,320.950012035625,3,2,2,30,1,0
300392,-100,3,3,2,40,0,0
318366,320.950012035625,5,3,2,50,1,0
320853,-100,5,2,2,5,0,0
320933,-100,5,3,2,50,0,0
321174,-100,5,2,2,5,0,0
321254,-100,5,3,2,50,0,0
321495,-100,5,2,2,5,0,0
321575,320.950012035625,3,3,2,50,1,0
321575,-100,5,3,2,50,0,0
325346,-100,3,2,2,5,0,0
325426,-100,3,3,2,50,0,0
328314,-83.3333333333333,3,3,2,50,0,0
329598,-142.857142857143,3,2,2,30,0,0
333129,320.950012035625,4,2,2,30,1,0
333289,-142.857142857143,4,2,2,30,0,0
334412,320.950012035625,3,2,2,30,1,0
334412,-142.857142857143,3,2,2,30,0,0
337300,-117.647058823529,3,2,2,30,0,0
338263,320.950012035625,4,1,2,50,1,0
338263,-76.9230769230769,3,1,2,50,0,0
339546,320.950012035625,3,1,2,40,1,0
343397,320.950012035625,4,1,2,50,1,0
348692,-100,3,1,2,50,0,0
349495,-100,3,1,2,30,0,0
349816,320.950012035625,3,1,2,50,1,0
353667,320.950012035625,4,1,2,50,1,0
380608,-83.3333333333333,4,1,2,50,0,0
380610,320.950012035625,3,1,2,50,1,0
380746,-100,3,2,2,80,0,0
394704,-100,3,2,2,60,0,0
396015,-83.3333333333333,3,2,2,70,0,0
396336,-100,3,2,2,80,0,0
407248,-100,3,2,2,50,0,0
407569,-100,3,2,2,80,0,0
410137,-100,3,2,2,50,0,0
410458,-100,3,2,2,80,0,0
415272,-83.3333333333333,3,2,2,80,0,0
419124,-71.4285714285714,3,2,2,90,0,0
422012,-100,3,2,2,80,0,0
425863,-100,3,2,2,50,0,0
426505,-100,3,2,2,80,0,0
427147,-100,3,2,2,60,0,0
428752,-100,3,2,2,80,0,0
444158,-83.3333333333333,3,2,2,80,0,1
451700,-83.3333333333333,3,2,2,80,0,0
451860,-83.3333333333333,3,2,2,80,0,1
457638,-100,3,2,2,80,0,0
458119,-100,3,2,2,50,0,0
458600,-100,3,2,2,80,0,0
462452,-100,3,2,2,50,0,0
464377,-200,3,2,2,50,0,0
464458,-142.857142857143,3,2,2,5,0,0
468871,-142.857142857143,3,2,2,20,0,0
473685,-100,3,2,2,5,0,0

[Colours]
Combo1 : 248,193,7
Combo2 : 248,103,7
Combo3 : 222,233,22
Combo4 : 169,90,86

[HitObjects]
304,292,299,6,0,L|304:188,1,90,4|0,0:0|0:0,0:0:0:0:
252,128,619,1,8,0:2:0:0:
196,200,780,1,0,0:0:0:0:
144,128,940,1,8,0:2:0:0:
84,196,1101,5,0,0:0:0:0:
304,202,1261,1,8,0:2:0:0:
196,56,1422,1,0,0:0:0:0:
135,268,1582,2,0,P|50:277|-2:209,1,180,8|8,0:2|0:2,0:2:0:0:
28,124,2064,1,0,0:0:0:0:
224,208,2224,6,0,B|218:284|218:284|194:322|194:322|188:391,1,180,8|8,0:2|0:2,3:2:0:0:
104,348,2706,1,0,0:0:0:0:
288,352,2866,2,0,B|308:312|308:312|310:263,1,90,8|0,0:2|0:0,0:0:0:0:
168,108,3187,2,0,P|228:171|315:164,1,180,8|8,0:2|0:2,0:2:0:0:
396,136,3668,1,0,0:0:0:0:
384,224,3829,1,8,0:2:0:0:
264,80,3989,1,0,0:0:0:0:
180,232,4150,6,0,P|135:238|90:238,1,90,8|0,0:2|0:0,0:0:0:0:
144,40,4471,1,8,0:2:0:0:
314,164,4631,1,0,0:0:0:0:
196,224,4792,1,8,0:0:0:0:
264,80,4952,1,0,0:2:0:0:
324,264,5113,2,0,P|368:271|413:271,1,90,8|0,0:2|0:0,0:0:0:0:
512,248,5434,1,8,0:2:0:0:
452,172,5594,1,0,0:0:0:0:
368,360,5755,2,0,P|320:368|276:364,1,90,8|0,0:2|0:0,0:0:0:0:
180,268,6076,6,0,P|143:241|103:222,1,90,8|0,0:2|0:0,0:0:0:0:
12,304,6397,1,4,0:3:0:0:
12,304,6557,1,4,0:3:0:0:
168,200,6718,2,0,P|169:155|167:110,1,90,8|0,0:2|0:0,0:0:0:0:
20,28,7038,2,0,P|18:72|19:117,1,90,8|0,0:2|0:0,0:0:0:0:
96,284,7359,1,8,0:2:0:0:
216,156,7520,1,0,0:0:0:0:
172,324,7680,2,0,P|137:352|95:365,1,90,8|0,0:2|0:0,0:0:0:0:
356,320,8001,6,0,P|390:348|432:361,1,90,8|0,0:2|0:0,0:0:0:0:
478,193,8322,1,8,0:2:0:0:
356,215,8483,1,0,0:0:0:0:
432,268,8643,1,8,0:2:0:0:
410,143,8804,1,0,0:0:0:0:
276,264,8964,5,8,0:2:0:0:
110,170,9125,1,0,0:0:0:0:
239,134,9285,1,8,0:2:0:0:
143,299,9446,1,0,0:0:0:0:
0,192,9606,2,0,P|4:144|24:104,1,90,8|2,0:2|0:3,0:0:0:0:
216,16,9927,5,8,0:2:0:0:
192,220,10087,1,0,0:0:0:0:
128,68,10248,2,0,P|96:28|40:8,1,90,8|0,0:2|0:0,0:0:0:0:
100,164,10569,1,8,0:2:0:0:
264,96,10729,1,0,0:0:0:0:
88,180,10890,2,0,P|78:230|88:272,1,90,8|0,0:2|0:0,0:0:0:0:
168,228,11211,1,8,0:2:0:0:
0,180,11371,1,0,0:0:0:0:
187,251,11532,2,0,P|198:308|161:362,1,90,8|0,0:2|0:0,2:0:0:0:
296,272,11853,6,8,B|352:236|352:236|380:200|380:200|464:148,1,180,8|8,0:2|0:2,0:2:0:0:
456,264,12334,1,0,0:0:0:0:
280,164,12495,2,0,B|272:116|272:116|276:68,1,90,8|0,0:2|0:0,0:0:0:0:
204,335,12816,2,8,P|116:368|16:360,1,180,8|8,0:2|0:2,0:2:0:0:
0,208,13297,1,0,0:0:0:0:
184,248,13457,2,0,P|228:248|288:224,1,90,8|0,0:2|0:0,0:0:0:0:
160,0,13778,6,8,B|146:66|146:66|121:105|121:105|107:169,1,180,8|8,0:2|0:2,0:2:0:0:
212,160,14260,1,0,0:0:0:0:
48,28,14420,2,0,B|24:68|24:68|12:128,1,90,8|0,0:2|0:0,0:0:0:0:
184,248,14741,5,0,3:0:0:0:
219,252,14821,1,0,3:0:0:0:
255,253,14901,1,0,3:0:0:0:
291,250,14981,1,0,3:0:0:0:
326,243,15061,1,0,3:0:0:0:
361,233,15142,1,0,3:0:0:0:
392,216,15223,5,4,3:0:0:0:
388,240,15303,1,4,3:0:0:0:
385,262,15383,1,4,3:0:0:0:
383,285,15463,1,4,3:0:0:0:
380,308,15543,1,4,3:0:0:0:
378,331,15624,1,4,3:0:0:0:
376,352,15704,6,0,P|432:356|492:328,1,90,12|0,0:2|2:0,0:0:0:0:
496,244,16025,1,8,0:2:0:0:
392,216,16186,1,0,0:0:0:0:
504,148,16346,1,8,0:2:0:0:
396,116,16506,1,0,0:0:0:0:
292,264,16667,5,8,0:2:0:0:
248,56,16827,1,0,0:0:0:0:
171,208,16988,2,0,P|92:173|80:88,1,180,8|8,0:2|0:2,0:2:0:0:
128,4,17470,1,0,0:0:0:0:
384,80,17630,6,0,B|315:81|315:81|272:65|272:65|196:66,1,180,8|8,0:2|0:2,0:2:0:0:
272,196,18112,1,0,0:0:0:0:
464,144,18272,2,0,B|480:104|480:104|476:40,1,90,8|0,0:2|0:0,0:0:0:0:
364,268,18593,2,0,P|425:331|512:322,1,180,8|8,0:2|0:2,0:2:0:0:
456,240,19074,1,0,0:0:0:0:
348,384,19235,1,8,0:2:0:0:
448,260,19395,1,0,0:0:0:0:
248,284,19556,6,0,B|197:275|170:241,1,90,8|0,0:2|0:0,0:0:0:0:
144,116,19876,1,8,0:0:0:0:
264,32,20037,1,0,0:2:0:0:
160,132,20197,1,8,0:2:0:0:
88,8,20358,1,0,0:2:0:0:
176,148,20518,2,0,P|219:157|263:149,1,90,8|0,0:2|0:0,0:0:0:0:
408,44,20839,1,8,0:2:0:0:
488,192,21000,1,0,0:0:0:0:
364,220,21160,2,0,P|360:176|384:124,1,90,8|0,0:2|0:0,0:0:0:0:
263,256,21481,6,0,P|268:305|245:359,1,90,8|0,0:2|0:0,0:0:0:0:
100,284,21802,1,4,0:3:0:0:
100,284,21963,1,4,0:3:0:0:
208,124,22123,2,0,L|88:108,1,90,8|0,0:2|0:0,0:0:0:0:
316,260,22444,2,0,L|428:236,1,90,8|0,0:2|0:0,0:0:0:0:
256,344,22765,1,4,0:3:0:0:
496,296,22925,1,4,0:3:0:0:
356,132,23086,2,0,P|344:184|372:252,1,90,8|0,0:2|2:0,0:0:0:0:
492,112,23407,6,0,P|476:60|418:16,1,90,8|0,0:2|2:0,0:0:0:0:
252,64,23728,1,8,0:2:0:0:
356,132,23888,1,0,0:0:0:0:
252,64,24049,1,8,0:2:0:0:
356,132,24209,1,0,0:0:0:0:
148,192,24370,5,8,0:2:0:0:
180,4,24530,1,0,0:0:0:0:
148,192,24691,1,8,0:2:0:0:
180,4,24851,1,0,0:0:0:0:
288,204,25012,2,0,P|340:220|404:212,1,90,8|0,0:2|0:0,0:0:0:0:
232,144,25333,5,8,0:2:0:0:
208,344,25493,1,0,0:0:0:0:
132,152,25654,2,0,P|91:136|46:136,1,90,8|0,0:2|0:0,0:0:0:0:
0,225,25975,1,8,0:2:0:0:
59,313,26135,1,0,0:0:0:0:
320,289,26295,2,8,B|271:263|271:263|203:263|203:263|151:239,1,180,8|8,0:2|0:2,0:2:0:0:
235,174,26777,1,0,0:0:0:0:
252,348,26937,2,0,B|296:372|296:372|352:372,1,90,8|0,0:2|0:0,0:0:0:0:
512,236,27258,6,0,P|448:168|348:188,1,180,8|8,0:2|0:2,0:0:0:0:
284,228,27740,1,0,0:0:0:0:
180,332,27900,2,0,P|137:321|102:293,1,90,8|0,0:2|0:0,0:0:0:0:
184,60,28221,2,8,B|174:116|174:116|191:182|191:182|179:236,1,180,8|8,0:2|0:2,0:2:0:0:
84,204,28703,1,0,0:0:0:0:
280,112,28863,2,0,B|288:72|288:72|276:4,1,90,8|0,0:2|0:0,0:0:0:0:
284,228,29184,6,8,L|304:276,2,41.9999987182618,8|8|8,3:0|3:0|3:0,3:0:0:0:
329,170,29505,2,8,L|367:184,2,41.9999987182618,8|8|8,2:0|3:0|3:0,3:0:0:0:
280,112,29826,2,8,L|328:91,2,41.9999987182618,8|8|8,3:0|3:0|3:0,3:0:0:0:
428,96,30147,6,0,L|428:160,2,41.9999987182618,0|0|0,3:0|3:0|3:0,3:0:0:0:
512,156,30468,2,0,L|512:216,2,41.9999987182618,0|0|0,3:0|3:0|3:0,3:0:0:0:
428,228,30789,2,0,L|428:280,2,41.9999987182618,0|0|0,3:0|3:0|3:0,3:0:0:0:
344,304,31110,6,0,P|288:272|264:216,1,90,4|0,0:0|0:0,0:0:0:0:
127,205,31431,2,0,P|182:172|244:176,1,90,2|2,0:3|0:0,0:0:0:0:
320,66,31752,2,0,P|321:131|288:176,1,90,2|0,0:3|0:0,0:0:0:0:
389,188,32073,6,0,P|330:153|274:159,1,90,2|0,0:3|0:0,0:0:0:0:
182,39,32394,2,0,P|181:106|216:160,1,90,2|0,0:3|0:0,0:0:0:0:
158,288,32714,2,0,P|216:254|244:200,1,90,2|0,0:3|0:0,0:0:0:0:
320,66,33035,5,4,0:0:0:0:
224,102,33196,1,0,0:0:0:0:
128,66,33356,1,0,0:0:0:0:
32,102,33517,1,0,0:0:0:0:
48,280,33677,2,0,B|77:253|73:189,1,90
158,288,33998,2,0,B|146:336|194:380,1,90
360,320,34319,5,4,0:0:0:0:
364,132,34480,1,4,0:0:0:0:
192,204,34640,1,4,0:0:0:0:
192,204,34961,6,0,P|232:244|276:252,1,90,4|0,0:0|0:0,0:0:0:0:
272,152,35282,1,0,0:0:0:0:
340,224,35443,1,0,0:0:0:0:
488,156,35603,2,0,B|424:195|431:288,1,135,2|0,2:0|2:0,0:0:0:0:
460,336,35924,2,0,P|422:311|378:312,1,90,2|0,2:0|0:0,0:0:0:0:
300,356,36245,1,0,0:0:0:0:
240,280,36405,1,0,0:0:0:0:
96,352,36566,2,0,P|73:303|18:285,1,90
104,168,36887,6,0,P|117:219|168:246,1,90,4|0,0:0|0:0,0:0:0:0:
240,280,37208,1,0,0:0:0:0:
385,252,37368,1,0,0:0:0:0:
254,191,37529,1,0,0:0:0:0:
333,326,37689,1,0,0:0:0:0:
432,168,37850,6,0,L|464:117,2,41.9999987182618,0|0|0,3:0|3:0|3:0,3:0:0:0:
345,104,38171,2,4,L|307:58,2,41.9999987182618,4|4|4,3:0|3:0|3:0,3:0:0:0:
295,189,38492,2,4,L|244:190,2,41.9999987182618,4|4|4,3:0|3:0|3:0,3:0:0:0:
184,80,38813,5,4,1:0:0:0:
168,60,39133,1,0,0:0:0:0:
152,36,39454,1,0,0:0:0:0:
72,84,39775,1,2,0:3:0:0:
88,108,40096,1,2,0:3:0:0:
104,132,40417,5,0,0:0:0:0:
224,80,40578,1,0,0:0:0:0:
288,244,40738,2,0,P|319:215|338:162,1,90,4|0,1:0|0:0,0:0:0:0:
384,40,41059,2,0,P|396:90|432:121,1,90
512,216,41380,2,0,P|462:201|417:217,1,90
436,380,41701,2,0,L|468:272,1,90
422,116,42022,5,4,0:0:0:0:
240,168,42182,1,4,0:0:0:0:
336,0,42343,1,4,0:0:0:0:
336,0,42664,6,0,L|270:78,1,90,4|0,0:0|0:0,0:0:0:0:
240,168,42985,2,0,L|269:253,1,90
162,106,43306,2,0,L|73:90,1,90
68,276,43627,2,0,P|105:243|112:172,1,90,2|0,0:3|0:0,0:0:0:0:
240,168,43948,5,0,0:0:0:0:
240,288,44108,1,0,0:0:0:0:
323,168,44269,1,2,0:3:0:0:
183,236,44429,2,0,L|131:236,3,30
300,240,44750,5,0,0:0:0:0:
160,164,44911,1,0,0:0:0:0:
323,168,45071,1,0,0:0:0:0:
183,236,45232,1,0,0:0:0:0:
240,168,45392,1,0,0:0:0:0:
384,240,45552,5,0,3:0:0:0:
411,217,45632,1,0,3:0:0:0:
426,184,45712,1,0,3:0:0:0:
424,147,45792,1,0,3:0:0:0:
407,115,45873,2,4,L|468:96,1,45,4|4,3:0|3:0,3:0:0:0:
240,168,46034,2,4,L|187:187,1,45,4|4,3:0|3:0,3:0:0:0:
344,244,46194,2,4,L|360:287,1,45,4|4,3:0|3:0,3:0:0:0:
292,64,46355,2,4,L|280:12,1,45,4|4,3:0|3:0,3:0:0:0:
240,288,46515,5,12,0:0:0:0:
304,68,47798,5,4,0:0:0:0:
204,160,47959,1,8,0:2:0:0:
204,160,48039,1,0,0:0:0:0:
204,160,48119,2,0,L|164:195,2,45,0|0|8,0:0|0:0|0:2,0:0:0:0:
328,220,48440,1,0,0:0:0:0:
342,250,48520,1,0,0:0:0:0:
357,281,48601,1,8,0:2:0:0:
372,311,48681,1,0,0:0:0:0:
388,340,48761,2,8,B|428:320|428:320|453:270,1,90,0|8,0:0|0:2,2:0:0:0:
495,95,49082,5,0,0:0:0:0:
373,63,49243,1,8,0:2:0:0:
373,63,49323,1,0,0:0:0:0:
373,63,49403,2,0,L|372:124,2,45,0|0|8,0:0|0:0|0:2,0:0:0:0:
295,175,49724,1,0,0:0:0:0:
281,145,49804,1,0,0:0:0:0:
266,114,49885,1,8,0:2:0:0:
251,84,49965,1,0,0:0:0:0:
235,55,50045,2,8,B|195:75|195:75|170:125,1,90,0|8,0:0|0:2,2:0:0:0:
132,300,50366,5,0,0:0:0:0:
39,207,50526,1,8,0:2:0:0:
39,174,50607,1,0,0:0:0:0:
39,140,50687,2,0,L|42:81,2,45,0|0|8,0:0|0:0|0:2,0:0:0:0:
336,264,51168,5,8,0:2:0:0:
305,282,51249,1,0,0:0:0:0:
269,282,51329,1,0,0:0:0:0:
240,260,51409,1,0,0:0:0:0:
238,224,51489,1,8,0:2:0:0:
258,194,51569,1,0,0:0:0:0:
301,187,51650,6,0,B|285:131|229:107|229:107|145:211|14:126,1,323.999990112305,0|8,0:2|0:2,0:0:0:0:
58,62,52211,1,0,0:0:0:0:
58,62,52292,2,0,B|114:78|138:134|138:134|34:218|133:328,1,323.999990112305,0|8,0:2|0:2,0:0:0:0:
152,351,52853,1,0,0:0:0:0:
152,351,52934,5,4,0:2:0:0:
287,350,53094,2,0,L|369:342,4,45,8|0|0|0|8,0:2|0:0|0:0|0:0|0:2,0:0:0:0:
344,232,53575,1,0,0:0:0:0:
377,220,53656,1,0,0:0:0:0:
409,209,53736,1,8,0:2:0:0:
441,198,53816,1,0,0:0:0:0:
472,188,53896,2,8,B|480:240|480:240|448:288,1,90,0|8,0:0|0:2,2:0:0:0:
268,260,54217,5,0,0:0:0:0:
198,156,54378,2,0,L|165:97,1,45,8|0,0:2|0:0,0:0:0:0:
236,56,54538,2,0,L|261:101,1,45
299,168,54699,1,8,0:2:0:0:
184,276,54859,2,0,L|119:277,1,45,0|0,0:2|0:0,0:0:0:0:
80,196,55020,2,0,L|132:198,1,45,8|0,0:0|0:0,0:0:0:0:
56,272,55180,2,8,B|15:251|15:251|-5:196,1,90,0|8,0:0|0:2,2:0:0:0:
100,39,55501,5,0,0:0:0:0:
234,24,55662,2,0,L|305:23,4,45,8|0|0|0|8,0:2|0:0|0:0|0:0|0:2,0:0:0:0:
474,252,56303,5,8,0:2:0:0:
454,224,56384,1,0,0:0:0:0:
422,216,56464,1,0,0:3:0:0:
389,221,56544,1,0,0:3:0:0:
362,240,56624,1,0,0:3:0:0:
342,268,56705,1,0,0:3:0:0:
330,305,56785,6,0,P|196:228|309:204,1,323.999990112305,0|8,0:2|0:2,0:0:0:0:
351,187,57347,1,0,0:2:0:0:
351,187,57427,2,0,P|418:71|284:70,1,323.999990112305,0|8,0:2|0:2,0:0:0:0:
264,108,57988,1,0,0:0:0:0:
264,108,58069,5,4,0:2:0:0:
198,225,58229,2,0,L|178:269,4,45,8|0|0|0|8,0:2|0:0|0:0|0:0|0:2,0:0:0:0:
153,96,58711,1,0,0:0:0:0:
133,124,58791,1,0,0:0:0:0:
114,151,58871,1,8,0:2:0:0:
95,179,58951,1,0,0:0:0:0:
74,207,59032,2,8,B|28:204|28:204|-8:152,1,90,0|8,0:2|0:0,2:0:0:0:
110,12,59353,5,0,0:0:0:0:
243,27,59513,2,0,P|271:51|286:97,1,45,8|0,0:2|0:0,0:0:0:0:
261,131,59673,2,0,P|289:155|297:199,1,45
286,239,59834,1,8,0:2:0:0:
420,244,59994,2,0,P|448:219|457:175,1,45,0|0,0:2|0:0,0:0:0:0:
438,140,60154,2,0,P|466:115|474:71,1,45,8|0,0:0|0:0,0:0:0:0:
464,32,60315,2,0,B|424:40|424:40|376:95,1,90,0|8,0:0|0:0,0:0:0:0:
286,239,60636,5,0,0:0:0:0:
378,338,60797,2,0,L|452:344,4,45,8|0|0|0|8,0:2|0:0|0:0|0:0|0:2,0:0:0:0:
124,140,61439,5,8,0:2:0:0:
91,125,61519,1,0,0:0:0:0:
55,125,61599,1,0,0:0:0:0:
24,143,61679,1,0,0:0:0:0:
6,174,61760,1,8,0:2:0:0:
0,208,61840,1,0,0:0:0:0:
8,241,61920,6,0,B|42:343|42:343|80:255|203:266|222:347,1,323.999990112305,0|8,0:2|0:2,0:0:0:0:
292,328,62482,1,0,0:2:0:0:
292,328,62562,2,0,B|304:265|427:254|465:342|465:342|499:240,1,323.999990112305,0|8,0:2|0:2,0:0:0:0:
509,212,63124,1,0,0:0:0:0:
509,212,63204,5,4,0:2:0:0:
415,115,63364,2,0,L|351:83,4,45,8|0|0|0|8,0:2|0:0|0:0|0:0|0:2,0:0:0:0:
353,236,63846,1,0,0:0:0:0:
322,221,63926,1,0,0:0:0:0:
291,207,64006,1,8,0:2:0:0:
260,193,64087,1,0,0:0:0:0:
229,180,64167,2,8,B|184:164|184:164|140:176,1,90,0|8,0:0|2:0,2:0:0:0:
144,364,64488,5,0,0:0:0:0:
247,284,64648,2,0,P|219:260|209:216,1,45,8|0,0:2|0:0,0:0:0:0:
229,180,64808,2,0,P|201:156|193:109,1,45
204,72,64969,1,8,0:2:0:0:
48,48,65130,2,0,P|20:73|9:120,1,45,0|0,0:2|0:0,0:0:0:0:
33,153,65289,2,0,P|5:178|-5:224,1,45,8|0,0:0|0:0,0:0:0:0:
12,268,65450,2,0,B|52:260|52:260|96:212,1,90,0|8,0:0|0:0,0:0:0:0:
204,72,65772,5,0,0:0:0:0:
336,128,65932,1,8,0:2:0:0:
336,128,66012,1,0,0:0:0:0:
336,128,66092,2,0,L|359:69,2,45,0|0|8,0:0|0:0|0:2,0:0:0:0:
127,83,66574,5,8,0:2:0:0:
95,71,66654,1,0,0:0:0:0:
63,71,66734,1,0,0:0:0:0:
34,85,66815,1,0,0:0:0:0:
17,111,66895,1,8,0:2:0:0:
17,142,66975,1,0,0:0:0:0:
35,174,67055,6,0,B|75:228|145:206|163:151|163:151|148:331,1,323.999990112305,0|8,0:2|0:2,0:0:0:0:
257,311,67617,1,0,0:2:0:0:
257,311,67697,2,0,B|243:150|243:150|261:205|331:227|371:173,1,323.999990112305,0|8,0:2|0:2,0:0:0:0:
388,140,68259,1,0,0:0:0:0:
372,124,68339,5,0,0:0:0:0:
356,108,68419,1,0,0:0:0:0:
340,92,68500,1,8,0:0:0:0:
105,75,68821,1,8,0:0:0:0:
410,20,69141,1,8,0:0:0:0:
424,34,69222,1,0,0:0:0:0:
440,50,69302,1,0,0:0:0:0:
455,65,69382,1,0,0:0:0:0:
470,80,69462,1,8,0:0:0:0:
200,19,69783,5,8,0:0:0:0:
271,248,70104,2,0,L|270:319,4,45,8|0|0|0|8,0:0|0:0|0:0|0:0|0:0,0:0:0:0:
304,57,70746,1,8,0:0:0:0:
217,128,70907,6,0,L|173:163,4,45,0|0|8|0|0,0:0|0:0|0:0|0:0|0:0,0:0:0:0:
321,163,71388,1,8,0:0:0:0:
75,106,71709,1,8,0:0:0:0:
75,127,71789,1,0,0:0:0:0:
75,148,71870,1,0,0:0:0:0:
75,169,71950,1,0,0:0:0:0:
75,191,72030,1,8,0:0:0:0:
368,303,72351,5,8,0:0:0:0:
74,310,72672,2,0,L|72:375,4,45,8|0|0|0|8,0:0|0:0|0:0|0:0|0:0,0:0:0:0:
357,232,73314,1,8,0:0:0:0:
331,234,73394,1,0,0:0:0:0:
306,236,73474,5,0,0:0:0:0:
280,239,73555,1,0,0:0:0:0:
255,241,73635,1,8,0:0:0:0:
230,243,73715,1,0,0:0:0:0:
204,246,73795,1,0,0:0:0:0:
284,368,73956,1,8,0:0:0:0:
464,120,74277,1,8,0:0:0:0:
466,241,74437,2,0,L|466:321,4,45,0|0|8|0|0,0:0|0:0|0:0|0:0|0:0,0:0:0:0:
368,152,74919,5,8,0:0:0:0:
127,47,75240,1,8,0:0:0:0:
245,47,75400,2,0,L|308:47,4,45,0|0|8|0|0,0:0|0:0|0:0|0:0|0:0,0:0:0:0:
184,143,75881,1,8,0:0:0:0:
64,338,76202,5,8,0:0:0:0:
90,343,76283,1,0,0:0:0:0:
116,348,76363,1,0,0:0:0:0:
142,353,76443,1,0,0:0:0:0:
168,357,76523,1,8,0:0:0:0:
184,143,76844,1,8,0:0:0:0:
98,235,77005,1,0,0:0:0:0:
126,256,77085,1,0,0:0:0:0:
160,267,77165,1,8,0:0:0:0:
195,265,77245,1,0,0:0:0:0:
230,258,77326,6,0,P|254:258|296:274,1,45,0|0,0:0|0:0,2:0:0:0:
392,320,77486,1,4,0:0:0:0:
426,327,77566,1,4,0:0:0:0:
462,320,77647,1,12,0:0:0:0:
493,304,77727,1,4,0:0:0:0:
508,271,77807,1,4,0:0:0:0:
502,235,77887,1,4,0:0:0:0:
484,203,77968,1,4,0:0:0:0:
456,180,78048,1,4,0:0:0:0:
423,174,78128,2,4,L|408:124,1,45
320,8,78289,2,4,L|308:52,1,45
232,184,78449,2,4,L|221:140,1,45
72,0,78618,6,0,B|-12:64|28:176,1,180,12|8,0:2|0:2,0:0:0:0:
120,256,79099,1,0,0:0:0:0:
16,276,79259,1,8,0:0:0:0:
116,168,79420,1,0,0:2:0:0:
188,344,79580,5,8,0:2:0:0:
0,276,79741,1,0,0:0:0:0:
200,216,79901,2,0,P|237:193|254:139,1,90,8|0,0:2|0:0,0:0:0:0:
68,16,80222,2,0,P|85:54|126:80,1,90,8|0,0:2|0:0,0:0:0:0:
428,28,80543,6,8,P|344:-4|240:36,1,180,8|8,0:2|0:2,0:0:0:0:
184,116,81025,1,0,0:0:0:0:
336,204,81185,2,0,P|352:156|336:104,1,90,8|0,0:2|0:0,0:0:0:0:
496,296,81506,2,8,L|496:104,1,180,8|8,0:2|0:2,0:0:0:0:
416,232,81987,1,0,0:0:0:0:
260,152,82148,1,8,0:2:0:0:
360,88,82308,1,0,0:0:0:0:
304,276,82469,6,0,B|224:340,1,90,8|0,0:2|0:0,0:0:0:0:
232,236,82790,1,8,0:2:0:0:
320,372,82950,1,0,0:0:0:0:
140,260,83111,1,8,0:2:0:0:
176,64,83271,1,0,0:0:0:0:
128,284,83432,6,0,P|78:282|27:248,1,90,8|0,0:2|0:0,0:0:0:0:
212,144,83753,1,8,0:2:0:0:
232,236,83913,1,0,0:0:0:0:
112,120,84074,2,0,P|96:88|100:28,1,90,8|0,0:2|0:0,0:0:0:0:
294,180,84395,6,0,L|400:193,1,90,8|0,0:2|0:0,0:0:0:0:
305,69,84716,1,4,0:3:0:0:
305,69,84876,1,4,0:3:0:0:
216,240,85037,2,0,P|215:293|236:339,1,90,8|0,0:2|0:0,0:0:0:0:
484,222,85357,2,0,P|485:169|464:123,1,90,8|0,0:2|0:0,0:0:0:0:
295,179,85678,1,4,0:3:0:0:
448,104,85839,1,4,0:3:0:0:
398,280,85999,2,0,P|357:291|304:277,1,90,8|0,0:2|0:0,0:0:0:0:
83,161,86320,6,0,P|123:149|177:164,1,90,8|0,0:2|0:0,0:0:0:0:
228,272,86641,1,8,0:2:0:0:
312,169,86802,1,0,0:0:0:0:
131,250,86962,2,0,P|90:261|37:247,1,90,8|0,0:2|0:0,0:0:0:0:
39,48,87283,5,8,0:2:0:0:
291,77,87444,1,0,0:0:0:0:
124,1,87604,1,8,0:2:0:0:
312,169,87765,1,0,0:0:0:0:
228,8,87925,2,0,P|199:60|203:116,1,90,8|0,0:0|0:0,0:0:0:0:
408,138,88246,1,8,0:2:0:0:
291,77,88406,1,0,0:0:0:0:
203,266,88567,2,0,P|159:286|111:282,1,90,8|0,0:2|0:0,0:0:0:0:
245,175,88888,1,8,2:0:0:0:
309,256,89048,1,0,0:0:0:0:
440,152,89209,6,0,L|458:39,1,90,8|0,2:0|0:0,0:0:0:0:
291,77,89530,1,4,0:3:0:0:
291,77,89690,1,4,0:3:0:0:
103,151,89851,2,0,P|139:203|213:219,1,135,8|0,0:2|2:0,0:0:0:0:
248,176,90172,6,0,L|228:279,1,90,8|0,0:2|0:0,0:0:0:0:
125,363,90493,1,4,0:3:0:0:
125,363,90653,1,4,0:3:0:0:
319,278,90814,2,0,P|418:292|456:339,1,135,8|0,0:2|2:0,0:0:0:0:
460,368,91135,2,0,L|482:256,1,90,8|0,0:2|0:0,0:0:0:0:
332,166,91456,1,4,0:3:0:0:
435,114,91616,1,4,0:3:0:0:
319,278,91776,2,0,P|266:278|201:251,1,90,8|0,0:2|0:0,0:0:0:0:
189,71,92097,5,8,0:2:0:0:
38,129,92258,1,0,3:0:0:0:
38,129,92338,1,0,3:0:0:0:
38,129,92418,2,0,L|64:75,1,45,0|0,3:0|3:0,0:0:0:0:
127,207,92579,1,0,3:0:0:0:
127,207,92659,1,0,3:0:0:0:
127,207,92739,2,0,L|150:153,1,45,0|0,3:0|3:0,0:0:0:0:
230,267,92900,1,0,3:0:0:0:
264,276,92980,1,0,3:0:0:0:
299,269,93060,5,4,3:0:0:0:
326,246,93140,1,4,3:0:0:0:
339,213,93220,1,4,3:0:0:0:
334,177,93301,1,4,3:0:0:0:
314,148,93381,1,4,3:0:0:0:
282,132,93461,1,4,3:0:0:0:
247,133,93541,1,4,3:0:0:0:
215,150,93622,1,4,3:0:0:0:
203,183,93701,2,4,L|276:204,1,45,4|4,3:0|3:0,3:0:0:0:
421,176,93863,2,4,L|408:133,1,45,4|4,3:0|3:0,3:0:0:0:
207,221,94023,5,4,0:0:0:0:
296,320,94183,2,0,L|336:380,4,45,8|0|0|0|8,0:2|0:0|0:0|0:0|0:2,0:0:0:0:
160,332,94664,1,0,0:0:0:0:
136,357,94745,1,0,0:0:0:0:
102,361,94825,1,8,0:2:0:0:
72,344,94905,1,0,0:0:0:0:
61,312,94985,2,8,B|72:269|72:269|120:240,1,90,8|8,2:0|0:2,2:0:0:0:
301,247,95306,5,8,2:0:0:0:
180,186,95467,2,0,L|190:142,1,45,8|0,0:2|0:0,0:0:0:0:
104,122,95627,2,0,L|135:89,1,45
83,35,95788,1,8,0:2:0:0:
214,63,95948,2,0,L|234:22,1,45,0|0,0:2|0:0,0:0:0:0:
313,62,96109,2,0,L|310:17,1,45,8|0,0:0|0:0,0:0:0:0:
400,40,96269,2,0,B|404:88|404:88|376:140,1,90,8|8,0:0|0:0,0:0:0:0:
308,284,96590,5,8,0:0:0:0:
430,223,96751,2,0,L|480:223,4,45,8|0|0|0|8,0:2|0:0|0:0|0:0|0:2,0:0:0:0:
196,88,97392,5,8,0:2:0:0:
224,108,97473,1,0,0:0:0:0:
245,134,97553,2,8,B|256:184|256:184|241:225,1,90,8|8,2:0|0:2,2:0:0:0:
82,318,97874,5,8,2:0:0:0:
104,185,98034,2,0,L|118:110,2,45,8|0|0,0:2|0:0|0:0,0:0:0:0:
200,317,98355,1,0,0:0:0:0:
234,326,98435,1,0,0:0:0:0:
270,324,98515,1,0,0:0:0:0:
303,311,98595,1,0,0:0:0:0:
331,288,98675,1,0,0:0:0:0:
350,258,98756,1,0,0:0:0:0:
358,223,98837,6,2,P|357:185|337:149,1,51.7500009870529,2|2,2:0|2:0,2:0:0:0:
299,81,98997,2,2,P|300:43|320:7,1,51.7500009870529,2|2,2:0|2:0,2:0:0:0:
224,197,99158,2,2,P|190:215|149:215,1,51.7500009870529,2|2,2:0|2:0,2:0:0:0:
64,235,99318,5,0,0:0:0:0:
91,254,99398,1,0,0:0:0:0:
113,280,99478,1,0,0:0:0:0:
128,310,99559,1,0,0:0:0:0:
135,343,99638,1,0,0:0:0:0:
177,217,99800,1,0,0:0:0:0:
192,187,99881,1,0,0:0:0:0:
214,161,99961,1,0,0:0:0:0:
241,142,100041,1,0,0:0:0:0:
275,134,100121,2,0,B|320:144|320:144|368:128,1,90,8|8,0:2|0:2,0:0:0:0:
198,36,100442,5,8,0:2:0:0:
329,7,100602,1,8,0:2:0:0:
329,7,100682,1,0,0:0:0:0:
329,7,100762,2,0,L|393:7,2,45,0|0|8,0:0|0:0|0:2,0:0:0:0:
445,75,101083,1,0,0:0:0:0:
461,106,101163,1,0,0:0:0:0:
464,142,101243,1,0,0:0:0:0:
455,177,101323,1,0,0:0:0:0:
435,207,101404,2,0,B|413:249|413:249|437:305,1,90,8|8,0:2|0:2,0:0:0:0:
512,252,101725,5,8,0:2:0:0:
340,184,101886,1,8,0:2:0:0:
324,216,101966,1,0,0:0:0:0:
316,252,102046,1,0,0:0:0:0:
324,288,102126,1,0,0:0:0:0:
344,320,102207,1,8,0:2:0:0:
92,280,102528,1,8,0:2:0:0:
92,280,102608,1,0,0:0:0:0:
92,280,102688,2,8,L|37:324,2,45,8|0|8,0:0|0:2|2:0,2:0:0:0:
208,120,103009,6,0,L|208:43,1,45,8|0,0:0|0:0,0:0:0:0:
101,104,103170,1,8,0:2:0:0:
67,114,103250,1,0,0:0:0:0:
48,143,103330,1,0,0:0:0:0:
53,178,103410,1,0,0:0:0:0:
79,201,103490,1,8,0:2:0:0:
115,201,103571,1,0,0:0:0:0:
149,191,103651,6,0,L|163:239,3,45,0|0|0|0,3:0|3:0|3:0|3:0,3:0:0:0:
273,193,103972,1,4,3:0:0:0:
278,228,104052,1,4,3:0:0:0:
294,261,104132,1,4,3:0:0:0:
319,287,104212,1,4,3:0:0:0:
352,298,104285,6,0,L|379:152,1,135,4|0,2:0|2:0,2:0:0:0:
402,241,104605,2,0,L|424:107,1,135,0|0,2:0|2:0,2:0:0:0:
480,166,104926,2,0,L|453:20,1,135,0|0,2:0|2:0,2:0:0:0:
423,107,105247,6,0,L|445:241,1,135,0|0,2:0|2:0,2:0:0:0:
480,166,105568,2,0,L|502:300,1,135,0|0,2:0|2:0,2:0:0:0:
444,240,105889,2,0,L|422:374,1,135,0|0,2:0|2:0,2:0:0:0:
389,298,106210,5,0,0:0:0:0:
326,189,106371,1,0,0:0:0:0:
280,362,106531,1,0,0:0:0:0:
216,252,106692,1,0,0:0:0:0:
80,369,106852,5,0,0:0:0:0:
243,348,107013,1,0,0:0:0:0:
37,298,107173,1,0,0:0:0:0:
166,376,107334,1,0,0:0:0:0:
68,216,107494,1,0,2:0:0:0:
108,198,107574,1,0,2:0:0:0:
136,163,107654,1,0,2:0:0:0:
144,119,107734,1,0,2:0:0:0:
132,76,107815,5,0,2:0:0:0:
160,109,107896,1,0,2:0:0:0:
202,125,107976,1,0,2:0:0:0:
245,121,108056,1,0,2:0:0:0:
284,100,108136,6,0,P|328:88|404:116,1,90,4|0,0:0|0:0,0:0:0:0:
496,132,108457,1,0,0:0:0:0:
334,201,108617,1,0,0:2:0:0:
510,290,108778,1,0,0:0:0:0:
438,210,108938,1,0,0:2:0:0:
352,364,109099,5,0,0:0:0:0:
456,376,109259,1,0,0:0:0:0:
288,284,109420,1,0,2:0:0:0:
252,256,109500,1,0,2:0:0:0:
236,212,109580,1,0,2:0:0:0:
236,168,109660,1,0,2:0:0:0:
252,124,109741,5,0,2:0:0:0:
245,169,109821,1,0,2:0:0:0:
215,205,109901,1,0,2:0:0:0:
177,227,109981,1,0,2:0:0:0:
132,236,110062,6,0,P|92:228|32:176,1,90,4|0,0:0|0:0,0:0:0:0:
248,76,110383,1,0,0:0:0:0:
136,112,110543,1,0,0:0:0:0:
332,196,110704,1,0,0:0:0:0:
164,0,110864,1,0,0:0:0:0:
84,248,111024,2,0,P|64:288|12:320,1,90,2|0,0:3|0:0,0:0:0:0:
252,192,111345,2,0,L|240:84,1,90,2|0,0:3|0:0,0:0:0:0:
483,69,111666,2,0,P|447:96|428:136,1,90,2|0,0:3|0:0,0:0:0:0:
301,58,111987,5,4,0:0:0:0:
332,196,112148,1,0,0:0:0:0:
505,149,112308,1,0,0:0:0:0:
474,287,112469,1,0,0:0:0:0:
372,106,112629,1,0,0:0:0:0:
403,244,112790,1,0,0:0:0:0:
427,38,112950,2,0,P|385:22|318:42,1,90,2|0,0:3|0:0,0:0:0:0:
136,120,113271,1,0,2:0:0:0:
170,92,113351,1,0,2:0:0:0:
214,85,113431,1,0,2:0:0:0:
258,96,113512,1,0,2:0:0:0:
288,128,113592,2,0,P|248:116|176:136,1,90,2|0,0:3|0:0,0:0:0:0:
144,288,113913,6,0,L|166:189,1,90,4|0,0:0|0:0,0:0:0:0:
289,300,114234,1,0,0:0:0:0:
408,192,114394,1,0,0:0:0:0:
408,192,114475,1,0,0:0:0:0:
408,192,114555,1,0,0:0:0:0:
460,304,114715,1,0,0:0:0:0:
264,372,114876,2,0,L|147:358,1,90,2|0,0:3|0:0,0:0:0:0:
0,277,115197,2,0,L|118:261,1,90
290,187,115518,2,0,L|176:173,1,90,0|2,0:0|2:0,0:0:0:0:
44,72,115839,6,0,P|32:124|58:187,1,90,4|0,0:0|0:0,0:0:0:0:
192,92,116160,2,0,P|204:40|178:-23,1,90
376,36,116481,2,0,P|364:88|390:151,1,90
432,288,116802,2,0,B|384:280|384:280|340:248,1,90,2|0,0:3|0:0,0:0:0:0:
200,212,117123,1,4,3:0:0:0:
164,220,117203,1,4,3:0:0:0:
132,236,117283,1,4,3:0:0:0:
104,260,117363,1,4,3:0:0:0:
88,292,117443,2,4,L|4:284,3,45,4|4|4|4,3:0|3:0|3:0|3:0,3:0:0:0:
128,376,117764,5,4,0:2:0:0:
268,380,117925,1,2,0:0:0:0:
248,216,118085,1,0,0:0:0:0:
184,300,118246,1,2,0:0:0:0:
384,320,118406,2,0,P|412:276|418:223,1,90
336,108,118727,1,0,0:0:0:0:
502,120,118887,1,0,0:0:0:0:
502,120,118968,1,0,0:0:0:0:
502,120,119048,1,0,0:0:0:0:
332,244,119209,1,0,0:0:0:0:
388,32,119369,2,0,P|412:80|420:140,1,90
332,276,119690,6,4,P|376:292|451:291,1,90,6|0,0:0|0:0,0:0:0:0:
260,168,120011,1,0,2:0:0:0:
217,152,120091,1,0,2:0:0:0:
173,148,120171,1,0,2:0:0:0:
128,157,120252,1,0,2:0:0:0:
88,176,120332,2,0,P|132:179|174:196,1,90,2|0,0:3|0:0,0:0:0:0:
55,204,120653,1,0,0:0:0:0:
29,87,120813,1,0,0:0:0:0:
144,32,120974,1,0,2:0:0:0:
184,52,121054,1,0,2:0:0:0:
228,52,121134,1,0,2:0:0:0:
272,36,121215,1,0,2:0:0:0:
307,9,121295,2,0,P|344:35|426:37,1,90
496,176,121616,5,2,0:3:0:0:
450,378,121776,1,2,0:3:0:0:
388,188,121937,1,2,0:3:0:0:
354,338,122097,1,2,0:3:0:0:
388,188,122258,5,2,0:3:0:0:
450,378,122418,1,0,0:0:0:0:
450,378,122498,1,0,0:0:0:0:
450,378,122579,2,0,L|468:256,1,90
395,98,122900,2,0,L|387:194,1,90
245,292,123221,2,0,B|192:266|178:197,1,90,0|0,0:0|2:0,0:0:0:0:
0,134,123542,5,0,0:0:0:0:
65,219,123702,1,0,0:0:0:0:
200,72,123862,1,0,0:0:0:0:
100,104,124023,1,0,0:0:0:0:
187,227,124183,2,0,B|223:232|276:216,1,90,0|0,0:0|2:0,0:0:0:0:
414,99,124505,1,0,0:0:0:0:
499,164,124665,1,0,0:0:0:0:
499,164,124745,1,0,0:0:0:0:
499,164,124825,1,0,0:0:0:0:
408,312,124986,1,0,0:0:0:0:
508,288,125146,2,0,B|512:340|480:388,1,90,0|0,0:0|2:0,0:0:0:0:
380,196,125467,5,2,0:3:0:0:
235,272,125628,1,0,0:0:0:0:
414,116,125788,1,0,0:0:0:0:
326,269,125949,1,0,0:0:0:0:
196,191,126109,1,0,0:0:0:0:
278,347,126270,1,0,0:0:0:0:
156,108,126430,2,0,P|196:80|252:74,1,90
414,116,126751,2,0,P|373:127|335:158,1,90
196,191,127072,2,0,P|236:202|277:236,1,90
368,349,127393,5,4,0:0:0:0:
467,257,127553,2,0,L|532:264,2,45,0|0|2,0:0|3:0|0:0,0:0:0:0:
492,124,127874,1,0,3:0:0:0:
492,124,127955,1,0,3:0:0:0:
492,124,128035,1,2,3:0:0:0:
367,72,128195,1,0,3:0:0:0:
367,72,128276,1,0,3:0:0:0:
367,72,128356,1,8,3:0:0:0:
473,12,128516,2,0,L|519:32,2,45,0|0|8,3:0|3:0|3:0,3:0:0:0:
398,176,128837,1,4,3:0:0:0:
398,176,128917,1,4,3:0:0:0:
398,176,128998,5,4,3:0:0:0:
378,204,129078,1,4,3:0:0:0:
354,228,129158,1,4,3:0:0:0:
322,240,129238,1,4,3:0:0:0:
286,236,129319,6,0,P|222:133|299:66,1,215.999993408203,4|0,0:1|0:0,0:0:0:0:
310,152,129800,1,0,0:0:0:0:
174,260,129961,2,0,P|218:300|268:320,1,107.999996704102
272,72,130281,2,0,B|196:60|164:112|164:112|129:24|30:15|-18:59,1,323.999990112305,4|0,0:0|0:0,0:0:0:0:
0,236,130923,1,0,0:0:0:0:
54,146,131084,1,0,0:0:0:0:
143,342,131244,6,0,B|200:327|221:268|221:268|245:329|319:372|393:329|417:299,1,323.999990112305,4|0,0:0|0:0,0:0:0:0:
323,238,131886,1,4,0:3:0:0:
512,290,132047,1,4,0:3:0:0:
488,79,132207,2,0,B|384:128|384:24|272:76,1,215.999993408203,4|0,0:1|0:0,0:0:0:0:
72,144,132689,1,0,0:0:0:0:
136,272,132849,1,0,0:0:0:0:
200,136,133010,1,0,0:0:0:0:
282,290,133170,6,0,P|342:298|399:280,1,107.999996704102
458,191,133491,1,0,0:0:0:0:
360,156,133651,1,0,0:0:0:0:
488,290,133812,1,0,0:0:0:0:
439,94,133972,1,0,0:0:0:0:
282,290,134133,2,0,P|224:299|163:278,1,107.999996704102,4|0,0:2|2:0,2:0:0:0:
135,101,134454,2,0,P|171:145|183:209,1,107.999996704102,0|0,2:0|2:0,2:0:0:0:
56,331,134775,2,0,P|75:275|124:234,1,107.999996704102,0|0,2:0|2:0,2:0:0:0:
266,182,135096,5,0,0:0:0:0:
428,240,135256,1,0,0:0:0:0:
470,243,135336,1,0,0:0:0:0:
509,223,135417,2,0,P|455:201|394:207,1,107.999996704102
279,336,135738,1,0,0:0:0:0:
397,326,135898,1,0,0:0:0:0:
311,232,136059,5,0,3:0:0:0:
276,235,136139,1,0,3:0:0:0:
241,227,136219,1,0,3:0:0:0:
210,209,136299,1,0,3:0:0:0:
185,183,136379,1,0,3:0:0:0:
170,151,136460,1,0,3:0:0:0:
165,115,136540,1,0,3:0:0:0:
168,80,136620,1,0,3:0:0:0:
191,54,136700,5,4,3:0:0:0:
228,80,136780,1,4,3:0:0:0:
252,120,136860,1,4,3:0:0:0:
268,160,136940,1,4,3:0:0:0:
276,204,137021,2,0,P|275:257|247:321,1,90,4|0,3:2|0:0,0:0:0:0:
512,249,137342,5,0,3:0:0:0:
470,237,137423,1,0,3:0:0:0:
428,245,137503,1,0,3:0:0:0:
390,266,137583,1,0,3:0:0:0:
369,304,137663,2,0,L|353:355,3,53.9999983520508,0|0|0|0,3:0|3:0|3:0|3:0,3:0:0:0:
271,227,137984,1,0,3:0:0:0:
231,209,138064,1,0,3:0:0:0:
189,202,138145,1,0,3:0:0:0:
148,212,138225,1,0,3:0:0:0:
115,240,138305,6,0,L|124:296,1,53.9999983520508,0|0,1:0|1:0,1:0:0:0:
224,136,138466,2,0,L|236:60,1,53.9999983520508,0|0,1:0|1:0,1:0:0:0:
116,5,138626,1,0,3:0:0:0:
153,26,138706,1,0,3:0:0:0:
193,42,138786,1,0,3:0:0:0:
235,51,138866,1,0,3:0:0:0:
278,55,138946,1,0,3:0:0:0:
321,53,139027,1,0,3:0:0:0:
364,44,139107,1,0,3:0:0:0:
404,29,139187,1,0,3:0:0:0:
443,10,139268,6,0,P|447:46|443:87,1,53.9999983520508,0|0,1:0|1:0,1:0:0:0:
364,186,139429,2,0,P|360:150|364:109,1,53.9999983520508,0|0,1:0|1:0,1:0:0:0:
472,172,139589,1,0,3:0:0:0:
485,212,139669,1,0,3:0:0:0:
484,255,139749,1,0,3:0:0:0:
469,295,139829,1,0,3:0:0:0:
441,328,139909,1,0,3:0:0:0:
404,349,139990,1,0,3:0:0:0:
362,357,140070,1,0,3:0:0:0:
319,350,140150,1,0,3:0:0:0:
294,314,140231,6,4,P|291:287|302:235,3,53.9999983520508,4|4|4|4,3:0|3:0|3:0|3:0,3:0:0:0:
177,320,140552,2,4,P|180:347|169:399,3,53.9999983520508,4|4|4|4,3:0|3:0|3:0|3:0,3:0:0:0:
80,200,140873,6,0,B|168:268|261:183,1,180,12|8,2:0|0:0,0:0:0:0:
316,120,141354,1,0,0:0:0:0:
208,104,141515,1,8,0:2:0:0:
280,24,141675,1,0,0:2:0:0:
340,220,141836,1,8,0:2:0:0:
208,104,141996,1,0,0:0:0:0:
96,296,142157,2,0,P|51:304|-1:296,1,90,8|0,0:2|0:0,0:0:0:0:
4,208,142478,1,8,0:2:0:0:
4,208,142638,1,0,0:0:0:0:
176,236,142799,5,10,0:0:0:0:
144,42,142959,2,0,B|94:80|108:137|108:137|153:143|207:102,1,215.999993408203,2|0,0:2|0:0,2:0:0:0:
444,40,143440,2,0,B|444:80|444:80|452:116|452:116|452:188,1,107.999996704102,10|0,0:2|0:0,0:0:0:0:
308,344,143761,2,0,B|308:268|308:268|320:212|320:212|320:120,1,215.999993408203,10|8,0:2|0:2,0:0:0:0:
242,199,144243,1,0,0:0:0:0:
392,256,144403,1,8,0:2:0:0:
224,320,144564,1,0,0:0:0:0:
320,129,144724,6,0,P|324:84|316:32,1,90,8|0,0:2|0:0,0:0:0:0:
156,116,145045,1,8,0:2:0:0:
140,232,145206,1,0,0:0:0:0:
24,24,145366,1,8,0:2:0:0:
8,140,145527,1,0,0:0:0:0:
240,92,145687,2,0,P|238:137|219:178,1,90,8|0,0:2|0:0,0:0:0:0:
32,264,146008,1,8,0:2:0:0:
92,164,146168,1,0,0:0:0:0:
252,292,146329,2,0,B|343:299|343:299|400:277,1,135,8|0,0:2|2:0,0:0:0:0:
424,232,146650,6,0,L|424:340,1,90,8|0,0:2|0:0,0:0:0:0:
312,200,146971,1,4,0:3:0:0:
312,200,147131,1,4,0:3:0:0:
420,44,147292,2,0,L|420:136,1,90,8|0,0:2|0:0,0:0:0:0:
196,132,147613,2,0,P|240:104|288:104,1,90,8|0,0:2|0:0,0:0:0:0:
220,244,147934,1,12,0:3:0:0:
120,300,148094,1,4,0:3:0:0:
196,132,148255,2,0,P|156:100|56:104,1,135,8|0,0:2|2:0,0:0:0:0:
12,132,148576,6,0,B|32:32,1,90,8|0,0:2|0:0,0:0:0:0:
108,196,148897,1,8,0:2:0:0:
0,240,149057,1,0,0:0:0:0:
120,300,149218,1,8,0:2:0:0:
12,344,149378,1,0,0:0:0:0:
232,260,149538,5,8,0:2:0:0:
400,328,149699,1,0,0:0:0:0:
260,144,149859,1,8,0:2:0:0:
428,212,150020,1,0,0:0:0:0:
320,380,150180,2,0,P|304:328|340:264,1,90,8|0,0:2|0:0,0:0:0:0:
448,196,150501,5,8,0:2:0:0:
328,280,150662,1,0,0:0:0:0:
260,144,150822,2,0,P|212:136|160:152,1,90,8|0,0:2|0:0,0:0:0:0:
76,224,151143,1,8,0:2:0:0:
96,328,151304,1,0,0:0:0:0:
216,212,151464,2,0,L|216:304,1,90,8|0,0:2|0:0,0:0:0:0:
216,104,151785,1,4,0:3:0:0:
216,104,151946,1,4,0:3:0:0:
352,192,152106,2,0,P|404:196|468:176,1,90,8|0,0:2|0:0,0:0:0:0:
260,372,152427,6,0,P|215:380|171:375,1,90,8|0,0:2|0:0,0:0:0:0:
216,212,152748,1,4,0:3:0:0:
216,212,152908,1,4,0:3:0:0:
112,300,153069,2,0,P|72:308|4:292,1,90,10|0,0:2|0:0,0:0:0:0:
88,80,153390,2,0,P|99:121|92:168,1,90,10|0,0:2|0:0,0:0:0:0:
12,136,153711,1,8,0:2:0:0:
176,200,153871,1,0,0:0:0:0:
272,40,154032,2,0,P|314:35|360:52,1,90,10|0,0:2|0:0,0:0:0:0:
508,144,154353,6,0,P|420:128|337:160,1,180,8|8,0:2|0:2,0:0:0:0:
176,200,154834,1,0,2:0:0:0:
117,64,154995,5,0,3:0:0:0:
137,37,155075,1,0,3:0:0:0:
166,20,155155,1,0,3:0:0:0:
199,13,155235,1,0,3:0:0:0:
233,14,155316,2,0,P|257:22|278:36,3,45,0|0|0|0,3:0|3:0|3:0|3:0,3:0:0:0:
205,100,155637,2,4,L|229:164,1,45,4|4,3:0|3:0,3:0:0:0:
312,178,155797,2,4,L|284:230,1,45,4|4,3:0|3:0,3:0:0:0:
207,263,155957,2,4,L|227:327,1,45,4|4,3:0|3:0,3:0:0:0:
312,340,156118,2,4,L|288:384,1,45,4|4,3:0|3:0,3:0:0:0:
134,349,156278,6,0,P|98:253|126:185,1,180,12|8,0:2|0:0,0:0:0:0:
168,76,156760,1,0,0:0:0:0:
224,196,156920,1,8,0:0:0:0:
148,48,157081,1,0,0:0:0:0:
32,184,157241,5,8,0:2:0:0:
196,108,157402,1,0,0:0:0:0:
4,16,157562,2,0,P|12:68|52:108,1,90,8|0,0:2|0:0,0:0:0:0:
125,185,157883,1,8,0:2:0:0:
56,288,158044,1,0,0:0:0:0:
256,188,158204,5,10,0:2:0:0:
360,328,158365,2,0,B|423:300|435:255|435:255|399:231|315:263,1,215.999993408203,2|0,0:2|0:0,0:0:0:0:
428,92,158846,2,0,B|392:104|392:104|356:100|356:100|323:110,1,107.999996704102,10|0,0:2|0:0,0:0:0:0:
3,32,159167,2,0,B|76:51|76:51|127:77|127:77|216:100,1,215.999993408203,10|8,0:2|0:2,0:0:0:0:
164,4,159648,1,0,0:0:0:0:
60,132,159809,1,8,0:2:0:0:
232,180,159969,1,0,0:0:0:0:
0,260,160130,6,0,P|48:248|102:247,1,90,8|0,0:2|0:0,0:0:0:0:
244,296,160451,1,8,0:2:0:0:
232,180,160611,1,0,0:0:0:0:
176,360,160772,1,8,0:2:0:0:
164,244,160932,1,0,0:0:0:0:
326,359,161093,2,0,P|372:356|426:339,1,90,8|0,0:2|0:0,0:0:0:0:
368,144,161414,1,8,0:2:0:0:
444,52,161574,1,0,0:0:0:0:
396,244,161735,2,0,B|352:260|307:262|307:262|255:245,1,135,8|0,0:2|2:0,0:0:0:0:
216,200,162056,6,0,L|216:299,1,90,8|0,0:2|0:0,0:0:0:0:
96,232,162376,1,4,0:3:0:0:
96,232,162537,1,4,0:3:0:0:
160,56,162697,2,0,P|208:96|212:148,1,90,8|0,2:0|0:0,0:0:0:0:
360,232,163018,2,0,P|401:223|432:184,1,90,8|0,0:2|0:0,0:0:0:0:
265,248,163339,1,4,0:3:0:0:
310,128,163500,1,4,0:3:0:0:
359,332,163660,2,0,B|448:308|448:308|483:269,1,135,8|0,0:2|2:0,0:0:0:0:
512,227,163981,6,0,L|512:327,1,90,8|0,0:2|0:0,0:0:0:0:
398,128,164302,1,8,0:2:0:0:
281,214,164463,1,0,0:0:0:0:
426,214,164623,1,8,0:2:0:0:
310,128,164784,1,0,0:0:0:0:
168,332,164944,5,8,0:2:0:0:
355,193,165105,1,0,0:2:0:0:
124,198,165265,1,8,0:2:0:0:
310,336,165426,1,0,0:0:0:0:
310,128,165586,2,0,P|289:81|240:44,1,90,8|0,0:0|0:0,0:0:0:0:
57,15,165907,5,8,0:2:0:0:
218,134,166067,1,0,0:0:0:0:
88,216,166228,2,0,L|176:232,1,90,8|0,0:2|0:0,0:0:0:0:
92,128,166549,1,8,0:2:0:0:
0,264,166709,1,0,0:0:0:0:
116,88,166870,2,0,B|144:164|144:164|124:264,1,180,8|8,0:2|0:2,0:0:0:0:
12,168,167351,1,0,0:0:0:0:
224,100,167512,2,0,L|192:16,1,90,8|0,0:2|0:0,0:0:0:0:
312,208,167833,6,0,P|416:176|504:228,1,180,8|8,0:2|0:2,0:0:0:0:
396,276,168314,1,0,0:0:0:0:
384,76,168475,2,0,P|436:76|500:108,1,90,8|0,0:2|0:0,0:0:0:0:
184,124,168795,2,0,L|168:24,1,90,8|0,0:2|0:0,0:0:0:0:
96,188,169116,1,8,0:2:0:0:
68,76,169277,1,0,0:0:0:0:
12,256,169437,2,0,L|28:344,1,90,8|0,0:2|0:0,0:0:0:0:
204,240,169758,5,4,0:2:0:0:
304,328,169919,1,0,3:0:0:0:
333,347,169999,1,0,3:0:0:0:
368,354,170079,1,0,3:0:0:0:
403,347,170159,1,0,3:0:0:0:
433,327,170239,1,0,3:0:0:0:
452,297,170320,1,0,3:0:0:0:
459,262,170400,1,0,3:0:0:0:
451,227,170480,1,0,3:0:0:0:
431,198,170560,1,0,3:0:0:0:
400,180,170641,1,0,3:0:0:0:
364,172,170721,6,4,L|273:143,2,60,4|4|4,3:0|3:0|3:0,3:0:0:0:
360,264,171042,2,4,L|276:271,2,60,4|4|4,3:0|3:0|3:0,3:0:0:0:
403,347,171363,2,4,L|349:375,2,60,4|4|4,3:0|3:0|3:0,3:0:0:0:
484,240,171684,5,4,0:2:0:0:
84,196,185164,5,0,0:0:0:0:
118,174,185244,1,0,0:0:0:0:
153,153,185324,1,0,0:0:0:0:
188,132,185405,1,0,0:0:0:0:
220,108,185485,5,0,3:0:0:0:
236,120,185565,1,0,3:0:0:0:
252,132,185645,1,0,3:0:0:0:
268,144,185726,1,0,3:0:0:0:
284,156,185806,5,0,0:0:0:0:
284,194,185886,1,0,0:0:0:0:
284,232,185966,1,0,0:0:0:0:
284,271,186047,1,0,0:0:0:0:
316,296,186127,6,0,L|376:328,3,45,0|0|0|0,3:0|3:0|3:0|3:0,3:0:0:0:
397,315,186448,2,0,L|460:280,3,45,0|0|0|0,3:0|3:0|3:0|3:0,3:0:0:0:
372,220,186769,5,4,0:1:0:0:
88,72,187090,6,8,P|92:136|196:204,1,180,4|0,2:1|2:0,0:0:0:0:
260,116,187571,1,0,2:0:0:0:
376,139,187732,2,0,P|384:187|344:248,1,90,0|0,2:0|2:0,2:0:0:0:
204,308,188052,2,8,P|120:284|28:316,1,180,4|0,2:1|0:0,0:0:0:0:
4,196,188534,1,0,0:0:0:0:
116,160,188694,2,8,L|116:264,1,90,0|0,0:0|0:0,0:0:0:0:
232,16,189015,6,8,L|232:200,1,180,4|0,0:1|0:0,0:0:0:0:
344,228,189497,1,0,0:0:0:0:
424,136,189657,2,8,P|372:108|328:108,1,90,0|0,0:0|0:0,0:0:0:0:
116,160,189978,2,8,P|184:96|108:52,1,180,4|0,0:1|0:0,0:0:0:0:
28,96,190460,1,0,0:0:0:0:
12,212,190620,1,0,0:0:0:0:
112,276,190781,1,0,0:0:0:0:
308,179,190941,6,4,P|228:171|224:251,1,180,4|0,0:1|0:1,0:1:0:0:
316,324,191422,1,0,0:0:0:0:
388,232,191583,1,0,0:0:0:0:
316,324,191743,1,0,0:0:0:0:
479,286,191904,2,8,B|494:226|494:226|472:169|472:169|491:84,1,180,4|0,0:1|0:0,0:0:0:0:
448,17,192385,1,0,0:0:0:0:
354,64,192546,2,0,L|330:150,1,90
176,160,192867,6,8,P|96:132|0:168,1,180,4|0,0:1|0:0,0:0:0:0:
90,242,193348,1,0,0:0:0:0:
92,351,193509,2,8,L|-24:351,1,90,0|0,0:0|0:0,0:0:0:0:
211,276,193830,2,8,L|343:276,1,90,4|0,0:1|0:0,0:0:0:0:
436,331,194151,1,0,0:0:0:0:
501,240,194311,1,0,3:0:0:0:
465,240,194391,1,0,3:0:0:0:
429,240,194471,2,0,L|357:240,1,45,4|0,0:1|0:0,0:0:0:0:
426,149,194632,1,0,3:0:0:0:
390,149,194712,1,0,3:0:0:0:
354,149,194792,6,0,B|294:149|294:149|234:161|234:161|162:161,1,180,4|0,0:1|0:0,0:0:0:0:
204,24,195274,1,0,0:0:0:0:
220,140,195434,2,0,L|220:236,1,90
400,260,195755,5,4,0:1:0:0:
236,340,195916,1,0,0:0:0:0:
308,176,196076,2,0,L|308:296,1,90
128,296,196397,2,0,L|32:296,1,90
0,108,196718,5,4,0:1:0:0:
168,0,196879,1,0,0:0:0:0:
116,112,197039,2,0,L|172:220,1,90
228,288,197360,1,0,0:0:0:0:
284,184,197520,1,0,0:0:0:0:
436,332,197681,6,8,P|388:344|328:332,1,90,4|0,0:1|0:0,0:0:0:0:
368,212,198002,2,8,P|416:200|476:212,1,90,8|0,0:0|3:0,0:0:0:0:
416,248,198243,1,0,3:0:0:0:
416,248,198323,2,0,L|412:148,1,90
480,0,198644,6,8,P|404:80|320:48,1,180,4|0,0:1|0:0,0:0:0:0:
236,28,199125,1,0,0:0:0:0:
120,4,199286,2,8,P|52:24|28:68,1,90,0|0,0:0|0:0,0:0:0:0:
156,268,199607,2,8,B|156:204|156:204|120:164|120:164|124:96,1,180,4|0,0:1|0:0,0:0:0:0:
8,128,200088,1,0,3:0:0:0:
8,164,200168,1,0,3:0:0:0:
8,200,200249,2,8,B|36:232|36:232|36:304,1,90,0|0,0:0|0:0,0:0:0:0:
256,284,200570,6,8,L|256:191,1,90,4|0,0:1|0:0,0:0:0:0:
200,87,200890,2,0,L|180:27,2,60,0|0|0,3:0|3:0|3:0,3:0:0:0:
308,87,201211,2,0,L|328:27,2,60,0|0|0,3:0|3:0|3:0,3:0:0:0:
256,239,201532,5,12,1:0:0:0:
256,239,202174,5,0,0:0:0:0:
428,152,202495,1,0,0:0:0:0:
374,58,202816,1,0,0:0:0:0:
320,152,203137,1,0,0:0:0:0:
476,244,203458,6,0,L|476:344,2,80.9999975280763,4|4|4,3:0|3:0|3:0,3:0:0:0:
388,292,204180,1,4,3:0:0:0:
308,244,204421,1,4,3:0:0:0:
116,144,204742,6,0,B|144:123|184:136,1,67.5
156,216,205063,2,0,B|128:237|88:224,1,67.5
32,160,205384,6,0,P|8:216|24:280,1,107.999996704102,4|0,0:2|0:0,0:0:0:0:
44,344,206026,1,0,0:0:0:0:
168,372,206347,1,8,0:0:0:0:
244,332,206668,1,0,0:0:0:0:
324,368,206989,1,0,0:0:0:0:
452,344,207309,6,0,P|476:288|460:224,1,107.999996704102,0|0,0:2|0:0,0:0:0:0:
416,176,207951,1,0,0:0:0:0:
292,212,208272,1,8,0:0:0:0:
216,176,208593,1,0,0:0:0:0:
136,208,208914,1,0,0:0:0:0:
12,172,209235,6,0,L|88:84,1,107.999996704102
140,24,209877,1,0,0:0:0:0:
248,96,210198,2,0,L|368:96,1,107.999996704102,8|0,0:0|0:0,0:0:0:0:
412,28,210840,1,0,0:0:0:0:
420,156,211161,6,0,P|404:208|352:240,1,107.999996704102
284,196,211803,1,0,0:0:0:0:
192,284,212124,2,0,P|207:334|250:365,1,107.999996704102,8|0,0:0|0:0,0:0:0:0:
332,340,212766,1,0,0:0:0:0:
460,368,213087,6,0,P|463:317|456:256,1,107.999996704102,4|0,0:2|0:0,0:0:0:0:
376,236,213728,1,0,0:0:0:0:
252,268,214049,1,8,0:0:0:0:
200,200,214370,1,0,0:0:0:0:
124,240,214691,1,0,0:0:0:0:
4,188,215012,6,0,P|0:238|8:300,1,107.999996704102,0|0,0:2|0:0,0:0:0:0:
88,324,215654,1,0,0:0:0:0:
212,284,215975,1,8,0:0:0:0:
168,208,216296,1,0,0:0:0:0:
216,136,216617,1,0,0:0:0:0:
96,88,216938,6,0,P|120:28|160:4,1,107.999996704102
232,44,217580,1,0,0:0:0:0:
356,8,217901,2,0,P|398:39|414:90,1,107.999996704102,8|0,0:0|0:0,0:0:0:0:
348,144,218543,1,0,0:0:0:0:
260,240,218864,6,0,P|268:300|320:324,1,107.999996704102,0|0,2:0|2:0,2:0:0:0:
372,268,219506,1,0,0:0:0:0:
492,216,219827,2,0,P|484:276|432:312,1,107.999996704102,8|0,0:0|0:0,0:0:0:0:
288,248,220468,6,0,L|288:208,2,31.4999990386963
212,288,220789,6,0,P|174:236|178:152,1,125.999996154785,4|0,0:2|0:0,0:0:0:0:
208,104,221271,1,0,0:0:0:0:
288,88,221431,1,0,0:0:0:0:
364,120,221592,1,0,0:0:0:0:
504,64,221752,2,0,B|448:16|376:40|376:40|304:8,1,188.999994232178,8|0,0:0|0:0,0:0:0:0:
240,24,222394,2,0,P|200:20|164:36,1,62.9999980773926
88,120,222715,6,0,B|149:149|209:101|209:101|209:161,1,188.999994232178
260,224,223357,2,0,L|340:224,1,62.9999980773926
412,128,223678,2,0,B|350:98|290:146|290:146|290:86,1,188.999994232178,8|0,0:0|0:0,0:0:0:0:
208,96,224320,2,0,L|208:168,1,62.9999980773926
276,256,224641,6,0,P|216:248|160:280,1,125.999996154785
104,340,225122,1,0,0:0:0:0:
180,376,225283,2,0,L|256:376,1,62.9999980773926
356,324,225604,2,0,B|371:261|371:261|361:199|361:199|376:136,1,188.999994232178,8|0,0:0|0:0,3:0:0:0:
460,144,226246,2,0,L|444:220,1,62.9999980773926
276,256,226566,6,0,B|265:189|265:189|280:124,1,125.999996154785
328,68,227048,1,0,0:0:0:0:
260,24,227208,2,0,P|212:32|180:53,1,62.9999980773926
124,188,227529,2,0,B|148:96|88:96|116:-4,1,188.999994232178,8|0,0:0|0:0,0:0:0:0:
32,8,228171,2,0,P|24:44|32:80,1,62.9999980773926
36,204,228492,5,0,0:0:0:0:
100,256,228653,2,0,P|168:244|244:264,1,125.999996154785
300,288,229134,2,0,L|300:212,1,62.9999980773926
300,84,229455,5,8,0:0:0:0:
380,256,229776,1,8,0:0:0:0:
456,84,230097,1,8,0:0:0:0:
208,48,230418,6,0,B|188:112|238:165|238:165|173:146,1,188.999994232178,4|0,0:0|0:0,0:0:0:0:
112,104,231060,2,0,L|96:176,1,62.9999980773926
64,288,231381,2,0,B|112:244|184:263|184:263|184:208,1,157.499995193482,8|0,0:0|0:0,0:0:0:0:
264,236,231942,1,0,0:0:0:0:
264,256,232023,2,0,L|264:328,1,62.9999980773926
348,228,232344,6,0,B|360:172|348:104|348:104|392:112|404:164,1,188.999994232178
432,216,232985,2,0,P|429:256|412:288,1,62.9999980773926
264,319,233306,2,0,B|196:304|164:248|164:248|132:260|104:248|104:248|84:280|48:288,1,251.999992309571,8|0,0:0|0:0,0:0:0:0:
132,332,234109,1,0,0:0:0:0:
136,176,234269,6,0,L|136:92,1,62.9999980773926,8|0,0:0|0:0,0:0:0:0:
260,20,234590,2,0,L|260:72,2,41.9999987182618,2|0|2,3:0|3:0|3:0,3:0:0:0:
360,18,234911,2,0,L|360:60,2,41.9999987182618,0|0|0,3:0|3:0|3:0,3:0:0:0:
316,140,235232,5,4,2:0:0:0:
316,140,235553,1,4,3:0:0:0:
152,42,235714,1,4,3:0:0:0:
226,218,235874,1,4,3:0:0:0:
270,30,236034,1,4,3:0:0:0:
125,158,236195,6,0,B|104:200|116:240|116:240|76:232|32:252,1,161.999995056153
88,352,236676,1,0,0:0:0:0:
196,316,236837,2,0,P|244:312|304:332,1,80.9999975280763
400,344,237158,2,0,P|439:351|479:343,1,80.9999975280763,8|0,0:0|0:0,0:0:0:0:
440,176,237479,2,0,L|428:256,1,80.9999975280763
347,75,237800,2,0,L|336:156,1,80.9999975280763
280,240,238121,6,0,B|216:184|256:96|256:96|232:140|160:132,1,242.999992584229
68,96,238763,2,0,P|36:84|4:44,1,80.9999975280763
64,200,239084,2,0,B|128:256|88:344|88:344|192:284,1,242.999992584229,8|0,0:0|0:0,0:0:0:0:
272,328,239725,2,0,P|316:340|372:328,1,80.9999975280763
492,212,240046,6,0,B|412:180|340:228|340:228|380:244|424:228,1,242.999992584229
464,124,240688,2,0,P|468:80|456:16,1,80.9999975280763
310,111,241009,2,0,B|230:143|158:95|158:95|198:79|239:94,1,242.999992584229
288,196,241651,2,0,P|296:248|284:308,1,80.9999975280763
140,348,241972,6,0,B|167:324|215:324|215:324|195:284|207:248|207:248|159:256|99:228,1,242.999992584229
48,156,242614,2,0,L|48:56,1,80.9999975280763
232,133,242935,2,0,P|161:147|147:76,1,161.999995056153,8|0,0:0|0:0,0:0:0:0:
244,12,243416,1,0,0:0:0:0:
344,68,243577,2,0,P|388:52|424:4,1,80.9999975280763
336,196,243898,6,0,B|334:247|334:247|344:308|344:308|340:364,1,161.999995056153
452,348,244379,1,0,0:0:0:0:
512,252,244540,2,0,B|472:252|472:252|408:264,1,80.9999975280763
244,304,244861,1,8,0:0:0:0:
168,220,245021,2,0,B|140:144|196:144|180:28,1,161.999995056153
88,124,245503,2,0,P|76:176|88:224,1,80.9999975280763
256,176,245823,6,0,B|272:132|272:96|272:96|352:116|352:72|432:100,1,242.999992584229
408,212,246465,2,0,L|388:296,1,80.9999975280763
224,280,246786,2,0,P|152:252|64:268,1,161.999995056153,8|0,0:0|0:0,0:0:0:0:
136,360,247268,1,0,0:0:0:0:
240,316,247428,2,0,L|242:235,1,80.9999975280763
128,96,247749,6,0,B|204:160|276:144|276:144|264:100|220:80,1,242.999992584229
136,16,248391,1,0,0:0:0:0:
48,92,248552,1,0,0:0:0:0:
222,4,248712,2,0,B|272:8|272:8|332:32|332:32|390:36,1,161.999995056153,8|0,0:0|0:0,0:0:0:0:
460,108,249193,1,0,0:0:0:0:
388,212,249354,2,0,L|364:128,1,80.9999975280763
472,272,249675,6,0,P|440:300|384:316,1,80.9999975280763
276,248,249996,1,0,3:0:0:0:
244,240,250076,1,0,3:0:0:0:
212,240,250156,1,0,3:0:0:0:
180,248,250237,1,0,3:0:0:0:
152,264,250317,5,4,3:0:0:0:
136,224,250397,1,4,3:0:0:0:
120,184,250477,2,0,L|96:112,1,40.4999987640381,4|0,3:0|2:0,0:0:0:0:
176,56,250638,5,0,3:0:0:0:
176,88,250718,1,0,3:0:0:0:
188,118,250798,1,0,3:0:0:0:
210,141,250878,1,0,3:0:0:0:
239,155,250958,1,0,3:0:0:0:
271,157,251039,1,0,3:0:0:0:
302,148,251119,1,0,3:0:0:0:
328,128,251199,1,0,3:0:0:0:
340,100,251280,2,0,L|344:52,1,40.4999987640381,8|0,3:0|3:0,3:0:0:0:
384,212,251430,2,0,L|386:256,1,45,0|0,3:0|3:0,3:0:0:0:
480,68,251590,6,0,B|480:24|440:16|440:16|424:64|436:128,1,180,4|0,3:1|0:0,0:0:0:0:
492,224,252071,1,0,0:0:0:0:
432,344,252232,2,0,L|336:344,1,90
216,216,252553,2,0,P|212:168|228:120,1,90,8|0,0:0|0:0,0:0:0:0:
336,184,252874,1,4,0:3:0:0:
336,184,253034,1,4,0:3:0:0:
268,292,253194,2,0,P|208:308|164:292,1,90
12,236,253516,6,0,L|12:326,1,90,4|0,0:0|0:0,0:0:0:0:
108,232,253847,1,0,0:0:0:0:
104,356,254007,1,0,0:0:0:0:
0,284,254167,2,0,L|0:194,1,90
156,104,254488,2,0,P|108:112|36:92,1,90,8|0,0:0|0:0,0:0:0:0:
160,20,254809,1,4,0:3:0:0:
260,20,254970,1,4,0:3:0:0:
352,104,255129,2,0,P|304:112|232:92,1,90
108,196,255450,6,0,B|172:196|172:196|228:208|228:208|308:208,1,180,4|0,0:0|0:0,0:0:0:0:
416,204,255933,1,0,0:0:0:0:
460,88,256093,2,0,P|444:44|408:12,1,90
320,168,256413,2,0,B|320:232|320:232|332:288|332:288|332:368,1,180,8|0,0:0|0:0,0:0:0:0:
460,360,256896,1,0,0:0:0:0:
360,264,257055,2,0,L|242:262,1,90
96,328,257376,6,0,B|73:203|173:203|169:75,1,270,4|0,0:0|0:0,0:0:0:0:
76,16,258018,2,0,P|64:60|72:108,1,90
240,176,258339,2,0,P|260:260|184:276,1,180,8|0,0:0|0:0,0:0:0:0:
76,220,258820,1,0,0:0:0:0:
164,128,258981,2,0,P|176:80|164:32,1,90
368,28,259302,5,8,0:0:0:0:
424,216,259461,1,8,0:0:0:0:
368,28,259623,1,8,0:0:0:0:
308,216,259783,1,8,0:0:0:0:
368,28,259944,1,8,0:0:0:0:
368,28,260265,6,0,P|268:56|256:48,1,90,8|0,0:0|0:0,0:0:0:0:
172,104,260586,2,0,P|272:132|284:124,1,90
368,188,260907,2,0,P|268:216|256:208,1,90
116,252,261227,2,0,B|160:327|271:316|271:316|340:308|383:358,1,270,4|0,0:0|0:0,0:0:0:0:
236,364,261869,2,0,L|236:260,1,90
324,116,262190,6,0,B|248:184|132:148,1,180,8|0,0:0|0:0,0:0:0:0:
44,112,262672,2,0,L|44:60,1,45,0|4,0:0|3:0,3:0:0:0:
72,4,262832,2,0,L|72:148,1,135,0|4,0:0|3:0,0:0:0:0:
112,84,263153,2,0,B|112:36|112:36|156:44|156:44|200:36|200:36|244:48|244:48|292:16|356:60,1,270,4|0,0:1|0:0,0:0:0:0:
280,164,263795,2,0,B|236:176|236:176|184:160,1,90
108,264,264116,6,0,P|120:320|144:344,2,90,8|0|0,0:0|0:0|0:0,0:0:0:0:
260,360,264598,1,4,3:0:0:0:
288,337,264678,1,4,3:0:0:0:
321,322,264759,1,0,3:0:0:0:
356,320,264838,1,0,3:0:0:0:
391,331,264919,1,0,3:0:0:0:
419,353,264999,1,0,3:0:0:0:
445,376,265079,2,0,L|456:248,1,90,0|0,3:0|3:0,3:0:0:0:
512,136,265400,6,0,L|512:40,2,60,0|0|0,3:0|3:0|3:0,3:0:0:0:
512,228,265721,2,0,P|464:204|408:208,1,90,0|0,3:0|3:0,3:0:0:0:
304,228,266042,5,4,3:0:0:0:
172,28,266346,1,4,3:0:0:0:
416,88,266666,1,4,3:0:0:0:
132,176,266987,1,4,1:0:0:0:
132,176,267308,5,0,0:0:0:0:
200,232,267469,1,0,0:0:0:0:
288,232,267629,1,0,0:0:0:0:
356,176,267790,1,0,0:0:0:0:
240,120,267950,2,0,L|240:250,1,107.999996704102,8|0,0:0|0:0,0:0:0:0:
200,300,268432,1,0,0:0:0:0:
284,332,268592,2,0,P|332:332|359:319,1,53.9999983520508
365,250,268912,6,0,P|321:250|292:266,1,53.9999983520508
264,180,269233,1,0,0:0:0:0:
188,136,269395,1,0,0:0:0:0:
104,160,269555,1,0,0:0:0:0:
52,232,269715,1,0,0:0:0:0:
180,253,269876,2,0,L|143:130,1,107.999996704102,8|0,0:0|0:0,0:0:0:0:
224,108,270357,1,0,0:0:0:0:
300,156,270518,2,0,P|340:184|369:184,1,53.9999983520508
435,147,270839,6,0,P|395:119|368:119,1,53.9999983520508
416,224,271159,1,2,3:0:0:0:
480,284,271320,1,2,3:0:0:0:
396,304,271480,1,2,3:0:0:0:
460,364,271641,1,2,3:0:0:0:
344,376,271802,2,0,P|320:356|308:324,1,53.9999983520508,8|2,0:0|3:0,2:0:0:0:
264,260,272122,1,2,3:0:0:0:
204,324,272283,1,2,3:0:0:0:
88,268,272442,1,2,3:0:0:0:
152,208,272604,1,2,3:0:0:0:
204,324,272764,5,2,3:0:0:0:
264,260,272924,1,2,3:0:0:0:
264,172,273085,1,2,3:0:0:0:
216,100,273245,1,2,3:0:0:0:
296,0,273406,1,0,0:0:0:0:
304,32,273487,1,0,0:0:0:0:
327,54,273567,1,0,0:0:0:0:
355,68,273647,1,0,0:0:0:0:
395,71,273747,6,0,L|459:51,1,35.9999989013672
429,155,273960,2,0,L|369:175,1,35.9999989013672
447,246,274174,2,0,L|503:234,2,35.9999989013672
364,276,274495,2,0,L|309:287,1,35.9999989013672
439,342,274709,5,4,0:0:0:0:
248,184,275137,2,4,L|280:228,4,35.9999989013672,4|4|4|4|4,3:0|3:0|3:0|3:0|3:0,3:0:0:0:
148,180,275672,5,8,3:0:0:0:
148,180,275993,1,4,3:0:0:0:
200,104,276153,1,4,3:0:0:0:
292,104,276314,1,4,3:0:0:0:
340,180,276475,1,4,3:0:0:0:
204,264,276635,1,6,3:0:0:0:
248,184,276795,1,4,3:0:0:0:
304,268,276956,1,4,3:0:0:0:
304,268,277258,6,4,B|304:331,1,53.9999983520508,4|4,3:0|3:0,3:0:0:0:
224,360,277579,1,8,3:0:0:0:
132,356,277739,1,4,3:0:0:0:
64,249,277898,2,4,B|64:317,1,53.9999983520508,4|4,3:0|3:0,3:0:0:0:
144,268,278220,1,4,3:0:0:0:
143,181,278381,1,4,3:0:0:0:
64,303,278540,1,2,3:0:0:0:
64,303,278882,5,4,3:0:0:0:
137,354,279043,1,4,3:0:0:0:
217,322,279203,1,4,3:0:0:0:
228,236,279364,1,4,3:0:0:0:
293,360,279524,1,8,3:0:0:0:
293,360,279845,5,0,2:0:0:0:
314,275,280006,1,0,2:0:0:0:
280,195,280165,2,0,P|221:204|150:178,1,108,0|0,2:0|2:0,0:0:0:0:
225,164,280486,2,0,P|284:173|355:147,1,108,4|0,0:2|0:0,0:0:0:0:
364,114,280807,5,0,0:0:0:0:
336,123,280887,1,0,0:0:0:0:
308,129,280967,1,0,0:0:0:0:
280,131,281047,1,0,0:0:0:0:
251,130,281127,1,0,0:0:0:0:
222,125,281208,1,0,0:0:0:0:
195,116,281288,1,0,0:0:0:0:
169,104,281368,1,0,0:0:0:0:
147,80,281449,6,0,L|147:174,1,90,4|0,2:1|2:1,0:0:0:0:
264,12,281770,1,4,0:1:0:0:
264,216,281931,1,4,2:1:0:0:
387,85,282091,1,4,2:1:0:0:
387,85,282412,6,0,L|386:185,1,90,4|0,0:1|0:0,0:0:0:0:
351,277,282733,1,0,0:0:0:0:
456,268,282893,1,0,0:0:0:0:
280,232,283054,1,0,0:0:0:0:
349,325,283214,1,0,0:0:0:0:
189,298,283375,2,0,P|150:292|85:301,1,90,8|0,0:0|0:0,0:0:0:0:
10,358,283696,1,0,0:0:0:0:
10,358,283856,1,0,0:0:0:0:
99,297,284017,2,0,P|119:233|111:188,1,90
3,95,284338,6,0,P|3:139|21:180,1,90,4|0,0:1|0:0,0:0:0:0:
117,211,284659,1,0,0:0:0:0:
240,140,284819,1,0,0:0:0:0:
176,20,284979,1,0,0:0:0:0:
148,116,285140,1,0,0:0:0:0:
267,18,285301,2,0,L|385:20,1,90,8|0,0:0|0:0,0:0:0:0:
416,80,285622,1,0,0:0:0:0:
370,156,285782,1,0,0:0:0:0:
406,233,285943,2,0,L|524:235,1,90
362,324,286263,6,0,L|245:322,1,90,4|0,0:1|0:0,0:0:0:0:
183,259,286584,1,0,0:0:0:0:
187,151,286744,1,0,0:0:0:0:
271,217,286904,1,0,0:0:0:0:
272,322,287065,1,0,0:0:0:0:
109,328,287226,2,0,P|62:323|16:293,1,90,8|0,0:0|0:0,0:0:0:0:
17,194,287547,1,0,0:0:0:0:
17,194,287708,1,0,0:0:0:0:
117,153,287869,2,0,L|101:47,1,90
265,66,288189,6,0,L|249:158,1,90,4|0,0:0|0:0,0:0:0:0:
302,250,288511,1,0,0:0:0:0:
407,271,288671,1,0,0:0:0:0:
345,181,288832,1,0,0:0:0:0:
450,200,288992,1,0,0:0:0:0:
365,337,289152,2,0,P|414:352|492:262,1,180,8|0,0:0|0:0,0:0:0:0:
496,160,289633,1,0,3:0:0:0:
476,184,289714,1,0,3:0:0:0:
450,200,289794,2,0,P|424:166|411:110,1,90,4|0,0:2|0:0,0:0:0:0:
311,16,290115,6,0,P|314:67|293:115,1,90,4|0,0:1|0:0,0:0:0:0:
235,189,290436,1,0,0:0:0:0:
127,189,290596,1,0,0:0:0:0:
212,104,290756,1,0,0:0:0:0:
248,220,290917,1,0,0:0:0:0:
218,350,291078,2,0,P|165:343|99:355,1,90,8|0,0:0|0:0,0:0:0:0:
21,358,291399,1,0,0:0:0:0:
21,358,291560,1,0,0:0:0:0:
47,253,291720,2,0,P|49:206|7:149,1,90
133,294,292041,6,0,P|186:301|252:289,1,90,4|0,0:1|0:0,0:0:0:0:
303,225,292362,1,0,0:0:0:0:
325,330,292523,1,0,0:0:0:0:
402,255,292683,1,0,0:0:0:0:
325,330,292844,1,0,0:0:0:0:
370,176,293003,2,0,P|378:130|366:62,1,90,8|0,0:0|0:0,0:0:0:0:
274,31,293324,1,0,0:0:0:0:
272,120,293484,1,0,0:0:0:0:
372,88,293645,2,0,P|380:44|377:0,1,90
272,120,293966,6,0,L|272:210,1,90,4|0,0:0|0:0,0:0:0:0:
169,176,294287,1,0,0:0:0:0:
205,278,294448,1,0,0:0:0:0:
141,190,294609,1,0,0:0:0:0:
99,289,294769,1,0,0:0:0:0:
196,159,294929,2,0,L|197:50,1,90,8|0,0:0|0:0,0:0:0:0:
128,12,295251,1,0,0:0:0:0:
128,12,295411,1,0,0:0:0:0:
28,92,295571,2,0,P|68:104|117:104,1,90
272,125,295893,6,0,L|272:220,1,90,4|0,0:0|0:0,0:0:0:0:
360,277,296214,1,0,0:0:0:0:
360,277,296374,1,0,0:0:0:0:
408,180,296534,2,0,P|361:169|306:176,1,90
182,274,296863,6,0,L|183:167,1,90,4|0,0:0|0:0,0:0:0:0:
54,107,297183,1,0,3:0:0:0:
66,139,297264,1,0,3:0:0:0:
70,172,297344,1,0,3:0:0:0:
63,205,297424,1,0,3:0:0:0:
49,235,297504,2,0,P|34:281|45:329,1,90,8|0,0:0|0:0,0:0:0:0:
145,373,297825,1,0,0:0:0:0:
145,373,297986,1,0,0:0:0:0:
210,287,298146,2,0,L|118:282,1,90
251,378,298467,6,0,P|289:346|305:303,1,90,4|0,0:1|0:0,0:0:0:0:
308,166,298788,1,0,3:0:0:0:
314,133,298868,1,0,3:0:0:0:
333,105,298949,1,0,3:0:0:0:
361,85,299029,1,0,3:0:0:0:
396,87,299109,2,0,P|357:127|258:139,1,135,8|0,0:0|2:0,0:0:0:0:
243,82,299430,2,0,L|241:225,1,135,0|0,0:0|2:0,0:0:0:0:
192,270,299751,1,0,3:0:0:0:
223,258,299831,1,0,3:0:0:0:
257,261,299912,1,0,3:0:0:0:
288,275,299992,1,0,3:0:0:0:
311,299,300072,6,0,P|357:321|397:317,1,90,4|0,1:2|2:0,0:0:0:0:
460,232,300392,1,0,0:2:0:0:
456,211,300713,1,0,0:0:0:0:
329,147,301034,1,8,0:0:0:0:
326,127,301355,1,0,0:0:0:0:
453,50,301676,5,8,1:0:0:0:
453,50,301837,1,8,1:0:0:0:
376,210,301997,2,0,P|329:227|282:211,1,90,4|0,1:0|2:0,0:0:0:0:
251,71,302318,1,8,1:0:0:0:
179,152,302479,1,8,1:0:0:0:
326,127,302639,1,8,1:0:0:0:
156,64,302800,1,8,1:0:0:0:
336,36,302960,5,0,0:0:0:0:
364,48,303040,1,0,0:0:0:0:
388,68,303120,1,0,0:0:0:0:
403,96,303200,1,0,0:0:0:0:
409,127,303280,1,0,0:0:0:0:
404,158,303361,1,0,0:0:0:0:
390,185,303441,1,0,0:0:0:0:
367,207,303521,1,0,0:0:0:0:
340,224,303602,1,0,0:0:0:0:
317,245,303682,1,0,0:0:0:0:
302,273,303762,1,0,0:0:0:0:
298,304,303843,1,0,0:0:0:0:
300,336,303923,6,0,P|312:372|340:392,1,45,2|0,0:0|0:0,0:0:0:0:
448,324,304083,1,0,0:0:0:0:
441,280,304163,1,0,0:0:0:0:
412,245,304243,1,0,0:0:0:0:
373,223,304323,1,0,0:0:0:0:
330,213,304403,1,0,0:0:0:0:
285,213,304484,1,0,0:0:0:0:
241,223,304564,1,0,0:0:0:0:
199,239,304644,1,0,0:0:0:0:
156,253,304724,1,0,0:0:0:0:
112,254,304805,1,0,0:0:0:0:
70,237,304885,5,8,0:0:0:0:
108,212,304966,1,0,0:0:0:0:
137,243,305046,1,0,0:0:0:0:
126,285,305126,1,0,0:0:0:0:
89,309,305206,1,0,0:0:0:0:
44,307,305286,1,0,0:0:0:0:
9,280,305367,1,0,0:0:0:0:
0,237,305447,1,0,0:0:0:0:
8,194,305527,1,0,0:0:0:0:
26,153,305607,1,0,0:0:0:0:
36,109,305688,1,0,0:0:0:0:
31,65,305768,1,0,0:0:0:0:
20,20,305849,6,0,L|104:4,3,45,2|0|0|0,0:0|0:0|0:0|0:0,0:0:0:0:
179,108,306170,2,0,L|263:124,3,45
337,19,306491,2,0,L|424:7,3,45
414,121,306811,5,8,0:0:0:0:
395,162,306891,1,0,0:0:0:0:
385,205,306972,1,0,0:0:0:0:
391,250,307052,1,0,0:0:0:0:
420,281,307132,1,0,0:0:0:0:
463,288,307212,1,0,0:0:0:0:
500,265,307292,1,0,0:0:0:0:
500,223,307372,1,0,0:0:0:0:
463,199,307452,1,0,0:0:0:0:
419,193,307533,1,0,0:0:0:0:
376,203,307613,1,0,0:0:0:0:
344,234,307694,1,0,0:0:0:0:
322,274,307774,5,2,0:0:0:0:
290,305,307855,1,0,0:0:0:0:
247,315,307935,1,0,0:0:0:0:
203,309,308016,1,0,0:0:0:0:
166,285,308096,1,0,0:0:0:0:
143,247,308175,1,0,0:0:0:0:
111,216,308256,1,0,0:0:0:0:
68,206,308336,1,0,0:0:0:0:
23,210,308416,2,0,L|3:250,3,45
60,348,308737,5,8,0:0:0:0:
65,304,308817,1,0,0:0:0:0:
84,263,308897,1,0,0:0:0:0:
115,230,308977,1,0,0:0:0:0:
154,209,309057,1,0,0:0:0:0:
198,201,309138,1,0,0:0:0:0:
242,207,309218,1,0,0:0:0:0:
284,225,309299,1,0,0:0:0:0:
328,232,309379,1,0,0:0:0:0:
373,224,309460,1,0,0:0:0:0:
412,203,309540,1,0,0:0:0:0:
443,170,309620,1,0,0:0:0:0:
455,127,309700,6,0,P|457:101|448:65,3,45,2|0|0|0,0:0|0:0|0:0|0:0,0:0:0:0:
327,187,310021,2,0,P|325:213|334:249,3,45
228,68,310342,2,0,P|226:42|235:6,3,45
202,176,310663,5,8,0:0:0:0:
166,202,310743,1,0,0:0:0:0:
122,211,310823,1,0,0:0:0:0:
77,207,310903,1,0,0:0:0:0:
36,191,310983,1,0,0:0:0:0:
7,157,311064,1,0,0:0:0:0:
13,114,311144,1,0,0:0:0:0:
46,84,311224,1,0,0:0:0:0:
89,71,311304,1,0,0:0:0:0:
134,70,311385,1,0,0:0:0:0:
178,80,311465,1,0,0:0:0:0:
217,101,311545,1,0,0:0:0:0:
253,129,311626,5,2,0:0:0:0:
293,146,311706,1,0,0:0:0:0:
336,136,311786,1,0,0:0:0:0:
366,103,311866,1,0,0:0:0:0:
370,59,311946,1,0,0:0:0:0:
348,21,312027,1,0,0:0:0:0:
308,3,312107,1,0,0:0:0:0:
264,11,312187,1,0,0:0:0:0:
238,48,312268,2,0,L|235:117,3,45
109,15,312589,5,8,0:0:0:0:
133,52,312669,1,0,0:0:0:0:
148,95,312749,1,0,0:0:0:0:
157,139,312829,1,0,0:0:0:0:
160,183,312909,1,0,0:0:0:0:
156,228,312990,1,0,0:0:0:0:
139,270,313070,1,0,0:0:0:0:
107,300,313150,1,0,0:0:0:0:
64,298,313230,1,0,0:0:0:0:
38,263,313311,1,0,0:0:0:0:
35,218,313391,1,0,0:0:0:0:
52,177,313471,1,0,0:0:0:0:
82,143,313551,6,0,P|91:114|83:75,3,45,2|0|0|0,0:0|0:0|0:0|0:0,0:0:0:0:
188,230,313872,2,0,P|208:252|246:264,3,45
64,298,314193,2,0,P|34:304|4:331,3,45
168,329,314514,5,8,0:0:0:0:
208,348,314594,1,0,0:0:0:0:
252,354,314674,1,0,0:0:0:0:
296,345,314754,1,0,0:0:0:0:
335,322,314834,1,0,0:0:0:0:
364,288,314915,1,0,0:0:0:0:
380,246,314995,1,0,0:0:0:0:
382,201,315075,1,0,0:0:0:0:
379,156,315156,1,0,0:0:0:0:
398,193,315236,1,0,0:0:0:0:
429,225,315316,1,0,0:0:0:0:
470,242,315396,1,0,0:0:0:0:
512,241,315477,5,2,0:0:0:0:
472,220,315557,1,0,0:0:0:0:
426,225,315637,1,0,0:0:0:0:
387,250,315717,1,0,0:0:0:0:
358,284,315797,1,0,0:0:0:0:
320,308,315878,1,0,0:0:0:0:
277,318,315958,1,0,0:0:0:0:
232,315,316038,1,0,0:0:0:0:
188,301,316119,2,0,P|169:282|161:256,3,45
250,164,316440,5,8,0:0:0:0:
221,198,316520,1,0,0:0:0:0:
181,219,316600,1,0,0:0:0:0:
136,218,316680,1,0,0:0:0:0:
94,202,316761,2,0,L|42:159,1,45,2|0,0:0|0:0,0:0:0:0:
233,89,316921,2,0,L|280:132,1,45
88,102,317082,5,0,3:0:0:0:
56,57,317162,1,0,3:0:0:0:
77,7,317242,1,0,3:0:0:0:
131,7,317323,1,0,3:0:0:0:
161,49,317403,5,8,1:0:0:0:
256,288,317724,1,8,1:0:0:0:
381,7,318045,1,8,1:0:0:0:
131,7,318366,1,8,1:0:0:0:
256,288,318686,2,8,L|256:380,2,90,8|8|8,1:0|1:0|1:0,1:0:0:0:
256,12,319328,1,4,0:1:0:0:
172,176,319649,6,8,P|258:151|342:179,2,180,8|8|8,1:0|1:0|1:0,1:0:0:0:
436,36,320612,2,0,B|388:100|444:184,1,135,8|0,1:0|0:0,0:0:0:0:
460,100,320933,2,0,B|504:164|448:248,1,135,8|0,1:0|0:0,0:0:0:0:
431,162,321254,2,0,B|383:226|439:310,1,135,8|0,1:0|0:0,0:0:0:0:
460,227,321575,6,0,B|464:276|436:312|388:288|360:296|344:248|344:248|328:204|301:176|268:184|245:199|232:232|249:258|260:272|292:276|300:256,1,360,4|4,1:0|1:0,1:0:0:0:
304,116,322537,2,4,B|196:124|176:216|176:216|152:124|36:112,1,360,4|4,1:0|1:0,1:0:0:0:
176,216,323500,2,4,B|176:36|176:36|208:64|264:68|264:68|212:72|184:112,1,360,4|4,1:0|1:0,1:0:0:0:
272,280,324463,6,0,B|248:228|280:192|280:192|256:148,1,135,8|0,1:0|0:0,0:0:0:0:
233,233,324784,2,0,L|141:205,2,60
340,240,325105,2,0,P|408:220|448:148,1,135
472,88,325426,6,0,B|471:266|471:266|440:308|360:328,1,270,4|0,0:1|0:0,0:0:0:0:
272,364,326068,1,0,0:0:0:0:
272,364,326228,1,0,0:0:0:0:
352,156,326389,2,0,P|304:184|240:168,1,90,2|0,2:0|0:0,0:0:0:0:
132,64,326710,2,0,P|172:83|195:120,1,90,2|0,2:0|0:0,0:0:0:0:
155,291,327031,2,0,P|152:247|173:208,1,90,2|0,2:0|0:0,0:0:0:0:
300,56,327352,5,2,3:1:0:0:
112,152,327512,1,2,3:1:0:0:
276,276,327673,1,2,3:1:0:0:
276,276,327994,1,2,3:1:0:0:
300,56,328154,1,2,3:1:0:0:
392,316,328314,6,0,L|412:176,1,107.999996704102,4|0,1:0|0:0,1:0:0:0:
71,305,328635,2,0,L|156:372,1,107.999996704102,4|0,1:0|0:0,1:0:0:0:
224,32,328956,2,0,L|123:72,1,107.999996704102,4|0,1:0|0:0,1:0:0:0:
426,312,329277,2,0,P|426:256|374:173,1,107.999996704102,4|0,1:0|0:0,0:0:0:0:
342,85,329598,5,8,0:0:0:0:
352,69,329678,1,0,0:0:0:0:
369,62,329758,1,0,0:0:0:0:
387,63,329838,1,0,0:0:0:0:
402,73,329919,2,8,B|383:120|334:136|292:123,1,125.999996154785
123,72,330561,1,8,0:0:0:0:
132,87,330641,1,0,0:0:0:0:
138,105,330722,1,0,0:0:0:0:
134,123,330802,1,0,0:0:0:0:
126,140,330882,2,0,P|122:172|134:206,1,62.9999980773926,8|0,0:0|0:0,0:0:0:0:
244,257,331203,5,8,0:0:0:0:
264,249,331283,1,0,0:0:0:0:
285,249,331363,1,0,0:0:0:0:
306,254,331444,1,0,0:0:0:0:
321,269,331524,2,8,B|257:299|257:299|187:304,2,125.999996154785
452,87,332487,1,8,0:0:0:0:
454,108,332567,1,0,0:0:0:0:
454,129,332647,1,0,0:0:0:0:
455,151,332728,1,0,0:0:0:0:
455,172,332808,2,8,B|455:236|455:236|416:220|365:234,1,125.999996154785
217,21,333449,5,8,0:0:0:0:
134,156,333610,2,0,L|132:212,1,31.4999990386963,0|0,3:0|3:0,3:0:0:0:
139,71,333770,1,8,0:0:0:0:
225,203,333931,2,0,L|224:240,1,31.4999990386963,0|0,3:0|3:0,3:0:0:0:
230,115,334091,1,8,0:0:0:0:
322,243,334252,1,0,0:0:0:0:
324,224,334332,1,0,0:0:0:0:
325,205,334412,6,0,B|375:277,1,62.9999980773926,8|0,0:0|0:0,0:0:0:0:
456,369,334732,1,0,3:0:0:0:
481,333,334812,1,0,3:0:0:0:
491,290,334892,1,0,3:0:0:0:
488,245,334973,1,0,3:0:0:0:
465,207,335053,2,8,B|430:152|457:70,1,125.999996154785,8|12,0:0|0:0,0:0:0:0:
278,125,335695,5,0,3:0:0:0:
243,140,335776,1,0,3:0:0:0:
205,140,335856,1,0,3:0:0:0:
172,121,335936,1,0,3:0:0:0:
151,89,336016,2,0,L|147:172,1,62.9999980773926,8|0,0:0|0:0,0:0:0:0:
41,227,336337,5,0,3:0:0:0:
43,195,336417,1,0,3:0:0:0:
45,163,336498,1,0,3:0:0:0:
47,131,336578,1,0,3:0:0:0:
49,99,336658,2,8,B|90:241,1,125.999996154785
301,127,337300,5,8,0:0:0:0:
384,262,337461,2,0,L|384:308,1,38.2500007295609,0|0,3:0|3:0,3:0:0:0:
379,177,337621,1,8,0:0:0:0:
296,312,337782,2,0,L|296:364,1,38.2500007295609,0|0,3:0|3:0,3:0:0:0:
292,224,337942,2,0,P|248:244|192:244,1,76.5000014591217,8|0,0:0|0:0,0:0:0:0:
140,8,338263,6,2,B|260:108|344:84|344:84|320:32|208:40,1,350.999983932496,2|2,2:0|2:0,2:0:0:0:
136,136,338904,2,2,B|50:142|26:90|26:90|110:66|230:166,1,350.999983932496,2|2,2:0|2:0,2:0:0:0:
252,360,339546,5,4,0:1:0:0:
160,304,339706,1,8,0:0:0:0:
184,276,339786,1,0,0:0:0:0:
216,260,339866,2,0,P|268:256|332:292,1,90,0|8,0:0|0:0,0:0:0:0:
452,336,340187,2,0,L|452:246,1,90,0|8,0:0|0:0,0:0:0:0:
452,48,340508,6,0,P|432:88|368:116,1,90,0|8,0:0|0:0,0:0:0:0:
284,96,340829,1,0,0:0:0:0:
168,100,340990,1,8,0:0:0:0:
196,212,341150,1,0,0:0:0:0:
312,208,341311,1,8,0:0:0:0:
88,180,341471,6,0,B|56:220|56:220|64:272,1,90,0|8,0:0|0:0,0:0:0:0:
76,300,341712,1,0,0:0:0:0:
76,300,341792,1,0,0:0:0:0:
196,212,341953,1,8,0:0:0:0:
204,176,342033,1,0,0:0:0:0:
208,140,342113,2,0,P|204:88|176:52,1,90,0|8,0:0|0:0,0:0:0:0:
307,252,342434,5,0,0:0:0:0:
333,275,342514,1,0,0:0:0:0:
368,281,342595,1,8,0:0:0:0:
403,274,342675,1,0,0:0:0:0:
429,249,342755,2,0,L|446:192,1,45
355,165,342915,2,0,L|338:108,1,45,8|0,0:0|0:0,0:0:0:0:
468,112,343076,2,0,L|485:55,1,45
304,43,343236,2,0,L|287:-14,1,45,8|0,0:0|0:0,0:0:0:0:
226,188,343397,6,0,B|189:221|143:193|143:193|96:220|48:170,1,180,6|2,0:2|0:2,0:2:0:0:
149,7,343878,1,10,0:2:0:0:
148,47,344199,1,10,0:2:0:0:
146,88,344520,1,10,0:0:0:0:
254,221,344680,5,4,0:1:0:0:
376,136,344841,2,0,P|359:97|286:65,1,90,8|0,0:0|0:0,0:0:0:0:
196,160,345162,1,8,0:0:0:0:
145,309,345322,2,0,P|116:278|112:206,1,90,0|8,0:0|0:0,0:0:0:0:
293,144,345643,2,0,P|283:187|253:220,1,90,0|8,0:0|0:0,0:0:0:0:
96,130,345964,5,0,0:0:0:0:
248,324,346125,2,0,P|288:312|318:271,1,90,8|0,0:0|0:0,0:0:0:0:
107,233,346446,1,8,0:0:0:0:
348,204,346606,2,0,P|376:173|382:123,1,90,0|8,0:0|0:0,0:0:0:0:
420,6,346927,2,0,L|326:26,1,90,0|8,0:0|0:0,0:0:0:0:
213,204,347248,6,0,L|197:108,1,90,0|8,0:0|0:0,0:0:0:0:
220,91,347489,1,0,0:0:0:0:
220,91,347569,1,0,0:0:0:0:
348,204,347729,1,8,0:0:0:0:
382,213,347810,1,0,0:0:0:0:
418,212,347890,2,0,P|444:184|456:128,1,90,0|8,0:0|0:0,0:0:0:0:
344,20,348211,2,0,P|325:52|326:114,1,90,0|8,0:0|0:0,0:0:0:0:
338,284,348532,5,4,0:0:0:0:
303,176,348692,1,8,3:1:0:0:
270,161,348772,1,0,3:0:0:0:
233,160,348853,1,0,3:0:0:0:
199,172,348933,1,0,3:0:0:0:
171,194,349013,1,8,3:1:0:0:
166,158,349093,1,8,3:0:0:0:
161,121,349174,2,0,L|156:69,1,45,0|0,3:0|3:0,3:0:0:0:
37,65,349334,2,0,L|46:17,1,45,8|0,3:1|3:0,0:0:0:0:
72,165,349495,5,4,3:0:0:0:
78,209,349575,1,4,3:0:0:0:
70,253,349655,1,0,3:0:0:0:
46,290,349735,1,4,3:0:0:0:
6,312,349816,6,0,P|14:264|41:219,1,90,12|8,0:1|0:0,0:0:0:0:
177,258,350136,1,0,0:0:0:0:
208,280,350217,1,0,0:0:0:0:
240,296,350297,1,8,0:0:0:0:
276,304,350377,1,0,0:0:0:0:
312,300,350457,2,0,P|357:291|405:254,1,90,0|8,0:0|0:0,0:0:0:0:
480,84,350778,6,0,L|480:176,1,90,0|8,0:0|0:0,0:0:0:0:
364,176,351099,1,0,0:0:0:0:
264,116,351260,1,8,0:0:0:0:
336,24,351420,1,0,0:0:0:0:
220,12,351581,1,8,0:0:0:0:
168,168,351741,6,0,B|160:212|160:212|120:248,1,90,0|8,0:0|0:0,0:0:0:0:
105,362,352062,1,0,0:0:0:0:
236,264,352223,1,8,0:0:0:0:
270,254,352303,1,0,0:0:0:0:
306,257,352383,1,0,0:0:0:0:
275,359,352544,1,8,0:0:0:0:
168,168,352704,6,8,P|203:155|276:158,1,90,4|8,0:0|0:0,0:0:0:0:
386,205,353025,1,0,0:0:0:0:
421,198,353105,1,0,0:0:0:0:
453,181,353185,1,8,0:0:0:0:
477,154,353266,1,0,0:0:0:0:
495,124,353346,2,0,L|496:243,1,90,0|8,0:0|0:0,0:0:0:0:
255,153,353667,6,8,B|244:112|293:79|293:79|241:93|212:49,1,180,6|2,0:2|0:2,0:0:0:0:
43,37,354148,1,10,0:2:0:0:
39,73,354469,1,10,0:2:0:0:
33,110,354790,1,10,0:2:0:0:
119,245,354950,5,0,0:0:0:0:
255,153,355111,2,0,P|299:145|342:156,1,90,8|0,0:0|0:0,0:0:0:0:
139,138,355432,1,8,0:0:0:0:
237,263,355592,2,0,P|242:321|236:360,1,90,0|8,0:0|0:0,0:0:0:0:
397,352,355913,2,0,P|392:307|397:262,1,90,0|8,0:0|0:0,0:0:0:0:
329,66,356234,5,0,0:0:0:0:
71,78,356395,2,0,P|100:112|147:145,1,90,8|0,0:0|0:0,0:0:0:0:
328,66,356716,1,8,0:0:0:0:
112,224,356876,2,0,P|72:204|36:168,1,90,0|8,0:0|0:0,0:0:0:0:
280,175,357197,1,0,0:0:0:0:
289,209,357277,1,0,0:0:0:0:
290,244,357357,1,8,0:0:0:0:
282,279,357438,1,0,0:0:0:0:
270,312,357518,6,0,P|266:348|282:376,1,45
262,146,357678,2,0,P|256:124|260:102,1,45,8|0,0:0|0:0,0:0:0:0:
200,230,357839,1,0,0:0:0:0:
388,238,357999,1,8,0:0:0:0:
388,238,358080,1,0,0:0:0:0:
388,238,358160,1,0,0:0:0:0:
482,99,358320,1,8,3:1:0:0:
482,99,358401,1,0,3:0:0:0:
482,99,358481,2,0,L|483:27,1,45,0|0,3:0|3:0,3:0:0:0:
376,132,358641,1,8,3:1:0:0:
376,132,358722,1,0,3:0:0:0:
376,132,358802,6,0,L|375:55,1,45,0|0,3:0|3:0,3:0:0:0:
460,191,358962,1,8,3:2:0:0:
471,225,359042,1,0,3:0:0:0:
469,261,359123,1,0,3:0:0:0:
454,293,359203,1,0,3:0:0:0:
425,315,359283,2,4,P|400:324|351:314,3,45,12|4|4|4,3:0|3:0|3:0|3:0,3:0:0:0:
296,272,359604,2,4,P|271:263|222:273,3,45,4|4|4|4,3:0|3:0|3:0|3:0,3:0:0:0:
164,308,359925,1,8,0:0:0:0:
271,159,360086,6,4,B|273:107|244:74,1,90,4|8,0:0|0:0,0:0:0:0:
87,52,360406,1,0,0:0:0:0:
159,147,360567,1,8,0:0:0:0:
365,69,360727,2,0,P|408:60|461:68,1,90,0|8,0:0|0:0,0:0:0:0:
175,55,361048,2,0,P|132:46|79:54,1,90,0|8,0:0|0:0,0:0:0:0:
263,214,361369,5,0,0:0:0:0:
322,150,361530,1,8,0:0:0:0:
159,147,361690,1,0,0:0:0:0:
209,285,361851,1,8,0:0:0:0:
260,96,362011,2,0,B|266:50|266:50|258:2,1,90,0|8,0:0|0:0,0:0:0:0:
175,55,362332,1,0,0:0:0:0:
354,74,362493,1,8,0:0:0:0:
354,74,362573,1,0,0:0:0:0:
354,74,362653,5,0,0:0:0:0:
159,147,362814,1,8,0:0:0:0:
297,284,362974,2,0,P|253:277|209:285,1,90,0|8,0:0|0:0,0:0:0:0:
64,357,363295,1,0,0:0:0:0:
84,327,363375,1,0,0:0:0:0:
92,292,363455,1,8,0:0:0:0:
92,255,363536,1,0,0:0:0:0:
73,224,363616,2,0,P|48:270|79:331,1,90,0|8,0:0|0:0,0:0:0:0:
297,284,363937,6,0,B|328:238|312:200|312:200|356:218|418:190,1,180,6|2,0:2|0:2,0:2:0:0:
349,38,364418,1,10,0:2:0:0:
349,70,364739,1,10,0:2:0:0:
349,102,365060,1,10,0:2:0:0:
488,184,365221,5,0,0:0:0:0:
460,308,365381,2,0,P|432:356|368:384,1,90,8|0,0:0|0:0,0:0:0:0:
488,184,365702,1,8,0:0:0:0:
336,264,365863,2,0,P|283:282|216:272,1,90,0|8,0:0|0:0,0:0:0:0:
216,100,366184,2,0,P|245:130|267:176,1,90,0|8,0:0|0:0,0:0:0:0:
144,300,366505,5,0,0:0:0:0:
130,112,366665,2,0,P|169:96|218:100,1,90,8|0,0:0|0:0,0:0:0:0:
144,300,366986,1,8,0:0:0:0:
216,16,367146,2,0,P|252:24|296:64,1,90,0|8,0:0|0:0,0:0:0:0:
232,256,367467,2,0,P|190:212|183:166,1,90,0|8,0:0|0:0,0:0:0:0:
128,24,367788,5,0,0:0:0:0:
88,184,367949,2,0,P|76:240|36:280,1,90,8|0,0:0|0:0,0:0:0:0:
80,96,368270,1,8,0:0:0:0:
114,99,368350,1,0,0:0:0:0:
145,113,368430,1,0,0:0:0:0:
232,256,368591,1,8,0:0:0:0:
344,116,368751,2,0,B|368:64|338:21|338:21|392:28|424:96,1,180
432,208,369233,5,8,3:1:0:0:
425,243,369313,1,0,3:0:0:0:
410,275,369393,1,0,3:0:0:0:
384,301,369473,1,0,3:0:0:0:
352,316,369554,5,8,3:1:0:0:
344,282,369634,1,0,3:0:0:0:
373,264,369714,1,0,3:0:0:0:
410,275,369794,1,0,3:0:0:0:
424,308,369874,1,8,3:1:0:0:
404,336,369955,1,0,3:0:0:0:
370,347,370035,2,4,L|309:360,1,45,4|4,3:0|3:0,3:0:0:0:
196,276,370195,2,4,L|244:288,1,45,4|4,3:0|3:0,3:0:0:0:
113,354,370356,6,0,B|60:367|5:346,1,90,12|8,3:2|0:0,0:0:0:0:
18,199,370677,1,0,0:0:0:0:
46,177,370757,1,0,0:0:0:0:
80,169,370837,1,8,0:0:0:0:
116,173,370918,1,0,0:0:0:0:
150,182,370998,2,0,P|193:177|241:143,1,90,0|8,0:0|0:0,0:0:0:0:
356,50,371319,2,0,P|347:101|355:148,1,90,0|8,0:0|0:0,0:0:0:0:
154,85,371640,5,0,0:0:0:0:
305,215,371800,1,8,0:0:0:0:
264,78,371961,1,0,0:0:0:0:
204,271,372121,1,8,0:0:0:0:
48,91,372282,2,0,B|52:44|52:44|88:4,1,90,0|8,0:0|0:0,0:0:0:0:
204,5,372603,1,0,0:0:0:0:
359,121,372763,1,8,0:0:0:0:
359,121,372843,1,0,0:0:0:0:
359,121,372924,6,0,P|366:71|324:9,1,90,0|8,0:0|0:0,0:0:0:0:
220,155,373244,1,0,0:0:0:0:
212,190,373325,1,0,0:0:0:0:
221,224,373405,2,0,P|236:261|277:283,1,45,8|0,0:0|0:0,0:0:0:0:
344,314,373565,1,0,0:0:0:0:
336,278,373646,1,0,0:0:0:0:
308,254,373726,1,8,0:0:0:0:
271,250,373806,1,0,0:0:0:0:
239,264,373886,2,0,P|203:300|188:345,1,90,0|8,0:0|0:0,0:0:0:0:
384,204,374207,5,12,0:0:0:0:
348,348,374368,1,8,0:0:0:0:
162,310,374528,1,0,0:0:0:0:
137,284,374608,1,0,0:0:0:0:
128,248,374689,1,8,0:0:0:0:
138,213,374769,1,0,0:0:0:0:
161,185,374849,2,0,P|216:191|283:176,1,90,0|8,0:0|0:0,0:0:0:0:
408,152,375170,1,0,0:0:0:0:
352,248,375331,1,8,0:0:0:0:
316,76,375491,5,0,0:0:0:0:
161,185,375652,2,0,P|137:133|144:86,1,90,8|0,0:0|0:0,0:0:0:0:
260,16,375973,1,8,0:0:0:0:
382,28,376133,1,0,0:0:0:0:
248,112,376293,1,8,0:0:0:0:
352,144,376454,1,0,0:0:0:0:
296,256,376614,1,8,0:0:0:0:
220,92,376775,5,0,0:0:0:0:
385,227,376935,2,0,P|412:283|412:336,1,90,8|0,0:0|0:0,0:0:0:0:
444,131,377256,1,8,0:0:0:0:
217,209,377417,2,0,P|190:265|190:318,1,90,0|8,0:0|0:0,0:0:0:0:
320,165,377738,1,0,0:0:0:0:
336,132,377818,1,0,0:0:0:0:
336,96,377898,1,8,0:0:0:0:
322,62,377978,1,0,0:0:0:0:
293,39,378059,6,0,L|227:52,1,45
172,112,378219,2,0,L|127:103,1,45,8|0,0:0|0:0,0:0:0:0:
44,48,378380,1,0,0:0:0:0:
8,240,378540,1,8,3:1:0:0:
8,240,378620,1,0,3:0:0:0:
8,240,378701,1,0,3:0:0:0:
215,193,378861,2,0,L|216:251,2,45,8|0|0,3:1|3:0|3:0,3:0:0:0:
448,148,379182,2,0,L|448:193,2,45,8|0|0,3:1|3:0|3:0,3:0:0:0:
321,12,379503,5,8,3:1:0:0:
321,29,379583,1,0,3:0:0:0:
321,46,379663,1,0,3:0:0:0:
321,63,379744,1,0,3:0:0:0:
337,80,379824,5,4,3:0:0:0:
337,97,379904,1,4,3:0:0:0:
337,114,379984,1,4,3:0:0:0:
337,131,380065,1,4,3:0:0:0:
337,148,380145,1,4,3:0:0:0:
337,165,380225,1,4,3:0:0:0:
317,180,380305,5,4,3:0:0:0:
317,196,380386,1,4,3:0:0:0:
317,212,380466,2,4,L|316:272,1,45,4|4,3:0|3:0,3:0:0:0:
336,360,380610,6,0,P|281:367|224:351,1,90,12|0,2:1|0:1,0:0:0:0:
52,272,380930,1,2,0:1:0:0:
232,200,381091,1,0,0:1:0:0:
156,284,381251,1,2,0:1:0:0:
244,96,381412,1,0,0:1:0:0:
316,284,381572,5,8,0:0:0:0:
136,196,381733,1,0,0:1:0:0:
324,152,381893,1,2,0:1:0:0:
156,284,382054,1,0,0:1:0:0:
244,96,382214,2,0,P|248:44|236:-8,1,90,2|0,0:1|0:1,0:0:0:0:
128,112,382535,5,8,0:1:0:0:
64,256,382696,1,0,0:0:0:0:
232,200,382856,1,2,0:1:0:0:
60,284,383017,1,0,0:0:0:0:
244,340,383177,1,2,0:1:0:0:
56,312,383338,1,0,0:0:0:0:
264,364,383498,6,0,P|314:358|352:336,1,90,8|0,0:0|0:0,0:0:0:0:
440,192,383819,1,2,0:1:0:0:
504,340,383979,1,0,0:0:0:0:
500,128,384140,1,2,0:1:0:0:
444,276,384300,1,0,0:0:0:0:
388,120,384461,6,0,P|388:76|416:16,1,90,8|0,0:2|0:0,0:0:0:0:
296,240,384782,1,2,0:1:0:0:
257,250,384862,1,0,0:0:0:0:
221,233,384942,1,0,0:0:0:0:
203,200,385023,1,0,0:0:0:0:
211,163,385103,1,2,0:1:0:0:
242,140,385183,1,0,0:0:0:0:
280,138,385263,1,0,0:0:0:0:
315,158,385344,1,0,0:0:0:0:
334,188,385424,6,0,L|332:308,1,90,8|0,0:0|0:0,0:0:0:0:
172,316,385745,1,2,0:1:0:0:
268,192,385905,1,0,0:0:0:0:
328,364,386066,1,2,0:1:0:0:
148,308,386226,1,0,0:0:0:0:
356,372,386387,6,0,B|400:364|428:312,1,90,8|0,0:2|0:0,0:0:0:0:
380,220,386708,1,2,0:1:0:0:
268,192,386868,1,0,0:0:0:0:
160,216,387029,1,2,0:1:0:0:
60,176,387189,1,0,0:0:0:0:
264,104,387349,2,0,P|312:116|348:152,1,90,8|0,0:0|0:0,0:0:0:0:
236,288,387670,2,0,P|201:316|158:326,1,90,2|0,0:1|0:0,0:0:0:0:
60,176,387991,2,0,P|52:132|65:89,1,90,2|0,0:1|0:0,0:0:0:0:
160,216,388312,5,8,0:2:0:0:
199,68,388473,1,0,0:0:0:0:
293,226,388633,1,2,0:1:0:0:
280,72,388794,1,0,0:0:0:0:
422,189,388954,1,2,0:1:0:0:
357,49,389115,1,0,0:0:0:0:
293,226,389275,5,8,0:0:0:0:
199,68,389436,1,0,0:0:0:0:
160,216,389596,2,0,L|136:312,1,90,2|0,0:1|0:0,0:0:0:0:
316,144,389917,2,0,L|288:248,1,90,2|0,0:1|0:0,0:0:0:0:
392,356,390238,6,0,P|416:320|416:240,1,90,8|0,0:2|0:0,0:0:0:0:
412,116,390559,1,2,0:1:0:0:
228,160,390719,1,0,0:0:0:0:
412,196,390880,1,2,0:1:0:0:
232,280,391040,1,0,0:0:0:0:
316,144,391201,5,8,0:0:0:0:
299,112,391281,1,0,0:0:0:0:
273,87,391361,1,0,0:0:0:0:
240,72,391441,1,0,0:0:0:0:
205,69,391521,1,0,0:0:0:0:
170,77,391602,1,0,0:0:0:0:
144,100,391682,5,0,3:0:0:0:
166,61,391762,1,0,3:0:0:0:
204,38,391842,1,0,3:0:0:0:
249,35,391922,1,0,3:0:0:0:
289,54,392002,1,0,3:0:0:0:
317,89,392083,1,0,3:0:0:0:
328,132,392164,6,0,L|340:36,1,90,8|0,0:2|0:0,0:0:0:0:
228,160,392485,1,2,0:1:0:0:
249,35,392645,1,0,0:0:0:0:
316,224,392806,1,2,0:1:0:0:
200,140,392966,1,0,0:0:0:0:
120,324,393127,5,8,0:0:0:0:
204,252,393287,1,0,0:0:0:0:
40,200,393448,1,2,0:1:0:0:
228,160,393608,1,0,0:0:0:0:
36,92,393768,2,0,P|96:108|124:140,1,90,2|0,0:1|0:0,0:0:0:0:
204,252,394089,5,8,3:1:0:0:
246,266,394170,1,0,3:0:0:0:
291,269,394249,1,0,3:0:0:0:
334,257,394329,1,0,3:0:0:0:
367,228,394410,1,2,3:1:0:0:
372,185,394491,1,0,3:0:0:0:
335,166,394570,1,0,3:0:0:0:
299,192,394650,1,0,3:0:0:0:
304,236,394731,6,0,P|372:252|464:212,1,135,2|0,0:1|0:0,0:0:0:0:
456,164,395052,2,0,B|408:88|304:84|304:84|279:119|240:112|216:128|168:80,1,315,10|0,0:1|0:0,0:0:0:0:
240,40,395694,2,0,P|244:116|192:184,1,135,2|0,0:1|0:0,0:0:0:0:
140,184,396015,6,0,P|172:228|232:240,1,107.999996704102,10|0,0:1|0:0,0:0:0:0:
328,180,396336,1,2,0:1:0:0:
364,328,396497,1,0,0:0:0:0:
328,180,396657,1,2,0:1:0:0:
284,288,396817,1,0,0:0:0:0:
440,112,396978,6,0,P|436:164|396:204,1,90,8|0,3:2|0:0,0:0:0:0:
252,212,397299,1,2,0:1:0:0:
364,328,397459,1,0,0:0:0:0:
328,180,397620,1,2,0:1:0:0:
200,280,397780,1,0,0:0:0:0:
344,92,397941,6,0,P|326:50|284:20,1,90,8|0,0:0|0:0,0:0:0:0:
204,128,398262,2,0,P|168:100|116:95,1,90,2|0,0:1|0:0,0:0:0:0:
116,232,398583,2,0,P|71:226|23:247,1,90,2|0,0:1|0:0,0:0:0:0:
252,347,398904,5,10,0:1:0:0:
200,280,399064,1,0,0:0:0:0:
161,359,399225,1,2,0:1:0:0:
252,347,399385,1,0,0:0:0:0:
335,310,399546,1,2,0:1:0:0:
379,225,399706,1,0,0:0:0:0:
344,44,399867,6,0,P|344:92|372:132,1,90,8|0,3:2|0:0,0:0:0:0:
436,68,400187,1,2,0:1:0:0:
248,88,400348,1,0,0:0:0:0:
284,180,400508,1,2,0:1:0:0:
148,72,400669,1,0,0:0:0:0:
60,216,400829,6,0,B|31:246|-4:248|-4:248|17:198,1,90,8|0,0:0|0:0,0:0:0:0:
148,72,401150,2,0,B|160:32|144:0|144:0|112:44,1,90,2|0,0:1|0:0,0:0:0:0:
248,200,401471,2,0,B|276:230|312:232|312:232|290:182,1,90,2|0,0:1|0:0,0:0:0:0:
152,160,401792,5,8,0:0:0:0:
152,186,401872,1,0,0:0:0:0:
152,213,401952,1,0,0:0:0:0:
152,239,402032,1,0,0:0:0:0:
152,267,402113,1,2,0:1:0:0:
152,292,402193,1,0,0:0:0:0:
152,319,402274,1,0,0:0:0:0:
152,344,402354,1,0,0:0:0:0:
152,372,402434,2,0,P|188:340|176:272,1,90,2|0,0:1|2:0,0:0:0:0:
64,208,402755,5,8,0:0:0:0:
244,196,402916,1,0,0:0:0:0:
56,164,403076,1,2,0:1:0:0:
256,152,403236,1,0,0:0:0:0:
48,124,403397,1,2,0:1:0:0:
264,108,403557,1,0,0:0:0:0:
36,80,403718,6,0,P|96:72|152:52,1,90,8|0,0:2|0:0,0:0:0:0:
364,72,404039,2,0,P|304:64|248:44,1,90,2|0,0:1|0:0,0:0:0:0:
56,164,404360,2,0,P|116:156|172:136,1,90,2|0,0:1|0:0,0:0:0:0:
344,168,404681,6,0,P|284:160|228:140,1,90,8|0,0:2|0:0,0:0:0:0:
200,8,405002,2,0,L|200:104,1,90,2|0,0:1|0:0,0:0:0:0:
196,292,405323,2,0,L|196:196,1,90,2|0,0:1|0:0,0:0:0:0:
392,244,405644,5,8,0:0:0:0:
392,360,405804,1,0,0:0:0:0:
488,188,405965,1,2,0:1:0:0:
488,304,406125,1,0,0:0:0:0:
288,180,406286,1,2,0:1:0:0:
288,296,406446,1,0,0:0:0:0:
400,103,406606,5,8,3:1:0:0:
393,133,406686,1,0,3:0:0:0:
376,159,406766,1,0,3:0:0:0:
350,177,406846,1,0,3:0:0:0:
319,184,406926,1,2,3:1:0:0:
288,180,407007,1,0,3:0:0:0:
261,165,407087,1,0,3:0:0:0:
242,140,407167,1,0,3:0:0:0:
236,112,407248,2,4,P|239:81|252:48,3,45,4|4|4|4,0:3|0:3|0:3|0:3,0:3:0:0:
176,216,407569,6,0,P|128:236|80:224,1,90,12|0,0:2|0:0,2:0:0:0:
135,101,407890,1,2,0:1:0:0:
218,239,408051,1,0,0:0:0:0:
50,330,408211,1,2,0:1:0:0:
176,216,408372,1,0,0:0:0:0:
298,377,408532,5,8,0:0:0:0:
218,239,408693,1,0,0:0:0:0:
381,150,408853,1,2,0:1:0:0:
256,265,409014,1,0,0:0:0:0:
220,88,409174,2,0,P|260:72|324:80,1,90,2|0,0:1|0:0,0:0:0:0:
507,94,409495,5,8,3:2:0:0:
477,81,409575,1,0,3:0:0:0:
441,79,409655,1,0,3:0:0:0:
410,93,409736,1,0,3:0:0:0:
387,117,409816,1,2,3:1:0:0:
381,150,409896,1,0,3:0:0:0:
387,182,409976,1,0,3:0:0:0:
411,202,410057,1,0,3:0:0:0:
443,210,410137,2,0,P|427:178|411:162,1,45,8|0,0:3|0:0,0:0:0:0:
234,190,410297,2,0,P|220:208|212:228,1,45,8|0,0:3|0:0,0:0:0:0:
296,352,410458,5,8,3:1:0:0:
334,360,410538,1,0,3:0:0:0:
370,343,410618,1,0,3:0:0:0:
388,308,410698,1,0,3:0:0:0:
380,269,410779,1,2,3:1:0:0:
350,243,410859,1,0,3:0:0:0:
311,241,410939,1,0,3:0:0:0:
278,263,411020,1,0,3:0:0:0:
272,308,411100,2,0,L|268:352,1,45,2|0,3:1|3:0,3:0:0:0:
234,190,411260,2,0,L|248:120,1,45,0|0,3:0|3:0,3:0:0:0:
168,336,411421,6,0,B|124:356|64:344,1,90,12|0,0:2|0:0,0:0:0:0:
32,152,411742,1,2,0:1:0:0:
256,228,411902,1,0,0:0:0:0:
208,40,412063,1,2,0:1:0:0:
132,228,412223,1,0,0:0:0:0:
344,160,412384,5,8,0:0:0:0:
132,116,412544,1,0,0:0:0:0:
348,256,412705,1,2,0:1:0:0:
208,40,412865,1,0,0:0:0:0:
436,136,413025,2,0,B|480:108|476:52,1,90,2|0,0:1|0:0,0:0:0:0:
280,100,413346,5,8,0:2:0:0:
268,208,413507,1,0,0:0:0:0:
368,48,413667,1,2,0:1:0:0:
328,284,413828,1,0,0:0:0:0:
436,136,413988,2,0,L|420:236,1,90,2|0,0:1|0:0,0:0:0:0:
172,140,414309,6,0,L|196:24,1,90,8|0,0:0|0:0,0:0:0:0:
268,208,414630,1,2,0:1:0:0:
104,240,414791,1,0,0:0:0:0:
328,284,414951,1,2,0:1:0:0:
104,240,415112,1,0,0:0:0:0:
272,364,415272,6,0,B|204:368|180:320|180:320|136:364|48:336,1,215.999993408203,8|0,0:2|0:0,0:0:0:0:
184,220,415754,1,0,0:0:0:0:
68,40,415914,1,2,0:1:0:0:
68,84,415994,1,0,0:0:0:0:
92,120,416074,1,0,0:0:0:0:
128,140,416154,1,0,0:0:0:0:
172,144,416235,6,0,B|236:128|252:80|252:80|204:32|144:68,1,215.999993408203,8|2,0:0|0:1,0:0:0:0:
184,220,416716,1,0,0:0:0:0:
400,192,416877,1,2,0:1:0:0:
424,156,416957,1,0,0:0:0:0:
430,114,417037,1,0,0:0:0:0:
417,73,417117,1,0,0:0:0:0:
388,40,417198,6,0,B|336:144|428:144|388:276,1,215.999993408203,8|2,3:2|0:1,0:0:0:0:
184,220,417679,1,0,0:0:0:0:
148,196,417759,1,0,0:0:0:0:
135,156,417839,1,2,0:1:0:0:
151,117,417919,1,0,0:0:0:0:
189,97,417999,1,0,0:0:0:0:
232,92,418080,1,0,0:0:0:0:
276,104,418161,6,0,P|316:100|352:80,1,53.9999983520508,8|0,3:1|0:0,0:0:0:0:
256,24,418321,1,0,3:0:0:0:
238,63,418401,1,0,3:0:0:0:
233,105,418482,1,2,3:1:0:0:
245,147,418561,1,0,3:0:0:0:
264,186,418641,1,0,3:0:0:0:
273,227,418722,1,0,3:0:0:0:
266,270,418803,1,2,3:1:0:0:
244,308,418883,1,0,3:0:0:0:
212,336,418963,1,0,3:0:0:0:
172,348,419043,1,0,3:0:0:0:
132,340,419124,6,0,P|116:296|188:240,1,125.999996154785,12|0,3:2|0:0,0:0:0:0:
366,377,419444,1,2,0:1:0:0:
245,147,419605,1,0,0:0:0:0:
442,202,419765,1,2,0:1:0:0:
156,297,419926,1,0,0:0:0:0:
237,89,420086,5,8,0:1:0:0:
260,322,420247,1,0,0:0:0:0:
63,229,420407,1,2,0:1:0:0:
359,169,420568,1,0,0:0:0:0:
91,131,420728,2,0,P|61:63|105:1,1,125.999996154785,2|0,0:1|0:0,0:0:0:0:
356,5,421049,5,8,0:0:0:0:
195,253,421210,1,0,0:0:0:0:
137,68,421370,1,2,0:1:0:0:
411,184,421531,1,0,0:0:0:0:
150,315,421691,2,0,P|120:247|164:185,1,125.999996154785,2|0,0:1|0:0,0:0:0:0:
453,133,422012,6,0,L|470:252,1,90,8|0,3:2|0:0,0:0:0:0:
256,124,422333,1,2,3:1:0:0:
240,84,422413,1,0,3:0:0:0:
212,52,422493,1,0,3:0:0:0:
172,40,422574,1,0,3:0:0:0:
128,44,422654,1,2,3:1:0:0:
92,64,422734,1,0,3:0:0:0:
68,100,422814,1,0,3:0:0:0:
68,144,422895,1,0,3:0:0:0:
80,184,422975,6,0,P|115:226|160:236,1,90,8|0,0:0|0:0,0:0:0:0:
304,156,423296,2,0,P|241:165|213:194,1,90,2|0,0:1|0:0,0:0:0:0:
212,360,423617,2,0,P|234:299|223:261,1,90,2|0,0:1|0:0,0:0:0:0:
64,284,423938,6,0,L|188:316,1,90,8|0,3:2|0:0,0:0:0:0:
304,324,424259,1,2,0:1:0:0:
336,314,424339,1,0,0:0:0:0:
363,295,424419,1,0,0:0:0:0:
378,264,424500,1,0,0:0:0:0:
380,231,424580,1,2,0:1:0:0:
369,198,424660,1,0,0:0:0:0:
349,171,424740,1,0,0:0:0:0:
321,151,424820,1,0,0:0:0:0:
287,148,424901,6,0,P|256:204|328:236,1,135,12|0,3:2|0:0,0:0:0:0:
416,228,425222,1,2,3:1:0:0:
444,209,425302,1,0,3:0:0:0:
462,181,425382,1,0,3:0:0:0:
469,148,425462,1,0,3:0:0:0:
461,115,425543,1,2,3:1:0:0:
442,87,425623,1,0,3:0:0:0:
413,70,425703,1,0,3:0:0:0:
379,65,425783,1,0,3:0:0:0:
348,76,425863,6,4,L|312:128,2,45,4|4|4,3:0|3:0|3:0,3:0:0:0:
220,40,426104,2,4,L|172:-20,2,45,4|4|4,3:0|3:0|3:0,3:0:0:0:
252,168,426345,1,4,3:0:0:0:
252,200,426425,1,4,3:0:0:0:
240,232,426505,6,0,L|180:264,1,45,2|0,3:1|3:0,3:0:0:0:
168,128,426666,2,0,L|212:108,1,45,0|0,3:0|3:0,3:0:0:0:
92,256,426826,2,0,L|28:236,1,45,2|0,3:1|3:0,3:0:0:0:
80,112,426987,2,0,L|128:129,1,45,0|0,3:0|3:0,3:0:0:0:
148,308,427147,6,0,L|144:360,3,45,2|0|0|0,3:1|3:0|3:0|3:0,3:0:0:0:
206,151,427468,2,0,L|208:96,3,45,2|0|0|0,3:1|3:0|3:0|3:0,3:0:0:0:
260,288,427789,1,2,0:1:0:0:
282,323,427869,1,0,0:0:0:0:
320,346,427950,1,0,0:0:0:0:
361,352,428030,1,0,0:0:0:0:
396,332,428110,5,2,0:1:0:0:
372,288,428190,1,0,0:0:0:0:
328,260,428271,1,0,0:0:0:0:
280,248,428351,1,0,0:0:0:0:
232,264,428431,1,2,0:1:0:0:
188,292,428511,1,0,0:0:0:0:
140,292,428592,1,0,0:0:0:0:
100,268,428672,1,0,0:0:0:0:
84,228,428752,6,4,P|128:240|172:284,1,90,12|0,0:2|0:0,0:0:0:0:
48,356,429073,1,2,0:1:0:0:
1,180,429233,1,0,0:0:0:0:
164,368,429394,2,0,B|216:384|256:340,1,90,2|0,0:1|0:0,0:0:0:0:
144,112,429715,2,0,B|144:220,1,90,8|0,0:0|0:0,0:0:0:0:
344,164,430036,1,2,0:1:0:0:
268,40,430196,1,0,0:0:0:0:
252,236,430357,2,0,L|348:284,1,90,2|0,0:1|0:0,0:0:0:0:
164,16,430678,6,0,L|60:44,1,90,8|0,3:2|0:0,0:0:0:0:
344,164,430999,2,0,L|448:192,1,90,2|0,0:1|0:0,0:0:0:0:
152,288,431320,2,0,L|44:316,1,90,2|0,0:1|0:0,0:0:0:0:
341,286,431641,2,0,L|428:308,1,90,8|0,0:0|0:0,0:0:0:0:
149,162,431962,2,0,L|56:184,1,90,2|0,0:1|0:0,0:0:0:0:
332,16,432282,2,0,L|424:40,1,90,2|0,0:1|0:0,0:0:0:0:
256,204,432603,6,0,L|256:112,1,90,8|0,0:2|0:0,0:0:0:0:
364,168,432924,1,2,0:1:0:0:
340,280,433085,1,0,0:0:0:0:
152,168,433245,1,2,0:1:0:0:
164,280,433406,1,0,0:0:0:0:
256,114,433566,2,0,L|256:224,1,90,8|0,0:0|0:0,0:0:0:0:
256,328,433887,1,2,0:1:0:0:
156,372,434048,1,0,0:0:0:0:
360,380,434208,1,2,0:1:0:0:
256,328,434369,1,0,0:0:0:0:
444,256,434529,6,0,P|392:268|348:244,1,90,8|0,0:2|0:0,0:0:0:0:
256,164,434850,1,2,0:1:0:0:
116,224,435011,1,0,0:0:0:0:
0,124,435171,1,2,0:1:0:0:
108,260,435331,1,0,0:0:0:0:
280,132,435492,2,0,B|324:144|388:128,1,90,8|0,0:1|0:0,0:0:0:0:
488,0,435813,2,0,B|455:33|443:77,1,90,2|0,0:1|0:0,0:0:0:0:
500,244,436134,2,0,B|487:198|455:166,1,90,2|0,0:1|0:0,0:0:0:0:
280,132,436455,6,0,B|252:96|252:96|248:40,1,90,8|0,0:2|0:0,0:0:0:0:
369,132,436776,1,2,0:1:0:0:
324,268,436936,1,0,0:0:0:0:
164,140,437097,2,0,L|164:40,1,90,2|0,0:1|0:0,0:0:0:0:
236,268,437418,2,0,L|236:368,1,90,8|0,0:0|0:0,3:0:0:0:
45,260,437739,1,2,0:1:0:0:
164,140,437899,1,0,0:0:0:0:
140,292,438060,1,2,0:1:0:0:
256,172,438220,1,0,0:0:0:0:
356,304,438381,6,0,P|416:296|448:272,1,90,8|0,3:2|0:0,0:0:0:0:
508,136,438701,1,2,0:1:0:0:
372,176,438862,1,0,0:0:0:0:
408,8,439022,1,2,0:1:0:0:
456,204,439183,1,0,0:0:0:0:
228,264,439343,6,0,P|168:276|104:248,1,90,8|0,0:0|0:0,0:0:0:0:
200,136,439664,2,0,P|140:148|76:120,1,90,2|0,0:1|0:0,0:0:0:0:
160,8,439985,2,0,P|100:20|36:-8,1,90,2|0,0:1|0:0,0:0:0:0:
284,184,440306,6,0,P|296:136|284:84,1,90,8|0,0:2|0:0,0:0:0:0:
112,141,440627,1,2,0:1:0:0:
172,244,440788,1,0,0:0:0:0:
376,140,440948,1,2,0:1:0:0:
200,136,441109,1,0,0:0:0:0:
404,260,441269,2,0,B|416:296|396:360,1,90,8|0,0:0|0:0,0:0:0:0:
280,304,441590,1,2,0:1:0:0:
172,368,441750,1,0,0:0:0:0:
288,224,441911,2,0,B|316:180|280:124,1,90,2|0,0:1|0:0,0:0:0:0:
172,0,442232,5,8,0:1:0:0:
192,29,442312,1,0,0:0:0:0:
222,49,442392,1,0,0:0:0:0:
256,58,442472,1,0,0:0:0:0:
292,55,442552,1,2,0:1:0:0:
325,40,442633,1,0,0:0:0:0:
348,12,442713,6,0,L|348:80,1,45,0|0,3:0|3:0,3:0:0:0:
212,104,442874,2,0,L|212:164,1,45,2|0,3:1|3:0,3:0:0:0:
344,196,443034,2,0,L|344:256,1,45,0|0,3:0|3:0,3:0:0:0:
200,256,443195,1,2,0:1:0:0:
168,240,443275,1,0,0:0:0:0:
132,235,443355,1,0,0:0:0:0:
97,241,443435,1,0,0:0:0:0:
64,260,443516,5,2,0:1:0:0:
94,226,443596,1,0,0:0:0:0:
110,185,443676,1,0,0:0:0:0:
112,140,443756,1,0,0:0:0:0:
100,96,443837,5,2,0:1:0:0:
125,143,443917,1,0,0:0:0:0:
160,184,443997,1,0,0:0:0:0:
203,216,444077,1,0,0:0:0:0:
256,236,444158,6,0,B|312:228|328:168|328:168|392:156|408:92,1,215.999993408203,12|2,0:2|0:1,0:1:0:0:
304,56,444639,1,0,0:0:0:0:
396,240,444800,1,2,0:1:0:0:
508,72,444960,1,0,0:0:0:0:
368,264,445120,6,0,B|327:306|265:284|265:284|222:328|169:307,1,215.999993408203,8|2,0:0|0:1,0:1:0:0:
124,108,445602,1,0,0:0:0:0:
304,200,445762,1,2,0:1:0:0:
100,220,445923,1,0,0:0:0:0:
268,52,446083,6,0,B|316:32|372:60|372:60|424:84|500:60,1,215.999993408203,8|2,3:2|0:1,0:0:0:0:
456,272,446565,1,0,0:0:0:0:
316,120,446725,1,2,0:1:0:0:
224,304,446886,1,0,0:0:0:0:
484,180,447046,6,0,B|434:164|381:197|381:197|331:225|253:208,1,215.999993408203,8|2,3:2|0:1,0:0:0:0:
72,168,447528,1,0,0:0:0:0:
264,100,447688,1,2,0:1:0:0:
224,304,447849,1,0,0:0:0:0:
168,92,448009,6,0,B|156:156|200:188|200:188|140:204|116:272,1,215.999993408203,8|2,0:0|0:1,0:0:0:0:
296,368,448490,1,0,0:0:0:0:
340,168,448651,1,2,0:1:0:0:
388,368,448811,1,0,0:0:0:0:
372,72,448972,6,0,B|384:136|340:168|340:168|400:184|424:252,1,215.999993408203,8|2,0:0|0:1,0:0:0:0:
224,304,449453,1,0,0:0:0:0:
164,136,449614,2,0,L|296:88,1,107.999996704102,2|0,0:1|0:0,0:0:0:0:
480,32,449935,6,0,P|496:92|484:152,1,107.999996704102,8|0,0:1|0:0,0:0:0:0:
275,203,450256,2,0,P|259:143|271:83,1,107.999996704102,2|0,0:1|0:0,0:0:0:0:
36,168,450577,2,0,P|52:228|40:288,1,107.999996704102,2|0,0:1|0:0,0:0:0:0:
176,152,450898,6,0,B|228:140|268:100|268:100|308:140|388:156,1,215.999993408203,8|0,0:0|0:0,0:0:0:0:
384,340,451379,1,0,0:0:0:0:
352,352,451459,1,0,0:0:0:0:
319,344,451539,2,0,P|288:315|275:221,1,107.999996704102,2|0,0:1|0:0,0:0:0:0:
176,44,451860,6,0,L|176:176,1,107.999996704102,8|0,0:1|0:0,0:0:0:0:
376,220,452181,1,2,0:1:0:0:
444,64,452342,1,0,0:0:0:0:
376,256,452502,1,2,0:1:0:0:
256,92,452663,1,0,0:0:0:0:
376,292,452823,6,0,L|376:164,1,107.999996704102,8|0,0:1|0:0,0:0:0:0:
176,152,453144,1,2,0:1:0:0:
304,336,453305,1,0,0:0:0:0:
356,96,453465,1,2,0:1:0:0:
240,244,453626,1,0,0:0:0:0:
112,60,453786,6,0,P|180:44|244:64,1,107.999996704102,8|0,0:2|0:0,0:0:0:0:
160,232,454107,1,2,0:1:0:0:
128,252,454187,1,0,0:0:0:0:
92,260,454268,1,0,0:0:0:0:
56,252,454348,1,0,0:0:0:0:
28,228,454428,2,0,P|96:212|160:232,1,107.999996704102,2|0,0:1|0:0,0:0:0:0:
324,256,454749,6,0,P|332:212|316:136,1,107.999996704102,8|0,0:1|0:0,0:0:0:0:
120,120,455070,1,2,0:1:0:0:
268,66,455230,1,0,0:0:0:0:
60,42,455391,1,2,0:1:0:0:
132,218,455551,1,0,0:0:0:0:
292,48,455712,6,0,P|344:37|397:46,1,107.999996704102,8|0,0:1|0:0,0:0:0:0:
428,248,456033,1,2,0:1:0:0:
260,152,456193,1,0,0:0:0:0:
509,220,456354,1,2,0:1:0:0:
344,129,456514,1,0,0:0:0:0:
316,348,456675,6,0,P|263:357|210:345,1,107.999996704102,8|0,0:1|0:0,0:0:0:0:
176,172,456996,1,2,0:1:0:0:
352,216,457156,1,0,0:0:0:0:
292,48,457317,2,0,P|239:38|186:50,1,107.999996704102,2|0,0:1|0:0,0:0:0:0:
32,173,457638,5,8,3:2:0:0:
58,161,457718,1,0,3:0:0:0:
86,157,457798,1,0,3:0:0:0:
116,158,457878,1,0,3:0:0:0:
146,163,457958,1,2,3:1:0:0:
176,172,458039,1,0,3:0:0:0:
204,188,458119,2,0,L|204:256,1,45,0|0,3:0|3:0,3:0:0:0:
104,256,458279,2,0,L|104:301,1,45,0|0,3:0|3:0,3:0:0:0:
0,304,458440,2,0,L|0:349,1,45,0|0,3:0|3:0,3:0:0:0:
168,368,458600,6,0,B|208:352|261:367|261:367|288:336|296:272,1,180,12|2,3:2|0:1,0:0:0:0:
328,88,459082,1,0,0:0:0:0:
209,239,459242,1,2,0:1:0:0:
161,24,459403,1,0,0:0:0:0:
209,239,459563,5,8,0:0:0:0:
328,88,459724,1,0,0:0:0:0:
209,239,459884,1,2,0:1:0:0:
76,68,460045,1,0,0:0:0:0:
209,239,460205,1,2,0:1:0:0:
254,29,460366,1,0,0:0:0:0:
209,239,460526,6,0,P|216:296|264:344,1,90,8|0,0:2|0:0,0:0:0:0:
441,158,460847,1,2,0:1:0:0:
228,224,461007,1,0,0:0:0:0:
393,70,461168,1,2,0:1:0:0:
278,312,461328,1,0,0:0:0:0:
229,65,461489,5,8,0:0:0:0:
433,254,461649,1,0,0:0:0:0:
181,162,461810,1,2,0:1:0:0:
393,70,461970,1,0,0:0:0:0:
209,239,462131,2,0,P|168:244|116:228,1,90,2|0,0:1|0:0,0:0:0:0:
40,72,462452,6,4,P|58:49|95:31,1,60,4|4,3:0|3:0,3:0:0:0:
115,109,462666,2,4,P|138:92|173:83,1,60,4|4,3:0|3:0,2:0:0:0:
181,162,462880,2,4,P|208:152|243:147,1,60,4|4,3:0|3:0,3:0:0:0:
209,239,463094,2,4,P|250:233|290:246,2,60,4|4|4,3:0|3:0|3:0,3:0:0:0:
173,313,463415,6,4,P|145:302|115:300,2,60,4|4|4,3:0|3:0|3:0,3:0:0:0:
248,344,463736,2,4,P|278:340|305:326,2,60,4|4|4,3:0|3:0|3:0,3:0:0:0:
116,380,464057,2,8,P|56:360|36:300,1,120,0|0,3:0|0:0,3:0:0:0:
116,300,464377,6,0,B|248:180|116:72|72:44|72:44|232:0|256:240|256:240|280:0|440:44|440:44|396:72|264:180|396:300,1,1260,4|0,0:2|0:0,0:0:0:0:
256,192,469192,12,0,474648,0:0:0:0:
