osu file format v14

[General]
AudioFilename: audio.mp3
AudioLeadIn: 0
PreviewTime: 705049
Countdown: 0
SampleSet: Soft
StackLeniency: 0.7
Mode: 0
LetterboxInBreaks: 0
WidescreenStoryboard: 1

[Editor]
Bookmarks: 49319,49525,78931,98657,98840,112194,126989,128222,139318,152562,154246,162675,169404,174456,187509,189614,203088,230035,243509
DistanceSpacing: 0.9
BeatDivisor: 4
GridSize: 4
TimelineZoom: 1.9

[Metadata]
Title:Sons of Winter and Stars
TitleUnicode:Sons of Winter and Stars
Artist:Wintersun
ArtistUnicode:Wintersun
Creator:Wishkey
Version:Stargazer
Source:
Tags:Ensiferum jari power folk metal symphonic piano story marathon time deathstream
BeatmapID:1037504
BeatmapSetID:486549

[Difficulty]
HPDrainRate:5
CircleSize:4
OverallDifficulty:8
ApproachRate:9.6
SliderMultiplier:1.85
SliderTickRate:1

[Events]
//Background and Video events
0,0,"Fantasy-Landscape2-1920x1200-wide-wallpapers.net.jpg",0,0
//Break Periods
2,146923,153737
//Storyboard Layer 0 (Background)
//Storyboard Layer 1 (Fail)
//Storyboard Layer 2 (Pass)
//Storyboard Layer 3 (Foreground)
//Storyboard Sound Samples

[TimingPoints]
16,410.958904109589,3,2,2,10,1,0
9861,-153.846153846153,3,2,2,10,0,0
32056,-83.3333333333333,3,2,2,50,0,0
34515,-153.846153846153,3,2,2,10,0,0
36990,-83.3333333333333,3,2,2,50,0,0
39463,410.958904109589,3,2,2,50,1,0
39463,-62.5,3,2,2,60,0,0
61645,-55.5555555555556,3,2,2,80,0,0
63289,-62.5,3,2,2,60,0,0
64111,-62.5,3,2,2,60,0,0
66560,-55.5555555555556,3,2,2,80,0,0
68203,-62.5,3,2,2,60,0,0
71508,-55.5555555555556,3,2,2,80,0,0
73152,-62.5,3,2,2,60,0,0
76441,-55.5555555555556,3,2,2,80,0,0
78907,-71.4285714285714,3,2,2,50,0,0
88701,-71.4285714285714,3,2,2,5,0,0
88770,-71.4285714285714,3,2,2,50,0,0
98633,-83.3333333333333,3,2,2,50,0,0
112194,-62.5,3,2,2,50,0,0
112605,-62.5,3,2,2,30,0,0
113427,-55.5555555555556,3,2,2,70,0,0
117537,-50,3,2,2,90,0,0
118359,-55.5555555555556,3,2,2,70,0,0
119591,-55.5555555555556,3,2,2,50,0,0
120413,-55.5555555555556,3,2,2,30,0,0
120824,-55.5555555555556,3,2,2,70,0,0
124934,-50,3,2,2,90,0,0
125756,-55.5555555555556,3,2,2,70,0,0
126997,-55.5555555555556,3,2,2,50,0,0
127819,-55.5555555555556,3,2,2,30,0,0
128230,-83.3333333333333,3,2,2,70,0,0
130969,-83.3333333333333,3,2,2,5,0,0
131106,-83.3333333333333,3,2,2,50,0,0
131517,-83.3333333333333,3,2,2,70,0,0
132339,-83.3333333333333,3,2,2,50,0,0
132750,-83.3333333333333,3,2,2,70,0,0
133024,-83.3333333333333,3,2,2,5,0,0
133161,-83.3333333333333,3,2,2,70,0,0
133367,-83.3333333333333,3,2,2,5,0,0
133983,-83.3333333333333,3,2,2,70,0,0
135901,-83.3333333333333,3,2,2,5,0,0
136038,-83.3333333333333,3,2,2,50,0,0
136449,-83.3333333333333,3,2,2,70,0,0
137271,-83.3333333333333,3,2,2,50,0,0
137682,-83.3333333333333,3,2,2,70,0,0
137956,-83.3333333333333,3,2,2,5,0,0
138093,-83.3333333333333,3,2,2,70,0,0
138504,-62.5,3,2,2,50,0,0
138778,-71.4285714285714,3,2,2,50,0,0
139052,-83.3333333333333,3,2,2,50,0,0
139394,-83.3333333333333,3,2,2,10,0,0
150442,424.028268551237,5,2,2,10,1,0
152562,421.052631578947,4,2,2,10,1,0
154246,-100,4,2,2,20,0,0
155930,-100,4,2,2,30,0,0
162667,-83.3333333333333,4,2,2,40,0,0
169404,-71.4285714285714,4,2,2,50,0,0
176140,-62.5,4,2,2,60,0,0
189614,-62.5,4,2,2,70,0,0
191614,-62.5,4,2,2,5,0,0
191719,-62.5,4,2,2,70,0,0
202246,-71.4285714285714,4,2,2,70,0,0
203088,-62.5,4,2,2,70,0,0
216561,-71.4285714285714,4,2,2,70,0,0
223298,-62.5,4,2,2,70,0,0
225193,-71.4285714285714,4,2,2,70,0,0
230035,-58.8235294117647,4,2,2,70,0,0
231930,-71.4285714285714,4,2,2,70,0,0
233193,-100,4,2,2,70,0,0
233719,-58.8235294117647,4,2,2,70,0,0
243825,-71.4285714285714,4,2,2,70,0,0
297404,421.052631578947,3,2,2,10,1,0
315088,421.052631578947,4,2,2,10,1,0
326877,315.789473684211,4,2,2,10,1,0
361613,315.789473684211,3,2,2,10,1,0
395718,315.789473684211,4,2,2,10,1,0
417191,315.789473684211,3,2,2,10,1,0
605717,315.789473684211,4,2,2,10,1,0
625927,315.789473684211,3,2,2,10,1,0

[Colours]
Combo1 : 255,128,128
Combo2 : 255,128,0
Combo3 : 255,255,0
Combo4 : 255,128,64

[HitObjects]
200,116,9879,6,0,P|212:172|288:200,1,120.249994495392,4|0,2:0|0:0,0:0:0:0:
360,200,10700,1,0,0:0:0:0:
272,304,11111,2,0,P|216:315|137:291,1,120.249994495392
68,260,11933,1,0,0:0:0:0:
175,183,12344,6,0,P|196:135|98:173,1,240.499988990784
148,306,13577,2,0,B|212:316|258:280|258:280|313:234|387:254,1,240.499988990784
340,340,14810,5,0,0:0:0:0:
374,252,15221,1,0,0:0:0:0:
456,304,15632,1,0,0:0:0:0:
512,184,16043,2,0,P|473:144|402:126,1,120.249994495392
317,128,16865,1,0,0:0:0:0:
207,202,17276,6,0,B|152:239|93:210|93:210|104:141|189:134,1,240.499988990784
288,192,18509,1,2,0:1:0:0:
380,288,19331,1,4,0:3:0:0:
388,276,19742,6,0,P|418:220|411:146,2,120.249994495392,2|2|2,0:1|0:1|0:1,0:0:0:0:
256,276,20974,2,0,P|226:220|233:146,2,120.249994495392,2|0|0,0:1|0:0|0:0,0:0:0:0:
388,276,22207,6,0,B|432:260|458:237|464:208|460:180|446:156|421:139|385:142|367:166|372:200,1,240.499988990784
308,248,23440,1,0,0:0:0:0:
216,264,23851,1,0,0:0:0:0:
156,324,24262,1,0,0:0:0:0:
48,248,24673,6,0,P|98:206|160:192,1,120.249994495392
248,192,25495,1,0,0:0:0:0:
364,272,25906,2,0,P|400:251|399:157,1,120.249994495392
352,104,26728,1,0,0:0:0:0:
240,168,27139,6,0,B|180:192|173:225|173:259|203:283|231:296|251:281|310:262|420:209|340:118|332:65|253:50|192:79|141:131|141:131|113:73,1,601.24997247696,4|0,0:2|0:0,0:0:0:0:
4,20,29605,5,2,0:1:0:0:
4,116,30016,2,0,B|0:163|0:163|8:193|8:193|4:244,1,120.249994495392
220,279,30837,1,4,0:3:0:0:
216,183,31248,2,0,B|220:136|220:136|212:106|212:106|216:55,1,120.249994495392
81,233,32070,5,12,0:1:0:0:
81,233,32481,1,8,0:1:0:0:
220,279,32618,1,8,0:1:0:0:
81,315,32755,1,8,0:1:0:0:
255,223,32892,2,0,P|270:277|256:347,1,110.999996612549,10|0,0:1|0:0,0:0:0:0:
392,208,33303,6,0,B|412:128|384:56|312:24|312:24|320:108|280:172|176:144|176:144|176:100|232:92|284:124,1,554.999983062745,12|0,0:1|0:0,0:0:0:0:
304,216,34536,5,0,0:0:0:0:
204,232,34947,2,0,B|144:212|144:212|80:220,1,120.249994495392
140,304,35769,2,0,L|268:352,1,120.249994495392
372,324,36454,2,0,L|372:268,1,40.083331498464
380,50,37002,5,12,0:1:0:0:
380,50,37413,1,8,0:1:0:0:
279,160,37550,1,8,0:1:0:0:
426,137,37687,1,8,0:1:0:0:
252,256,37824,2,0,P|208:231|184:164,1,110.999996612549,10|0,0:1|0:0,0:0:0:0:
472,52,38235,2,0,P|510:93|510:181,1,147.999995483399,12|0,0:1|0:0,0:0:0:0:
420,256,38646,5,0,3:0:0:0:
400,279,38714,1,0,3:0:0:0:
397,305,38783,1,0,3:0:0:0:
418,325,38851,1,0,3:0:0:0:
444,327,38920,1,0,3:0:0:0:
467,313,38988,1,0,3:0:0:0:
436,290,39057,5,4,3:2:0:0:
188,156,39463,5,4,0:1:0:0:
155,168,39531,1,0,0:0:0:0:
129,192,39600,1,0,0:0:0:0:
116,224,39668,1,0,0:0:0:0:
116,260,39737,1,0,0:0:0:0:
129,292,39805,1,0,0:0:0:0:
158,313,39874,1,0,3:0:0:0:
194,315,39942,1,0,0:0:0:0:
227,303,40011,1,0,0:0:0:0:
256,282,40079,1,0,0:0:0:0:
278,253,40147,1,0,0:0:0:0:
286,217,40216,1,0,0:0:0:0:
274,183,40285,5,0,3:0:0:0:
239,196,40354,1,0,0:0:0:0:
218,223,40422,1,0,0:0:0:0:
212,260,40491,1,0,0:0:0:0:
222,295,40559,1,0,3:0:0:0:
244,324,40628,1,0,0:0:0:0:
274,339,40696,1,0,3:0:0:0:
311,341,40765,1,0,0:0:0:0:
345,327,40833,1,0,0:0:0:0:
369,298,40902,1,0,0:0:0:0:
383,266,40970,1,0,0:0:0:0:
389,233,41039,1,0,0:0:0:0:
385,197,41107,2,0,P|382:177|359:143,5,49.3333333333333,0|0|0|0|0|0,3:0|0:0|0:0|0:0|0:0|0:0,0:0:0:0:
286,217,41518,2,0,P|289:249|322:294,5,49.3333333333333,0|0|0|0|0|0,3:0|0:0|0:0|0:0|0:0|0:0,0:0:0:0:
232,137,41929,5,4,0:1:0:0:
198,128,41998,1,0,0:0:0:0:
162,132,42066,1,0,0:0:0:0:
132,153,42135,1,0,0:0:0:0:
117,186,42203,1,0,0:0:0:0:
121,223,42272,1,0,0:0:0:0:
148,248,42340,1,0,3:0:0:0:
182,261,42409,1,0,0:0:0:0:
207,287,42477,1,0,0:0:0:0:
213,322,42546,1,0,0:0:0:0:
194,352,42614,1,0,0:0:0:0:
161,367,42683,1,0,0:0:0:0:
125,364,42751,1,0,3:0:0:0:
95,342,42820,1,0,0:0:0:0:
87,306,42888,1,0,0:0:0:0:
93,270,42957,1,0,0:0:0:0:
114,246,43025,1,0,0:0:0:0:
148,234,43094,1,0,0:0:0:0:
183,236,43162,5,4,0:1:0:0:
215,251,43231,1,0,0:0:0:0:
242,273,43299,1,0,0:0:0:0:
275,287,43368,1,0,0:0:0:0:
310,288,43436,1,0,0:0:0:0:
344,276,43505,1,0,0:0:0:0:
372,254,43573,2,0,L|380:192,5,49.3333333333333,0|0|0|0|0|0,3:0|0:0|0:0|0:0|0:0|0:0,0:0:0:0:
504,272,43984,2,0,L|512:329,5,49.3333333333333,0|0|0|0|0|0,3:0|0:0|0:0|0:0|0:0|0:0,0:0:0:0:
476,173,44395,5,4,0:1:0:0:
448,149,44463,1,0,0:0:0:0:
416,133,44531,1,0,0:0:0:0:
382,126,44599,1,0,0:0:0:0:
347,128,44668,1,0,0:0:0:0:
313,139,44736,1,0,0:0:0:0:
282,158,44805,1,0,3:0:0:0:
248,169,44873,1,0,0:0:0:0:
213,171,44942,1,0,0:0:0:0:
179,164,45010,1,0,0:0:0:0:
147,148,45079,1,0,0:0:0:0:
120,125,45147,1,0,0:0:0:0:
102,93,45217,5,0,3:0:0:0:
105,57,45285,1,0,0:0:0:0:
128,28,45354,1,0,0:0:0:0:
163,22,45422,1,0,0:0:0:0:
197,32,45491,1,0,0:0:0:0:
220,58,45559,1,0,0:0:0:0:
229,93,45628,2,0,P|230:123|225:149,5,49.3333333333333,4|0|0|0|0|0,0:1|0:0|0:0|0:0|0:0|0:0,0:0:0:0:
297,25,46039,6,0,P|333:7|396:24,1,98.6666666666667,4|0,0:1|0:0,0:0:0:0:
458,81,46313,1,4,0:1:0:0:
320,228,46450,2,0,P|278:247|221:238,1,98.6666666666667,4|0,0:1|0:0,0:0:0:0:
201,223,46654,1,0,0:0:0:0:
201,223,46724,1,0,0:0:0:0:
376,152,46861,2,0,P|396:172|404:252,1,98.6666666666667,4|0,0:1|0:0,0:0:0:0:
333,357,47135,5,0,3:0:0:0:
298,367,47203,1,0,3:0:0:0:
262,365,47272,1,0,3:0:0:0:
228,354,47340,1,0,3:0:0:0:
194,341,47409,1,0,3:0:0:0:
159,332,47477,1,0,3:0:0:0:
123,333,47546,1,0,3:0:0:0:
89,347,47614,1,0,3:0:0:0:
59,369,47683,2,0,P|43:334|51:256,1,98.6666666666667
118,239,47888,2,0,P|128:192|104:125,1,98.6666666666667
45,97,48094,5,2,0:1:0:0:
50,62,48162,1,0,0:0:0:0:
73,36,48231,1,0,0:0:0:0:
107,25,48299,1,0,0:0:0:0:
142,26,48368,1,0,0:0:0:0:
177,34,48436,1,0,0:0:0:0:
205,56,48505,5,0,3:0:0:0:
223,82,48573,1,0,0:0:0:0:
231,111,48642,1,0,0:0:0:0:
230,139,48710,1,0,0:0:0:0:
218,161,48779,1,0,0:0:0:0:
201,175,48847,1,0,0:0:0:0:
182,179,48916,1,0,3:0:0:0:
166,173,48984,1,0,0:0:0:0:
157,161,49053,1,0,0:0:0:0:
156,148,49121,1,0,0:0:0:0:
159,138,49190,1,0,0:0:0:0:
164,132,49258,1,0,0:0:0:0:
170,133,49326,6,0,P|223:184|151:280,1,197.333333333333,4|0,0:1|0:0,0:0:0:0:
284,132,49736,2,0,P|332:120|396:132,1,98.6666666666667,2|0,0:1|0:0,0:0:0:0:
432,212,50010,1,0,0:0:0:0:
512,36,50147,2,0,P|464:24|400:36,1,98.6666666666667
316,40,50421,1,0,0:0:0:0:
224,220,50558,6,0,P|192:188|224:44,1,197.333333333333,4|0,0:1|0:0,0:0:0:0:
284,132,50969,1,0,0:0:0:0:
415,29,51107,1,0,0:0:0:0:
447,143,51244,1,0,0:0:0:0:
316,40,51381,2,0,P|293:81|287:166,1,98.6666666666667
320,224,51655,1,0,0:0:0:0:
155,263,51792,6,0,P|148:184|205:258,1,197.333333333333,4|0,0:1|0:0,0:0:0:0:
192,344,52203,2,0,P|140:352|84:320,1,98.6666666666667
52,247,52477,1,0,0:0:0:0:
160,136,52614,2,0,P|178:90|169:42,1,98.6666666666667
80,84,52888,1,0,0:0:0:0:
256,148,53025,6,0,B|324:136|324:136|380:104|380:104|464:92,1,197.333333333333,4|0,0:1|0:0,0:0:0:0:
512,176,53436,1,0,0:0:0:0:
511,175,53573,2,0,L|413:189,1,98.6666666666667
288,48,53847,1,0,0:0:0:0:
196,164,53984,1,0,0:0:0:0:
108,100,54121,1,0,0:0:0:0:
40,284,54258,6,0,B|100:316|100:316|164:304|164:304|232:344,1,197.333333333333,4|0,0:1|0:0,0:0:0:0:
372,276,54669,2,0,L|281:218,1,98.6666666666667,0|0,0:1|0:0,0:0:0:0:
188,236,54943,1,0,0:0:0:0:
312,128,55080,2,0,B|344:92|348:56|348:56|284:80|224:48,1,197.333333333333
44,0,55491,5,4,0:1:0:0:
124,88,55628,1,0,0:0:0:0:
48,180,55765,1,0,0:0:0:0:
216,220,55902,2,0,P|262:191|297:142,1,98.6666666666667
235,53,56176,1,0,0:0:0:0:
124,232,56313,2,0,P|144:277|200:320,1,98.6666666666667
344,232,56587,1,0,0:0:0:0:
427,36,56724,6,0,P|386:-3|381:97,1,197.333333333333,4|0,0:1|0:0,0:0:0:0:
446,199,57135,2,0,P|454:227|425:301,1,98.6666666666667
302,332,57409,1,0,0:0:0:0:
145,234,57546,5,0,0:0:0:0:
135,206,57614,1,0,0:0:0:0:
141,177,57683,1,0,0:0:0:0:
161,156,57751,1,0,0:0:0:0:
189,149,57820,1,0,0:0:0:0:
217,157,57888,1,0,0:0:0:0:
235,181,57957,6,0,P|239:217|221:261,1,49.3333333333333
104,372,58094,2,0,P|101:347|106:318,1,49.3333333333333
48,216,58231,2,0,P|40:246|47:290,1,49.3333333333333
189,348,58368,1,0,3:0:0:0:
227,339,58436,1,0,0:0:0:0:
258,315,58505,1,0,0:0:0:0:
277,280,58573,1,0,0:0:0:0:
281,241,58642,1,0,0:0:0:0:
275,201,58710,1,0,0:0:0:0:
261,167,58779,6,0,P|240:146|199:125,1,49.3333333333333
151,213,58916,2,0,P|171:234|213:254,1,49.3333333333333
380,175,59053,2,0,P|372:145|346:106,1,49.3333333333333
117,115,59190,6,0,P|46:205|85:277,1,197.333333333333,4|0,0:1|0:0,0:0:0:0:
179,302,59599,2,0,P|175:246|116:195,1,98.6666666666667
75,269,59873,1,0,0:0:0:0:
276,332,60010,2,0,P|326:326|378:282,1,98.6666666666667
408,211,60284,1,0,0:0:0:0:
218,160,60421,6,0,B|161:139|162:87|162:87|219:48|265:101,1,197.333333333333,4|0,0:1|0:0,0:0:0:0:
280,236,60833,2,0,P|233:256|180:243,1,98.6666666666667
218,160,61107,1,0,0:0:0:0:
159,337,61244,2,0,P|115:311|89:247,1,98.6666666666667
84,171,61518,1,0,0:0:0:0:
279,235,61655,6,0,B|366:243|366:243|423:220|423:220|511:227,1,221.999993225098,12|0,0:1|0:0,0:0:0:0:
364,146,62066,1,8,0:1:0:0:
427,315,62203,1,8,0:1:0:0:
473,136,62340,1,8,0:1:0:0:
319,337,62477,2,0,B|264:347|264:347|212:335|212:335|144:345,1,166.499994918823,10|0,0:1|0:0,0:0:0:0:
248,44,62888,2,0,B|288:95|258:150|258:150|291:210|239:274,1,221.999993225098,12|0,0:1|0:0,0:0:0:0:
72,196,63299,6,0,P|120:208|176:204,1,98.6666666666667,2|0,0:1|0:0,0:0:0:0:
172,108,63573,1,0,0:0:0:0:
192,308,63710,2,0,P|229:329|323:314,1,98.6666666666667
376,316,63984,1,0,0:0:0:0:
408,140,64121,5,4,0:1:0:0:
408,140,64258,2,0,L|436:240,1,98.6666666666667
328,48,64532,2,0,L|436:32,1,98.6666666666667
240,136,64806,1,0,0:0:0:0:
240,136,64943,2,0,L|132:112,1,98.6666666666667
84,36,65217,1,0,0:0:0:0:
136,216,65354,6,0,B|176:280|176:280|224:304|224:304|264:360,1,197.333333333333,4|0,0:1|0:0,0:0:0:0:
164,372,65765,1,0,0:0:0:0:
320,292,65902,1,0,0:0:0:0:
408,372,66039,1,0,0:0:0:0:
352,180,66176,2,0,P|344:124|360:80,1,98.6666666666667
440,136,66450,1,0,0:0:0:0:
248,212,66587,6,0,B|161:220|161:220|104:197|104:197|16:204,1,221.999993225098,12|0,0:1|0:0,0:0:0:0:
176,116,66998,1,8,0:1:0:0:
0,120,67135,1,8,0:1:0:0:
88,288,67272,1,8,0:1:0:0:
120,36,67409,2,0,B|176:8|232:36|232:36|295:28,1,166.499994918823,10|0,0:1|0:0,0:0:0:0:
216,322,67820,2,0,B|181:230|237:162|237:162|261:202|233:254,1,221.999993225098,12|0,0:1|0:0,0:0:0:0:
340,312,68231,5,0,3:0:0:0:
368,330,68299,1,0,0:0:0:0:
402,336,68368,1,0,0:0:0:0:
436,328,68436,1,0,0:0:0:0:
463,308,68505,1,0,0:0:0:0:
481,279,68573,1,0,0:0:0:0:
486,245,68642,1,0,3:0:0:0:
478,212,68710,1,0,0:0:0:0:
457,184,68779,1,0,0:0:0:0:
427,167,68847,1,0,0:0:0:0:
393,163,68916,1,0,0:0:0:0:
360,172,68984,1,0,0:0:0:0:
332,192,69053,6,0,P|419:198|432:79,1,197.333333333333,4|0,0:1|0:0,0:0:0:0:
290,6,69464,1,0,0:0:0:0:
318,96,69599,1,0,0:0:0:0:
383,24,69736,1,0,0:0:0:0:
223,78,69873,2,0,P|175:86|119:78,1,98.6666666666667
60,10,70147,1,0,0:0:0:0:
112,188,70285,6,0,P|200:190|231:300,1,197.333333333333,4|0,0:1|0:0,0:0:0:0:
181,360,70696,2,0,P|228:380|281:367,1,98.6666666666667
336,291,70970,1,0,0:0:0:0:
143,277,71107,2,0,P|94:307|74:353,1,98.6666666666667
237,281,71381,1,0,0:0:0:0:
289,75,71518,6,0,B|311:153|311:153|314:217|314:217|337:298,1,221.999993225098,12|0,0:1|0:0,0:0:0:0:
507,228,71929,1,8,0:1:0:0:
406,90,72066,1,8,0:1:0:0:
423,259,72203,1,8,0:1:0:0:
459,20,72340,2,0,B|403:-8|354:20|354:20|266:-16,1,166.499994918823,10|0,0:1|0:0,0:0:0:0:
224,204,72751,2,0,P|116:184|155:136,1,221.999993225098,12|0,0:1|0:0,0:0:0:0:
328,241,73162,6,0,P|376:253|432:249,1,98.6666666666667,2|0,0:1|0:0,0:0:0:0:
383,165,73436,1,0,0:0:0:0:
284,316,73573,2,0,P|239:334|164:324,1,98.6666666666667
223,243,73847,1,0,0:0:0:0:
384,344,73984,6,0,L|512:344,1,98.6666666666667,4|0,0:1|0:0,0:0:0:0:
512,248,74257,1,0,0:0:0:0:
412,72,74395,2,0,L|376:180,1,98.6666666666667
496,144,74669,1,0,0:0:0:0:
296,104,74806,2,0,L|188:80,1,98.6666666666667
264,4,75080,1,0,0:0:0:0:
216,196,75217,6,0,P|155:267|23:232,1,197.333333333333,4|0,0:1|0:0,0:0:0:0:
0,104,75628,1,0,0:0:0:0:
116,188,75765,1,0,0:0:0:0:
58,263,75901,1,0,0:0:0:0:
104,88,76039,2,0,P|88:40|44:4,1,98.6666666666667
28,184,76313,1,0,0:0:0:0:
280,212,76449,6,0,P|334:132|243:103,1,221.999993225098,12|0,0:1|0:0,0:0:0:0:
155,269,76861,1,8,0:1:0:0:
274,333,76997,1,8,0:1:0:0:
411,279,77135,1,8,0:1:0:0:
280,212,77272,2,0,B|285:269|285:269|274:331|274:331|279:393,1,166.499994918823,10|0,0:1|0:0,0:0:0:0:
483,260,77682,2,0,B|518:168|462:100|462:100|438:140|466:192,1,221.999993225098,12|0,0:1|0:0,0:0:0:0:
341,280,78093,5,0,0:0:0:0:
312,136,78230,1,0,0:0:0:0:
380,204,78367,1,0,0:0:0:0:
380,204,78435,1,0,0:0:0:0:
380,204,78504,1,0,0:0:0:0:
451,149,78641,1,0,0:0:0:0:
288,212,78778,1,0,0:0:0:0:
288,212,78846,1,0,0:0:0:0:
288,212,78915,6,0,L|256:308,1,86.3333306986492,4|0,0:1|3:1,2:1:0:0:
142,209,79189,1,0,0:0:0:0:
164,296,79326,1,0,0:0:0:0:
125,211,79463,1,0,0:0:0:0:
147,296,79598,1,0,0:0:0:0:
288,212,79737,6,0,L|347:147,1,86.3333306986492,4|0,0:1|0:0,0:0:0:0:
207,202,80011,1,0,0:0:0:0:
379,226,80147,2,0,L|438:155,1,86.3333306986492,4|0,0:1|0:0,0:0:0:0:
288,212,80421,5,0,0:0:0:0:
327,291,80558,1,0,0:0:0:0:
410,310,80695,1,0,0:0:0:0:
479,258,80832,1,0,0:0:0:0:
352,376,80970,6,0,L|260:376,1,86.3333306986492,4|0,0:1|0:0,0:0:0:0:
220,300,81244,1,0,0:0:0:0:
72,364,81380,2,0,L|160:364,1,86.3333306986492,4|0,0:1|0:0,3:0:0:0:
220,300,81654,5,0,0:0:0:0:
184,140,81791,2,0,P|236:200|296:204,1,86.3333306986492,8|0,0:0|0:0,0:0:0:0:
336,164,82065,1,8,0:0:0:0:
228,48,82202,2,0,P|112:64|80:124,1,172.666661397298,8|0,0:0|0:0,0:0:0:0:
108,188,82613,5,0,0:0:0:0:
184,140,82750,1,0,0:0:0:0:
264,120,82887,1,0,0:0:0:0:
336,164,83024,5,8,0:0:0:0:
356,172,83093,1,0,0:0:0:0:
376,176,83161,1,8,0:0:0:0:
396,176,83230,1,0,0:0:0:0:
416,172,83298,1,8,0:0:0:0:
436,164,83367,1,0,0:0:0:0:
456,156,83435,2,0,P|476:96|384:104,1,172.666661397298,8|0,0:0|0:0,0:0:0:0:
336,264,83846,6,0,L|336:364,1,86.3333306986492,4|0,0:1|0:0,0:0:0:0:
244,240,84120,1,0,0:0:0:0:
244,328,84257,1,0,0:0:0:0:
432,284,84394,1,0,0:0:0:0:
432,372,84531,1,0,0:0:0:0:
336,264,84668,6,0,L|336:168,1,86.3333306986492,4|0,0:1|0:0,0:0:0:0:
264,120,84942,1,0,0:0:0:0:
156,196,85079,2,0,L|56:196,1,86.3333306986492,4|0,0:1|0:0,0:0:0:0:
16,128,85353,5,0,0:0:0:0:
88,80,85490,1,0,0:0:0:0:
16,264,85627,1,0,0:0:0:0:
88,312,85764,1,0,0:0:0:0:
264,206,85901,6,0,L|264:98,1,86.3333306986492,4|0,0:1|0:0,0:0:0:0:
188,124,86175,1,0,0:0:0:0:
336,177,86312,2,0,L|424:177,1,86.3333306986492,4|0,0:1|0:0,0:0:0:0:
416,104,86586,5,0,0:0:0:0:
328,252,86724,1,8,0:0:0:0:
322,272,86791,1,0,0:0:0:0:
323,294,86860,1,8,0:0:0:0:
330,314,86928,1,0,0:0:0:0:
342,332,86997,1,8,0:0:0:0:
359,345,87065,1,0,0:0:0:0:
380,352,87134,2,0,P|288:336|196:352,1,172.666661397298,8|0,0:0|0:0,0:0:0:0:
128,376,87545,5,0,0:0:0:0:
52,332,87682,1,0,0:0:0:0:
56,244,87819,1,0,0:0:0:0:
128,192,87956,5,8,0:0:0:0:
133,171,88023,1,0,0:0:0:0:
132,149,88092,1,8,0:0:0:0:
125,129,88160,1,0,0:0:0:0:
112,112,88229,1,8,0:0:0:0:
96,98,88297,1,0,0:0:0:0:
76,92,88367,2,0,P|16:64|108:32,1,215.833326746623,4|0,0:1|2:0,0:0:0:0:
140,40,88778,6,0,L|240:40,1,86.3333306986492,4|0,0:1|0:0,0:0:0:0:
374,14,89052,1,0,0:0:0:0:
356,98,89189,1,0,0:0:0:0:
271,113,89326,1,0,0:0:0:0:
226,40,89463,1,0,0:0:0:0:
332,180,89599,6,0,L|352:272,1,86.3333306986492,4|0,0:1|0:0,0:0:0:0:
312,88,89873,1,0,0:0:0:0:
288,236,90010,2,0,L|268:328,1,86.3333306986492,4|0,0:1|0:0,0:0:0:0:
420,352,90284,5,0,0:0:0:0:
336,376,90421,1,0,0:0:0:0:
434,240,90558,1,0,0:0:0:0:
350,264,90695,1,0,0:0:0:0:
476,104,90832,6,0,L|356:132,1,86.3333306986492,4|0,0:1|0:0,0:0:0:0:
312,88,91106,1,0,0:0:0:0:
148,104,91243,2,0,L|237:124,1,86.3333306986492,4|0,0:1|0:0,0:0:0:0:
312,52,91517,5,0,0:0:0:0:
292,196,91655,1,8,3:2:0:0:
277,211,91722,1,0,3:2:0:0:
258,221,91791,1,8,3:2:0:0:
237,225,91859,1,0,3:2:0:0:
215,223,91928,1,8,3:2:0:0:
195,215,91996,1,0,3:2:0:0:
180,200,92065,2,0,P|84:188|24:240,1,172.666661397298,8|0,0:0|0:0,0:0:0:0:
36,353,92476,5,0,0:0:0:0:
120,369,92613,1,0,0:0:0:0:
204,353,92750,1,0,0:0:0:0:
116,264,92887,5,8,3:2:0:0:
106,244,92955,1,0,3:2:0:0:
100,223,93023,1,8,3:2:0:0:
96,202,93092,1,0,3:2:0:0:
96,181,93160,1,8,3:2:0:0:
99,159,93229,1,0,3:2:0:0:
106,139,93298,2,0,P|87:81|28:137,1,172.666661397298,8|0,0:0|0:0,0:0:0:0:
180,200,93709,6,0,L|272:158,1,86.3333306986492,4|0,0:1|0:0,0:0:0:0:
322,11,93983,1,0,0:0:0:0:
269,79,94120,1,0,0:0:0:0:
392,164,94257,1,0,0:0:0:0:
376,80,94394,1,0,0:0:0:0:
328,224,94531,6,0,L|328:325,1,86.3333306986492,4|0,0:1|0:0,0:0:0:0:
409,340,94805,1,0,0:0:0:0:
488,222,94942,2,0,L|488:308,1,86.3333306986492,4|0,0:1|0:0,0:0:0:0:
328,224,95216,5,0,0:0:0:0:
407,256,95353,1,0,0:0:0:0:
252,344,95490,1,0,0:0:0:0:
252,344,95558,1,0,0:0:0:0:
252,344,95627,1,0,0:0:0:0:
169,171,95764,6,0,L|184:48,1,86.3333306986492,4|0,0:1|0:0,0:0:0:0:
280,104,96038,1,0,0:0:0:0:
251,258,96175,2,0,L|150:259,1,86.3333306986492,4|0,0:1|0:0,0:0:0:0:
87,218,96449,5,0,0:0:0:0:
22,71,96587,1,8,3:2:0:0:
25,91,96654,1,0,3:2:0:0:
36,111,96723,1,8,3:2:0:0:
50,127,96791,1,0,3:2:0:0:
70,137,96860,1,8,3:2:0:0:
92,139,96928,1,0,3:2:0:0:
112,131,96997,2,0,P|12:176|2:246,1,172.666661397298,4|0,0:1|0:0,0:0:0:0:
64,343,97408,5,0,3:0:0:0:
64,343,97476,2,0,L|74:264,1,43.1666653493246,0|0,3:0|3:0,3:0:0:0:
160,288,97613,1,0,3:0:0:0:
160,288,97681,2,0,L|170:209,1,43.1666653493246,0|0,3:0|3:0,3:0:0:0:
260,228,97819,2,4,P|302:220|351:230,1,86.3333306986492,4|4,0:3|0:3,0:3:0:0:
488,336,98093,1,4,0:3:0:0:
502,295,98161,1,4,0:3:0:0:
501,251,98230,1,4,0:3:0:0:
476,215,98298,5,4,0:3:0:0:
478,236,98366,1,0,3:0:0:0:
475,258,98435,1,0,3:0:0:0:
471,279,98503,1,0,3:0:0:0:
462,298,98572,1,0,3:0:0:0:
448,312,98641,6,0,L|436:236,1,73.9999977416993,4|0,0:2|0:0,0:0:0:0:
416,156,98915,1,0,0:0:0:0:
488,6,99052,2,0,L|456:72,1,73.9999977416993,2|0,0:0|0:0,0:0:0:0:
416,156,99326,1,0,0:0:0:0:
252,128,99463,2,0,L|324:140,1,73.9999977416993
416,156,99737,1,0,0:0:0:0:
288,36,99873,6,0,B|216:24|216:24|112:40,1,147.999995483399,2|0,0:0|0:0,0:0:0:0:
84,96,100284,1,0,0:0:0:0:
152,140,100421,1,0,0:0:0:0:
220,188,100558,1,0,0:0:0:0:
1,228,100695,2,0,B|75:239|75:239|147:227,1,147.999995483399,2|0,0:0|0:0,0:0:0:0:
296,132,101106,6,0,P|308:172|296:236,1,73.9999977416993,2|0,0:0|0:0,0:0:0:0:
304,296,101380,1,0,0:0:0:0:
400,160,101517,2,0,P|396:201|362:257,1,73.9999977416993,2|0,0:0|0:0,0:0:0:0:
344,316,101791,1,0,0:0:0:0:
496,212,101928,2,0,P|478:249|426:289,1,73.9999977416993,2|0,0:0|0:0,0:0:0:0:
384,336,102202,1,0,0:0:0:0:
160,296,102339,6,0,B|206:297|230:309|230:309|254:297|311:295,1,147.999995483399,2|0,0:0|0:0,0:0:0:0:
280,376,102750,1,0,0:0:0:0:
232,220,102887,2,0,P|230:183|242:148,1,73.9999977416993
176,376,103161,2,0,P|136:372|92:352,1,73.9999977416993,2|0,0:0|0:0,0:0:0:0:
232,304,103435,1,0,0:0:0:0:
76,244,103572,5,2,0:0:0:0:
148,180,103709,1,0,0:0:0:0:
76,116,103846,1,0,0:0:0:0:
140,44,103983,2,0,L|40:-16,1,73.9999977416993
124,180,104257,1,0,0:0:0:0:
216,108,104394,2,0,L|248:40,1,73.9999977416993,2|0,0:0|0:0,0:0:0:0:
140,44,104668,1,0,0:0:0:0:
316,120,104805,6,0,L|328:204,2,73.9999977416993,2|0|0,0:0|0:0|0:0,0:0:0:0:
416,80,105216,2,0,L|424:4,2,73.9999977416993,2|0|0,0:0|0:0|0:0,0:0:0:0:
380,256,105627,1,2,0:0:0:0:
244,208,105764,1,2,0:0:0:0:
400,168,105901,1,2,0:0:0:0:
213,297,106038,6,0,B|276:329|276:329|352:344,1,147.999995483399,2|0,0:0|0:0,0:0:0:0:
432,324,106449,1,0,0:0:0:0:
380,256,106586,1,0,0:0:0:0:
324,196,106723,1,0,0:0:0:0:
161,223,106860,2,0,B|214:167|214:167|276:132,1,147.999995483399,2|0,0:0|0:0,0:0:0:0:
192,12,107271,6,0,L|176:112,1,73.9999977416993,2|0,0:0|0:0,0:0:0:0:
32,84,107545,2,0,L|16:12,1,73.9999977416993
108,76,107819,1,0,0:0:0:0:
108,156,107956,1,0,0:0:0:0:
8,260,108093,2,0,P|40:244|104:236,1,73.9999977416993,2|0,0:0|0:0,0:0:0:0:
161,223,108367,1,0,0:0:0:0:
48,332,108504,6,0,P|140:312|200:320,1,147.999995483399,2|0,0:0|0:0,0:0:0:0:
404,260,108915,2,0,P|332:241|259:246,1,147.999995483399,2|0,0:0|0:0,0:0:0:0:
352,160,109326,2,0,P|364:92|352:0,1,147.999995483399,2|0,0:0|0:0,0:0:0:0:
496,224,109736,6,0,P|492:276|512:352,1,73.9999977416993,2|0,0:0|0:0,0:0:0:0:
448,148,110010,2,0,P|452:96|432:20,1,73.9999977416993
352,160,110284,1,0,0:0:0:0:
260,192,110421,1,0,0:0:0:0:
148,88,110558,2,0,P|164:124|168:160,1,73.9999977416993,2|0,0:0|0:0,0:0:0:0:
164,240,110832,1,0,0:0:0:0:
57,117,110969,6,0,B|48:200|48:200|80:280,1,147.999995483399,2|0,0:0|0:0,0:0:0:0:
168,332,111380,1,0,0:0:0:0:
256,296,111517,1,0,0:0:0:0:
344,332,111654,1,0,0:0:0:0:
440,259,111791,2,0,B|464:199|464:199|455:117,1,147.999995483399,2|0,0:0|0:0,0:0:0:0:
256,76,112202,5,2,3:2:0:0:
256,100,112270,1,0,3:0:0:0:
256,125,112338,1,0,3:0:0:0:
256,149,112407,1,0,3:0:0:0:
256,174,112476,1,0,3:0:0:0:
256,199,112544,1,0,3:0:0:0:
256,224,112613,5,6,3:2:0:0:
233,213,112681,1,4,3:0:0:0:
210,206,112749,1,4,3:0:0:0:
185,203,112818,1,4,3:0:0:0:
161,205,112886,1,4,3:0:0:0:
137,212,112955,1,4,3:0:0:0:
115,223,113024,6,4,L|83:167,1,49.3333333333333,6|4,3:3|3:3,3:3:0:0:
256,304,113161,2,4,L|292:366,1,49.3333333333333,6|4,3:3|3:3,3:3:0:0:
180,120,113298,2,4,L|180:48,1,49.3333333333333,6|4,3:3|3:3,3:3:0:0:
28,348,113435,6,0,B|180:338|180:338|109:301,1,221.999993225098,4|0,0:1|0:0,0:0:0:0:
8,232,113846,2,0,P|0:177|4:122,1,110.999996612549
96,40,114120,1,0,0:0:0:0:
183,229,114257,2,0,P|188:174|180:120,1,110.999996612549
96,40,114531,1,0,0:0:0:0:
232,168,114668,6,0,B|300:184|300:184|380:172|380:172|460:192,1,221.999993225098,4|0,0:1|0:0,0:0:0:0:
436,103,115079,2,0,B|384:88|384:88|328:96,1,110.999996612549
428,272,115353,1,0,0:0:0:0:
428,272,115490,2,0,B|375:256|375:256|319:264,1,110.999996612549
188,324,115764,1,0,0:0:0:0:
232,112,115901,6,0,L|232:223,1,110.999996612549,4|0,0:1|0:0,0:0:0:0:
288,348,116175,1,0,0:0:0:0:
106,265,116312,2,0,B|54:245|54:245|0:256,2,110.999996612549
0,128,116723,2,0,B|52:148|52:148|106:137,2,110.999996612549
160,12,117134,5,4,0:1:0:0:
232,112,117271,1,0,0:0:0:0:
304,12,117408,1,0,0:0:0:0:
464,184,117545,6,0,B|452:264|394:273|394:273|392:348|320:356|320:356|252:324|344:296|316:256|316:256|340:212|384:200|384:200|408:128|408:128|364:148|312:144|312:144|292:176|256:192|256:192|248:272,1,740,12|0,0:1|0:0,0:0:0:0:
0,120,118641,5,0,0:0:0:0:
152,8,118778,2,0,L|140:156,1,110.999996612549
252,224,119052,1,0,0:0:0:0:
100,112,119189,2,0,L|112:260,1,110.999996612549
172,356,119463,1,0,0:0:0:0:
25,263,119599,5,4,3:1:0:0:
5,288,119667,1,0,3:0:0:0:
8,320,119735,1,0,3:0:0:0:
34,340,119804,1,0,3:0:0:0:
66,337,119872,1,2,3:0:0:0:
93,320,119941,1,0,3:0:0:0:
120,300,120010,1,2,3:0:0:0:
148,283,120078,1,0,3:0:0:0:
181,279,120146,1,0,3:0:0:0:
212,289,120215,1,0,3:0:0:0:
237,312,120283,1,2,3:0:0:0:
250,342,120352,1,0,3:0:0:0:
250,375,120421,5,6,3:3:0:0:
289,354,120490,1,4,3:3:0:0:
331,340,120558,1,6,3:3:0:0:
375,335,120627,1,4,3:3:0:0:
419,337,120695,1,6,3:3:0:0:
462,348,120763,1,4,3:3:0:0:
501,371,120832,6,0,B|501:222|501:222|479:258|429:274,1,221.999993225098,4|0,0:1|0:0,0:0:0:0:
304,264,121243,1,0,0:0:0:0:
376,136,121380,1,0,0:0:0:0:
376,160,121449,1,0,0:0:0:0:
376,184,121517,1,0,0:0:0:0:
376,368,121654,2,0,L|376:236,1,110.999996612549
464,140,121928,1,0,0:0:0:0:
288,180,122065,6,0,P|176:192|64:160,1,221.999993225098,4|0,0:1|0:0,0:0:0:0:
244,100,122476,1,0,0:0:0:0:
140,96,122613,1,0,0:0:0:0:
196,24,122750,1,0,0:0:0:0:
36,108,122887,2,0,P|20:168|36:240,1,110.999996612549
92,320,123161,1,0,0:0:0:0:
288,180,123298,6,0,P|212:268|268:368,1,221.999993225098,4|0,0:1|0:0,0:0:0:0:
392,280,123709,2,0,L|392:52,1,221.999993225098
288,180,124120,2,0,P|214:104|247:4,1,221.999993225098,0|0,0:1|0:0,0:0:0:0:
392,180,124531,6,0,L|508:180,1,110.999996612549,4|0,0:1|0:0,0:0:0:0:
496,72,124805,1,0,0:0:0:0:
304,256,124942,6,0,B|246:312|194:284|194:284|147:343|85:306|85:306|50:240|140:273|142:224|142:224|188:203|230:220|230:220|292:177|292:177|239:165|206:132|206:132|171:146|133:137|133:137|72:192,1,740,12|0,0:1|0:0,0:0:0:0:
340,336,126038,5,0,0:0:0:0:
448,236,126175,2,0,L|456:104,1,110.999996612549
368,336,126449,1,0,0:0:0:0:
488,236,126586,2,0,L|496:112,2,110.999996612549
404,336,126997,5,4,3:1:0:0:
366,312,127065,1,0,3:0:0:0:
324,299,127133,1,0,3:0:0:0:
279,299,127202,1,0,3:0:0:0:
237,312,127270,1,2,3:0:0:0:
200,336,127339,1,0,3:0:0:0:
176,368,127408,5,2,3:0:0:0:
180,334,127476,1,0,3:0:0:0:
184,301,127544,1,0,3:0:0:0:
188,268,127613,1,0,3:0:0:0:
192,235,127681,1,2,3:0:0:0:
196,202,127750,1,0,3:0:0:0:
200,168,127819,6,4,L|132:220,1,55.4999983062745,4|4,3:3|3:3,3:3:0:0:
0,292,127956,2,4,L|24:204,1,55.4999983062745,4|4,3:3|3:3,3:3:0:0:
60,64,128093,2,4,L|88:140,1,55.4999983062745,4|4,3:3|3:3,3:3:0:0:
180,334,128230,5,4,0:1:0:0:
180,28,129052,1,4,0:1:0:0:
180,28,129463,5,4,0:1:0:0:
332,356,130284,1,4,0:1:0:0:
332,356,130695,6,0,L|332:188,1,147.999995483399,4|0,0:1|0:0,0:0:0:0:
332,80,131106,1,4,3:0:0:0:
384,144,131243,1,4,3:0:0:0:
432,208,131380,1,4,3:0:0:0:
280,15,131517,6,0,B|240:68|264:120|264:120|224:176|252:240,1,221.999993225098,4|0,0:1|0:0,0:0:0:0:
246,224,132339,1,4,3:0:0:0:
174,260,132476,1,4,3:0:0:0:
100,224,132613,1,4,3:0:0:0:
172,336,132750,2,0,L|172:184,1,147.999995483399,4|0,0:1|0:0,0:0:0:0:
172,0,133161,6,0,L|172:136,1,110.999996612549,4|0,0:1|0:0,0:0:0:0:
76,332,133983,1,4,0:1:0:0:
76,332,134394,5,4,0:1:0:0:
440,64,135216,1,4,0:1:0:0:
440,64,135627,6,0,L|440:212,1,147.999995483399,4|0,0:1|0:0,0:0:0:0:
344,116,136038,1,4,3:0:0:0:
344,196,136175,1,4,3:0:0:0:
344,276,136312,1,4,3:0:0:0:
268,56,136449,6,0,B|234:106|249:158|249:158|267:218|227:284,1,221.999993225098,4|0,0:1|0:0,0:0:0:0:
236,269,137271,1,4,3:0:0:0:
256,188,137408,1,4,3:0:0:0:
248,108,137545,1,4,3:0:0:0:
32,163,137682,2,0,P|98:195|172:199,1,147.999995483399,4|0,0:1|0:0,0:0:0:0:
177,50,138093,5,0,3:0:0:0:
204,30,138161,1,0,3:0:0:0:
236,23,138229,1,0,3:0:0:0:
269,24,138298,1,0,3:0:0:0:
299,35,138366,1,0,3:0:0:0:
320,60,138435,1,0,3:0:0:0:
327,96,138504,6,0,L|327:175,1,49.3333333333333,0|0,3:0|3:0,3:0:0:0:
444,264,138641,2,0,L|404:195,1,49.3333333333333,0|0,3:0|3:0,3:0:0:0:
300,121,138778,6,0,L|300:200,1,43.1666653493246,0|0,3:0|3:0,3:0:0:0:
404,265,138915,2,4,L|364:196,1,43.1666653493246,4|4,3:3|3:3,3:3:0:0:
268,150,139052,6,4,L|268:221,1,36.9999988708496,4|4,3:3|3:3,3:3:0:0:
363,265,139189,2,4,L|341:228,1,36.9999988708496,4|4,3:3|3:3,3:3:0:0:
224,280,139326,5,4,0:2:0:0:
256,192,139394,12,4,146723,0:2:0:0:
255,193,154246,5,2,0:3:0:0:
255,193,154667,1,2,0:3:0:0:
255,193,155088,1,2,0:3:0:0:
255,193,155509,1,2,0:3:0:0:
255,193,155930,6,0,L|257:274,1,46.25,2|0,0:1|0:0,0:0:0:0:
340,228,156140,2,0,L|340:304,1,46.25
424,264,156351,2,0,L|425:334,1,46.25,2|0,0:3|0:0,0:0:0:0:
508,296,156562,2,0,L|509:366,1,46.25
512,212,156772,6,0,L|510:131,1,46.25,2|0,0:3|0:0,0:0:0:0:
427,177,156982,2,0,L|427:101,1,46.25
343,141,157193,2,0,L|342:71,1,46.25,2|0,0:3|0:0,0:0:0:0:
259,109,157404,2,0,L|258:39,1,46.25
168,140,157614,6,0,L|104:140,3,46.25,2|0|0|0,0:3|0:0|0:0|0:0,0:0:0:0:
96,60,158035,2,0,L|32:60,3,46.25,2|0|0|0,0:3|0:0|0:0|0:0,0:0:0:0:
0,140,158456,2,0,L|64:140,3,46.25,2|0|0|0,0:3|0:0|0:0|0:0,0:0:0:0:
72,220,158877,2,0,L|136:220,3,46.25,2|0|0|0,0:3|0:0|0:0|0:0,0:0:0:0:
16,296,159298,6,0,L|16:372,1,46.25,2|0,0:3|0:0,0:0:0:0:
116,312,159509,2,0,L|154:377,1,46.25
200,272,159719,2,0,L|265:310,1,46.25,2|0,0:3|0:0,0:0:0:0:
256,192,159930,2,0,L|332:191,1,46.25
204,112,160140,6,0,L|204:36,1,46.25,2|0,0:3|0:0,0:0:0:0:
296,100,160351,2,0,L|334:34,1,46.25
380,140,160561,2,0,L|445:102,1,46.25,2|0,0:3|0:0,0:0:0:0:
436,220,160772,2,0,L|512:220,1,46.25
304,292,160983,6,0,L|304:348,3,46.25,2|0|0|0,0:3|0:0|0:0|0:0,0:0:0:0:
400,372,161404,2,0,L|400:320,3,46.25,2|0|0|0,0:3|0:0|0:0|0:0,0:0:0:0:
208,292,161825,2,0,L|208:348,3,46.25,2|0|0|0,0:3|0:0|0:0|0:0,0:0:0:0:
112,372,162246,2,0,L|112:320,3,46.25,2|0|0|0,0:3|0:0|0:0|0:0,0:0:0:0:
256,200,162667,5,2,0:1:0:0:
256,160,162772,1,0,0:0:0:0:
256,120,162877,1,0,0:0:0:0:
256,80,162983,1,0,0:0:0:0:
256,40,163088,2,0,P|224:60|156:60,1,55.4999983062745
164,160,163298,2,0,P|132:180|64:180,1,55.4999983062745
256,200,163509,5,0,0:0:0:0:
256,160,163614,1,0,0:0:0:0:
256,120,163719,1,0,0:0:0:0:
256,80,163825,1,0,0:0:0:0:
256,40,163930,2,0,P|288:60|356:60,1,55.4999983062745
348,160,164140,2,0,P|380:180|448:180,1,55.4999983062745
508,104,164351,5,2,0:3:0:0:
496,128,164456,1,0,0:0:0:0:
492,156,164562,1,0,0:0:0:0:
496,184,164667,1,0,0:0:0:0:
508,208,164772,5,2,0:3:0:0:
485,222,164877,1,0,0:0:0:0:
467,245,164983,1,0,0:0:0:0:
456,271,165088,1,0,0:0:0:0:
448,296,165193,5,2,0:3:0:0:
421,296,165298,1,0,0:0:0:0:
393,307,165404,1,0,0:0:0:0:
371,324,165509,1,0,0:0:0:0:
352,344,165614,6,0,L|288:308,1,55.4999983062745,2|0,0:3|0:0,0:0:0:0:
212,316,165825,2,0,L|163:342,1,55.4999983062745
36,368,166035,5,2,0:1:0:0:
64,340,166140,1,0,0:0:0:0:
76,304,166246,1,0,0:0:0:0:
72,264,166351,1,0,0:0:0:0:
52,232,166456,2,0,P|44:200|56:164,1,55.4999983062745,2|0,0:3|0:0,0:0:0:0:
168,152,166667,2,0,P|176:120|164:84,1,55.4999983062745
88,20,166877,5,2,0:3:0:0:
116,48,166982,1,0,0:0:0:0:
152,60,167088,1,0,0:0:0:0:
192,56,167193,1,0,0:0:0:0:
224,36,167298,2,0,P|256:28|292:40,1,55.4999983062745,2|0,0:3|0:0,0:0:0:0:
304,152,167509,2,0,P|336:160|372:148,1,55.4999983062745
492,88,167719,5,2,0:3:0:0:
492,60,167824,1,0,0:0:0:0:
492,32,167929,1,0,0:0:0:0:
492,4,168034,1,0,0:0:0:0:
456,28,168140,5,2,0:3:0:0:
456,56,168245,1,0,0:0:0:0:
456,84,168350,1,0,0:0:0:0:
456,112,168455,1,0,0:0:0:0:
416,88,168562,5,2,0:3:0:0:
416,60,168667,1,0,0:0:0:0:
416,32,168772,1,0,0:0:0:0:
416,4,168877,1,0,0:0:0:0:
380,28,168983,6,0,L|380:120,1,55.4999983062745,2|0,0:3|0:0,0:0:0:0:
304,152,169193,2,0,L|208:152,1,55.4999983062745
384,208,169404,5,2,0:1:0:0:
400,252,169509,1,0,0:0:0:0:
400,296,169614,1,0,0:0:0:0:
388,340,169719,1,0,0:0:0:0:
360,376,169825,2,0,P|320:380|264:372,1,64.7499980239869
220,276,170035,2,0,P|260:272|316:280,1,64.7499980239869
168,376,170246,5,0,0:0:0:0:
132,345,170351,1,0,0:0:0:0:
110,307,170456,1,0,0:0:0:0:
98,263,170561,1,0,0:0:0:0:
100,216,170667,2,0,L|136:312,1,64.7499980239869
24,216,170877,2,0,L|-12:312,1,64.7499980239869
64,148,171088,6,0,L|64:72,1,64.7499980239869,2|0,0:1|0:0,0:0:0:0:
176,184,171298,1,0,0:0:0:0:
176,184,171404,1,0,0:0:0:0:
176,184,171509,2,0,L|264:184,1,64.7499980239869,2|0,0:3|0:0,0:0:0:0:
244,56,171719,1,0,0:0:0:0:
244,56,171825,1,0,0:0:0:0:
244,56,171930,2,0,L|288:132,1,64.7499980239869,2|0,0:3|0:0,0:0:0:0:
392,56,172140,1,0,0:0:0:0:
392,56,172246,1,0,0:0:0:0:
392,56,172351,2,0,L|347:132,1,64.7499980239869,2|0,0:3|0:0,0:0:0:0:
468,184,172561,1,0,0:0:0:0:
468,184,172667,1,0,0:0:0:0:
468,184,172772,5,2,0:3:0:0:
422,186,172877,1,0,0:0:0:0:
376,186,172982,1,0,0:0:0:0:
330,186,173088,1,0,0:0:0:0:
284,185,173193,5,2,0:3:0:0:
312,235,173298,1,0,0:0:0:0:
317,293,173404,1,0,0:0:0:0:
304,349,173509,1,0,0:0:0:0:
254,377,173614,5,2,0:3:0:0:
208,377,173719,1,0,0:0:0:0:
162,377,173824,1,0,0:0:0:0:
116,377,173930,1,0,0:0:0:0:
70,377,174035,5,2,0:3:0:0:
100,327,174140,1,0,0:0:0:0:
107,268,174246,1,0,0:0:0:0:
91,212,174351,1,0,0:0:0:0:
55,166,174456,6,0,P|36:150|-7:139,2,43.1666653493246,2|0|0,0:1|0:0|0:0,0:0:0:0:
135,52,174667,2,0,P|122:30|85:5,2,43.1666653493246
256,116,174877,5,8,0:3:0:0:
256,196,174983,1,8,0:3:0:0:
257,275,175088,1,8,0:3:0:0:
256,116,175298,5,8,0:3:0:0:
325,160,175404,1,8,0:3:0:0:
391,206,175509,1,8,0:3:0:0:
121,206,175719,5,2,0:3:0:0:
121,206,176140,6,0,B|176:252|176:252|296:276,1,148,4|0,0:1|0:0,0:0:0:0:
324,252,176456,1,0,0:0:0:0:
392,284,176561,1,8,0:3:0:0:
424,352,176667,1,0,0:0:0:0:
352,372,176772,1,0,0:0:0:0:
288,332,176877,1,0,0:0:0:0:
250,266,176983,2,0,P|247:224|256:172,1,74
392,124,177193,2,0,P|388:160|391:197,1,74
476,264,177404,5,8,0:3:0:0:
507,214,177509,1,0,0:0:0:0:
512,155,177614,1,0,0:0:0:0:
500,100,177719,1,0,0:0:0:0:
460,56,177825,6,0,B|388:44|388:44|292:64,1,148
120,180,178246,1,8,0:3:0:0:
120,180,178351,1,0,0:0:0:0:
120,180,178456,1,0,0:0:0:0:
208,52,178667,1,0,0:0:0:0:
208,52,178772,1,0,0:0:0:0:
208,52,178877,1,0,0:0:0:0:
250,266,179088,1,8,0:3:0:0:
250,266,179193,1,0,0:0:0:0:
250,266,179298,1,0,0:0:0:0:
64,84,179509,6,0,B|36:152|36:152|36:248,1,148,4|0,0:1|0:0,0:0:0:0:
80,288,179825,1,0,0:0:0:0:
148,260,179930,1,8,0:3:0:0:
192,200,180036,1,0,0:0:0:0:
260,172,180141,1,0,0:0:0:0:
332,188,180246,1,0,0:0:0:0:
396,224,180352,2,0,P|432:227|469:224,1,74
260,256,180562,2,0,P|256:292|259:329,1,74
385,304,180773,5,8,0:3:0:0:
433,272,180878,1,0,0:0:0:0:
469,224,180983,1,0,0:0:0:0:
476,166,181088,1,0,0:0:0:0:
464,108,181193,6,0,B|440:72|400:64|400:64|376:92|312:88,1,148
96,88,181614,2,0,P|64:76|40:44,2,74,8|0|0,0:3|0:0|0:0,0:0:0:0:
282,131,182035,2,0,P|314:119|338:87,2,74,0|0|0,0:0|0:0|0:0,0:0:0:0:
160,236,182456,2,0,P|128:224|104:192,2,74,8|0|0,0:3|0:0|0:0,0:0:0:0:
368,232,182877,6,0,P|392:308|456:356,1,148,4|0,0:1|0:0,0:0:0:0:
500,304,183193,1,0,0:0:0:0:
432,276,183298,1,8,0:3:0:0:
364,308,183404,1,0,0:0:0:0:
304,352,183509,1,0,0:0:0:0:
232,348,183614,1,0,0:0:0:0:
172,308,183719,2,0,P|144:332|96:344,1,74
41,228,183930,2,0,P|69:204|117:192,1,74
220,164,184140,5,8,0:3:0:0:
204,220,184245,1,0,0:0:0:0:
244,260,184350,1,0,0:0:0:0:
304,256,184455,1,0,0:0:0:0:
336,208,184561,6,0,B|348:168|336:136|336:136|368:120|384:64,1,148
152,56,184983,1,8,0:3:0:0:
157,86,185088,1,0,0:0:0:0:
162,116,185193,1,0,0:0:0:0:
512,56,185404,1,0,0:0:0:0:
507,86,185509,1,0,0:0:0:0:
502,116,185614,1,0,0:0:0:0:
240,24,185825,1,8,0:3:0:0:
245,54,185930,1,0,0:0:0:0:
250,84,186035,1,0,0:0:0:0:
416,208,186246,6,0,B|344:236|344:236|244:236,1,148,4|0,0:1|0:0,0:0:0:0:
204,204,186562,1,0,0:0:0:0:
260,160,186667,1,8,0:3:0:0:
332,180,186773,1,0,0:0:0:0:
352,252,186878,1,0,0:0:0:0:
416,284,186983,1,0,0:0:0:0:
484,256,187088,2,0,P|496:212|480:152,1,74
392,356,187298,2,0,P|348:368|288:352,1,74
192,252,187509,5,8,0:3:0:0:
244,280,187614,1,0,0:0:0:0:
244,340,187719,1,0,0:0:0:0:
196,376,187824,1,0,0:0:0:0:
140,352,187930,6,0,B|88:328|36:340|36:340|12:268,1,148,0|2,0:0|0:3,0:0:0:0:
40,76,188351,1,2,0:3:0:0:
132,264,188561,1,2,0:3:0:0:
256,88,188772,2,0,P|292:72|328:64,2,74
180,168,189193,2,0,P|144:159|110:144,2,74
332,180,189614,6,0,B|400:180|428:144|428:144|420:244|472:264|472:264|504:236|504:168,1,296,4|8,0:1|0:3,0:0:0:0:
180,32,190456,2,0,B|120:56|112:96|112:96|168:88|200:164|168:192|128:212|96:200|88:160,1,296,0|8,0:0|0:3,0:0:0:0:
256,112,191088,6,0,L|256:216,1,74
352,272,191298,2,0,P|240:232|132:300,1,222
4,256,191719,6,8,B|48:204|116:192|116:192|192:176|256:112|256:112|320:176|396:192|396:192|464:204|512:260,1,592,8|8,0:3|0:3,0:3:0:0:
204,344,192983,5,4,0:1:0:0:
256,344,193088,1,0,0:0:0:0:
308,344,193193,1,0,0:0:0:0:
360,344,193298,6,0,L|260:360,1,74,0|8,0:0|0:3,0:0:0:0:
132,320,193509,1,0,0:0:0:0:
184,320,193614,1,0,0:0:0:0:
256,0,194246,5,8,0:3:0:0:
256,80,194351,1,0,0:0:0:0:
256,160,194456,1,0,0:0:0:0:
256,240,194561,1,0,0:0:0:0:
169,46,194772,5,0,0:0:0:0:
168,120,194877,2,0,P|128:56|184:56,1,148,0|8,0:0|0:3,0:0:0:0:
344,196,195298,5,0,0:0:0:0:
368,196,195369,1,0,0:0:0:0:
392,188,195439,1,0,0:0:0:0:
412,176,195509,2,0,L|412:120,2,49.3333333333333
488,208,195719,1,0,0:0:0:0:
496,232,195790,1,0,0:0:0:0:
496,256,195860,2,0,P|472:288|448:300,1,49.3333333333333,0|8,0:0|0:3,0:0:0:0:
136,208,196351,6,0,B|104:212|72:244|68:276|68:276|116:264|164:292|176:344|140:396|80:356|84:324,1,296,4|8,0:1|0:3,0:0:0:0:
305,298,197193,2,0,B|343:312|376:364|376:364|368:312|416:303|416:303|380:248|328:232,1,296,0|8,0:0|0:3,0:0:0:0:
200,70,197825,6,0,L|200:144,1,74
300,160,198035,2,0,B|360:164|408:152|432:80|432:80|432:276|432:276|432:344|376:364|376:364|432:348|536:368,1,592
305,298,199088,2,0,L|248:304,3,49.3333333333333,0|0|0|8,0:0|0:0|0:0|0:3,0:0:0:0:
112,116,199719,5,4,0:1:0:0:
86,161,199824,1,0,0:0:0:0:
60,206,199929,1,0,0:0:0:0:
36,252,200034,6,0,L|144:256,1,74,0|8,0:0|0:3,0:0:0:0:
144,132,200245,1,0,0:0:0:0:
116,176,200350,1,0,0:0:0:0:
344,104,200983,5,8,0:3:0:0:
268,136,201088,1,0,0:0:0:0:
228,200,201193,1,0,0:0:0:0:
240,280,201298,1,0,0:0:0:0:
344,104,201509,5,0,0:0:0:0:
334,183,201614,2,0,P|401:158|421:83,1,148,0|8,0:0|0:3,0:0:0:0:
256,24,202035,1,0,0:0:0:0:
256,24,202140,1,0,0:0:0:0:
256,24,202246,2,0,L|256:112,1,64.7499980239869
168,84,202456,2,0,L|168:172,1,64.7499980239869
0,24,202667,2,0,L|0:112,1,64.7499980239869,8|0,0:3|0:0,0:0:0:0:
88,84,202877,2,0,L|88:172,1,64.7499980239869
144,232,203088,6,0,B|156:280|120:300|120:300|116:348|84:352,1,148,4|0,0:1|0:0,0:0:0:0:
261,224,203509,1,8,0:3:0:0:
308,251,203614,1,0,0:0:0:0:
318,307,203719,1,0,0:0:0:0:
283,353,203824,1,0,0:0:0:0:
224,342,203930,2,0,P|156:328|77:356,1,148
388,364,204351,5,8,0:3:0:0:
460,348,204456,1,0,0:0:0:0:
484,280,204561,1,0,0:0:0:0:
436,220,204667,1,0,0:0:0:0:
412,152,204772,6,0,P|448:92|496:148,1,148
313,180,205193,1,8,0:3:0:0:
305,144,205298,1,0,0:0:0:0:
297,108,205404,1,0,0:0:0:0:
248,4,205614,1,0,0:0:0:0:
248,4,205719,1,0,0:0:0:0:
248,4,205825,1,0,0:0:0:0:
196,104,206035,1,8,0:3:0:0:
188,140,206140,1,0,0:0:0:0:
180,176,206246,1,0,0:0:0:0:
32,272,206456,6,0,B|72:280|104:256|104:256|128:284|180:284,1,148
240,260,206772,1,0,0:0:0:0:
308,288,206877,1,8,0:3:0:0:
380,308,206983,1,0,0:0:0:0:
452,304,207088,2,0,B|460:272|436:244|436:244|336:216,1,148
224,336,207509,1,0,0:0:0:0:
308,144,207719,2,0,P|312:104|296:52,1,74,8|0,0:3|0:0,0:0:0:0:
68,72,207930,2,0,P|64:112|80:164,1,74,0|0,0:3|0:0,0:0:0:0:
188,184,208140,6,0,L|188:12,1,148
192,264,208561,1,8,0:3:0:0:
192,264,208667,1,0,0:0:0:0:
192,264,208772,1,0,0:0:0:0:
360,160,208983,1,2,0:3:0:0:
188,36,209193,1,2,0:3:0:0:
400,192,209404,1,8,0:3:0:0:
328,192,209509,1,0,0:0:0:0:
256,192,209614,1,0,0:0:0:0:
328,44,209825,6,0,L|512:20,1,148,4|0,0:1|0:0,0:0:0:0:
508,76,210140,1,0,0:0:0:0:
484,132,210246,1,0,0:0:0:0:
472,188,210351,1,0,0:0:0:0:
476,248,210456,2,0,P|480:284|497:317,1,74,8|0,0:3|0:0,0:0:0:0:
344,316,210667,2,0,P|307:320|274:337,1,74
424,364,210877,1,0,0:0:0:0:
180,376,211088,1,0,0:0:0:0:
178,317,211193,1,0,0:0:0:0:
204,265,211298,1,0,0:0:0:0:
252,231,211403,1,0,0:0:0:0:
312,220,211509,5,0,0:0:0:0:
244,192,211614,1,0,0:0:0:0:
172,196,211719,1,8,0:3:0:0:
274,337,211930,1,0,0:0:0:0:
108,232,212140,1,0,0:0:0:0:
220,64,212351,2,0,L|296:56,2,74
80,264,212772,2,0,L|4:272,2,74
256,192,213193,6,0,L|264:100,2,74,4|0|0,0:1|0:0|0:0,0:0:0:0:
320,232,213509,1,0,0:0:0:0:
392,232,213614,1,8,0:3:0:0:
452,188,213719,1,0,0:0:0:0:
436,116,213825,2,0,P|396:96|348:96,1,74
192,76,214035,2,0,P|228:70|260:53,2,74
40,224,214456,1,8,0:3:0:0:
108,196,214561,1,0,0:0:0:0:
184,200,214667,1,0,0:0:0:0:
248,232,214772,1,0,0:0:0:0:
300,284,214877,6,0,B|301:323|277:359|277:359|249:403,2,74
436,124,215298,1,8,0:3:0:0:
419,118,215368,1,0,0:0:0:0:
402,115,215438,1,0,0:0:0:0:
384,115,215508,1,0,0:0:0:0:
368,117,215578,1,0,0:0:0:0:
351,121,215648,1,0,0:0:0:0:
336,129,215719,5,12,0:3:0:0:
350,149,215789,1,0,0:0:0:0:
360,171,215859,1,0,0:0:0:0:
367,196,215929,1,0,0:0:0:0:
371,219,215999,1,0,0:0:0:0:
372,244,216069,1,0,0:0:0:0:
364,269,216140,5,12,0:3:0:0:
342,254,216210,1,4,0:3:0:0:
321,245,216280,1,4,0:3:0:0:
296,237,216350,1,4,0:3:0:0:
273,233,216420,1,4,0:3:0:0:
248,232,216490,1,4,0:3:0:0:
224,240,216561,6,0,L|216:148,1,64.7499980239869,4|0,0:2|0:0,0:0:0:0:
128,80,216772,2,0,L|120:152,1,64.7499980239869
17,240,216983,2,0,L|25:148,1,64.7499980239869,8|0,0:3|0:0,0:0:0:0:
113,80,217194,2,0,L|121:152,1,64.7499980239869
116,304,217404,2,0,P|180:292|268:316,1,129.499996047974
316,356,217719,1,0,0:0:0:0:
316,356,217825,2,0,P|380:368|468:344,1,129.499996047974,8|0,0:3|0:0,0:0:0:0:
504,292,218140,1,0,0:0:0:0:
504,292,218246,6,0,B|452:264|452:264|372:264,1,129.499996047974
208,128,218667,1,8,0:3:0:0:
236,140,218772,1,0,0:0:0:0:
264,152,218877,2,0,L|304:220,1,64.7499980239869
228,343,219088,1,0,0:0:0:0:
199,354,219193,1,0,0:0:0:0:
172,363,219298,2,0,L|92:323,1,64.7499980239869
56,196,219509,1,8,0:3:0:0:
88,184,219614,1,0,0:0:0:0:
120,172,219719,2,0,L|196:208,1,64.7499980239869
104,80,219930,6,0,P|72:80|40:88,2,64.7499980239869
160,96,220246,1,0,0:0:0:0:
216,104,220351,1,8,0:3:0:0:
272,92,220456,1,0,0:0:0:0:
324,68,220561,1,0,0:0:0:0:
380,60,220667,1,0,0:0:0:0:
436,72,220772,2,0,B|372:104|372:104|336:172,1,129.499996047974
256,352,221193,6,0,L|204:276,1,64.7499980239869,8|0,0:3|0:0,0:0:0:0:
348,288,221404,2,0,L|334:224,1,64.7499980239869
456,236,221614,2,0,L|456:152,2,64.7499980239869
256,196,222035,6,0,L|176:156,2,64.7499980239869,8|0|0,0:3|0:0|0:0,0:0:0:0:
324,64,222456,1,8,0:3:0:0:
352,64,222561,2,0,L|432:52,1,64.7499980239869,8|0,0:3|0:0,0:0:0:0:
188,64,222877,1,8,0:3:0:0:
164,64,222983,2,0,L|80:48,1,64.7499980239869,8|0,0:3|0:0,0:0:0:0:
256,196,223298,6,0,B|272:288|168:368|168:368|288:300|380:328,1,370,8|0,0:0|0:0,0:0:0:0:
440,320,223930,2,0,B|524:324|524:324|392:248,1,222,8|0,0:0|0:0,0:0:0:0:
332,168,224351,2,0,L|332:94,1,74,8|0,0:0|0:0,0:0:0:0:
444,48,224561,2,0,P|416:132|220:44,1,370,8|0,0:0|0:0,0:0:0:0:
148,72,225193,5,0,0:0:0:0:
168,144,225298,1,0,0:0:0:0:
216,204,225404,1,0,0:0:0:0:
284,236,225509,1,0,0:0:0:0:
356,244,225614,2,0,L|212:296,1,129.499996047974,0|8,0:0|0:3,0:0:0:0:
144,336,225930,1,0,0:0:0:0:
144,336,226035,2,0,L|288:388,1,129.499996047974
276,320,226351,5,0,0:0:0:0:
256,264,226456,1,0,0:0:0:0:
208,232,226561,1,0,0:0:0:0:
152,212,226667,2,0,P|84:220|20:284,1,129.499996047974
80,313,226983,5,0,0:0:0:0:
112,317,227088,1,8,0:3:0:0:
144,321,227193,1,0,0:0:0:0:
216,333,227298,1,0,0:0:0:0:
184,337,227403,1,0,0:0:0:0:
152,341,227509,2,0,L|152:205,1,129.499996047974
248,8,227930,6,0,P|240:48|216:84,1,64.7499980239869
328,92,228140,2,0,P|301:122|262:141,1,64.7499980239869
376,208,228351,2,0,P|337:221|294:218,1,64.7499980239869
352,328,228561,2,0,P|311:319|275:296,1,64.7499980239869
228,240,228772,5,0,3:0:0:0:
180,292,228877,2,0,L|200:324,1,32.3749990119934,0|0,3:0|0:0,3:0:0:0:
108,307,228983,1,0,3:0:0:0:
38,294,229088,1,0,3:0:0:0:
5,230,229193,1,0,3:0:0:0:
52,178,229298,1,0,3:0:0:0:
122,168,229404,1,0,3:0:0:0:
193,167,229509,1,0,3:0:0:0:
256,134,229614,1,0,3:0:0:0:
256,62,229719,1,0,3:0:0:0:
192,29,229825,1,0,3:0:0:0:
127,58,229930,1,0,3:0:0:0:
132,128,230035,6,0,P|180:188|268:204,1,157.250002999306,4|0,0:2|0:0,0:0:0:0:
320,176,230351,1,0,0:0:0:0:
392,180,230456,1,0,0:0:0:0:
448,224,230561,1,0,0:0:0:0:
464,292,230667,1,0,0:0:0:0:
432,356,230772,1,0,0:0:0:0:
364,376,230877,2,0,P|288:344|256:256,1,157.250002999306,8|0,0:3|0:0,0:0:0:0:
336,24,231298,6,0,P|328:68|344:124,1,78.6250014996529
364,192,231509,1,0,0:3:0:0:
364,192,231614,1,0,0:3:0:0:
382,101,231719,2,0,P|387:62|379:23,1,78.6250014996529
274,76,231930,6,0,B|144:88|144:88|36:58,1,194.249994071961,8|0,0:3|0:0,0:0:0:0:
152,20,232351,2,0,B|180:88|127:138|127:138|124:232,1,194.249994071961
204,228,232772,2,0,P|128:236|136:340,1,194.249994071961
216,312,233193,6,0,B|256:260|256:260|268:204|268:204|320:120,1,185
312,64,233719,6,0,P|326:129|484:162,1,235.875004498959,2|0,0:1|0:0,0:0:0:0:
436,84,234140,1,0,0:0:0:0:
436,84,234246,2,0,P|396:112|368:152,1,78.6250014996529,8|0,0:3|0:0,0:0:0:0:
364,204,234456,1,0,0:0:0:0:
400,264,234561,1,0,0:0:0:0:
468,296,234667,2,0,P|388:340|320:256,1,157.250002999306
304,248,234983,1,0,0:0:0:0:
304,248,235088,5,8,0:3:0:0:
208,32,235298,1,8,0:3:0:0:
472,170,235509,1,0,0:0:0:0:
296,124,235719,1,0,0:0:0:0:
228,144,235825,1,0,0:0:0:0:
176,192,235930,2,0,P|92:204|36:156,1,157.250002999306
32,104,236211,5,0,0:0:0:0:
44,88,236281,1,0,0:0:0:0:
56,72,236351,1,8,0:3:0:0:
152,268,236561,1,0,0:0:0:0:
300,92,236772,6,0,P|228:48|156:92,1,157.250002999306,2|0,0:1|0:0,0:0:0:0:
255,232,237193,2,0,L|367:268,1,78.6250014996529
255,304,237404,2,0,L|139:340,1,78.6250014996529
255,376,237614,1,8,0:3:0:0:
254,157,237825,1,0,0:0:0:0:
346,326,238035,1,0,0:0:0:0:
390,342,238140,1,0,0:0:0:0:
435,356,238246,5,4,0:3:0:0:
464,291,238351,1,4,0:3:0:0:
467,220,238456,1,4,0:3:0:0:
451,151,238561,1,4,0:3:0:0:
406,95,238667,2,0,P|354:108|399:181,1,157.250002999306,4|0,0:3|0:0,0:0:0:0:
496,21,239088,1,0,0:0:0:0:
257,21,239298,2,0,P|237:97|138:142,1,157.250002999306
124,124,239579,5,0,0:0:0:0:
106,114,239649,1,0,0:0:0:0:
89,103,239719,1,8,0:3:0:0:
160,40,239930,1,0,0:0:0:0:
124,232,240140,6,0,P|154:294|243:306,1,157.250002999306,2|0,0:1|0:0,0:0:0:0:
313,142,240561,2,0,L|345:229,1,78.6250014996529
512,144,240772,2,0,L|483:267,1,78.6250014996529
418,280,240983,2,0,L|416:201,1,78.6250014996529,8|0,0:3|0:3,0:3:0:0:
412,120,241193,1,0,0:0:0:0:
491,320,241404,6,0,P|458:352|426:363,1,78.6250014996529
256,360,241614,2,0,P|219:346|184:304,1,78.6250014996529
340,215,241825,2,0,L|340:294,1,78.6250014996529
340,376,242035,1,0,0:0:0:0:
124,364,242246,1,0,0:0:0:0:
224,208,242456,5,4,0:3:0:0:
236,140,242561,1,4,0:3:0:0:
204,76,242666,1,4,0:3:0:0:
140,48,242771,1,4,0:3:0:0:
68,56,242877,2,0,L|52:140,1,78.6250014996529,4|0,0:3|0:0,0:0:0:0:
167,146,243088,5,4,0:3:0:0:
236,140,243193,1,4,0:3:0:0:
289,92,243298,1,4,0:3:0:0:
299,23,243403,1,4,0:3:0:0:
228,4,243509,2,0,B|204:76|204:76|204:192,1,157.250002999306,2|0,0:1|0:0,0:0:0:0:
280,244,243825,6,0,P|184:196|124:280,1,194.249994071961
328,328,244351,2,0,B|404:320|404:320|472:332|472:332|528:328,1,194.249994071961,8|0,0:3|0:0,0:0:0:0:
448,240,244772,2,0,B|424:144|424:144|448:44,1,194.249994071961
512,144,245193,1,0,0:0:0:0:
272,132,245404,2,0,P|239:95|340:112,1,258.999992095948
236,232,246035,6,0,B|172:212|172:212|24:232,1,194.249994071961,8|0,0:3|0:0,0:0:0:0:
168,296,246456,2,0,B|232:316|232:316|358:298,1,194.249994071961
426,234,246877,2,0,B|362:214|362:214|235:231,1,194.249994071961
