osu file format v14

[General]
AudioFilename: audio.ogg
AudioLeadIn: 0
PreviewTime: 538689
Countdown: 0
SampleSet: Soft
StackLeniency: 0.7
Mode: 0
LetterboxInBreaks: 0
WidescreenStoryboard: 1

[Editor]
Bookmarks: 39416,59142,69005,78868,88731,98594,108457,115854,123251,130648,138046,149280,149694,150799,152526,154184,155842,157431,159088,160746,162404,164062,185956,199430,212904,226377,239851,253325,266798,280272,293746,307219,319851,334167,346797,359429,371429,386586,405534,427005,428005,428900,429847,430847,431795,432689,433584,434584,435531,436531,437479,438374,439321,440268,441321,442163,443110,444058,445005,445952,461110,476268,491426,506584,521742,536900,537900,538689,538742,538795,539742,554900,570058,585216,600374,615531,625636,635741,650898,666056,682162,693530,704898,719109,734267,752267,767425,778793,788267
DistanceSpacing: 2.9
BeatDivisor: 3
GridSize: 32
TimelineZoom: 1.764

[Metadata]
Title:Sons of Winter and Stars
TitleUnicode:Sons of Winter and Stars
Artist:Wintersun
ArtistUnicode:Wintersun
Creator:SaltyLucario
Version:Lost in the Pathways of Time
Source:
Tags:saltking salty itswinter silence player verychill symphonic melodic death metal melodeath progressive english epic time i 1.5 chinese folk marathon gungathon Jari Mäenpää Maenpaa Teemu Mäntysaari Mantysaari Jukka Koskinen Kai Hahto Alpha Valtias Mustatuuli finland rain of stars surrounded by darkness journey inside a dream Mathias Nygård Nygard Olli Vänskä Vanska Jukka-Pekka Miettinen Markus Toivonen Sami Hinkka Heri Joensen Mikko Salovaara
BeatmapID:3609961
BeatmapSetID:1763708

[Difficulty]
HPDrainRate:5
CircleSize:4.2
OverallDifficulty:9.5
ApproachRate:9.9
SliderMultiplier:2.2
SliderTickRate:1

[Events]
//Background and Video events
0,0,"bg.jpg",0,0
//Break Periods
2,157845,163597
2,438573,444855
2,506783,538329
//Storyboard Layer 0 (Background)
//Storyboard Layer 1 (Fail)
//Storyboard Layer 2 (Pass)
//Storyboard Layer 3 (Foreground)
//Storyboard Layer 4 (Overlay)
//Storyboard Sound Samples

[TimingPoints]
9827,410.958904109589,3,2,1,70,1,0
39416,-250,3,2,1,70,0,0
41881,-58.8235294117647,3,2,1,70,0,1
42224,-100,3,2,99,5,0,1
42292,-58.8235294117647,3,2,1,70,0,1
42772,-100,3,2,99,5,0,1
43114,-250.000000000001,3,2,1,70,0,1
43525,-100,3,2,99,5,0,1
44347,-250,3,2,2,70,0,0
46813,-58.8235294117647,3,2,1,70,0,1
47155,-100,3,2,99,5,0,1
47224,-58.8235294117647,3,2,1,70,0,1
47703,-100,3,2,99,5,0,1
48046,-166.666666666667,3,2,1,70,0,1
48388,-100,3,2,99,5,0,1
48457,-100,3,2,2,70,0,0
48594,-100,3,2,1,70,0,0
48868,-100,3,2,3,70,0,0
49279,-55.5555555555556,3,2,3,70,0,0
49621,-55.5555555555556,3,2,99,5,0,0
49690,-100,3,2,2,70,0,0
49758,-100,3,2,1,70,0,0
49827,-100,3,2,2,70,0,0
49895,-100,3,2,1,70,0,0
49963,-100,3,2,2,70,0,0
50032,-100,3,2,1,70,0,0
50100,-100,3,2,2,70,0,0
50169,-100,3,2,1,70,0,0
50237,-100,3,2,2,70,0,0
50306,-100,3,2,1,70,0,0
50374,-100,3,2,2,70,0,0
50443,-100,3,2,1,70,0,0
50511,-100,3,2,2,70,0,0
50580,-100,3,2,1,70,0,0
50648,-100,3,2,2,70,0,0
50717,-100,3,2,1,70,0,0
50785,-100,3,2,2,70,0,0
50854,-100,3,2,1,70,0,0
50922,-100,3,2,2,70,0,0
50991,-100,3,2,1,70,0,0
51059,-100,3,2,2,70,0,0
51128,-100,3,2,1,70,0,0
51196,-100,3,2,2,70,0,0
51265,-100,3,2,1,70,0,0
51333,-76.9230769230769,3,2,2,70,0,0
51402,-76.9230769230769,3,2,1,70,0,0
51470,-76.9230769230769,3,2,2,70,0,0
51539,-76.9230769230769,3,2,1,70,0,0
51607,-76.9230769230769,3,2,2,70,0,0
51676,-76.9230769230769,3,2,5,70,0,0
51744,-100,3,2,5,70,0,0
51881,-100,3,2,2,70,0,0
51950,-100,3,2,1,70,0,0
52018,-100,3,2,2,70,0,0
52087,-100,3,2,1,70,0,0
52155,-100,3,2,4,70,0,0
52224,-100,3,2,1,70,0,0
52292,-100,3,2,2,70,0,0
52361,-100,3,2,1,70,0,0
52429,-100,3,2,2,70,0,0
52498,-100,3,2,1,70,0,0
52566,-100,3,2,2,70,0,0
52635,-100,3,2,1,70,0,0
52703,-100,3,2,2,70,0,0
52772,-100,3,2,1,70,0,0
52840,-100,3,2,2,70,0,0
52909,-100,3,2,1,70,0,0
53114,-100,3,2,2,70,0,0
53183,-100,3,2,1,70,0,0
53251,-100,3,2,2,70,0,0
53320,-100,3,2,1,70,0,0
53388,-100,3,2,2,70,0,0
53457,-100,3,2,1,70,0,0
53525,-100,3,2,2,70,0,0
53594,-100,3,2,1,70,0,0
53662,-100,3,2,2,70,0,0
53731,-100,3,2,1,70,0,0
53799,-100,3,2,2,70,0,0
53868,-100,3,2,1,70,0,0
53936,-100,3,2,2,70,0,0
54005,-100,3,2,1,70,0,0
54073,-100,3,2,2,70,0,0
54142,-100,3,2,1,70,0,0
54347,-100,3,2,2,70,0,0
54416,-100,3,2,1,70,0,0
54484,-100,3,2,2,70,0,0
54553,-100,3,2,1,70,0,0
54621,-100,3,2,2,70,0,0
54690,-100,3,2,1,70,0,0
54758,-100,3,2,2,70,0,0
54827,-100,3,2,1,70,0,0
54895,-100,3,2,2,70,0,0
54963,-100,3,2,1,70,0,0
55032,-100,3,2,4,70,0,0
55100,-100,3,2,1,70,0,0
55169,-100,3,2,2,70,0,0
55237,-100,3,2,1,70,0,0
55306,-100,3,2,2,70,0,0
55374,-100,3,2,1,70,0,0
55443,-100,3,2,2,70,0,0
55511,-100,3,2,1,70,0,0
55580,-100,3,2,2,70,0,0
55648,-100,3,2,1,70,0,0
55717,-100,3,2,2,70,0,0
55785,-100,3,2,5,70,0,0
55854,-55.5555555555556,3,2,5,70,0,0
55991,-55.5555555555556,3,2,2,70,0,0
56059,-55.5555555555556,3,2,1,70,0,0
56128,-76.9230769230769,3,2,4,70,0,0
56196,-76.9230769230769,3,2,1,70,0,0
56265,-76.9230769230769,3,2,4,70,0,0
56333,-76.9230769230769,3,2,1,70,0,0
56402,-76.9230769230769,3,2,2,70,0,0
56470,-76.9230769230769,3,2,1,70,0,0
56539,-76.9230769230769,3,2,2,70,0,0
56607,-76.9230769230769,3,2,1,70,0,0
56676,-100,3,2,1,70,0,0
56813,-100,3,2,2,70,0,0
56881,-100,3,2,1,70,0,0
56950,-100,3,2,2,70,0,0
57018,-100,3,2,1,70,0,0
57087,-100,3,2,2,70,0,0
57155,-100,3,2,1,70,0,0
57224,-100,3,2,2,70,0,0
57292,-100,3,2,1,70,0,0
57361,-100,3,2,2,70,0,0
57429,-100,3,2,1,70,0,0
57498,-100,3,2,4,70,0,0
58320,-100,3,2,3,70,0,0
58731,-76.9230769230769,3,2,2,70,0,0
59142,-50,3,2,1,70,0,0
59553,-66.6666666666667,3,2,5,70,0,0
59690,-66.6666666666667,3,2,2,70,0,0
59758,-66.6666666666667,3,2,1,70,0,0
59827,-66.6666666666667,3,2,2,70,0,0
59895,-66.6666666666667,3,2,1,70,0,0
59963,-66.6666666666667,3,2,2,70,0,0
60032,-66.6666666666667,3,2,1,70,0,0
60100,-66.6666666666667,3,2,2,70,0,0
60169,-66.6666666666667,3,2,1,70,0,0
60237,-66.6666666666667,3,2,2,70,0,0
60306,-66.6666666666667,3,2,1,70,0,0
60374,-66.6666666666667,3,2,4,70,0,0
60443,-66.6666666666667,3,2,1,70,0,0
60511,-66.6666666666667,3,2,2,70,0,0
60580,-66.6666666666667,3,2,1,70,0,0
60648,-66.6666666666667,3,2,2,70,0,0
60717,-66.6666666666667,3,2,1,70,0,0
60785,-66.6666666666667,3,2,2,70,0,0
60854,-66.6666666666667,3,2,1,70,0,0
60922,-66.6666666666667,3,2,2,70,0,0
60991,-66.6666666666667,3,2,1,70,0,0
61059,-66.6666666666667,3,2,2,70,0,0
61128,-66.6666666666667,3,2,1,70,0,0
61196,-66.6666666666667,3,2,4,70,0,0
61265,-66.6666666666667,3,2,1,70,0,0
61333,-66.6666666666667,3,2,2,70,0,0
61402,-66.6666666666667,3,2,1,70,0,0
61470,-66.6666666666667,3,2,2,70,0,0
61539,-66.6666666666667,3,2,1,70,0,0
61607,-66.6666666666667,3,2,4,70,0,0
61676,-66.6666666666667,3,2,1,70,0,0
61744,-66.6666666666667,3,2,2,70,0,0
61813,-66.6666666666667,3,2,1,70,0,0
61881,-66.6666666666667,3,2,2,70,0,0
61950,-66.6666666666667,3,2,1,70,0,0
62018,-66.6666666666667,3,2,2,70,0,0
62087,-66.6666666666667,3,2,1,70,0,0
62155,-66.6666666666667,3,2,2,70,0,0
62224,-66.6666666666667,3,2,1,70,0,0
62292,-66.6666666666667,3,2,2,70,0,0
62361,-66.6666666666667,3,2,1,70,0,0
62429,-66.6666666666667,3,2,4,70,0,0
62498,-66.6666666666667,3,2,1,70,0,0
62566,-66.6666666666667,3,2,2,70,0,0
62635,-66.6666666666667,3,2,1,70,0,0
62703,-66.6666666666667,3,2,4,70,0,0
62772,-66.6666666666667,3,2,1,70,0,0
62840,-66.6666666666667,3,2,4,70,0,0
62909,-66.6666666666667,3,2,1,70,0,0
62977,-66.6666666666667,3,2,2,70,0,0
63046,-66.6666666666667,3,2,1,70,0,0
63114,-66.6666666666667,3,2,2,70,0,0
63183,-66.6666666666667,3,2,1,70,0,0
63251,-66.6666666666667,3,2,4,70,0,0
63320,-66.6666666666667,3,2,1,70,0,0
63388,-66.6666666666667,3,2,2,70,0,0
63457,-66.6666666666667,3,2,1,70,0,0
63525,-66.6666666666667,3,2,2,70,0,0
63594,-66.6666666666667,3,2,5,70,0,0
63799,-66.6666666666667,3,2,2,70,0,0
63868,-66.6666666666667,3,2,1,70,0,0
63936,-66.6666666666667,3,2,2,70,0,0
64005,-66.6666666666667,3,2,1,70,0,0
64210,-66.6666666666667,3,2,2,70,0,0
64279,-66.6666666666667,3,2,1,70,0,0
64347,-66.6666666666667,3,2,2,70,0,0
64416,-66.6666666666667,3,2,1,70,0,0
64484,-66.6666666666667,3,2,2,70,0,0
64553,-66.6666666666667,3,2,1,70,0,0
64621,-66.6666666666667,3,2,2,70,0,0
64690,-66.6666666666667,3,2,1,70,0,0
64758,-66.6666666666667,3,2,2,70,0,0
64827,-66.6666666666667,3,2,1,70,0,0
64895,-66.6666666666667,3,2,4,70,0,0
64963,-66.6666666666667,3,2,1,70,0,0
65032,-66.6666666666667,3,2,2,70,0,0
65100,-66.6666666666667,3,2,1,70,0,0
65169,-66.6666666666667,3,2,2,70,0,0
65237,-66.6666666666667,3,2,5,70,0,0
65443,-66.6666666666667,3,2,2,70,0,0
65511,-66.6666666666667,3,2,1,70,0,0
65580,-66.6666666666667,3,2,2,70,0,0
65648,-66.6666666666667,3,2,1,70,0,0
65717,-66.6666666666667,3,2,4,70,0,0
65785,-66.6666666666667,3,2,1,70,0,0
65854,-66.6666666666667,3,2,2,70,0,0
65922,-66.6666666666667,3,2,1,70,0,0
65991,-66.6666666666667,3,2,2,70,0,0
66059,-66.6666666666667,3,2,5,70,0,0
66265,-66.6666666666667,3,2,2,70,0,0
66333,-66.6666666666667,3,2,1,70,0,0
66402,-66.6666666666667,3,2,2,70,0,0
66470,-66.6666666666667,3,2,1,70,0,0
66539,-50,3,2,1,70,0,0
66676,-50,3,2,2,70,0,0
66744,-50,3,2,1,70,0,0
66813,-50,3,2,2,70,0,0
66881,-50,3,2,1,70,0,0
66950,-50,3,2,4,70,0,0
67018,-50,3,2,1,70,0,0
67087,-50,3,2,4,70,0,0
67155,-50,3,2,1,70,0,0
67224,-50,3,2,4,70,0,0
67292,-50,3,2,5,70,0,0
67635,-50,3,2,3,70,0,0
68731,-50,3,2,2,70,0,0
69005,-50,3,2,1,70,0,0
69416,-100,3,2,1,70,0,0
69553,-100,3,2,2,70,0,0
69621,-100,3,2,1,70,0,0
69690,-100,3,2,2,70,0,0
69758,-100,3,2,1,70,0,0
69827,-58.8235294117647,3,2,1,70,0,0
69963,-58.8235294117647,3,2,2,70,0,0
70032,-58.8235294117647,3,2,1,70,0,0
70100,-58.8235294117647,3,2,2,70,0,0
70169,-58.8235294117647,3,2,1,70,0,0
70374,-58.8235294117647,3,2,2,70,0,0
70443,-58.8235294117647,3,2,1,70,0,0
70511,-58.8235294117647,3,2,2,70,0,0
70580,-58.8235294117647,3,2,1,70,0,0
70648,-58.8235294117647,3,2,4,70,0,0
70717,-58.8235294117647,3,2,1,70,0,0
70785,-58.8235294117647,3,2,2,70,0,0
70854,-58.8235294117647,3,2,1,70,0,0
70922,-58.8235294117647,3,2,2,70,0,0
70991,-58.8235294117647,3,2,1,70,0,0
71059,-58.8235294117647,3,2,4,70,0,0
71128,-58.8235294117647,3,2,1,70,0,0
71196,-58.8235294117647,3,2,2,70,0,0
71265,-58.8235294117647,3,2,1,70,0,0
71333,-58.8235294117647,3,2,2,70,0,0
71402,-58.8235294117647,3,2,1,70,0,0
71607,-58.8235294117647,3,2,2,70,0,0
71676,-58.8235294117647,3,2,1,70,0,0
71744,-58.8235294117647,3,2,2,70,0,0
71813,-58.8235294117647,3,2,1,70,0,0
71881,-58.8235294117647,3,2,2,70,0,0
71950,-58.8235294117647,3,2,1,70,0,0
72018,-58.8235294117647,3,2,2,70,0,0
72087,-58.8235294117647,3,2,1,70,0,0
72155,-58.8235294117647,3,2,2,70,0,0
72224,-58.8235294117647,3,2,5,70,0,0
72292,-50,3,2,5,70,0,0
72429,-50,3,2,2,70,0,0
72498,-50,3,2,1,70,0,0
72566,-50,3,2,2,70,0,0
72635,-50,3,2,1,70,0,0
72703,-58.8235294117647,3,2,1,70,0,0
72840,-58.8235294117647,3,2,2,70,0,0
72909,-58.8235294117647,3,2,1,70,0,0
72977,-58.8235294117647,3,2,2,70,0,0
73046,-58.8235294117647,3,2,1,70,0,0
73114,-58.8235294117647,3,2,4,70,0,0
73183,-58.8235294117647,3,2,1,70,0,0
73251,-58.8235294117647,3,2,2,70,0,0
73320,-58.8235294117647,3,2,1,70,0,0
73388,-58.8235294117647,3,2,2,70,0,0
73457,-58.8235294117647,3,2,1,70,0,0
73525,-74.0740740740741,3,2,4,70,0,0
73594,-74.0740740740741,3,2,1,70,0,0
73662,-74.0740740740741,3,2,2,70,0,0
73731,-74.0740740740741,3,2,1,70,0,0
73799,-74.0740740740741,3,2,2,70,0,0
73868,-74.0740740740741,3,2,1,70,0,0
73936,-58.8235294117647,3,2,1,70,0,0
74073,-58.8235294117647,3,2,2,70,0,0
74142,-58.8235294117647,3,2,1,70,0,0
74210,-58.8235294117647,3,2,2,70,0,0
74279,-58.8235294117647,3,2,1,70,0,0
74347,-74.0740740740741,3,2,1,70,0,0
74484,-74.0740740740741,3,2,2,70,0,0
74553,-74.0740740740741,3,2,1,70,0,0
74621,-74.0740740740741,3,2,2,70,0,0
74690,-74.0740740740741,3,2,1,70,0,0
74758,-58.8235294117647,3,2,4,70,0,0
74827,-58.8235294117647,3,2,1,70,0,0
74895,-58.8235294117647,3,2,2,70,0,0
74963,-58.8235294117647,3,2,1,70,0,0
75032,-58.8235294117647,3,2,2,70,0,0
75100,-58.8235294117647,3,2,1,70,0,0
75169,-58.8235294117647,3,2,4,70,0,0
75237,-58.8235294117647,3,2,1,70,0,0
75306,-58.8235294117647,3,2,2,70,0,0
75374,-58.8235294117647,3,2,1,70,0,0
75443,-58.8235294117647,3,2,2,70,0,0
75511,-58.8235294117647,3,2,1,70,0,0
75580,-58.8235294117647,3,2,4,70,0,0
75648,-58.8235294117647,3,2,1,70,0,0
75717,-58.8235294117647,3,2,2,70,0,0
75785,-58.8235294117647,3,2,1,70,0,0
75854,-58.8235294117647,3,2,2,70,0,0
75922,-58.8235294117647,3,2,1,70,0,0
75991,-50,3,2,4,70,0,0
76059,-50,3,2,1,70,0,0
76128,-50,3,2,4,70,0,0
76196,-50,3,2,1,70,0,0
76265,-50,3,2,4,70,0,0
76333,-50,3,2,1,70,0,0
76402,-58.8235294117647,3,2,1,70,0,0
76539,-58.8235294117647,3,2,2,70,0,0
76607,-58.8235294117647,3,2,1,70,0,0
76676,-58.8235294117647,3,2,2,70,0,0
76744,-58.8235294117647,3,2,1,70,0,0
76813,-58.8235294117647,3,2,2,70,0,0
76881,-58.8235294117647,3,2,1,70,0,0
76950,-58.8235294117647,3,2,2,70,0,0
77018,-58.8235294117647,3,2,1,70,0,0
77087,-58.8235294117647,3,2,2,70,0,0
77155,-58.8235294117647,3,2,5,70,0,0
77224,-50,3,2,5,70,0,0
77361,-50,3,2,2,70,0,0
77429,-50,3,2,1,70,0,0
77498,-50,3,2,2,70,0,0
77566,-50,3,2,1,70,0,0
77635,-58.8235294117647,3,2,1,70,0,0
78046,-58.8235294117647,3,2,3,70,0,0
78183,-58.8235294117647,3,2,2,70,0,0
78320,-58.8235294117647,3,2,3,70,0,0
78457,-100,3,2,2,70,0,0
78868,-50,3,2,1,70,0,0
79279,-76.9230769230769,3,2,2,70,0,0
79347,-76.9230769230769,3,2,1,70,0,0
79416,-76.9230769230769,3,2,2,70,0,0
79484,-76.9230769230769,3,2,1,70,0,0
79553,-76.9230769230769,3,2,2,70,0,0
79621,-76.9230769230769,3,2,1,70,0,0
79690,-76.9230769230769,3,2,4,70,0,0
79758,-76.9230769230769,3,2,1,70,0,0
79827,-76.9230769230769,3,2,2,70,0,0
79895,-76.9230769230769,3,2,1,70,0,0
79963,-76.9230769230769,3,2,2,70,0,0
80032,-76.9230769230769,3,2,1,70,0,0
80100,-76.9230769230769,3,2,4,70,0,0
80169,-76.9230769230769,3,2,1,70,0,0
80237,-76.9230769230769,3,2,2,70,0,0
80306,-76.9230769230769,3,2,1,70,0,0
80374,-76.9230769230769,3,2,2,70,0,0
80443,-76.9230769230769,3,2,1,70,0,0
80511,-66.6666666666667,3,2,2,70,0,0
80580,-66.6666666666667,3,2,1,70,0,0
80648,-66.6666666666667,3,2,2,70,0,0
80717,-66.6666666666667,3,2,1,70,0,0
80785,-66.6666666666667,3,2,2,70,0,0
80854,-66.6666666666667,3,2,1,70,0,0
80922,-66.6666666666667,3,2,4,70,0,0
80991,-66.6666666666667,3,2,1,70,0,0
81059,-66.6666666666667,3,2,2,70,0,0
81128,-66.6666666666667,3,2,1,70,0,0
81196,-66.6666666666667,3,2,2,70,0,0
81265,-66.6666666666667,3,2,1,70,0,0
81470,-66.6666666666667,3,2,2,70,0,0
81539,-66.6666666666667,3,2,1,70,0,0
81607,-66.6666666666667,3,2,2,70,0,0
81676,-66.6666666666667,3,2,1,70,0,0
81744,-66.6666666666667,3,2,2,70,0,0
81813,-66.6666666666667,3,2,1,70,0,0
81881,-66.6666666666667,3,2,2,70,0,0
81950,-66.6666666666667,3,2,1,70,0,0
82018,-66.6666666666667,3,2,2,70,0,0
82087,-66.6666666666667,3,2,5,70,0,0
82155,-50,3,2,5,70,0,0
82292,-50,3,2,2,70,0,0
82361,-50,3,2,1,70,0,0
82429,-50,3,2,2,70,0,0
82498,-50,3,2,1,70,0,0
82566,-76.9230769230769,3,2,1,70,0,0
82703,-76.9230769230769,3,2,2,70,0,0
82772,-76.9230769230769,3,2,1,70,0,0
82840,-76.9230769230769,3,2,2,70,0,0
82909,-76.9230769230769,3,2,1,70,0,0
82977,-76.9230769230769,3,2,2,70,0,0
83046,-76.9230769230769,3,2,1,70,0,0
83114,-76.9230769230769,3,2,4,70,0,0
83183,-76.9230769230769,3,2,1,70,0,0
83251,-76.9230769230769,3,2,4,70,0,0
83320,-76.9230769230769,3,2,1,70,0,0
83388,-76.9230769230769,3,2,2,70,0,0
83457,-76.9230769230769,3,2,1,70,0,0
83525,-76.9230769230769,3,2,4,70,0,0
83594,-76.9230769230769,3,2,1,70,0,0
83662,-76.9230769230769,3,2,4,70,0,0
83731,-76.9230769230769,3,2,1,70,0,0
83936,-76.9230769230769,3,2,2,70,0,0
84005,-76.9230769230769,3,2,1,70,0,0
84073,-76.9230769230769,3,2,2,70,0,0
84142,-76.9230769230769,3,2,1,70,0,0
84210,-76.9230769230769,3,2,2,70,0,0
84279,-76.9230769230769,3,2,1,70,0,0
84347,-76.9230769230769,3,2,2,70,0,0
84416,-76.9230769230769,3,2,1,70,0,0
84484,-76.9230769230769,3,2,2,70,0,0
84553,-76.9230769230769,3,2,1,70,0,0
84621,-76.9230769230769,3,2,4,70,0,0
84690,-76.9230769230769,3,2,1,70,0,0
84758,-76.9230769230769,3,2,2,70,0,0
84827,-76.9230769230769,3,2,1,70,0,0
84895,-76.9230769230769,3,2,2,70,0,0
84963,-76.9230769230769,3,2,1,70,0,0
85032,-76.9230769230769,3,2,4,70,0,0
85100,-76.9230769230769,3,2,1,70,0,0
85169,-76.9230769230769,3,2,2,70,0,0
85237,-76.9230769230769,3,2,1,70,0,0
85306,-76.9230769230769,3,2,2,70,0,0
85374,-76.9230769230769,3,2,1,70,0,0
85443,-66.6666666666667,3,2,4,70,0,0
85511,-66.6666666666667,3,2,1,70,0,0
85580,-66.6666666666667,3,2,4,70,0,0
85648,-66.6666666666667,3,2,1,70,0,0
85717,-66.6666666666667,3,2,4,70,0,0
85785,-66.6666666666667,3,2,1,70,0,0
85854,-66.6666666666667,3,2,2,70,0,0
85922,-66.6666666666667,3,2,1,70,0,0
85991,-66.6666666666667,3,2,2,70,0,0
86059,-66.6666666666667,3,2,1,70,0,0
86128,-66.6666666666667,3,2,2,70,0,0
86196,-66.6666666666667,3,2,1,70,0,0
86402,-66.6666666666667,3,2,2,70,0,0
86470,-66.6666666666667,3,2,1,70,0,0
86539,-66.6666666666667,3,2,2,70,0,0
86607,-66.6666666666667,3,2,1,70,0,0
86676,-66.6666666666667,3,2,4,70,0,0
86744,-66.6666666666667,3,2,1,70,0,0
86813,-66.6666666666667,3,2,4,70,0,0
86881,-66.6666666666667,3,2,1,70,0,0
86950,-66.6666666666667,3,2,4,70,0,0
87018,-66.6666666666667,3,2,5,70,0,0
87087,-50,3,2,5,70,0,0
87155,-50,3,2,4,70,0,0
87909,-50,3,2,3,70,0,0
88183,-50,3,2,2,70,0,0
88457,-50,3,2,1,70,0,0
89005,-50,3,2,1,50,0,0
89142,-71.4285714285714,3,2,2,50,0,0
89210,-71.4285714285714,3,2,1,50,0,0
89279,-71.4285714285714,3,2,2,50,0,0
89347,-71.4285714285714,3,2,1,50,0,0
89416,-71.4285714285714,3,2,2,50,0,0
89484,-71.4285714285714,3,2,1,50,0,0
89553,-71.4285714285714,3,2,4,50,0,0
89621,-71.4285714285714,3,2,1,50,0,0
89690,-71.4285714285714,3,2,2,50,0,0
89758,-71.4285714285714,3,2,1,50,0,0
89827,-71.4285714285714,3,2,2,50,0,0
89895,-71.4285714285714,3,2,5,50,0,0
90100,-71.4285714285714,3,2,2,50,0,0
90169,-71.4285714285714,3,2,1,50,0,0
90237,-71.4285714285714,3,2,2,50,0,0
90306,-71.4285714285714,3,2,1,50,0,0
90374,-71.4285714285714,3,2,2,50,0,0
90443,-71.4285714285714,3,2,1,50,0,0
90511,-71.4285714285714,3,2,2,50,0,0
90580,-71.4285714285714,3,2,1,50,0,0
90648,-71.4285714285714,3,2,2,50,0,0
90717,-71.4285714285714,3,2,1,50,0,0
90785,-71.4285714285714,3,2,4,50,0,0
90854,-71.4285714285714,3,2,1,50,0,0
90922,-71.4285714285714,3,2,2,50,0,0
90991,-71.4285714285714,3,2,1,50,0,0
91059,-71.4285714285714,3,2,2,50,0,0
91128,-71.4285714285714,3,2,5,50,0,0
91333,-71.4285714285714,3,2,2,50,0,0
91402,-71.4285714285714,3,2,1,50,0,0
91470,-71.4285714285714,3,2,2,50,0,0
91539,-71.4285714285714,3,2,1,50,0,0
91607,-71.4285714285714,3,2,4,50,0,0
91676,-71.4285714285714,3,2,1,50,0,0
91744,-71.4285714285714,3,2,2,50,0,0
91813,-71.4285714285714,3,2,1,50,0,0
91881,-71.4285714285714,3,2,2,50,0,0
91950,-71.4285714285714,3,2,1,50,0,0
92018,-71.4285714285714,3,2,3,50,0,0
92087,-71.4285714285714,3,2,1,50,0,0
92155,-71.4285714285714,3,2,2,50,0,0
92224,-71.4285714285714,3,2,1,50,0,0
92292,-71.4285714285714,3,2,2,50,0,0
92361,-71.4285714285714,3,2,1,50,0,0
92429,-71.4285714285714,3,2,2,50,0,0
92498,-71.4285714285714,3,2,1,50,0,0
92566,-71.4285714285714,3,2,2,50,0,0
92635,-71.4285714285714,3,2,1,50,0,0
92703,-71.4285714285714,3,2,2,50,0,0
92772,-71.4285714285714,3,2,5,50,0,0
92977,-71.4285714285714,3,2,2,50,0,0
93046,-71.4285714285714,3,2,1,50,0,0
93114,-71.4285714285714,3,2,2,50,0,0
93183,-71.4285714285714,3,2,1,50,0,0
93251,-71.4285714285714,3,2,3,50,0,0
93320,-71.4285714285714,3,2,1,50,0,0
93388,-71.4285714285714,3,2,4,50,0,0
93457,-71.4285714285714,3,2,1,50,0,0
93525,-71.4285714285714,3,2,4,50,0,0
93594,-71.4285714285714,3,2,1,50,0,0
93662,-50,3,2,1,50,0,0
93799,-50,3,2,2,50,0,0
93868,-50,3,2,1,50,0,0
93936,-50,3,2,2,50,0,0
94005,-50,3,2,1,50,0,0
94073,-71.4285714285714,3,2,2,50,0,0
94142,-71.4285714285714,3,2,1,50,0,0
94210,-71.4285714285714,3,2,2,50,0,0
94279,-71.4285714285714,3,2,1,50,0,0
94347,-71.4285714285714,3,2,2,50,0,0
94416,-71.4285714285714,3,2,1,50,0,0
94484,-71.4285714285714,3,2,4,50,0,0
94553,-71.4285714285714,3,2,1,50,0,0
94621,-71.4285714285714,3,2,2,50,0,0
94690,-71.4285714285714,3,2,1,50,0,0
94758,-71.4285714285714,3,2,2,50,0,0
94827,-71.4285714285714,3,2,5,50,0,0
95032,-71.4285714285714,3,2,2,50,0,0
95100,-71.4285714285714,3,2,1,50,0,0
95169,-71.4285714285714,3,2,2,50,0,0
95237,-71.4285714285714,3,2,1,50,0,0
95306,-71.4285714285714,3,2,2,50,0,0
95374,-71.4285714285714,3,2,1,50,0,0
95443,-71.4285714285714,3,2,2,50,0,0
95511,-71.4285714285714,3,2,1,50,0,0
95580,-71.4285714285714,3,2,2,50,0,0
95648,-71.4285714285714,3,2,1,50,0,0
95717,-71.4285714285714,3,2,4,50,0,0
95785,-71.4285714285714,3,2,1,50,0,0
95854,-71.4285714285714,3,2,2,50,0,0
95922,-71.4285714285714,3,2,1,50,0,0
95991,-71.4285714285714,3,2,2,50,0,0
96059,-71.4285714285714,3,2,5,50,0,0
96265,-71.4285714285714,3,2,2,50,0,0
96333,-71.4285714285714,3,2,1,50,0,0
96402,-71.4285714285714,3,2,2,50,0,0
96470,-71.4285714285714,3,2,1,50,0,0
96539,-71.4285714285714,3,2,4,50,0,0
96607,-71.4285714285714,3,2,1,50,0,0
96676,-71.4285714285714,3,2,2,50,0,0
96744,-71.4285714285714,3,2,1,50,0,0
96813,-71.4285714285714,3,2,2,50,0,0
96881,-71.4285714285714,3,2,1,50,0,0
96950,-58.8235294117647,3,2,3,50,0,0
97018,-58.8235294117647,3,2,1,50,0,0
97087,-58.8235294117647,3,2,4,50,0,0
97155,-58.8235294117647,3,2,1,50,0,0
97224,-58.8235294117647,3,2,4,50,0,0
97292,-58.8235294117647,3,2,1,50,0,0
97361,-58.8235294117647,3,2,2,50,0,0
97429,-58.8235294117647,3,2,1,50,0,0
97498,-58.8235294117647,3,2,2,50,0,0
97566,-58.8235294117647,3,2,1,50,0,0
97635,-58.8235294117647,3,2,2,50,0,0
97703,-58.8235294117647,3,2,5,50,0,0
97909,-58.8235294117647,3,2,2,50,0,0
97977,-58.8235294117647,3,2,1,50,0,0
98046,-58.8235294117647,3,2,2,50,0,0
98114,-58.8235294117647,3,2,1,50,0,0
98183,-40,3,2,3,50,0,0
98251,-40,3,2,1,50,0,0
98320,-40,3,2,4,50,0,0
98388,-40,3,2,1,50,0,0
98457,-40,3,2,4,50,0,0
98525,-40,3,2,1,50,0,0
98731,-40,3,2,2,50,0,0
98799,-40,3,2,1,50,0,0
98868,-40,3,2,2,50,0,0
98936,-40,3,2,1,50,0,0
99005,-66.6666666666667,3,2,2,50,0,0
99073,-66.6666666666667,3,2,1,50,0,0
99142,-66.6666666666667,3,2,2,50,0,0
99210,-66.6666666666667,3,2,1,50,0,0
99279,-66.6666666666667,3,2,2,50,0,0
99347,-66.6666666666667,3,2,1,50,0,0
99416,-66.6666666666667,3,2,4,50,0,0
99484,-66.6666666666667,3,2,1,50,0,0
99553,-66.6666666666667,3,2,2,50,0,0
99621,-66.6666666666667,3,2,1,50,0,0
99690,-66.6666666666667,3,2,2,50,0,0
99758,-66.6666666666667,3,2,5,50,0,0
99827,-50,3,2,5,50,0,0
99963,-50,3,2,2,50,0,0
100032,-50,3,2,1,50,0,0
100100,-66.6666666666667,3,2,2,50,0,0
100169,-66.6666666666667,3,2,1,50,0,0
100237,-66.6666666666667,3,2,2,50,0,0
100306,-66.6666666666667,3,2,1,50,0,0
100374,-66.6666666666667,3,2,2,50,0,0
100443,-66.6666666666667,3,2,1,50,0,0
100511,-66.6666666666667,3,2,2,50,0,0
100580,-66.6666666666667,3,2,1,50,0,0
100648,-66.6666666666667,3,2,4,50,0,0
100717,-66.6666666666667,3,2,1,50,0,0
100785,-66.6666666666667,3,2,2,50,0,0
100854,-66.6666666666667,3,2,1,50,0,0
100922,-66.6666666666667,3,2,2,50,0,0
100991,-66.6666666666667,3,2,5,50,0,0
101196,-66.6666666666667,3,2,2,50,0,0
101265,-66.6666666666667,3,2,1,50,0,0
101333,-66.6666666666667,3,2,2,50,0,0
101402,-66.6666666666667,3,2,1,50,0,0
101470,-66.6666666666667,3,2,4,50,0,0
101539,-66.6666666666667,3,2,1,50,0,0
101607,-66.6666666666667,3,2,2,50,0,0
101676,-66.6666666666667,3,2,1,50,0,0
101744,-66.6666666666667,3,2,2,50,0,0
101813,-66.6666666666667,3,2,1,50,0,0
101881,-66.6666666666667,3,2,3,50,0,0
101950,-66.6666666666667,3,2,1,50,0,0
102018,-66.6666666666667,3,2,2,50,0,0
102087,-66.6666666666667,3,2,1,50,0,0
102155,-66.6666666666667,3,2,2,50,0,0
102224,-66.6666666666667,3,2,1,50,0,0
102429,-66.6666666666667,3,2,4,50,0,0
102498,-66.6666666666667,3,2,1,50,0,0
102566,-66.6666666666667,3,2,4,50,0,0
102635,-66.6666666666667,3,2,5,50,0,0
102840,-66.6666666666667,3,2,2,50,0,0
102909,-66.6666666666667,3,2,1,50,0,0
102977,-66.6666666666667,3,2,2,50,0,0
103046,-66.6666666666667,3,2,1,50,0,0
103114,-66.6666666666667,3,2,3,50,0,0
103183,-66.6666666666667,3,2,1,50,0,0
103251,-66.6666666666667,3,2,4,50,0,0
103320,-66.6666666666667,3,2,1,50,0,0
103525,-50,3,2,1,50,0,0
103662,-50,3,2,2,50,0,0
103731,-50,3,2,1,50,0,0
103799,-50,3,2,2,50,0,0
103868,-50,3,2,1,50,0,0
103936,-66.6666666666667,3,2,4,50,0,0
104005,-66.6666666666667,3,2,1,50,0,0
104073,-66.6666666666667,3,2,4,50,0,0
104142,-66.6666666666667,3,2,1,50,0,0
104210,-66.6666666666667,3,2,4,50,0,0
104279,-66.6666666666667,3,2,1,50,0,0
104347,-66.6666666666667,3,2,4,50,0,0
104416,-66.6666666666667,3,2,1,50,0,0
104484,-66.6666666666667,3,2,2,50,0,0
104553,-66.6666666666667,3,2,1,50,0,0
104621,-66.6666666666667,3,2,2,50,0,0
104690,-66.6666666666667,3,2,5,50,0,0
104758,-50,3,2,5,50,0,0
104895,-50,3,2,2,50,0,0
104963,-50,3,2,1,50,0,0
105032,-66.6666666666667,3,2,2,50,0,0
105100,-66.6666666666667,3,2,1,50,0,0
105169,-66.6666666666667,3,2,4,50,0,0
105237,-66.6666666666667,3,2,1,50,0,0
105306,-66.6666666666667,3,2,4,50,0,0
105374,-66.6666666666667,3,2,1,50,0,0
105443,-66.6666666666667,3,2,4,50,0,0
105511,-66.6666666666667,3,2,1,50,0,0
105580,-66.6666666666667,3,2,4,50,0,0
105648,-66.6666666666667,3,2,1,50,0,0
105717,-66.6666666666667,3,2,2,50,0,0
105785,-66.6666666666667,3,2,1,50,0,0
105854,-66.6666666666667,3,2,2,50,0,0
105922,-66.6666666666667,3,2,5,50,0,0
106128,-66.6666666666667,3,2,2,50,0,0
106196,-66.6666666666667,3,2,1,50,0,0
106265,-66.6666666666667,3,2,2,50,0,0
106333,-66.6666666666667,3,2,5,50,0,0
106539,-66.6666666666667,3,2,2,50,0,0
106607,-66.6666666666667,3,2,1,50,0,0
106676,-66.6666666666667,3,2,2,50,0,0
106744,-66.6666666666667,3,2,1,50,0,0
107087,-66.6666666666667,3,2,2,50,0,0
107155,-66.6666666666667,3,2,1,50,0,0
107224,-66.6666666666667,3,2,4,70,0,0
107635,-66.6666666666667,3,2,3,70,0,0
108046,-66.6666666666667,3,2,2,70,0,0
108457,-66.6666666666667,3,2,1,70,0,0
111744,-66.6666666666667,3,2,4,70,0,0
111881,-66.6666666666667,3,2,1,70,0,0
112155,-66.6666666666667,3,2,5,70,0,0
112429,-66.6666666666667,3,2,1,70,0,0
113114,-66.6666666666667,3,2,4,70,0,0
113251,-66.6666666666667,3,2,1,70,0,0
114484,-66.6666666666667,3,2,4,70,0,0
114621,-66.6666666666667,3,2,1,70,0,0
115032,-66.6666666666667,3,2,2,70,0,0
115169,-66.6666666666667,3,2,1,70,0,0
115306,-66.6666666666667,3,2,2,70,0,0
115443,-66.6666666666667,3,2,1,70,0,0
118868,-66.6666666666667,3,2,4,70,0,0
119005,-66.6666666666667,3,2,1,70,0,0
119142,-66.6666666666667,3,2,2,70,0,0
119279,-66.6666666666667,3,2,1,70,0,0
119416,-66.6666666666667,3,2,2,70,0,0
119553,-66.6666666666667,3,2,1,70,0,0
120785,-66.6666666666667,3,2,4,70,0,0
120922,-66.6666666666667,3,2,1,70,0,0
121059,-66.6666666666667,3,2,2,70,0,0
121196,-66.6666666666667,3,2,1,70,0,0
121607,-66.6666666666667,3,2,4,70,0,0
121744,-66.6666666666667,3,2,1,70,0,0
121881,-66.6666666666667,3,2,2,70,0,0
122018,-66.6666666666667,3,2,1,70,0,0
122429,-66.6666666666667,3,2,2,70,0,0
122840,-66.6666666666667,3,2,1,70,0,0
127361,-40,3,2,1,70,0,0
127772,-66.6666666666667,3,2,1,70,0,0
129416,-66.6666666666667,3,2,3,50,0,0
129827,-66.6666666666667,3,2,4,50,0,0
130237,-66.6666666666667,3,2,3,50,0,0
130374,-66.6666666666667,3,2,2,50,0,0
130648,-50,3,2,1,70,0,0
131059,-66.6666666666667,3,2,1,70,0,0
134758,-40,3,2,1,70,0,0
135100,-100,3,2,1,5,0,0
135169,-66.6666666666667,3,2,1,70,0,0
136402,-66.6666666666667,3,2,3,70,0,0
137224,-66.6666666666667,3,2,4,70,0,0
137635,-66.6666666666667,3,2,3,70,0,0
137772,-66.6666666666667,3,2,2,70,0,0
138046,-45.4545454545455,3,2,1,70,0,0
138320,-55.5555555555556,3,2,99,5,0,0
138868,-45.4545454545455,3,2,2,70,0,0
139142,-55.5555555555556,3,2,99,5,0,0
139279,-45.4545454545455,3,2,2,70,0,0
139553,-55.5555555555556,3,2,99,5,0,0
139895,-45.4545454545455,3,2,2,70,0,0
140374,-55.5555555555556,3,2,99,5,0,0
140511,-45.4545454545455,3,2,1,70,0,0
140854,-55.5555555555556,3,2,99,5,0,0
140922,-45.4545454545455,3,2,1,70,0,0
141333,-35.7142857142857,3,2,1,70,0,0
141676,-55.5555555555556,3,2,99,5,0,0
141744,-35.7142857142857,3,2,1,70,0,0
142909,-55.5555555555556,3,2,99,5,0,0
142977,-45.4545454545455,3,2,1,70,0,0
143251,-55.5555555555556,3,2,99,5,0,0
143799,-45.4545454545455,3,2,2,70,0,0
144073,-55.5555555555556,3,2,99,5,0,0
144210,-45.4545454545455,3,2,2,70,0,0
144484,-55.5555555555556,3,2,99,5,0,0
144827,-45.4545454545455,3,2,2,70,0,0
145169,-55.5555555555556,3,2,99,5,0,0
145237,-66.6666666666667,3,2,2,70,0,0
145374,-55.5555555555556,3,2,99,5,0,0
145443,-45.4545454545455,3,2,1,70,0,0
145785,-55.5555555555556,3,2,99,5,0,0
145854,-45.4545454545455,3,2,1,70,0,0
146265,-35.7142857142857,3,2,1,70,0,0
146676,-55.5555555555556,3,2,99,5,0,0
147087,-35.7142857142857,3,2,1,70,0,0
147498,-35.7142857142857,3,2,1,70,0,0
147840,-55.5555555555556,3,2,99,5,0,0
147909,-66.6666666666667,3,2,1,70,0,0
148183,-66.6666666666667,3,2,2,70,0,0
148731,-66.6666666666667,3,2,3,70,0,0
148868,-66.6666666666667,3,2,2,70,0,0
149142,414.450507701872,4,2,1,70,1,0
149142,-174.520069808028,4,2,1,70,0,0
149556,-100,3,2,99,5,0,0
164062,421.052631578947,4,2,2,40,1,0
165746,421.052631578947,4,2,1,50,1,0
165746,-200,4,2,1,50,0,0
166167,-200,4,2,4,50,0,0
172483,-200,4,2,1,50,0,0
172904,-200,4,2,4,50,0,0
173325,-133.333333333333,4,2,4,50,0,0
175640,-133.333333333333,4,2,8,50,0,0
176272,-133.333333333333,4,2,4,50,0,0
179325,-133.333333333333,4,2,2,60,0,0
179535,-133.333333333333,4,2,3,60,0,0
179640,-133.333333333333,4,2,4,60,0,0
179746,-133.333333333333,4,2,1,60,0,0
180062,-100,4,2,4,60,0,0
180167,-100,4,2,2,60,0,0
180483,-100,4,2,4,60,0,0
180588,-100,4,2,2,60,0,0
180904,-100,4,2,4,60,0,0
181009,-100,4,2,2,60,0,0
181219,-100,4,2,3,60,0,0
181325,-100,4,2,4,60,0,0
181430,-100,4,2,1,60,0,0
181746,-100,4,2,4,60,0,0
181851,-100,4,2,2,60,0,0
182167,-100,4,2,4,60,0,0
182272,-100,4,2,2,60,0,0
182588,-100,4,2,4,60,0,0
182693,-100,4,2,2,60,0,0
182904,-100,4,2,3,60,0,0
183009,-100,4,2,4,60,0,0
183114,-100,4,2,1,60,0,0
183430,-100,4,2,4,60,0,0
183535,-100,4,2,2,60,0,0
183851,-100,4,2,4,60,0,0
183956,-100,4,2,2,60,0,0
184272,-100,4,2,3,70,0,0
186377,-100,4,2,4,70,0,0
192693,-52.6315789473684,4,2,4,70,0,0
193114,-100,4,2,4,70,0,0
196061,-66.6666666666667,4,2,4,70,0,0
196482,-100,4,2,4,70,0,0
199430,-50,4,2,1,70,0,0
200272,-66.6666666666667,4,2,2,70,0,0
200588,-55.5555555555556,3,2,99,5,0,0
200693,-66.6666666666667,4,2,2,70,0,0
202377,-100,4,2,2,70,0,0
205184,-100,4,2,3,70,0,0
205430,-100,4,2,2,70,0,0
205535,-100,4,2,1,70,0,0
205851,-100,4,2,3,70,0,0
205956,-100,4,2,1,70,0,0
206167,-100,4,2,3,70,0,0
207009,-66.6666666666667,4,2,4,70,0,0
207325,-55.5555555555556,3,2,99,5,0,0
207430,-66.6666666666667,4,2,4,70,0,0
208483,-66.6666666666667,4,2,1,70,0,0
208693,-66.6666666666667,4,2,4,70,0,0
209430,-55.5555555555556,3,2,99,5,0,0
209535,-66.6666666666667,4,2,1,70,0,0
210377,-66.6666666666667,4,2,2,70,0,0
210588,-66.6666666666667,4,2,1,70,0,0
210798,-66.6666666666667,4,2,2,70,0,0
211746,-66.6666666666667,4,2,3,70,0,0
211851,-100,4,2,3,70,0,0
213325,-100,4,2,2,70,0,0
215430,-100,4,2,1,70,0,0
216693,-100,4,2,2,70,0,0
219430,-100,4,2,4,70,0,0
221746,-100,4,2,2,70,0,0
222377,-100,4,2,4,70,0,0
222588,-100,4,2,2,70,0,0
222798,-100,4,2,4,70,0,0
223009,-100,4,2,1,70,0,0
223430,-100,4,2,2,70,0,0
225114,-100,4,2,2,40,0,0
225535,-100,4,2,3,40,0,0
225956,-100,4,2,2,40,0,0
226377,-50,4,2,1,70,0,0
226798,-66.6666666666667,4,2,2,70,0,0
228693,-100,4,2,2,70,0,0
228904,-100,4,2,1,70,0,0
230061,-100,4,2,2,70,0,0
230167,-66.6666666666667,4,2,2,70,0,0
232483,-66.6666666666667,4,2,4,70,0,0
232693,-66.6666666666667,4,2,2,70,0,0
232904,-66.6666666666667,4,2,4,70,0,0
233114,-50,4,2,1,70,0,0
233535,-66.6666666666667,4,2,1,70,0,0
233746,-66.6666666666667,4,2,2,70,0,0
235640,-40,4,2,2,70,0,0
236061,-66.6666666666667,4,2,1,70,0,0
236272,-66.6666666666667,4,2,2,70,0,0
236483,-66.6666666666667,4,2,1,70,0,0
236904,-66.6666666666667,4,2,4,70,0,0
238693,-66.6666666666667,4,2,3,70,0,0
239430,-66.6666666666667,4,2,2,70,0,0
239640,-66.6666666666667,4,2,1,70,0,0
239851,-50,4,2,1,70,0,0
239956,-50,4,2,1,70,0,0
240061,-55.5555555555556,3,2,99,5,0,0
240167,-50,4,2,1,60,0,0
240272,-50,4,2,6,60,0,0
240483,-100,4,2,6,60,0,0
240693,-100,4,2,1,60,0,0
241009,-100,4,2,2,60,0,0
241114,-100,4,2,4,60,0,0
241535,-66.6666666666667,4,2,4,60,0,0
241640,-55.5555555555556,3,2,99,5,0,0
241746,-66.6666666666667,4,2,1,60,0,0
242061,-55.5555555555556,3,2,99,5,0,0
242167,-66.6666666666667,4,2,4,60,0,0
242272,-55.5555555555556,3,2,99,5,0,0
242377,-66.6666666666667,4,2,4,60,0,0
243009,-100,4,2,4,60,0,0
243219,375,4,2,4,60,1,0
243500,-66.6666666666667,4,2,4,60,0,0
243781,-55.5555555555556,3,2,99,5,0,0
243875,-66.6666666666667,4,2,1,60,0,0
244084,387.096774193548,4,2,1,60,1,0
244084,-66.6666666666667,4,2,1,60,0,0
244471,433.212996389892,4,2,2,60,1,0
244471,-66.6666666666667,4,2,2,60,0,0
244687,-66.6666666666667,4,2,1,60,0,0
244795,-66.6666666666667,4,2,99,60,0,0
244798,-55.5555555555556,3,2,99,5,0,0
244904,421.052631578947,4,2,4,60,1,0
244904,-66.6666666666667,4,2,4,60,0,0
245009,-55.5555555555556,3,2,99,5,0,0
245114,-66.6666666666667,4,2,4,60,0,0
245746,-66.6666666666667,4,2,1,60,0,0
246167,-66.6666666666667,4,2,2,60,0,0
246588,421.052631578947,4,2,1,60,1,0
246588,-66.6666666666667,4,2,1,60,0,0
247219,-66.6666666666667,4,2,4,60,0,0
247430,-100,4,2,4,60,0,0
247851,-55.5555555555556,4,2,4,60,0,0
248061,-55.5555555555556,4,2,3,60,0,0
248482,-50,4,2,3,60,0,0
248693,-50,4,2,2,60,0,0
248904,-83.3333333333333,4,2,4,60,0,0
249535,-66.6666666666667,4,2,4,60,0,0
249640,-55.5555555555556,3,2,99,5,0,0
249746,-66.6666666666667,4,2,4,60,0,0
249851,-55.5555555555556,3,2,99,5,0,0
249956,-58.8235294117647,4,2,1,60,0,0
250167,-58.8235294117647,4,2,4,60,0,0
250798,-76.9230769230769,4,2,4,60,0,0
250904,-55.5555555555556,3,2,99,5,0,0
251009,-76.9230769230769,4,2,4,60,0,0
251219,-76.9230769230769,4,2,1,60,0,0
251430,-76.9230769230769,4,2,4,60,0,0
251535,-55.5555555555556,3,2,99,5,0,0
251640,-76.9230769230769,4,2,4,60,0,0
252061,-62.5,4,2,3,60,0,0
252904,-62.5,4,2,2,60,0,0
253114,-62.5,4,2,1,60,0,0
253746,-62.5,4,2,4,60,0,0
255009,-100,4,2,4,60,0,0
255114,-55.5555555555556,3,2,99,5,0,0
255219,-55.5555555555556,4,2,1,60,0,0
255535,-55.5555555555556,3,2,99,5,0,0
255640,-55.5555555555556,4,2,4,60,0,0
255851,-153.846153846153,4,2,4,60,0,0
256167,-55.5555555555556,3,2,99,5,0,0
256272,-153.846153846153,4,2,4,60,0,0
256588,-55.5555555555556,3,2,99,5,0,0
256693,-153.846153846153,4,2,4,60,0,0
257009,-100,4,2,1,60,0,0
257114,-100,4,2,4,60,0,0
257640,-55.5555555555556,3,2,99,5,0,0
257746,-100,4,2,4,60,0,0
257851,-55.5555555555556,3,2,99,5,0,0
257956,-100,4,2,1,60,0,0
258377,-100,4,2,4,60,0,0
259219,-100,4,2,1,60,0,0
259430,-55.5555555555556,3,2,99,5,0,0
259500,-100,4,2,1,60,0,0
259640,-100,4,2,2,60,0,0
259746,-55.5555555555556,3,2,99,5,0,0
259851,-100,4,2,2,60,0,0
259956,-55.5555555555556,3,2,99,5,0,0
260061,-100,4,2,1,60,0,0
260482,-100,4,2,4,60,0,0
261009,-55.5555555555556,3,2,99,5,0,0
261114,-100,4,2,4,60,0,0
261219,-55.5555555555556,3,2,99,5,0,0
261325,-100,4,2,4,60,0,0
261535,-100,4,2,3,60,0,0
261956,-83.3333333333333,4,2,3,60,0,0
262588,-83.3333333333333,4,2,4,60,0,0
263114,-55.5555555555556,3,2,99,5,0,0
263219,-83.3333333333333,4,2,4,60,0,0
263325,-55.5555555555556,3,2,99,5,0,0
263430,-83.3333333333333,4,2,1,60,0,0
263851,-83.3333333333333,4,2,99,5,0,0
264061,-83.3333333333333,4,2,4,60,0,0
264693,-83.3333333333333,4,2,1,60,0,0
264904,-83.3333333333333,4,2,4,60,0,0
265535,-83.3333333333333,4,2,1,60,0,0
265746,-83.3333333333333,4,2,4,60,0,0
265850,-83.3333333333333,4,2,1,60,0,0
265956,-83.3333333333333,4,2,3,60,0,0
266377,-83.3333333333333,4,2,2,60,0,0
266658,-83.3333333333333,4,2,1,60,0,0
267009,-55.5555555555556,3,2,99,5,0,0
267114,-83.3333333333333,4,2,1,60,0,0
267219,-83.3333333333333,4,2,6,60,0,0
267640,-83.3333333333333,4,2,1,60,0,0
267956,-83.3333333333333,4,2,2,60,0,0
268061,-83.3333333333333,4,2,4,60,0,0
268588,-55.5555555555556,3,2,99,5,0,0
268693,-62.5,4,2,1,60,0,0
269009,-55.5555555555556,3,2,99,5,0,0
269114,-83.3333333333333,4,2,1,60,0,0
269325,-83.3333333333333,4,2,1,60,0,0
269535,-83.3333333333333,4,2,4,60,0,0
270482,-62.5,4,2,1,60,0,0
271114,-76.9230769230769,4,2,1,60,0,0
272272,-76.9230769230769,4,2,4,60,0,0
272377,-76.9230769230769,4,2,1,60,0,0
272482,-76.9230769230769,4,2,2,60,0,0
273535,-76.9230769230769,4,2,1,60,0,0
274167,-76.9230769230769,4,2,6,60,0,0
274588,-76.9230769230769,4,2,4,60,0,0
274904,-55.5555555555556,3,2,99,5,0,0
275009,-76.9230769230769,4,2,3,60,0,0
275535,-62.5,4,2,3,60,0,0
275640,-62.5,4,2,2,60,0,0
275745,-62.5,4,2,3,60,0,0
275851,-62.5,4,2,2,60,0,0
276904,-76.9230769230769,4,2,1,60,0,0
277114,-76.9230769230769,4,2,2,60,0,0
278061,-55.5555555555556,3,2,99,5,0,0
278167,-76.9230769230769,4,2,1,60,0,0
278377,-76.9230769230769,4,2,2,60,0,0
278588,-76.9230769230769,4,2,4,60,0,0
278798,-76.9230769230769,4,2,3,70,0,0
279009,-500,4,2,3,70,0,0
279430,-55.5555555555556,3,2,99,5,0,0
280272,-100,4,2,3,70,0,0
280588,-66.6666666666667,4,2,3,70,0,0
280693,-76.9230769230769,4,2,4,70,0,0
281219,-66.6666666666667,4,2,4,70,0,0
281956,-76.9230769230769,4,2,4,70,0,0
283956,-66.6666666666667,4,2,3,70,0,0
284272,-76.9230769230769,4,2,4,70,0,0
284588,-66.6666666666667,4,2,3,70,0,0
284903,-76.9230769230769,4,2,4,70,0,0
285219,-76.9230769230769,4,2,3,70,0,0
285535,-100,4,2,4,70,0,0
286061,-66.6666666666667,4,2,1,70,0,0
286377,-76.9230769230769,4,2,4,70,0,0
287009,-66.6666666666667,4,2,1,70,0,0
287430,-76.9230769230769,4,2,4,70,0,0
288482,-76.9230769230769,4,2,1,70,0,0
289114,-76.9230769230769,4,2,4,70,0,0
290377,-76.9230769230769,4,2,1,70,0,0
290798,-76.9230769230769,4,2,4,70,0,0
292272,-50,4,2,4,70,0,0
293746,-83.3333333333333,4,2,1,70,0,0
293956,-83.3333333333333,4,2,2,70,0,0
294693,-83.3333333333333,4,2,4,70,0,0
294798,-83.3333333333333,4,2,2,70,0,0
295325,-83.3333333333333,4,2,4,70,0,0
295430,-83.3333333333333,4,2,2,70,0,0
296272,-66.6666666666667,4,2,2,70,0,0
296588,-83.3333333333333,4,2,2,70,0,0
297430,-66.6666666666667,4,2,4,70,0,0
297746,-83.3333333333333,4,2,2,70,0,0
298061,-66.6666666666667,4,2,4,70,0,0
298167,-66.6666666666667,4,2,2,70,0,0
298693,-66.6666666666667,4,2,4,70,0,0
298798,-83.3333333333333,4,2,2,70,0,0
299430,-83.3333333333333,4,2,1,70,0,0
299851,-83.3333333333333,4,2,4,70,0,0
300798,-83.3333333333333,4,2,3,70,0,0
301114,-83.3333333333333,4,2,6,70,0,0
301430,-83.3333333333333,4,2,3,70,0,0
301746,-83.3333333333333,4,2,6,70,0,0
302167,-66.6666666666667,4,2,2,70,0,0
302588,-83.3333333333333,4,2,2,70,0,0
303640,-83.3333333333333,4,2,3,70,0,0
303851,-66.6666666666667,4,2,2,70,0,0
304167,-66.6666666666667,4,2,3,70,0,0
304903,-66.6666666666667,4,2,2,70,0,0
305114,-57.1428571428571,4,2,1,70,0,0
305430,-57.1428571428571,4,2,2,70,0,0
305746,-57.1428571428571,4,2,3,70,0,0
305956,428.571428571428,4,2,3,70,1,0
305956,-57.1428571428571,4,2,3,70,0,0
306167,-142.857142857143,4,2,3,70,0,0
306813,406.091370558375,4,2,2,70,1,0
306813,-76.9230769230769,4,2,2,70,0,0
307016,-76.9230769230769,4,2,1,70,0,0
307219,421.052631578947,3,2,1,70,1,0
307219,-200,3,2,1,70,0,0
307430,-55.5555555555556,3,2,99,5,0,0
307535,-200,3,2,1,70,0,0
307851,-76.9230769230769,3,2,4,70,0,0
309325,-76.9230769230769,3,2,8,70,0,0
310061,-76.9230769230769,3,2,4,70,0,0
311851,-76.9230769230769,3,2,8,70,0,0
312588,-76.9230769230769,3,2,4,70,0,0
314377,-76.9230769230769,3,2,8,70,0,0
315114,-76.9230769230769,3,2,4,70,0,0
316903,-66.6666666666667,3,2,1,70,0,0
317640,-100,3,2,4,70,0,0
318903,-100,3,2,5,70,0,0
319219,-100,3,2,7,70,0,0
319430,-100,3,2,1,70,0,0
320167,-100,3,2,4,70,0,0
320272,-76.9230769230769,4,2,4,70,0,0
324903,421.052631578947,4,2,4,70,1,0
324903,-76.9230769230769,4,2,4,70,0,0
325008,-55.5555555555556,3,2,99,5,0,0
325113,-76.9230769230769,4,2,4,70,0,0
325218,-55.5555555555556,3,2,99,5,0,0
325324,-76.9230769230769,4,2,3,70,0,0
325745,-76.9230769230769,4,2,2,70,0,0
326166,-76.9230769230769,4,2,5,70,0,0
326481,-55.5555555555556,3,2,99,5,0,0
326587,421.052631578947,4,2,1,70,1,0
326587,-76.9230769230769,4,2,1,70,0,0
327008,-76.9230769230769,4,2,4,70,0,0
327218,-76.9230769230769,4,2,1,70,0,0
327429,-76.9230769230769,4,2,4,70,0,0
329534,-52.6315789473684,4,2,4,70,0,0
330166,-52.6315789473684,4,2,3,70,0,0
330587,-52.6315789473684,4,2,2,70,0,0
330797,-52.6315789473684,4,2,3,70,0,0
331008,-76.9230769230769,4,2,3,70,0,0
331640,421.052631578947,3,2,2,70,1,0
331850,-100,3,2,3,70,0,0
332482,-100,3,2,2,70,0,0
332692,-100,3,2,3,70,0,0
333324,-100,3,2,4,70,0,0
333534,-100,3,2,3,70,0,0
334587,-100,3,2,4,70,0,0
336061,-100,3,2,3,70,0,0
337113,-100,3,2,99,5,0,0
337324,-100,3,2,4,70,0,0
337850,-55.5555555555556,3,2,99,5,0,0
337955,-100,3,2,4,70,0,0
338482,-55.5555555555556,3,2,99,5,0,0
338587,-100,3,2,4,70,0,0
339113,-55.5555555555556,3,2,99,5,0,0
339219,300,4,2,4,70,1,0
339519,-125,4,2,4,70,0,0
339719,-55.5555555555556,3,2,99,5,0,0
339819,315.789473684211,4,2,4,70,1,0
339819,-125,4,2,4,70,0,0
340345,-55.5555555555556,3,2,99,5,0,0
340450,-125,4,2,4,70,0,0
340766,326.086956521739,4,2,4,70,1,0
340766,-125,4,2,4,70,0,0
340983,-55.5555555555556,3,2,99,5,0,0
341092,-125,4,2,4,70,0,0
341635,-55.5555555555556,3,2,99,5,0,0
341745,315.789473684211,4,2,4,70,1,0
341745,-55.5555555555556,4,2,4,70,0,0
344271,-66.6666666666667,4,2,3,70,0,0
344902,303.030303030303,4,2,3,70,1,0
345811,-100,4,2,2,70,0,0
346114,340.909090909091,4,2,1,70,1,0
346454,-55.5555555555556,4,2,2,70,0,0
346682,-55.5555555555556,3,2,99,5,0,0
346796,315.789473684211,4,2,1,70,1,0
346796,-66.6666666666667,4,2,1,70,0,0
348690,-83.3333333333333,4,2,1,70,0,0
348901,-83.3333333333333,4,2,4,70,0,0
349006,-83.3333333333333,4,2,8,70,0,0
349322,-66.6666666666667,4,2,8,70,0,0
351217,-66.6666666666667,4,2,4,70,0,0
351532,-66.6666666666667,4,2,1,70,0,0
351848,-58.8235294117647,4,2,1,70,0,0
352164,-66.6666666666667,4,2,1,70,0,0
352796,-83.3333333333333,4,2,1,70,0,0
353427,-66.6666666666667,4,2,1,70,0,0
353743,-83.3333333333333,4,2,1,70,0,0
353953,-83.3333333333333,4,2,4,70,0,0
354059,-83.3333333333333,4,2,1,70,0,0
354374,-66.6666666666667,4,2,1,70,0,0
356269,-66.6666666666667,4,2,4,70,0,0
356585,-66.6666666666667,4,2,1,70,0,0
356690,-83.3333333333333,4,2,4,70,0,0
356901,-66.6666666666667,4,2,1,70,0,0
357532,-66.6666666666667,4,2,8,70,0,0
359006,-66.6666666666667,4,2,4,70,0,0
359111,-66.6666666666667,4,2,1,70,0,0
360059,-66.6666666666667,4,2,8,70,0,0
361322,-83.3333333333333,4,2,4,70,0,0
361638,-83.3333333333333,4,2,1,70,0,0
361743,-83.3333333333333,4,2,4,70,0,0
361953,-83.3333333333333,4,2,1,70,0,0
362585,-83.3333333333333,4,2,8,70,0,0
363848,-83.3333333333333,4,2,4,70,0,0
364480,-83.3333333333333,4,2,1,70,0,0
364796,-83.3333333333333,4,2,4,70,0,0
365111,-66.6666666666667,4,2,4,70,0,0
365743,-66.6666666666667,4,2,1,70,0,0
366059,-66.6666666666667,4,2,4,70,0,0
366690,-83.3333333333333,4,2,4,70,0,0
368269,-83.3333333333333,6,2,4,70,0,0
369532,315.789473684211,6,2,4,70,1,0
369532,-83.3333333333333,6,2,4,70,0,0
370163,-100,4,2,1,70,0,0
370584,-100,4,2,3,70,0,0
371110,-100,4,2,1,70,0,0
371426,315.789473684211,3,2,1,70,1,0
371426,-83.3333333333333,3,2,1,70,0,0
372689,-83.3333333333333,3,2,4,70,0,0
373004,-83.3333333333333,3,2,1,70,0,0
373215,-83.3333333333333,3,2,4,70,0,0
373636,-83.3333333333333,3,2,1,70,0,0
373952,-83.3333333333333,3,2,4,70,0,0
374268,-83.3333333333333,3,2,1,70,0,0
374583,-66.6666666666667,3,2,4,70,0,0
374899,-83.3333333333333,3,2,1,70,0,0
375110,-83.3333333333333,3,2,2,70,0,0
375215,-83.3333333333333,3,2,4,70,0,0
375531,-83.3333333333333,3,2,1,70,0,0
378373,-83.3333333333333,3,2,4,70,0,0
379004,-83.3333333333333,3,2,1,70,0,0
380794,-83.3333333333333,3,2,2,70,0,0
380899,-83.3333333333333,3,2,4,70,0,0
381215,-83.3333333333333,3,2,1,70,0,0
382162,-83.3333333333333,3,2,4,70,0,0
382478,322.58064516129,3,2,4,70,1,0
382478,-83.3333333333333,3,2,4,70,0,0
383445,311.688311688312,3,2,4,70,1,0
383445,-83.3333333333333,3,2,4,70,0,0
383756,311.688311688312,3,2,4,70,1,0
384688,315.789473684211,3,2,4,70,1,0
384688,-83.3333333333333,3,2,4,70,0,0
386582,-83.3333333333333,3,2,1,70,0,0
387214,-83.3333333333333,3,2,4,70,0,0
387530,-83.3333333333333,3,2,1,70,0,0
387845,-83.3333333333333,3,2,4,70,0,0
388161,-83.3333333333333,3,2,1,70,0,0
388477,-83.3333333333333,3,2,4,70,0,0
388793,-83.3333333333333,3,2,1,70,0,0
389003,-83.3333333333333,3,2,2,70,0,0
389109,-83.3333333333333,3,2,4,70,0,0
389424,-83.3333333333333,3,2,1,70,0,0
389740,-83.3333333333333,3,2,4,70,0,0
390056,-83.3333333333333,3,2,1,70,0,0
390372,-83.3333333333333,3,2,4,70,0,0
390688,-83.3333333333333,3,2,1,70,0,0
391003,-83.3333333333333,3,2,4,70,0,0
391214,-83.3333333333333,3,2,2,70,0,0
391319,-100,3,2,1,70,0,0
391635,-100,3,2,4,70,0,0
391951,-100,3,2,1,70,0,0
392161,-100,3,2,2,70,0,0
392266,-100,3,2,4,70,0,0
392582,-100,3,2,1,70,0,0
392898,-100,3,2,4,70,0,0
393109,-100,3,2,2,70,0,0
393214,-100,3,2,1,70,0,0
393530,-100,3,2,4,70,0,0
393766,-100,3,2,2,70,0,0
393845,-100,3,2,1,70,0,0
394793,-100,3,2,4,70,0,0
395003,-100,3,2,2,70,0,0
395109,-100,3,2,1,70,0,0
395424,-100,3,2,4,70,0,0
395740,-100,3,2,1,70,0,0
395951,-100,3,2,4,70,0,0
396056,-100,3,2,1,70,0,0
396688,-100,3,2,4,70,0,0
397003,-83.3333333333333,3,2,1,70,0,0
397740,-83.3333333333333,3,2,3,70,0,0
398266,-83.3333333333333,3,2,4,70,0,0
401740,-83.3333333333333,3,2,1,70,0,0
402056,-83.3333333333333,3,2,4,70,0,0
403635,322.58064516129,3,2,3,70,1,0
404602,300,3,2,3,70,1,0
404702,-100,3,2,2,70,0,0
404902,315.789473684211,3,2,2,70,1,0
405007,-100,3,2,1,70,0,0
405214,-66.6666666666667,3,2,1,70,0,0
405217,-66.6666666666667,3,2,2,70,0,0
405531,315.789473684211,4,2,1,70,1,0
405531,-66.6666666666667,3,2,1,70,0,0
405846,-66.6666666666667,3,2,4,70,0,0
407425,-100,3,2,3,70,0,0
407741,-100,3,2,4,70,0,0
408057,-66.6666666666667,3,2,1,70,0,0
408373,-66.6666666666667,3,2,4,70,0,0
409952,-66.6666666666667,3,2,3,70,0,0
410267,-66.6666666666667,3,2,4,70,0,0
410583,-66.6666666666667,3,2,1,70,0,0
410586,315.789473684211,5,2,1,70,1,0
410586,-83.3333333333333,5,2,1,70,0,0
410901,-83.3333333333333,5,2,4,70,0,0
412164,-62.5,5,2,4,70,0,0
412796,-62.5,5,2,3,70,0,0
413112,-90.9090909090909,5,2,3,70,0,0
413743,-62.5,5,2,3,70,0,0
414691,-90.9090909090909,5,2,3,70,0,0
415322,315.789473684211,3,2,4,70,1,0
415322,-71.4285714285714,3,2,4,70,0,0
417216,-71.4285714285714,3,2,3,70,0,0
417532,-83.3333333333333,3,2,3,70,0,0
418795,-100,3,2,3,70,0,0
419111,315.789473684211,4,2,3,70,1,0
419426,-66.6666666666667,4,2,3,70,0,0
419742,-90.9090909090909,4,2,4,70,0,0
420374,315.789473684211,3,2,4,70,1,0
421321,-62.5,3,2,4,70,0,0
422058,-76.9230769230769,3,2,4,70,0,0
422584,-76.9230769230769,3,2,3,70,0,0
423216,-66.6666666666667,3,2,4,70,0,0
423952,-83.3333333333333,3,2,4,70,0,0
425110,-45.4545454545455,3,2,3,70,0,0
425321,-55.5555555555556,3,2,99,5,0,0
425426,-133.333333333333,3,2,3,70,0,0
426058,-45.4545454545455,3,2,3,70,0,0
426268,-55.5555555555556,3,2,99,5,0,0
426405,300,3,2,3,70,1,0
426805,-100,3,2,2,70,0,0
427005,315.789473684211,3,2,1,70,1,0
427005,-243.90243902439,3,2,1,70,0,0
427320,-100,3,2,99,5,0,0
445320,-250,3,2,9,50,0,0
445636,-166.666666666667,3,2,9,50,0,0
445952,-125,3,2,9,50,0,0
446899,-125,3,2,7,50,0,0
447531,-125,3,2,9,50,0,0
448794,-125,3,2,7,50,0,0
449741,-125,3,2,9,50,0,0
450689,-125,3,2,7,50,0,0
451320,-125,3,2,9,50,0,0
451636,-100,3,2,9,50,0,0
451952,-125,3,2,9,50,0,0
452583,-100,3,2,7,50,0,0
452899,-100,3,2,9,50,0,0
453005,-100,3,2,10,50,0,0
453215,-100,3,2,9,50,0,0
453320,-100,3,2,10,50,0,0
453531,-100,3,2,9,50,0,0
454162,-125,3,2,9,50,0,0
454478,-100,3,2,7,50,0,0
455110,-100,3,2,9,50,0,0
456057,-125,3,2,7,50,0,0
456373,-100,3,2,7,50,0,0
457320,-100,3,2,9,50,0,0
457952,-125,3,2,9,50,0,0
458268,-100,3,2,7,50,0,0
458899,-100,3,2,9,50,0,0
459005,-100,3,2,10,50,0,0
459215,-100,3,2,9,50,0,0
459531,-125,3,2,9,50,0,0
459847,-125,3,2,7,50,0,0
460162,-100,3,2,11,50,0,0
460373,-100,3,2,7,50,0,0
460794,-100,3,2,9,50,0,0
460899,-100,3,2,10,50,0,0
461110,-100,3,2,9,50,0,0
461741,-125,3,2,9,50,0,0
462057,-100,3,2,7,50,0,0
462689,-100,3,2,9,50,0,0
463320,-142.857142857143,3,2,9,50,0,0
463952,-100,3,2,7,50,0,0
464899,-100,3,2,9,50,0,0
465531,-125,3,2,9,50,0,0
465847,-100,3,2,7,50,0,0
466162,-125,3,2,7,50,0,0
466478,-100,3,2,9,50,0,0
466583,-100,3,2,10,50,0,0
466794,-100,3,2,9,50,0,0
467426,-125,3,2,9,50,0,0
467741,-100,3,2,7,50,0,0
468057,-100,3,2,9,50,0,0
468478,-100,3,2,10,50,0,0
468689,-100,3,2,9,50,0,0
469320,-125,3,2,7,50,0,0
469635,-100,3,2,7,50,0,0
470268,-125,3,2,9,50,0,0
470583,-111.111111111111,3,2,9,50,0,0
471215,-111.111111111111,3,2,7,50,0,0
471531,-111.111111111111,3,2,9,50,0,0
471952,-111.111111111111,3,2,10,50,0,0
472478,-100,3,2,9,50,0,0
473110,-125,3,2,9,50,0,0
473425,-100,3,2,7,50,0,0
474373,-100,3,2,9,50,0,0
475005,-125,3,2,7,50,0,0
475320,-100,3,2,9,50,0,0
476268,-100,3,2,12,50,0,0
476899,-133.333333333333,3,2,12,50,0,0
477215,-100,3,2,7,50,0,0
477531,-133.333333333333,3,2,7,50,0,0
477847,-133.333333333333,3,2,9,50,0,0
478162,-100,3,2,9,50,0,0
478478,-100,3,2,10,50,0,0
478794,-125,3,2,9,50,0,0
478899,-125,3,2,10,50,0,0
479110,-100,3,2,9,50,0,0
479741,-125,3,2,7,50,0,0
480057,-100,3,2,9,50,0,0
480373,-100,3,2,10,50,0,0
480689,-111.111111111111,3,2,9,50,0,0
480794,-111.111111111111,3,2,10,50,0,0
481005,-100,3,2,9,50,0,0
482268,-100,3,2,10,50,0,0
482583,-100,3,2,9,50,0,0
482689,-100,3,2,10,50,0,0
482899,-100,3,2,9,50,0,0
483215,-125,3,2,7,50,0,0
483636,-111.111111111111,3,2,7,50,0,0
483847,-100,3,2,9,50,0,0
484162,-100,3,2,10,50,0,0
484478,-125,3,2,10,50,0,0
484794,-100,3,2,10,50,0,0
485110,-125,3,2,10,50,0,0
485426,-125,3,2,9,50,0,0
485741,-100,3,2,9,50,0,0
486373,-100,3,2,10,50,0,0
486478,-100,3,2,9,50,0,0
487320,-100,3,2,7,50,0,0
487636,-100,3,2,9,50,0,0
487952,-100,3,2,10,50,0,0
489215,-100,3,2,9,50,0,0
490162,-100,3,2,13,50,0,0
490794,-100,3,2,7,50,0,0
491110,-100,3,2,10,50,0,0
491426,-100,3,2,9,50,0,0
491741,-100,3,2,10,50,0,0
493005,-125,3,2,9,50,0,0
493320,-100,3,2,9,50,0,0
493636,-125,3,2,10,50,0,0
493952,-125,3,2,9,50,0,0
494057,-125,3,2,10,50,0,0
494268,-100,3,2,9,50,0,0
494583,-100,3,2,7,50,0,0
495215,-100,3,2,9,50,0,0
495847,-100,3,2,10,50,0,0
496478,-125,3,2,7,50,0,0
496794,-125,3,2,9,50,0,0
496899,-125,3,2,10,50,0,0
497110,-100,3,2,9,50,0,0
497426,-100,3,2,10,50,0,0
497636,-100,3,2,9,50,0,0
497741,-125,3,2,9,50,0,0
497847,-125,3,2,10,50,0,0
498056,-100,3,2,9,50,0,0
498689,-100,3,2,7,50,0,0
499005,-100,3,2,9,50,0,0
499320,-125,3,2,9,50,0,0
499636,-125,3,2,7,50,0,0
499952,-100,3,2,9,50,0,0
500268,-100,3,2,7,50,0,0
500583,-125,3,2,9,50,0,0
500898,-100,3,2,9,50,0,0
501636,-100,3,2,10,50,0,0
501847,-100,3,2,9,50,0,0
503110,-125,3,2,9,50,0,0
503426,-125,3,2,10,50,0,0
503741,-100,3,2,10,50,0,0
504689,-100,3,2,9,50,0,0
505005,-125,3,2,9,50,0,0
505320,-100,3,2,9,50,0,0
505426,-100,3,2,10,50,0,0
505636,-153.846153846153,3,2,9,50,0,0
506583,-250,3,2,9,20,0,0
539110,-100,3,2,9,50,0,0
539268,-83.3333333333333,3,2,9,50,0,0
539426,-71.4285714285714,3,2,9,50,0,0
539741,315.789473684211,3,2,1,50,1,1
539741,-66.6666666666667,3,2,1,50,0,1
540688,-66.6666666666667,3,2,4,50,0,1
541004,-76.9230769230769,3,2,1,50,0,1
541319,-90.9090909090909,3,2,1,50,0,1
542582,-55.5555555555556,3,2,3,50,0,1
542898,-55.5555555555556,3,2,1,50,0,1
543214,-71.4285714285714,3,2,3,50,0,1
543846,-71.4285714285714,3,2,1,50,0,1
544477,-71.4285714285714,3,2,4,50,0,1
544793,-71.4285714285714,3,2,1,50,0,1
545425,-58.8235294117647,3,2,1,50,0,1
546372,-58.8235294117647,3,2,3,50,0,1
546688,-71.4285714285714,3,2,1,50,0,1
547004,-83.3333333333333,3,2,3,50,0,1
547635,-62.5,3,2,1,50,0,1
548056,-83.3333333333333,3,2,1,50,0,1
548267,-62.5,3,2,4,50,0,1
548582,-83.3333333333333,3,2,1,50,0,1
549214,-71.4285714285714,3,2,1,50,0,1
550161,-62.5,3,2,3,50,0,1
550477,-100,3,2,1,50,0,1
550793,-62.5,3,2,3,50,0,1
551425,-62.5,3,2,1,50,0,1
552056,-62.5,3,2,4,50,0,1
552372,-62.5,3,2,1,50,0,1
552688,-83.3333333333333,3,2,1,50,0,1
553004,-66.6666666666667,3,2,1,50,0,1
553319,-83.3333333333333,3,2,1,50,0,1
553635,-83.3333333333333,3,2,3,50,0,1
553951,-83.3333333333333,3,2,4,50,0,1
554898,-66.6666666666667,3,2,3,50,0,1
555530,-90.9090909090909,3,2,3,50,0,1
555846,-71.4285714285714,3,2,2,50,0,1
556161,-71.4285714285714,3,2,3,50,0,1
556477,-71.4285714285714,3,2,2,50,0,1
556793,-52.6315789473684,3,2,3,50,0,1
557740,-55.5555555555556,3,2,3,50,0,1
558372,-71.4285714285714,3,2,3,50,0,1
561214,-62.5,3,2,3,50,0,1
561530,-71.4285714285714,3,2,4,50,0,1
562477,-62.5,3,2,3,50,0,1
562793,-71.4285714285714,3,2,3,50,0,1
563425,-71.4285714285714,3,2,2,50,0,1
563740,-71.4285714285714,3,2,3,50,0,1
564056,-71.4285714285714,3,2,2,50,0,1
564372,-52.6315789473684,3,2,3,50,0,1
565319,-55.5555555555556,3,2,4,50,0,1
565635,-83.3333333333333,3,2,4,50,0,1
565740,-83.3333333333333,3,2,1,50,0,1
565846,-83.3333333333333,3,2,4,50,0,1
565951,-71.4285714285714,3,2,4,50,0,1
566056,-71.4285714285714,3,2,1,50,0,1
566582,-71.4285714285714,3,2,3,50,0,1
567214,-71.4285714285714,3,2,2,50,0,1
567530,-71.4285714285714,3,2,3,50,0,1
568161,-52.6315789473684,3,2,3,50,0,1
568582,-52.6315789473684,3,2,2,50,0,1
568793,-71.4285714285714,3,2,2,50,0,1
569425,-71.4285714285714,3,2,3,50,0,1
570056,-55.5555555555556,3,2,3,50,0,1
570372,-55.5555555555556,3,2,1,50,0,1
570688,-76.9230769230769,3,2,1,50,0,1
571004,-58.8235294117647,3,2,4,50,0,1
571319,-100,3,2,1,50,0,1
571951,-55.5555555555556,3,2,1,50,0,1
572898,-55.5555555555556,3,2,3,50,0,1
573214,-66.6666666666667,3,2,1,50,0,1
573530,-55.5555555555556,3,2,3,50,0,1
574161,-100,3,2,1,50,0,1
574793,-66.6666666666667,3,2,4,50,0,1
575109,-66.6666666666667,3,2,1,50,0,1
576056,-76.9230769230769,3,2,1,50,0,1
576688,-66.6666666666667,3,2,3,50,0,1
577004,-66.6666666666667,3,2,1,50,0,1
577319,-100,3,2,3,50,0,1
577951,-52.6315789473684,3,2,1,50,0,1
578267,-71.4285714285714,3,2,1,50,0,1
578582,-55.5555555555556,3,2,4,50,0,1
578898,-83.3333333333333,3,2,1,50,0,1
579530,-55.5555555555556,3,2,1,50,0,1
580477,-55.5555555555556,3,2,3,50,0,1
580793,-83.3333333333333,3,2,1,50,0,1
581109,-66.6666666666667,3,2,3,50,0,1
581740,-66.6666666666667,3,2,1,50,0,1
582372,-55.5555555555556,3,2,4,50,0,1
582688,-55.5555555555556,3,2,1,50,0,1
583004,-83.3333333333333,3,2,1,50,0,1
583319,-52.6315789473684,3,2,1,50,0,1
583635,-83.3333333333333,3,2,1,50,0,1
583951,-83.3333333333333,3,2,3,50,0,1
584267,-83.3333333333333,3,2,4,50,0,1
585214,-66.6666666666667,3,2,3,50,0,1
585846,-90.9090909090909,3,2,3,50,0,1
586161,-71.4285714285714,3,2,2,50,0,1
586477,-71.4285714285714,3,2,3,50,0,1
586793,-71.4285714285714,3,2,2,50,0,1
587109,-52.6315789473684,3,2,3,50,0,1
588056,-55.5555555555556,3,2,3,50,0,1
588688,-71.4285714285714,3,2,3,50,0,1
591530,-62.5,3,2,3,50,0,1
591846,-71.4285714285714,3,2,4,50,0,1
592793,-62.5,3,2,3,50,0,1
593109,-71.4285714285714,3,2,3,50,0,1
593740,-71.4285714285714,3,2,2,50,0,1
594056,-71.4285714285714,3,2,3,50,0,1
594372,-71.4285714285714,3,2,2,50,0,1
594688,-52.6315789473684,3,2,3,50,0,1
595635,-52.6315789473684,3,2,4,50,0,1
595951,-83.3333333333333,3,2,4,50,0,1
596056,-83.3333333333333,3,2,1,50,0,1
596161,-83.3333333333333,3,2,4,50,0,1
596267,-71.4285714285714,3,2,4,50,0,1
596372,-71.4285714285714,3,2,1,50,0,1
596898,-71.4285714285714,3,2,3,50,0,1
597530,-71.4285714285714,3,2,2,50,0,1
597846,-71.4285714285714,3,2,3,50,0,1
598477,-52.6315789473684,3,2,3,50,0,1
598898,-52.6315789473684,3,2,2,50,0,1
599109,-71.4285714285714,3,2,2,50,0,1
599635,-71.4285714285714,3,2,3,50,0,1
600056,-71.4285714285714,3,2,2,50,0,1
600372,-71.4285714285714,3,2,1,50,0,0
600689,-55.5555555555556,3,2,99,5,0,0
601005,-71.4285714285714,3,2,4,50,0,0
601636,-55.5555555555556,3,2,99,5,0,0
602268,-71.4285714285714,3,2,1,50,0,0
602583,-83.3333333333333,3,2,1,50,0,0
602689,-83.3333333333333,3,2,4,50,0,0
602794,-83.3333333333333,3,2,1,50,0,0
603110,-83.3333333333333,3,2,4,50,0,0
603320,-83.3333333333333,3,2,3,50,0,0
603847,-83.3333333333333,3,2,2,50,0,0
604162,-66.6666666666667,3,2,1,50,0,0
604478,-83.3333333333333,3,2,4,50,0,0
605110,-66.6666666666667,3,2,4,50,0,0
606057,-83.3333333333333,3,2,4,50,0,0
607005,-66.6666666666667,3,2,4,50,0,0
607320,-83.3333333333333,3,2,4,50,0,0
607952,-66.6666666666667,3,2,4,50,0,0
608268,-83.3333333333333,3,2,4,50,0,0
608899,-71.4285714285714,3,2,1,50,0,0
609215,-71.4285714285714,3,2,4,50,0,0
609847,-83.3333333333333,3,2,3,50,0,0
610162,-83.3333333333333,3,2,4,50,0,0
610478,-83.3333333333333,3,2,3,50,0,0
610689,-83.3333333333333,3,2,4,50,0,0
610794,-66.6666666666667,3,2,4,50,0,0
611005,-66.6666666666667,3,2,3,50,0,0
611110,-66.6666666666667,3,2,2,50,0,0
611426,-83.3333333333333,3,2,2,50,0,0
611741,-66.6666666666667,3,2,1,50,0,0
612057,-83.3333333333333,3,2,4,50,0,0
612689,-66.6666666666667,3,2,4,50,0,0
613636,-83.3333333333333,3,2,1,50,0,0
614268,-83.3333333333333,3,2,4,50,0,0
614583,-66.6666666666667,3,2,1,50,0,0
614689,-66.6666666666667,3,2,4,50,0,0
614899,-83.3333333333333,3,2,4,50,0,0
615531,315.789473684211,4,2,1,70,1,0
615531,-66.6666666666667,4,2,1,70,0,0
615846,-100,4,2,14,70,0,0
616162,-100,4,2,4,70,0,0
616478,-83.3333333333333,4,2,14,70,0,0
616794,-83.3333333333333,4,2,4,70,0,0
617109,-83.3333333333333,4,2,14,70,0,0
617425,-66.6666666666667,4,2,4,70,0,0
617741,-83.3333333333333,4,2,4,70,0,0
618057,-83.3333333333333,4,2,1,70,0,0
618373,-83.3333333333333,4,2,14,70,0,0
618688,-83.3333333333333,4,2,4,70,0,0
619004,-83.3333333333333,4,2,14,70,0,0
619320,-83.3333333333333,4,2,4,70,0,0
619636,-83.3333333333333,4,2,14,70,0,0
619952,-83.3333333333333,4,2,8,70,0,0
620267,-55.5555555555556,4,2,8,70,0,0
620583,-66.6666666666667,4,2,1,70,0,0
620899,-66.6666666666667,4,2,14,70,0,0
621215,-83.3333333333333,4,2,4,70,0,0
621531,-83.3333333333333,4,2,14,70,0,0
621846,-83.3333333333333,4,2,4,70,0,0
622162,-83.3333333333333,4,2,14,70,0,0
622478,-83.3333333333333,4,2,1,70,0,0
622794,-66.6666666666667,4,2,14,70,0,0
623109,-66.6666666666667,4,2,1,70,0,0
623425,-66.6666666666667,4,2,14,70,0,0
623741,-66.6666666666667,4,2,4,70,0,0
624057,-66.6666666666667,4,2,14,70,0,0
624373,-66.6666666666667,4,2,2,70,0,0
624899,-83.3333333333333,4,2,2,70,0,0
625004,-83.3333333333333,4,2,6,70,0,0
625952,-83.3333333333333,4,2,1,70,0,0
626267,-66.6666666666667,4,2,1,70,0,0
626583,-66.6666666666667,4,2,4,70,0,0
627215,-83.3333333333333,4,2,4,70,0,0
627531,-66.6666666666667,4,2,1,70,0,0
627846,-66.6666666666667,4,2,4,70,0,0
628162,-66.6666666666667,4,2,1,70,0,0
628794,-66.6666666666667,4,2,8,70,0,0
629425,-66.6666666666667,4,2,3,70,0,0
630373,-66.6666666666667,4,2,2,70,0,0
631004,-83.3333333333333,4,2,1,70,0,0
631636,-83.3333333333333,4,2,4,70,0,0
632583,-66.6666666666667,4,2,1,70,0,0
632899,-66.6666666666667,4,2,4,70,0,0
633215,-83.3333333333333,4,2,1,70,0,0
633531,-83.3333333333333,4,2,4,70,0,0
634478,-83.3333333333333,4,2,3,70,0,0
635425,-83.3333333333333,4,2,2,70,0,0
635741,315.789473684211,3,2,1,70,1,0
635741,-50,3,2,1,70,0,0
636056,-50,3,2,4,70,0,0
636372,-66.6666666666667,3,2,4,70,0,0
638267,-50,3,2,4,70,0,0
638583,-90.9090909090909,3,2,4,70,0,0
638898,-66.6666666666667,3,2,3,70,0,0
639530,-50,3,2,3,70,0,0
639846,-50,3,2,4,70,0,0
640161,-66.6666666666667,3,2,4,70,0,0
642056,-50,3,2,4,70,0,0
642372,-66.6666666666667,3,2,4,70,0,0
642688,-66.6666666666667,3,2,3,70,0,0
643319,-50,3,2,3,70,0,0
643635,-50,3,2,4,70,0,0
643950,-66.6666666666667,3,2,4,70,0,0
645846,-50,3,2,4,70,0,0
646477,-50,3,2,3,70,0,0
647425,-50,3,2,4,70,0,0
647741,-66.6666666666667,3,2,4,70,0,0
649004,322.58064516129,3,2,4,70,1,0
649111,-100,3,2,3,70,0,0
649649,-100,3,2,4,70,0,0
649971,309.278350515464,3,2,4,70,1,0
650589,-66.6666666666667,3,2,4,70,0,0
650898,315.789473684211,3,2,4,55,1,0
654687,-66.6666666666667,3,2,1,55,0,0
654898,-55.5555555555556,3,2,99,5,0,0
655003,-66.6666666666667,3,2,1,55,0,0
655845,-55.5555555555556,3,2,99,5,0,0
655950,-66.6666666666667,3,2,1,55,0,0
656792,-55.5555555555556,3,2,99,5,0,0
656898,-66.6666666666667,3,2,2,55,0,0
657213,-66.6666666666667,3,2,4,55,0,0
657424,-55.5555555555556,3,2,99,5,0,0
657529,-66.6666666666667,3,2,1,55,0,0
657740,-55.5555555555556,3,2,99,5,0,0
657845,-66.6666666666667,3,2,1,55,0,0
658161,-66.6666666666667,3,2,4,55,0,0
658476,-66.6666666666667,3,2,1,55,0,0
662476,-55.5555555555556,3,2,99,5,0,0
662582,-66.6666666666667,3,2,1,55,0,0
663424,-55.5555555555556,3,2,99,5,0,0
663529,-66.6666666666667,3,2,2,55,0,0
663845,-66.6666666666667,3,2,1,55,0,0
664055,-55.5555555555556,3,2,99,5,0,0
664161,-66.6666666666667,3,2,1,55,0,0
664371,-55.5555555555556,3,2,99,5,0,0
664476,-66.6666666666667,3,2,1,55,0,0
665003,-55.5555555555556,3,2,99,5,0,0
665108,-66.6666666666667,3,2,1,55,0,0
665319,-55.5555555555556,3,2,99,5,0,0
665424,-66.6666666666667,3,2,1,55,0,0
665950,-55.5555555555556,3,2,99,5,0,0
666055,-250,3,2,1,55,0,0
667319,-55.5555555555556,3,2,99,5,0,0
667634,-250,3,2,1,55,0,0
669108,-55.5555555555556,3,2,99,5,0,0
669213,-250,3,2,1,55,0,0
669845,-66.6666666666667,3,2,1,55,0,0
670055,-55.5555555555556,3,2,99,5,0,0
670161,-66.6666666666667,3,2,1,55,0,0
671003,-55.5555555555556,3,2,99,5,0,0
671108,-66.6666666666667,3,2,1,55,0,0
671424,-66.6666666666667,3,2,4,55,0,0
671740,-66.6666666666667,3,2,1,55,0,0
671950,-55.5555555555556,3,2,99,5,0,0
672055,-66.6666666666667,3,2,2,55,0,0
672371,-66.6666666666667,3,2,4,55,0,0
672687,-66.6666666666667,3,2,1,55,0,0
672898,-55.5555555555556,3,2,99,5,0,0
673003,-66.6666666666667,3,2,1,55,0,0
673319,-66.6666666666667,3,2,2,55,0,0
673634,-250,3,2,1,55,0,0
674898,-55.5555555555556,3,2,99,5,0,0
675213,-250,3,2,1,55,0,0
676687,-55.5555555555556,3,2,99,5,0,0
676792,-250,3,2,1,55,0,0
677424,-66.6666666666667,3,2,1,55,0,0
677634,-55.5555555555556,3,2,99,5,0,0
677740,-66.6666666666667,3,2,1,55,0,0
678582,-55.5555555555556,3,2,99,5,0,0
678687,-66.6666666666667,3,2,1,55,0,0
679529,-55.5555555555556,3,2,99,5,0,0
679634,-66.6666666666667,3,2,1,55,0,0
680476,-55.5555555555556,3,2,99,5,0,0
680582,-66.6666666666667,3,2,1,55,0,0
680898,-66.6666666666667,3,2,3,70,0,0
681687,-66.6666666666667,3,2,5,70,0,0
681766,-66.6666666666667,3,2,3,70,0,0
681845,-90.9090909090909,3,2,2,70,0,0
682161,315.789473684211,3,2,3,70,1,1
682161,-66.6666666666667,3,2,3,70,0,1
682398,-55.5555555555556,3,2,99,5,0,1
682476,-66.6666666666667,3,2,1,70,0,1
684371,-83.3333333333333,3,2,1,70,0,1
684687,-83.3333333333333,3,2,4,70,0,1
684766,-83.3333333333333,3,2,1,70,0,1
687213,-83.3333333333333,3,2,3,70,0,1
687292,-83.3333333333333,3,2,1,70,0,1
690055,-83.3333333333333,3,2,4,70,0,1
690134,-83.3333333333333,3,2,1,70,0,1
690371,-83.3333333333333,3,2,4,70,0,1
690450,-83.3333333333333,3,2,1,70,0,1
692108,-83.3333333333333,3,2,3,70,0,1
693213,-83.3333333333333,3,2,2,70,0,1
693529,333.333333333333,3,2,1,70,1,0
693529,-83.3333333333333,3,2,1,70,0,0
693845,-83.3333333333333,3,2,1,70,0,0
693862,307.692307692308,3,2,4,70,1,0
694003,-100,3,2,4,70,0,0
694015,-100,3,2,2,70,0,0
694161,-100,3,2,2,70,0,0
694169,-100,3,2,4,70,0,0
694319,-100,3,2,4,70,0,0
694323,-100,3,2,2,70,0,0
694477,315.789473684211,3,2,4,70,1,0
694477,-83.3333333333333,3,2,4,70,0,0
694634,-83.3333333333333,3,2,2,70,0,0
694792,-83.3333333333333,3,2,4,70,0,0
694950,-83.3333333333333,3,2,2,70,0,0
695108,-83.3333333333333,3,2,4,70,0,0
695266,-83.3333333333333,3,2,2,70,0,0
695424,-83.3333333333333,3,2,4,70,0,0
695582,-83.3333333333333,3,2,2,70,0,0
695740,-83.3333333333333,3,2,4,70,0,0
695898,-83.3333333333333,3,2,2,70,0,0
696055,-83.3333333333333,3,2,4,70,0,0
696371,-83.3333333333333,3,2,1,70,0,0
696687,-83.3333333333333,3,2,4,70,0,0
696845,-83.3333333333333,3,2,2,70,0,0
697003,-83.3333333333333,3,2,4,70,0,0
697161,-83.3333333333333,3,2,2,70,0,0
697319,-83.3333333333333,3,2,4,70,0,0
697476,-83.3333333333333,3,2,2,70,0,0
697634,-83.3333333333333,3,2,4,70,0,0
697792,-83.3333333333333,3,2,2,70,0,0
697950,-83.3333333333333,3,2,4,70,0,0
698108,-83.3333333333333,3,2,2,70,0,0
698345,-83.3333333333333,3,2,1,70,0,0
699529,-83.3333333333333,3,2,4,70,0,0
699687,-83.3333333333333,3,2,2,70,0,0
699845,-83.3333333333333,3,2,4,70,0,0
700003,-83.3333333333333,3,2,2,70,0,0
700161,-83.3333333333333,3,2,4,70,0,0
700319,-83.3333333333333,3,2,2,70,0,0
700476,-83.3333333333333,3,2,4,70,0,0
701108,319.148936170213,3,2,4,70,1,0
701108,-83.3333333333333,3,2,4,70,0,0
702055,-83.3333333333333,3,2,4,70,0,0
702065,-83.3333333333333,3,2,1,70,0,0
702371,-83.3333333333333,3,2,1,70,0,0
702384,-83.3333333333333,3,2,4,70,0,0
702529,-83.3333333333333,3,2,4,70,0,0
702544,-83.3333333333333,3,2,2,70,0,0
703022,312.5,3,2,2,70,1,0
703022,-83.3333333333333,3,2,2,70,0,0
703319,-83.3333333333333,3,2,2,70,0,0
703334,-83.3333333333333,3,2,15,70,0,0
703412,-83.3333333333333,3,2,2,70,0,0
703476,-83.3333333333333,3,2,2,70,0,0
703792,-83.3333333333333,3,2,2,70,0,0
703803,-83.3333333333333,3,2,3,70,0,0
704582,-83.3333333333333,3,2,2,70,0,0
704898,315.789473684211,3,2,1,70,1,0
704898,-66.6666666666667,3,2,1,70,0,1
705134,-55.5555555555556,3,2,99,5,0,1
705213,-66.6666666666667,3,2,1,70,0,1
705845,-50,3,2,1,70,0,1
706161,-83.3333333333333,3,2,1,70,0,1
707424,-83.3333333333333,3,2,3,70,0,1
707503,-83.3333333333333,3,2,1,70,0,1
709634,-83.3333333333333,3,2,5,70,0,1
709950,-83.3333333333333,3,2,1,70,0,1
710266,-83.3333333333333,3,2,3,70,0,1
710345,-83.3333333333333,3,2,1,70,0,1
710898,-83.3333333333333,3,2,5,70,0,1
711213,-83.3333333333333,3,2,1,70,0,1
711529,-83.3333333333333,3,2,5,70,0,1
711845,-83.3333333333333,3,2,1,70,0,1
713108,-58.8235294117647,3,2,1,70,0,1
713424,-50,3,2,3,70,0,1
713503,-50,3,2,1,70,0,1
713898,-83.3333333333333,3,2,1,70,0,1
714055,-83.3333333333333,3,2,3,70,0,1
714134,-83.3333333333333,3,2,1,70,0,1
714687,-83.3333333333333,3,2,3,70,0,1
714766,-83.3333333333333,3,2,1,70,0,1
715003,-58.8235294117647,3,2,1,70,0,1
715319,-50,3,2,1,70,0,1
715634,-83.3333333333333,3,2,1,70,0,1
715792,-83.3333333333333,3,2,3,70,0,1
717213,-83.3333333333333,3,2,3,70,0,0
718476,-83.3333333333333,3,2,2,70,0,0
718792,-83.3333333333333,3,2,1,70,0,0
719108,315.789473684211,3,2,1,70,1,1
719108,-55.5555555555556,3,2,1,70,0,1
719740,-66.6666666666667,3,2,1,70,0,1
720055,-55.5555555555556,3,2,4,70,0,1
720371,-66.6666666666667,3,2,1,70,0,1
721950,-55.5555555555556,3,2,3,70,0,1
722266,-55.5555555555556,3,2,1,70,0,1
722582,-55.5555555555556,3,2,3,70,0,1
723213,-66.6666666666667,3,2,1,70,0,1
723845,-66.6666666666667,3,2,4,70,0,1
724161,-66.6666666666667,3,2,1,70,0,1
725740,-66.6666666666667,3,2,3,70,0,1
726055,-66.6666666666667,3,2,1,70,0,1
726371,-83.3333333333333,3,2,3,70,0,1
726687,-66.6666666666667,3,2,3,70,0,1
727003,-50,3,2,1,70,0,1
727319,-66.6666666666667,3,2,1,70,0,1
727634,-66.6666666666667,3,2,4,70,0,1
727950,-66.6666666666667,3,2,1,70,0,1
729529,-66.6666666666667,3,2,3,70,0,1
729845,-66.6666666666667,3,2,1,70,0,1
730161,-66.6666666666667,3,2,3,70,0,1
730476,-55.5555555555556,3,2,3,70,0,1
730792,-66.6666666666667,3,2,1,70,0,1
731424,-55.5555555555556,3,2,4,70,0,1
731739,-66.6666666666667,3,2,1,70,0,1
732371,-55.5555555555556,3,2,1,70,0,1
732686,-66.6666666666667,3,2,1,70,0,1
733003,-66.6666666666667,3,2,3,70,0,1
733319,-66.6666666666667,3,2,4,70,0,1
734266,-55.5555555555556,3,2,3,70,0,1
734687,-76.9230769230769,3,2,3,70,0,1
735213,-55.5555555555556,3,2,2,70,0,1
735529,-55.5555555555556,3,2,3,70,0,1
735845,-83.3333333333333,3,2,2,70,0,1
736161,-66.6666666666667,3,2,3,70,0,1
736792,-55.5555555555556,3,2,3,70,0,1
737740,-83.3333333333333,3,2,3,70,0,1
738055,-62.5,3,2,3,70,0,1
738687,-83.3333333333333,3,2,3,70,0,1
739003,-62.5,3,2,3,70,0,1
740898,-62.5,3,2,4,70,0,1
741845,-62.5,3,2,3,70,0,1
742161,-55.5555555555556,3,2,3,70,0,1
742476,-83.3333333333333,3,2,3,70,0,1
742792,-55.5555555555556,3,2,2,70,0,1
743108,-55.5555555555556,3,2,3,70,0,1
743213,-83.3333333333333,3,2,3,70,0,1
743424,-83.3333333333333,3,2,2,70,0,1
743740,-55.5555555555556,3,2,3,70,0,1
744687,-55.5555555555556,3,2,4,70,0,1
745003,-83.3333333333333,3,2,4,70,0,1
745108,-83.3333333333333,3,2,1,70,0,1
745213,-83.3333333333333,3,2,4,70,0,1
745424,-83.3333333333333,3,2,1,70,0,1
745634,-62.5,3,2,1,70,0,1
745950,-62.5,3,2,3,70,0,1
746582,-55.5555555555556,3,2,2,70,0,1
746898,-83.3333333333333,3,2,3,70,0,1
748161,-83.3333333333333,3,2,2,70,0,1
748476,-66.6666666666667,3,2,1,70,0,1
748792,-83.3333333333333,3,2,4,70,0,1
749424,-66.6666666666667,3,2,4,70,0,1
751319,-55.5555555555556,3,2,4,70,0,1
751950,-83.3333333333333,3,2,4,70,0,1
752265,-66.6666666666667,3,2,3,70,0,0
753213,-66.6666666666667,3,2,4,70,0,0
753529,-66.6666666666667,3,2,3,70,0,0
753845,-83.3333333333333,3,2,4,70,0,0
754161,-66.6666666666667,3,2,3,70,0,0
754792,-83.3333333333333,3,2,3,70,0,0
755108,-66.6666666666667,3,2,2,70,0,0
755740,-66.6666666666667,3,2,3,70,0,0
757003,-66.6666666666667,3,2,2,70,0,0
757319,-83.3333333333333,3,2,3,70,0,0
757950,-66.6666666666667,3,2,3,70,0,0
758582,-83.3333333333333,3,2,3,70,0,0
758898,-66.6666666666667,3,2,4,70,0,0
759213,-83.3333333333333,3,2,3,70,0,0
759529,-83.3333333333333,3,2,4,70,0,0
759845,-83.3333333333333,3,2,1,70,0,0
760161,-66.6666666666667,3,2,4,70,0,0
760476,-83.3333333333333,3,2,4,70,0,0
760792,-66.6666666666667,3,2,4,70,0,0
761108,-66.6666666666667,3,2,3,70,0,0
761424,-83.3333333333333,3,2,4,70,0,0
761740,320.855614973262,3,2,1,70,1,0
761740,-66.6666666666667,3,2,1,70,0,0
762055,-66.6666666666667,3,2,1,70,0,0
762060,-66.6666666666667,3,2,4,70,0,0
762371,-83.3333333333333,3,2,4,70,0,0
762702,310.880829015544,3,2,4,70,1,0
762702,-66.6666666666667,3,2,4,70,0,0
763634,315.789473684211,3,2,4,70,1,0
763634,-66.6666666666667,3,2,4,70,0,0
764582,-83.3333333333333,3,2,4,70,0,0
765528,-66.6666666666667,3,2,4,70,0,0
766476,-83.3333333333333,3,2,3,70,0,0
766792,-83.3333333333333,3,2,2,70,0,0
767423,-55.5555555555556,3,2,3,70,0,0
768055,-83.3333333333333,3,2,3,70,0,0
768370,-66.6666666666667,3,2,4,70,0,0
768686,-83.3333333333333,3,2,3,70,0,0
769003,-83.3333333333333,3,2,4,70,0,0
769318,-66.6666666666667,3,2,3,70,0,0
769634,-83.3333333333333,3,2,3,70,0,0
769949,-66.6666666666667,3,2,3,70,0,0
770265,-55.5555555555556,3,2,4,70,0,0
770582,-55.5555555555556,3,2,3,70,0,0
770897,-83.3333333333333,3,2,4,70,0,0
771212,-66.6666666666667,3,2,3,70,0,0
772476,-83.3333333333333,3,2,3,70,0,0
772792,-83.3333333333333,3,2,4,70,0,0
773107,-66.6666666666667,3,2,3,70,0,0
773739,-83.3333333333333,3,2,4,70,0,0
774055,-55.5555555555556,3,2,4,70,0,0
775003,-55.5555555555556,3,2,3,70,0,0
775634,-83.3333333333333,3,2,3,70,0,0
775949,-66.6666666666667,3,2,4,70,0,0
776265,-83.3333333333333,3,2,3,70,0,0
776582,-83.3333333333333,3,2,4,70,0,0
776897,-66.6666666666667,3,2,3,70,0,0
777212,-83.3333333333333,3,2,3,70,0,0
777844,-66.6666666666667,3,2,2,70,0,0
778791,-50,3,2,1,70,0,0
779108,-50,3,2,4,70,0,0
780687,-50,3,2,1,70,0,0
781003,-50,3,2,4,70,0,0
781319,-50,3,2,3,70,0,0
781634,-50,3,2,4,70,0,0
783529,-50,3,2,3,70,0,0
784161,-50,3,2,4,70,0,0
786055,-50,3,2,1,70,0,0
786265,-55.5555555555556,3,2,99,5,0,0
786370,-66.6666666666667,3,2,1,70,0,1
788265,-362.31884057971,3,2,1,70,0,0
788344,-362.31884057971,3,2,99,5,0,0

[Colours]
Combo1 : 238,192,136
Combo2 : 180,151,247
Combo3 : 253,185,200
Combo4 : 121,104,215
Combo5 : 241,162,255
Combo6 : 252,245,186

[HitObjects]
293,335,39416,6,0,P|329:319|396:314,2,88
463,217,40648,2,0,P|419:211|379:194,2,88
211,20,41881,6,0,P|234:150|260:345,1,311.666672611237,4|0,3:2|0:0,0:0:0:0:
241,344,42292,1,8,2:3:0:0:
147,252,42429,1,8,2:3:0:0:
345,192,42566,1,8,2:3:0:0:
155,273,42703,6,0,P|128:258|91:256,1,62.3333345222473,4|0,3:2|0:0,0:0:0:0:
67,246,43114,6,0,B|135:220|173:265|174:270|175:275|221:316|286:286,1,234.666666666667,4|0,3:2|0:0,0:0:0:0:
387,325,44347,38,0,P|378:280|371:230,1,88
403,168,44895,1,0,0:0:0:0:
423,174,45032,1,0,0:0:0:0:
447,183,45169,1,0,0:0:0:0:
310,80,45580,5,0,0:0:0:0:
296,87,45717,2,0,P|289:130|285:156,2,58.6666666666667
241,36,46402,1,0,0:0:0:0:
457,207,46813,6,0,P|193:262|126:283,1,311.666672611237,4|0,3:2|0:0,0:0:0:0:
131,255,47224,1,8,2:3:0:0:
213,154,47361,1,8,2:3:0:0:
273,332,47498,1,8,2:3:0:0:
195,162,47635,6,0,P|200:135|214:78,1,62.3333345222473,4|0,3:2|0:0,0:0:0:0:
201,83,48046,38,0,P|191:118|179:198,1,109.999996643067,4|0,3:2|0:0,0:0:0:0:
113,248,48457,5,8,2:3:0:0:
106,247,48525,1,8,2:3:0:0:
100,245,48594,2,0,L|94:187,1,36.6666666666667,8|8,2:3|2:3,0:0:0:0:
27,170,48731,2,0,L|33:134,1,36.6666666666667,0|0,3:3|3:3,0:0:0:0:
104,30,48868,5,2,2:2:0:0:
104,30,49279,6,0,B|92:104|156:142|156:142|232:96|205:20|205:20|203:50|179:75,1,329.9999899292,4|0,3:2|0:0,0:0:0:0:
269,141,49690,37,2,3:2:0:0:
277,139,49758,1,0,1:1:0:0:
285,138,49827,1,2,3:2:0:0:
293,136,49895,1,0,1:1:0:0:
301,134,49964,2,0,L|367:124,1,36.6666666666667,2|0,3:2|1:1,0:0:0:0:
381,42,50100,5,2,3:2:0:0:
391,44,50168,1,0,1:1:0:0:
401,45,50237,1,2,3:2:0:0:
412,48,50305,1,0,1:1:0:0:
422,51,50374,2,0,L|482:61,1,36.6666666666667,2|0,3:2|1:1,0:0:0:0:
434,185,50511,6,0,L|422:123,5,36.6666666666667,2|0|2|0|2|0,3:2|1:1|3:2|1:1|3:2|1:1,0:0:0:0:
323,300,50922,5,2,3:2:0:0:
310,287,50991,1,0,1:1:0:0:
302,270,51059,1,2,3:2:0:0:
296,252,51128,1,0,1:1:0:0:
295,233,51196,1,2,3:2:0:0:
300,215,51265,1,0,1:1:0:0:
305,197,51333,38,0,P|342:203|372:221,1,47.6666644846599,2|0,3:2|1:1,0:0:0:0:
441,283,51470,2,0,P|468:279|493:270,3,47.6666644846599,2|0|2|0,3:2|1:1|3:2|1:1,0:0:0:0:
410,118,51744,5,4,3:2:0:0:
390,107,51813,1,0,1:1:0:0:
369,100,51881,1,2,3:2:0:0:
347,96,51950,1,0,1:1:0:0:
325,92,52018,1,2,3:2:0:0:
302,93,52087,1,0,1:1:0:0:
280,94,52155,6,0,L|268:25,5,36.6666666666667,2|0|2|0|2|0,3:2|1:1|3:2|1:1|3:2|1:1,0:0:0:0:
189,117,52566,2,0,L|183:153,1,36.6666666666667,2|0,3:2|1:1,0:0:0:0:
289,216,52703,2,0,L|281:180,3,36.6666666666667,2|0|2|0,3:2|1:1|3:2|1:1,0:0:0:0:
203,351,52977,5,4,3:2:0:0:
216,325,53045,1,0,1:1:0:0:
220,296,53113,1,2,3:2:0:0:
213,267,53182,1,0,1:1:0:0:
195,244,53250,1,2,3:2:0:0:
170,230,53319,1,0,1:1:0:0:
140,226,53387,1,2,3:2:0:0:
112,233,53456,1,0,1:1:0:0:
89,250,53524,1,2,3:2:0:0:
74,275,53593,1,0,1:1:0:0:
70,304,53661,1,2,3:2:0:0:
77,332,53730,1,0,1:1:0:0:
94,356,53799,38,0,P|141:344|158:341,5,36.6666666666667,2|0|2|0|2|0,3:2|1:1|3:2|1:1|3:2|1:1,0:0:0:0:
51,244,54210,5,4,3:2:0:0:
52,237,54278,1,0,1:1:0:0:
53,230,54347,1,2,3:2:0:0:
55,224,54415,1,0,1:1:0:0:
55,217,54484,2,0,L|62:177,1,36.6666666666667,2|0,3:2|1:1,0:0:0:0:
176,174,54621,5,2,3:2:0:0:
174,166,54689,1,0,1:1:0:0:
173,158,54758,1,2,3:2:0:0:
171,150,54826,1,0,1:1:0:0:
169,142,54895,2,0,L|159:76,1,36.6666666666667,2|0,3:2|1:1,0:0:0:0:
1,88,55031,5,2,3:2:0:0:
11,90,55099,1,0,1:1:0:0:
21,91,55168,1,2,3:2:0:0:
32,94,55236,1,0,1:1:0:0:
42,97,55305,2,0,L|102:107,1,36.6666666666667,2|0,3:2|1:1,0:0:0:0:
164,11,55443,38,0,L|128:18,1,36.6666666666667,2|0,3:2|1:1,0:0:0:0:
246,112,55580,2,0,L|253:55,3,36.6666666666667,2|0|2|0,3:2|1:1|3:2|1:1,0:0:0:0:
141,205,55854,6,0,B|186:182|230:220|230:220|231:227|231:227|273:265|322:241,1,197.99999395752,4|0,3:2|1:1,0:0:0:0:
323,163,56128,2,0,P|314:188|313:211,1,47.6666644846599,2|0,3:2|1:1,0:0:0:0:
429,293,56265,6,0,P|427:269|418:247,5,47.6666644846599,2|0|2|0|2|0,3:2|1:1|3:2|1:1|3:2|1:1,0:0:0:0:
505,121,56676,5,4,3:2:0:0:
487,134,56744,1,0,1:1:0:0:
467,141,56813,1,2,3:2:0:0:
444,142,56881,1,0,1:1:0:0:
422,137,56950,1,2,3:2:0:0:
403,127,57018,1,0,1:1:0:0:
386,111,57087,1,2,3:2:0:0:
370,95,57156,1,0,1:1:0:0:
351,84,57224,1,2,3:2:0:0:
328,79,57293,1,0,1:1:0:0:
306,80,57361,1,2,3:2:0:0:
286,87,57430,1,0,1:1:0:0:
266,103,57498,38,0,B|278:159|278:159|275:191|275:191|292:280,1,146.666666666667,2|8,3:2|2:2,0:0:0:0:
61,357,57909,5,0,3:3:0:0:
64,323,57977,1,8,2:2:0:0:
69,289,58046,1,8,2:2:0:0:
72,256,58114,1,8,2:2:0:0:
77,221,58183,1,8,2:2:0:0:
81,189,58251,1,8,2:2:0:0:
88,156,58320,6,0,L|18:169,1,36.6666666666667,8|8,2:3|2:3,0:0:0:0:
169,270,58457,1,8,2:3:0:0:
170,261,58525,1,8,2:3:0:0:
171,247,58594,2,0,L|176:188,1,36.6666666666667,8|8,2:3|2:3,0:0:0:0:
166,102,58731,6,0,P|194:108|215:112,1,47.6666644846599,8|8,2:3|2:3,0:0:0:0:
265,204,58868,2,0,P|288:198|311:194,1,47.6666644846599,8|8,2:3|2:3,0:0:0:0:
355,117,59005,2,0,P|378:122|401:126,1,47.6666644846599,0|0,3:3|3:3,0:0:0:0:
512,216,59142,38,0,B|519:273|440:280|432:231|432:231|409:3,1,293.333333333333,4|0,3:2|3:3,0:0:0:0:
333,9,59553,5,4,3:2:0:0:
291,23,59621,1,0,1:1:0:0:
265,52,59690,1,2,3:2:0:0:
260,84,59758,1,0,1:1:0:0:
269,110,59827,1,2,3:2:0:0:
283,126,59895,1,0,1:1:0:0:
301,137,59963,5,2,3:2:0:0:
259,121,60032,1,0,1:1:0:0:
215,128,60100,1,2,3:2:0:0:
182,158,60169,1,0,1:1:0:0:
172,200,60237,2,0,L|198:254,1,55.0000020980836,2|0,3:2|1:1,0:0:0:0:
72,338,60374,5,2,3:2:0:0:
74,327,60443,1,0,1:1:0:0:
76,316,60511,1,2,3:2:0:0:
78,305,60580,1,0,1:1:0:0:
80,294,60648,2,0,L|16:308,1,55.0000020980836,2|0,3:2|1:1,0:0:0:0:
157,364,60785,37,2,3:2:0:0:
172,340,60854,1,0,1:1:0:0:
194,324,60922,1,2,3:2:0:0:
219,314,60991,1,0,1:1:0:0:
246,311,61059,1,2,3:2:0:0:
273,316,61128,1,0,1:1:0:0:
295,331,61196,6,0,L|308:392,1,55.0000020980836,2|0,3:2|1:1,0:0:0:0:
162,214,61333,2,0,L|233:224,1,55.0000020980836,2|0,3:2|1:1,0:0:0:0:
405,208,61470,2,0,L|334:218,1,55.0000020980836,2|0,3:2|1:1,0:0:0:0:
276,123,61607,5,2,3:2:0:0:
256,89,61676,1,0,1:1:0:0:
263,51,61744,1,2,3:2:0:0:
294,27,61813,1,0,1:1:0:0:
332,27,61881,1,2,3:2:0:0:
360,53,61950,1,0,1:1:0:0:
400,67,62018,5,2,3:2:0:0:
414,20,62087,1,0,1:1:0:0:
460,9,62155,1,2,3:2:0:0:
503,32,62224,1,0,1:1:0:0:
508,79,62292,1,2,3:2:0:0:
477,117,62361,1,0,1:1:0:0:
428,122,62429,38,0,P|413:149|414:185,3,55.0000020980836,2|0|2|0,3:2|1:1|3:2|1:1,0:0:0:0:
512,256,62703,2,0,P|480:233|442:226,1,55.0000020980836,2|0,3:2|1:1,0:0:0:0:
353,250,62840,5,2,3:2:0:0:
337,257,62909,1,0,1:1:0:0:
322,263,62977,1,2,3:2:0:0:
307,270,63046,1,0,1:1:0:0:
292,278,63114,2,0,L|304:349,1,55.0000020980836,2|0,3:2|1:1,0:0:0:0:
210,212,63251,5,2,3:2:0:0:
200,222,63320,1,0,1:1:0:0:
192,232,63388,1,2,3:2:0:0:
184,242,63457,1,0,1:1:0:0:
176,252,63525,2,0,L|209:299,1,55.0000020980836,2|0,3:2|1:1,0:0:0:0:
75,361,63662,5,4,3:2:0:0:
79,328,63731,1,0,1:1:0:0:
83,295,63799,1,2,3:2:0:0:
87,262,63868,1,0,1:1:0:0:
91,229,63936,1,2,3:2:0:0:
96,196,64005,1,0,1:1:0:0:
101,163,64073,38,0,L|31:148,1,55.0000020980836,4|0,3:2|1:1,0:0:0:0:
161,95,64210,2,0,L|155:23,1,55.0000020980836,2|0,3:2|1:1,0:0:0:0:
236,140,64347,2,0,L|306:125,1,55.0000020980836,2|0,3:2|1:1,0:0:0:0:
181,218,64484,5,2,3:2:0:0:
176,245,64553,1,0,1:1:0:0:
170,271,64621,1,2,3:2:0:0:
165,298,64690,1,0,1:1:0:0:
160,325,64758,2,0,L|102:297,1,55.0000020980836,2|0,3:2|1:1,0:0:0:0:
271,249,64895,5,2,3:2:0:0:
292,254,64963,1,0,1:1:0:0:
310,266,65032,1,2,3:2:0:0:
325,281,65100,1,0,1:1:0:0:
335,300,65169,2,0,P|300:323|288:344,1,55.0000020980836,2|0,3:2|1:1,0:0:0:0:
464,290,65306,5,4,3:2:0:0:
472,241,65374,1,0,1:1:0:0:
445,198,65443,1,2,3:2:0:0:
396,188,65511,1,0,1:1:0:0:
366,147,65580,1,2,3:2:0:0:
380,100,65648,1,0,1:1:0:0:
427,85,65717,37,2,3:2:0:0:
402,120,65785,1,0,1:1:0:0:
409,162,65853,1,2,3:2:0:0:
445,186,65922,1,0,1:1:0:0:
487,178,65990,1,2,3:2:0:0:
511,143,66059,1,0,1:1:0:0:
503,101,66127,5,4,3:2:0:0:
484,88,66196,1,0,1:1:0:0:
472,68,66265,1,2,3:2:0:0:
469,46,66333,1,0,1:1:0:0:
473,24,66402,2,0,P|498:16|531:15,1,55.0000020980836,2|0,3:2|1:1,0:0:0:0:
397,177,66539,6,0,B|315:235|237:165|288:154|184:86|103:172,1,293.333333333333,4|2,3:2|3:2,0:0:0:0:
48,210,66950,5,2,3:2:0:0:
33,225,67018,1,0,1:1:0:0:
24,245,67087,1,2,3:2:0:0:
22,266,67155,1,0,1:1:0:0:
28,287,67224,1,2,3:2:0:0:
40,304,67292,1,0,1:1:0:0:
60,313,67361,1,4,3:2:0:0:
73,306,67429,1,0,3:3:0:0:
87,302,67498,1,0,3:3:0:0:
101,300,67566,1,0,3:3:0:0:
115,301,67635,1,8,2:3:0:0:
128,305,67703,1,8,2:3:0:0:
140,313,67772,37,8,2:2:0:0:
121,265,67840,1,8,2:2:0:0:
138,216,67909,1,8,2:2:0:0:
182,190,67977,1,8,2:2:0:0:
233,198,68046,1,8,2:2:0:0:
273,182,68114,1,8,2:2:0:0:
280,145,68183,5,4,3:2:0:0:
271,132,68251,1,0,3:3:0:0:
256,128,68320,1,0,3:3:0:0:
242,132,68388,1,0,3:3:0:0:
233,144,68457,1,8,2:3:0:0:
231,158,68525,1,8,2:3:0:0:
234,179,68594,5,0,3:3:0:0:
256,197,68662,1,0,3:3:0:0:
292,200,68731,1,8,2:3:0:0:
332,182,68799,1,8,2:3:0:0:
357,137,68868,1,0,3:3:0:0:
347,79,68936,1,0,3:3:0:0:
280,39,69005,6,0,B|333:72|382:54|382:54|388:46|388:46|449:12|491:64|491:64|442:72|433:113|433:113,1,293.333333333333,4|0,3:2|3:3,0:0:0:0:
447,302,69416,38,0,L|494:311,1,36.6666666666667,2|0,3:2|1:1,0:0:0:0:
379,221,69553,2,0,L|426:212,1,36.6666666666667,2|0,3:2|1:1,0:0:0:0:
309,306,69690,2,0,L|356:315,1,36.6666666666667,2|0,3:2|1:1,0:0:0:0:
294,162,69827,5,2,3:2:0:0:
283,184,69895,1,0,1:1:0:0:
264,200,69963,1,2,3:2:0:0:
239,205,70032,1,0,1:1:0:0:
215,197,70100,2,0,P|200:165|208:120,1,62.3333345222473,2|0,3:2|1:1,0:0:0:0:
340,54,70237,5,2,3:2:0:0:
336,91,70306,1,0,1:1:0:0:
332,127,70374,1,2,3:2:0:0:
328,164,70443,1,0,1:1:0:0:
324,200,70511,2,0,L|311:307,1,62.3333345222473,2|0,3:2|1:1,0:0:0:0:
233,349,70648,6,0,L|214:240,5,62.3333345222473,2|0|2|0|2|0,3:2|1:1|3:2|1:1|3:2|1:1,0:0:0:0:
53,253,71059,37,2,3:2:0:0:
64,275,71127,1,0,1:1:0:0:
83,291,71195,1,2,3:2:0:0:
108,296,71264,1,0,1:1:0:0:
132,288,71333,2,0,P|147:256|139:211,1,62.3333345222473,2|0,3:2|1:1,0:0:0:0:
22,98,71470,5,4,3:2:0:0:
38,131,71539,1,0,1:1:0:0:
68,151,71607,1,2,3:2:0:0:
105,156,71676,1,0,1:1:0:0:
141,149,71744,1,2,3:2:0:0:
169,123,71813,1,0,1:1:0:0:
191,93,71881,1,2,3:2:0:0:
224,76,71950,1,0,1:1:0:0:
261,74,72018,1,2,3:2:0:0:
296,87,72087,1,0,1:1:0:0:
319,116,72155,1,2,3:2:0:0:
326,152,72224,1,0,1:1:0:0:
314,187,72292,6,0,B|271:190|249:226|249:226|221:175|226:125|226:125|222:123|222:123|221:66|275:-19,1,293.333333333333,4|2,3:2|3:2,0:0:0:0:
467,80,72703,5,4,3:2:0:0:
436,50,72772,1,0,1:1:0:0:
394,38,72840,1,2,3:2:0:0:
351,50,72909,1,0,1:1:0:0:
321,80,72977,1,2,3:2:0:0:
309,123,73046,1,0,1:1:0:0:
321,165,73114,1,2,3:2:0:0:
351,196,73183,1,0,1:1:0:0:
394,207,73251,1,2,3:2:0:0:
436,196,73320,1,0,1:1:0:0:
467,165,73388,1,2,3:2:0:0:
478,123,73457,1,0,1:1:0:0:
465,79,73525,38,0,L|392:91,1,49.5000001888275,2|0,3:2|1:1,0:0:0:0:
351,196,73662,1,2,3:2:0:0:
359,186,73731,1,0,1:1:0:0:
369,175,73799,2,0,L|292:159,1,49.5000001888275,2|0,3:2|1:1,0:0:0:0:
252,12,73936,5,4,3:2:0:0:
263,34,74005,1,0,1:1:0:0:
267,58,74073,1,2,3:2:0:0:
263,82,74142,1,0,1:1:0:0:
251,104,74210,1,2,3:2:0:0:
230,118,74279,1,0,1:1:0:0:
210,121,74347,6,0,P|155:103|140:104,1,49.5000001888275,2|0,3:2|1:1,0:0:0:0:
120,41,74484,2,0,P|76:79|70:93,1,49.5000001888275,2|0,3:2|1:1,0:0:0:0:
7,88,74621,2,0,P|18:144|27:157,1,49.5000001888275,2|0,3:2|1:1,0:0:0:0:
72,247,74758,5,2,3:2:0:0:
85,225,74827,1,0,1:1:0:0:
105,211,74895,1,2,3:2:0:0:
129,207,74963,1,0,1:1:0:0:
154,208,75032,2,0,P|169:244|156:303,1,62.3333345222473,2|0,3:2|1:1,0:0:0:0:
285,372,75169,37,2,3:2:0:0:
267,330,75237,1,0,1:1:0:0:
273,286,75306,1,2,3:2:0:0:
301,253,75374,1,0,1:1:0:0:
344,244,75443,1,2,3:2:0:0:
384,258,75511,1,0,1:1:0:0:
409,293,75580,5,2,3:2:0:0:
384,290,75648,1,0,1:1:0:0:
362,273,75717,1,2,3:2:0:0:
351,250,75785,1,0,1:1:0:0:
353,224,75854,1,2,3:2:0:0:
365,202,75922,1,0,1:1:0:0:
385,187,75991,6,0,L|480:201,1,73.3333333333333,2|0,3:2|1:1,0:0:0:0:
512,88,76128,2,0,L|388:112,1,73.3333333333333,2|0,3:2|1:1,0:0:0:0:
360,0,76265,2,0,L|490:19,1,73.3333333333333,2|0,3:2|1:1,0:0:0:0:
281,178,76402,5,4,3:2:0:0:
308,152,76470,1,0,1:1:0:0:
319,116,76539,1,2,3:2:0:0:
314,79,76607,1,0,1:1:0:0:
291,48,76676,1,2,3:2:0:0:
258,29,76744,1,0,1:1:0:0:
220,26,76813,1,2,3:2:0:0:
184,36,76881,1,0,1:1:0:0:
157,62,76950,1,2,3:2:0:0:
143,96,77018,1,0,1:1:0:0:
146,133,77087,1,2,3:2:0:0:
160,167,77155,1,0,1:1:0:0:
186,194,77224,38,0,B|210:172|233:171|233:171|169:111|91:138|91:138|95:142|95:142|64:211|130:268,1,293.333333333333,4|2,3:2|3:2,0:0:0:0:
43,384,77635,5,4,3:2:0:0:
56,340,77703,1,8,2:2:0:0:
91,303,77772,1,8,2:2:0:0:
130,288,77840,1,8,2:2:0:0:
173,288,77909,1,8,2:2:0:0:
213,301,77977,1,8,2:2:0:0:
243,334,78046,5,8,2:3:0:0:
245,315,78114,1,8,2:3:0:0:
247,296,78183,1,8,2:3:0:0:
249,277,78251,1,8,2:3:0:0:
251,258,78320,1,8,2:3:0:0:
253,239,78388,1,8,2:3:0:0:
256,219,78457,6,0,L|200:232,1,36.6666666666667,8|8,2:3|2:3,0:0:0:0:
156,130,78594,1,8,2:3:0:0:
166,133,78662,1,8,2:3:0:0:
174,135,78731,2,0,L|209:143,1,36.6666666666667,0|0,3:3|3:3,0:0:0:0:
446,81,78868,38,0,B|488:83|488:83|485:110|485:110|485:135|485:135|405:112|405:112|398:113|398:113|289:93,1,293.333333333333,4|0,3:2|3:3,0:0:0:0:
200,17,79279,1,2,3:2:0:0:
171,22,79347,1,0,1:1:0:0:
141,27,79416,1,2,3:2:0:0:
112,32,79484,1,0,1:1:0:0:
82,37,79553,2,0,L|9:20,1,47.6666644846599,2|0,3:2|1:1,0:0:0:0:
22,127,79690,5,2,3:2:0:0:
37,137,79758,1,0,1:1:0:0:
47,153,79827,1,2,3:2:0:0:
52,171,79895,1,0,1:1:0:0:
51,189,79963,2,0,L|-3:206,1,47.6666644846599,2|0,3:2|1:1,0:0:0:0:
71,346,80100,5,2,3:2:0:0:
83,294,80169,1,0,1:1:0:0:
121,259,80237,1,2,3:2:0:0:
172,247,80306,1,0,1:1:0:0:
222,260,80374,1,2,3:2:0:0:
257,298,80443,1,0,1:1:0:0:
272,347,80511,6,0,P|305:328|351:321,5,55.0000020980836,2|0|2|0|2|0,3:2|1:1|3:2|1:1|3:2|1:1,0:0:0:0:
421,369,80922,37,2,3:2:0:0:
431,365,80991,1,0,1:1:0:0:
441,361,81059,1,2,3:2:0:0:
451,357,81128,1,0,1:1:0:0:
461,354,81196,2,0,L|533:378,1,55.0000020980836,2|0,3:2|1:1,0:0:0:0:
510,167,81333,5,4,3:2:0:0:
471,134,81402,1,0,1:1:0:0:
421,131,81470,1,2,3:2:0:0:
372,144,81539,1,0,1:1:0:0:
339,181,81607,1,2,3:2:0:0:
332,230,81676,1,0,1:1:0:0:
350,275,81744,1,2,3:2:0:0:
345,324,81813,1,0,1:1:0:0:
307,355,81881,1,2,3:2:0:0:
257,352,81950,1,0,1:1:0:0:
221,318,82018,1,2,3:2:0:0:
218,268,82087,1,0,1:1:0:0:
249,227,82155,6,0,B|274:194|312:198|312:198|360:253|339:320|339:320|290:262|191:286,1,293.333333333333,4|2,3:2|3:2,0:0:0:0:
40,274,82566,5,4,3:2:0:0:
26,320,82635,1,0,1:1:0:0:
43,364,82703,1,2,3:2:0:0:
89,377,82772,1,0,1:1:0:0:
134,363,82840,1,2,3:2:0:0:
153,319,82909,1,0,1:1:0:0:
138,273,82977,1,2,3:2:0:0:
103,240,83046,1,0,1:1:0:0:
93,193,83114,1,2,3:2:0:0:
104,146,83183,1,0,1:1:0:0:
140,116,83251,1,2,3:2:0:0:
186,105,83320,1,0,1:1:0:0:
231,117,83388,1,2,3:2:0:0:
264,151,83457,1,0,1:1:0:0:
275,196,83525,1,2,3:2:0:0:
265,243,83594,1,0,1:1:0:0:
232,277,83662,2,0,P|199:266|180:263,1,47.6666644846599,2|0,3:2|1:1,0:0:0:0:
75,190,83799,37,4,3:2:0:0:
70,151,83868,1,0,1:1:0:0:
66,113,83936,1,2,3:2:0:0:
62,74,84005,1,0,1:1:0:0:
56,36,84073,2,0,L|-2:25,1,47.6666644846599,2|0,3:2|1:1,0:0:0:0:
160,15,84210,5,2,3:2:0:0:
183,21,84279,1,0,1:1:0:0:
205,27,84347,2,0,L|213:84,3,47.6666644846599,2|0|2|0,3:2|1:1|3:2|1:1,0:0:0:0:
317,123,84621,5,2,3:2:0:0:
323,94,84690,1,0,1:1:0:0:
329,66,84758,1,2,3:2:0:0:
336,38,84827,1,0,1:1:0:0:
343,10,84895,2,0,L|400:30,1,47.6666644846599,2|0,3:2|1:1,0:0:0:0:
497,181,85032,5,2,3:2:0:0:
461,203,85100,1,0,1:1:0:0:
417,200,85169,1,2,3:2:0:0:
387,169,85237,1,0,1:1:0:0:
384,125,85306,1,2,3:2:0:0:
412,93,85374,1,0,1:1:0:0:
454,84,85443,38,0,P|435:110|423:139,1,55.0000020980836,2|0,3:2|1:1,0:0:0:0:
330,170,85580,2,0,P|349:196|361:225,1,55.0000020980836,2|0,3:2|1:1,0:0:0:0:
425,271,85717,2,0,P|406:297|394:326,1,55.0000020980836,2|0,3:2|1:1,0:0:0:0:
296,336,85854,6,0,P|315:362|327:391,3,55.0000020980836,2|0|2|0,3:2|1:1|3:2|1:1,0:0:0:0:
413,320,86128,2,0,P|425:295|442:274,1,55.0000020980836,2|0,3:2|1:1,0:0:0:0:
261,236,86265,5,4,3:2:0:0:
215,218,86333,1,0,1:1:0:0:
166,231,86402,1,2,3:2:0:0:
139,272,86470,1,0,1:1:0:0:
99,302,86539,1,2,3:2:0:0:
49,300,86607,1,0,1:1:0:0:
18,260,86676,6,0,P|0:236|-29:215,1,55.0000020980836,2|0,3:2|1:1,0:0:0:0:
73,136,86813,2,0,P|82:161|85:188,1,55.0000020980836,2|0,3:2|1:1,0:0:0:0:
172,237,86950,2,0,P|183:209|187:173,1,55.0000020980836,2|0,3:2|1:1,0:0:0:0:
142,15,87087,38,0,P|161:65|226:311,1,293.333333333333,4|8,3:2|2:2,0:0:0:0:
325,374,87498,5,2,3:2:0:0:
330,330,87566,1,8,2:2:0:0:
336,286,87635,1,8,2:2:0:0:
342,242,87703,1,8,2:2:0:0:
348,198,87772,1,8,2:2:0:0:
354,154,87840,1,8,2:2:0:0:
347,108,87909,5,8,2:3:0:0:
361,133,87977,1,8,2:3:0:0:
375,158,88046,1,8,2:3:0:0:
389,183,88114,1,8,2:3:0:0:
403,208,88183,1,8,2:3:0:0:
417,233,88251,1,8,2:3:0:0:
456,227,88320,5,8,2:3:0:0:
419,191,88388,1,8,2:3:0:0:
375,185,88457,1,8,2:3:0:0:
340,195,88525,1,8,2:3:0:0:
322,218,88594,2,0,P|313:243|322:299,1,73.3333333333333,0|0,3:3|3:3,0:0:0:0:
456,361,88731,38,0,P|461:284|491:66,1,293.333333333333,4|0,3:2|3:3,0:0:0:0:
308,134,89142,6,0,L|390:121,1,51.3333317667644,2|0,2:2|1:1,0:0:0:0:
408,32,89279,2,0,L|357:23,1,51.3333317667644,2|0,3:2|1:1,0:0:0:0:
300,126,89416,2,0,L|382:113,1,51.3333317667644,2|0,3:2|1:1,0:0:0:0:
216,8,89553,5,2,3:2:0:0:
205,10,89621,1,0,1:1:0:0:
194,12,89690,1,2,3:2:0:0:
183,14,89758,1,0,1:1:0:0:
172,16,89827,1,2,3:2:0:0:
161,18,89895,1,0,1:1:0:0:
149,20,89963,6,0,P|121:129|112:199,1,153.999995300293,4|0,3:2|1:1,0:0:0:0:
170,225,90237,2,0,L|153:307,1,51.3333317667644,2|0,3:2|1:1,0:0:0:0:
16,262,90374,38,0,L|82:278,1,51.3333317667644,2|0,3:2|1:1,0:0:0:0:
117,352,90511,2,0,L|67:364,1,51.3333317667644,2|0,3:2|1:1,0:0:0:0:
10,249,90648,2,0,L|76:265,1,51.3333317667644,2|0,3:2|1:1,0:0:0:0:
210,363,90785,5,2,3:2:0:0:
208,352,90853,1,0,1:1:0:0:
206,341,90922,1,2,3:2:0:0:
204,330,90990,1,0,1:1:0:0:
202,319,91059,1,2,3:2:0:0:
200,308,91127,1,0,1:1:0:0:
197,297,91196,5,4,3:2:0:0:
215,271,91265,1,0,1:1:0:0:
242,256,91333,1,2,3:2:0:0:
272,252,91402,1,0,1:1:0:0:
300,263,91470,1,2,3:2:0:0:
323,282,91539,1,0,1:1:0:0:
332,311,91607,6,0,P|307:316|286:331,1,51.3333317667644,2|0,3:2|1:1,0:0:0:0:
347,208,91744,2,0,P|370:218|387:237,1,51.3333317667644,2|0,3:2|1:1,0:0:0:0:
471,268,91881,2,0,P|479:243|476:218,1,51.3333317667644,2|0,3:2|1:1,0:0:0:0:
436,62,92018,37,2,3:2:0:0:
443,75,92087,1,0,1:1:0:0:
448,89,92155,1,2,3:2:0:0:
449,104,92224,1,0,1:1:0:0:
447,119,92292,1,2,3:2:0:0:
440,133,92361,1,0,1:1:0:0:
429,144,92429,6,0,L|379:135,3,51.3333317667644,2|0|2|0,3:2|1:1|3:2|1:1,0:0:0:0:
336,61,92703,2,0,L|252:74,1,51.3333317667644,2|0,3:2|1:1,0:0:0:0:
186,151,92840,5,4,3:2:0:0:
235,173,92909,1,0,1:1:0:0:
251,219,92977,1,2,3:2:0:0:
232,262,93046,1,0,1:1:0:0:
195,278,93114,1,2,3:2:0:0:
158,273,93183,1,0,1:1:0:0:
138,256,93251,6,0,L|150:171,1,51.3333317667644,2|0,3:2|1:1,0:0:0:0:
17,162,93388,2,0,L|57:193,1,51.3333317667644,2|0,3:2|1:1,0:0:0:0:
161,98,93525,2,0,L|113:117,1,51.3333317667644,2|0,3:2|1:1,0:0:0:0:
51,302,93662,38,0,B|118:324|151:282|151:282|149:276|149:276|211:224|275:272|275:272|250:264|232:276,1,293.333333333333,4|2,3:2|3:2,0:0:0:0:
463,263,94073,6,0,L|475:348,1,51.3333317667644,2|0,3:2|1:1,0:0:0:0:
365,377,94210,2,0,L|377:292,1,51.3333317667644,2|0,3:2|1:1,0:0:0:0:
473,255,94347,2,0,L|480:305,1,51.3333317667644,2|0,3:2|1:1,0:0:0:0:
320,204,94484,5,2,3:2:0:0:
330,206,94552,1,0,1:1:0:0:
341,209,94621,1,2,3:2:0:0:
352,212,94689,1,0,1:1:0:0:
363,215,94758,1,2,3:2:0:0:
374,217,94826,1,0,1:1:0:0:
389,220,94895,6,0,B|408:202|411:169|411:169|381:58,1,153.999995300293,4|0,3:2|1:1,0:0:0:0:
355,7,95169,2,0,L|341:101,1,51.3333317667644,2|0,3:2|1:1,0:0:0:0:
188,65,95306,38,0,L|267:52,1,51.3333317667644,2|0,3:2|1:1,0:0:0:0:
313,160,95443,2,0,L|234:147,1,51.3333317667644,2|0,3:2|1:1,0:0:0:0:
197,53,95580,2,0,L|276:40,1,51.3333317667644,2|0,3:2|1:1,0:0:0:0:
178,215,95717,5,2,3:2:0:0:
177,204,95785,1,0,1:1:0:0:
175,193,95854,1,2,3:2:0:0:
173,182,95922,1,0,1:1:0:0:
171,171,95991,1,2,3:2:0:0:
169,160,96059,1,0,1:1:0:0:
166,147,96128,5,4,3:2:0:0:
142,126,96196,1,0,1:1:0:0:
112,115,96265,1,2,3:2:0:0:
81,119,96333,1,0,1:1:0:0:
52,136,96402,1,2,3:2:0:0:
36,162,96470,1,0,1:1:0:0:
32,192,96539,6,0,P|41:225|73:259,1,51.3333317667644,2|0,3:2|1:1,0:0:0:0:
164,287,96676,2,0,P|131:296|97:328,1,51.3333317667644,2|0,3:2|1:1,0:0:0:0:
38,374,96813,2,0,P|29:341|-3:307,1,51.3333317667644,2|0,3:2|1:1,0:0:0:0:
126,165,96950,37,2,3:2:0:0:
170,173,97018,1,0,1:1:0:0:
200,215,97087,1,2,3:2:0:0:
235,208,97155,1,0,1:1:0:0:
264,170,97224,1,2,3:2:0:0:
287,175,97292,1,0,1:1:0:0:
312,207,97361,6,0,L|408:222,3,62.3333345222473,2|0|2|0,3:2|1:1|3:2|1:1,0:0:0:0:
270,318,97635,2,0,L|362:301,1,62.3333345222473,2|0,3:2|1:1,0:0:0:0:
241,153,97772,6,0,P|226:176|232:248,1,62.3333345222473,4|0,3:2|1:1,0:0:0:0:
127,130,97909,2,0,P|146:105|173:91,1,62.3333345222473,2|0,3:2|1:1,0:0:0:0:
206,0,98046,2,0,P|178:-2|119:39,1,62.3333345222473,2|0,3:2|1:1,0:0:0:0:
44,177,98183,6,0,B|7:61|7:61|0:65|0:65|15:47|23:30|23:30|32:51|46:77|46:77|52:78|52:78|38:100|-13:171|-13:171|-5:172|-5:172|25:231|29:333,1,458.333333333333,2|0,3:2|1:1,0:0:0:0:
79,362,98594,38,0,B|117:350|129:312|129:312|220:343|220:343|225:348|225:348|333:386|333:386|253:330,1,366.666666666667,4|2,3:2|3:2,0:0:0:0:
322,212,99005,2,0,L|262:259,1,55.0000020980836,2|0,3:2|1:1,0:0:0:0:
400,337,99142,2,0,L|390:261,1,55.0000020980836,2|0,3:2|1:1,0:0:0:0:
309,207,99279,2,0,L|249:254,1,55.0000020980836,2|0,3:2|1:1,0:0:0:0:
465,216,99416,5,2,3:2:0:0:
469,194,99484,1,0,1:1:0:0:
473,172,99553,1,2,3:2:0:0:
478,150,99621,1,0,1:1:0:0:
480,127,99690,2,0,L|543:110,1,55.0000020980836,2|0,3:2|1:1,0:0:0:0:
367,0,99827,6,0,P|388:53|436:214,1,220,4|0,3:2|1:1,0:0:0:0:
425,217,100100,2,0,P|415:182|405:153,1,55.0000020980836,2|0,3:2|1:1,0:0:0:0:
235,167,100237,6,0,L|301:177,1,55.0000020980836,2|0,3:2|1:1,0:0:0:0:
316,88,100374,2,0,L|261:79,1,55.0000020980836,2|0,3:2|1:1,0:0:0:0:
226,172,100511,2,0,L|292:182,1,55.0000020980836,2|0,3:2|1:1,0:0:0:0:
137,40,100648,37,2,3:2:0:0:
98,41,100717,1,0,1:1:0:0:
61,51,100785,1,2,3:2:0:0:
30,75,100854,1,0,1:1:0:0:
7,105,100922,1,2,3:2:0:0:
0,143,100991,1,0,1:1:0:0:
8,180,101059,5,4,3:2:0:0:
54,162,101128,1,0,1:1:0:0:
101,173,101196,1,2,3:2:0:0:
134,210,101265,1,0,1:1:0:0:
146,257,101333,2,0,P|140:294|117:325,1,55.0000020980836,2|0,3:2|1:1,0:0:0:0:
287,379,101470,5,2,3:2:0:0:
254,341,101539,1,0,1:1:0:0:
257,291,101607,1,2,3:2:0:0:
292,256,101676,1,0,1:1:0:0:
313,211,101744,1,2,3:2:0:0:
298,163,101813,1,0,1:1:0:0:
254,140,101881,2,0,P|225:137|178:147,1,55.0000020980836,2|0,3:2|1:1,0:0:0:0:
341,320,102018,5,2,3:2:0:0:
390,324,102087,1,0,1:1:0:0:
420,301,102155,1,2,3:2:0:0:
428,268,102224,1,0,1:1:0:0:
421,241,102292,1,0,3:3:0:0:
404,226,102361,1,0,1:1:0:0:
382,223,102429,1,2,3:2:0:0:
367,230,102498,1,0,1:1:0:0:
359,244,102566,2,0,L|349:303,1,55.0000020980836,2|0,3:2|1:1,0:0:0:0:
501,184,102703,38,0,L|438:174,1,55.0000020980836,4|0,3:2|1:1,0:0:0:0:
288,89,102840,2,0,L|351:79,1,55.0000020980836,2|0,3:2|1:1,0:0:0:0:
509,198,102977,2,0,L|446:188,1,55.0000020980836,2|0,3:2|1:1,0:0:0:0:
406,2,103114,5,2,3:2:0:0:
439,20,103183,1,0,1:1:0:0:
455,54,103251,1,2,3:2:0:0:
455,92,103320,1,0,1:1:0:0:
436,125,103388,1,0,3:3:0:0:
401,143,103457,1,0,1:1:0:0:
363,136,103525,6,0,B|295:91|191:141|263:151|190:211|86:164,1,293.333333333333,4|2,3:2|3:2,0:0:0:0:
101,11,103936,2,0,P|120:37|131:71,1,55.0000020980836,2|0,3:2|1:1,0:0:0:0:
12,150,104073,2,0,P|22:124|39:102,1,55.0000020980836,2|0,3:2|1:1,0:0:0:0:
111,12,104210,2,0,P|130:38|141:72,1,55.0000020980836,2|0,3:2|1:1,0:0:0:0:
157,190,104347,5,2,3:2:0:0:
151,222,104416,1,0,1:1:0:0:
145,254,104484,1,2,3:2:0:0:
139,286,104553,1,0,1:1:0:0:
134,318,104621,2,0,P|102:304|65:306,1,55.0000020980836,2|0,3:2|1:1,0:0:0:0:
266,377,104758,38,0,B|253:284|253:284|256:288|256:288|239:146,1,220,4|0,3:2|1:1,0:0:0:0:
232,166,105032,2,0,L|238:220,1,55.0000020980836,2|0,3:2|1:1,0:0:0:0:
367,285,105169,2,0,P|383:256|405:226,1,55.0000020980836,2|0,3:2|1:1,0:0:0:0:
287,97,105306,2,0,P|302:119|315:143,1,55.0000020980836,2|0,3:2|1:1,0:0:0:0:
374,289,105443,2,0,P|390:260|412:230,1,55.0000020980836,2|0,3:2|1:1,0:0:0:0:
504,108,105580,5,2,3:2:0:0:
474,92,105648,1,0,1:1:0:0:
440,92,105717,1,2,3:2:0:0:
408,102,105785,1,0,1:1:0:0:
383,124,105854,1,2,3:2:0:0:
371,154,105922,1,0,1:1:0:0:
374,187,105991,5,4,3:2:0:0:
346,146,106059,1,0,1:1:0:0:
298,132,106128,1,2,3:2:0:0:
251,146,106196,1,0,1:1:0:0:
221,186,106265,2,0,P|229:213|228:262,1,55.0000020980836,2|0,3:2|1:1,0:0:0:0:
100,362,106402,5,4,3:2:0:0:
122,318,106470,1,0,1:1:0:0:
118,268,106539,1,2,3:2:0:0:
90,227,106607,1,0,1:1:0:0:
43,207,106676,2,0,L|-16:230,1,55.0000020980836,2|0,3:2|1:1,0:0:0:0:
24,12,106813,37,4,3:2:0:0:
61,17,106881,1,0,1:1:0:0:
71,48,106950,1,0,3:3:0:0:
109,46,107018,1,0,1:1:0:0:
115,81,107087,1,2,3:2:0:0:
149,87,107155,1,0,1:1:0:0:
165,115,107224,6,0,L|181:50,3,55.0000020980836,2|8|8|8,3:2|2:2|2:2|2:2,0:0:0:0:
299,6,107498,2,0,L|243:22,1,55.0000020980836,8|8,2:2|2:2,0:0:0:0:
252,146,107635,5,8,2:3:0:0:
398,240,107772,1,8,2:3:0:0:
509,98,107909,1,8,2:3:0:0:
73,284,108046,5,8,2:3:0:0:
105,290,108114,1,8,2:3:0:0:
137,297,108183,1,8,2:3:0:0:
169,303,108251,1,8,2:3:0:0:
201,310,108320,1,0,3:3:0:0:
232,317,108388,1,0,3:3:0:0:
263,322,108457,38,0,B|287:294|321:274|321:274|323:173|247:126,1,220.000008392334,4|0,3:2|3:3,0:0:0:0:
148,101,108868,1,0,1:1:0:0:
287,49,109005,1,0,3:3:0:0:
182,195,109142,1,2,1:2:0:0:
92,4,109279,2,0,B|144:14|144:14|153:11|153:11|223:24,1,110.000004196167,0|2,3:3|1:2,0:0:0:0:
0,180,109553,1,0,3:3:0:0:
0,180,109690,6,0,B|52:170|52:170|61:173|61:173|131:160,1,110.000004196167,2|0,1:2|3:3,0:0:0:0:
228,328,109963,1,2,1:2:0:0:
111,247,110100,1,0,3:3:0:0:
256,210,110237,1,2,1:2:0:0:
131,360,110374,1,0,3:3:0:0:
341,384,110512,2,0,B|313:245,2,110.000004196167,2|0|2,1:2|3:3|1:2,0:0:0:0:
510,97,110922,5,0,3:3:0:0:
477,263,111059,1,2,1:2:0:0:
512,86,111196,1,0,3:3:0:0:
356,183,111333,5,2,1:2:0:0:
327,48,111470,1,0,3:3:0:0:
359,196,111607,1,2,1:2:0:0:
216,130,111744,37,2,3:2:0:0:
197,251,111881,1,2,1:2:0:0:
221,114,112018,1,0,3:3:0:0:
229,78,112087,1,0,0:0:0:0:
237,44,112155,6,0,B|189:53|189:53|184:59|184:59|108:78,1,110.000004196167,2|0,1:2|3:3,0:0:0:0:
12,214,112429,1,2,1:2:0:0:
146,162,112566,1,0,3:3:0:0:
105,284,112703,1,2,1:2:0:0:
33,111,112840,1,0,3:3:0:0:
235,195,112977,2,0,L|207:334,1,110.000004196167,2|2,1:2|3:2,0:0:0:0:
106,43,113251,1,2,1:2:0:0:
106,43,113388,6,0,L|134:182,1,110.000004196167,4|2,3:2|1:2,0:0:0:0:
318,254,113662,1,0,3:3:0:0:
224,120,113799,1,2,1:2:0:0:
186,246,113936,1,0,3:3:0:0:
322,102,114073,1,2,1:2:0:0:
409,283,114210,2,0,B|399:240|399:240|401:230|401:230|378:121,2,110.000004196167,0|2|2,3:3|1:2|3:2,0:0:0:0:
477,58,114621,5,2,1:2:0:0:
344,29,114758,1,0,3:3:0:0:
488,62,114895,1,2,1:2:0:0:
302,193,115032,37,2,3:2:0:0:
477,151,115169,1,2,1:2:0:0:
288,195,115306,1,2,3:2:0:0:
497,248,115443,5,2,1:2:0:0:
353,121,115580,1,0,3:3:0:0:
259,285,115717,1,0,3:3:0:0:
390,329,115854,6,0,L|401:199,1,110.000004196167,4|2,3:2|1:2,0:0:0:0:
455,152,116128,1,0,3:3:0:0:
236,159,116265,5,2,1:2:0:0:
323,242,116402,1,0,3:3:0:0:
287,80,116539,1,2,1:2:0:0:
206,274,116676,2,0,L|324:255,1,110.000004196167,0|2,3:3|1:2,0:0:0:0:
123,79,116950,1,0,3:3:0:0:
123,79,117087,38,0,P|151:156|170:155,1,110.000004196167,2|0,1:2|3:3,0:0:0:0:
316,35,117361,1,2,1:2:0:0:
196,250,117498,5,0,3:3:0:0:
228,115,117635,1,2,1:2:0:0:
114,286,117772,1,0,3:3:0:0:
43,208,117909,6,0,B|29:151|29:151|30:149|30:149|18:94,2,110.000004196167,2|0|2,1:2|3:3|1:2,0:0:0:0:
219,328,118320,5,0,3:3:0:0:
74,300,118457,1,2,1:2:0:0:
227,339,118594,1,0,3:3:0:0:
138,147,118731,37,2,1:2:0:0:
164,279,118868,1,2,3:2:0:0:
131,130,119005,1,2,1:2:0:0:
284,242,119142,5,2,3:2:0:0:
310,110,119279,1,2,1:2:0:0:
277,259,119416,1,2,3:2:0:0:
447,199,119553,6,0,L|464:68,1,110.000004196167,2|0,1:2|3:3,0:0:0:0:
357,13,119827,1,2,1:2:0:0:
493,12,119963,1,0,3:3:0:0:
352,171,120100,1,2,1:2:0:0:
437,81,120237,1,0,3:3:0:0:
472,217,120374,6,0,L|488:361,1,110.000004196167,2|0,1:2|3:3,0:0:0:0:
277,112,120648,1,2,1:2:0:0:
277,112,120785,2,0,L|264:245,1,110.000004196167,2|2,3:2|1:2,0:0:0:0:
327,325,121059,1,2,3:2:0:0:
184,318,121196,1,2,1:2:0:0:
331,340,121333,1,0,3:3:0:0:
179,332,121470,1,2,1:2:0:0:
271,228,121607,2,0,L|282:119,2,110.000004196167,2|2|2,3:2|1:2|3:2,0:0:0:0:
252,368,122018,37,12,2:2:0:0:
105,263,122155,1,8,2:2:0:0:
99,207,122224,1,8,2:2:0:0:
93,152,122292,1,8,2:2:0:0:
87,96,122361,1,8,2:2:0:0:
47,64,122429,5,8,2:3:0:0:
61,87,122498,1,8,2:3:0:0:
75,110,122566,1,8,2:3:0:0:
89,133,122635,1,8,2:3:0:0:
102,156,122703,1,8,2:3:0:0:
116,179,122772,1,8,2:3:0:0:
128,197,122840,6,0,P|123:167|107:135,1,55.0000020980836,8|8,2:3|2:3,0:0:0:0:
256,52,122977,2,0,P|252:78|242:103,1,55.0000020980836,8|8,2:3|2:3,0:0:0:0:
320,215,123114,2,0,P|342:195|363:165,1,55.0000020980836,8|8,2:3|2:3,0:0:0:0:
510,55,123251,6,0,P|457:91|376:295,1,275.000010490418,4|0,3:2|0:0,0:0:0:0:
396,384,123662,37,2,3:2:0:0:
381,367,123731,1,0,1:1:0:0:
361,357,123799,1,2,3:2:0:0:
339,351,123868,1,0,1:1:0:0:
317,348,123936,1,2,3:2:0:0:
294,349,124005,1,0,1:1:0:0:
273,356,124073,6,0,P|258:303|240:274,1,55.0000020980836,2|0,3:2|1:1,0:0:0:0:
371,199,124210,2,0,P|361:224|356:251,3,55.0000020980836,2|0|2|0,3:2|1:1|3:2|1:1,0:0:0:0:
170,207,124484,5,2,3:2:0:0:
193,221,124553,1,0,1:1:0:0:
220,222,124621,1,2,3:2:0:0:
246,213,124690,1,0,1:1:0:0:
266,195,124758,1,2,3:2:0:0:
279,170,124827,1,0,1:1:0:0:
283,143,124895,1,2,3:2:0:0:
276,116,124963,1,0,1:1:0:0:
260,92,125032,1,2,3:2:0:0:
235,80,125100,1,0,1:1:0:0:
207,76,125169,2,0,P|156:94|139:127,1,55.0000020980836,2|0,3:2|1:1,0:0:0:0:
49,220,125306,5,2,3:2:0:0:
83,224,125374,1,0,1:1:0:0:
116,227,125443,1,2,3:2:0:0:
149,230,125511,1,0,1:1:0:0:
182,235,125580,2,0,L|254:243,1,55.0000020980836,2|0,3:2|1:1,0:0:0:0:
439,77,125717,37,2,3:2:0:0:
400,47,125785,1,0,1:1:0:0:
350,40,125854,1,2,3:2:0:0:
306,63,125922,1,0,1:1:0:0:
283,108,125991,2,0,P|296:133|307:204,1,55.0000020980836,2|0,3:2|1:1,0:0:0:0:
388,300,126128,5,2,3:2:0:0:
383,262,126196,1,0,1:1:0:0:
390,223,126265,1,2,3:2:0:0:
411,191,126333,1,0,1:1:0:0:
443,166,126402,1,2,3:2:0:0:
480,160,126470,1,0,1:1:0:0:
512,166,126539,5,2,3:2:0:0:
489,151,126607,1,0,1:1:0:0:
474,127,126676,1,2,3:2:0:0:
470,99,126744,1,0,1:1:0:0:
475,71,126813,1,2,3:2:0:0:
488,47,126881,1,0,1:1:0:0:
509,29,126950,6,0,P|482:35|455:41,5,55.0000020980836,2|0|2|0|2|0,3:2|1:1|3:2|1:1|3:2|1:1,0:0:0:0:
293,151,127361,38,0,B|322:206|444:203|469:65|292:-8|310:138|224:149|224:149|216:143|216:143|164:173|64:116,1,458.333333333333,6|0,3:2|1:1,0:0:0:0:
47,73,127772,5,2,3:2:0:0:
58,55,127840,1,0,1:1:0:0:
74,40,127909,1,2,3:2:0:0:
94,31,127977,1,0,1:1:0:0:
115,32,128046,2,0,P|150:56|187:103,1,55.0000020980836,2|0,3:2|1:1,0:0:0:0:
181,229,128183,5,2,3:2:0:0:
168,199,128251,1,0,1:1:0:0:
144,176,128320,1,2,3:2:0:0:
112,170,128388,1,0,1:1:0:0:
80,174,128457,1,2,3:2:0:0:
53,191,128525,1,0,1:1:0:0:
36,219,128594,5,2,3:2:0:0:
56,228,128662,1,0,1:1:0:0:
72,243,128731,1,2,3:2:0:0:
85,260,128799,1,0,1:1:0:0:
92,281,128868,1,2,3:2:0:0:
93,302,128936,1,0,1:1:0:0:
91,323,129005,38,0,P|71:351|56:420,5,55.0000020980836,2|0|2|0|2|0,3:2|1:1|3:2|1:1|3:2|1:1,0:0:0:0:
236,219,129416,5,2,3:2:0:0:
266,243,129484,1,8,2:2:0:0:
278,281,129553,1,8,2:2:0:0:
271,318,129621,1,8,2:2:0:0:
246,347,129690,1,8,2:2:0:0:
210,357,129758,1,8,2:2:0:0:
173,347,129827,5,2,3:2:0:0:
213,308,129895,1,8,2:2:0:0:
268,305,129963,1,8,2:2:0:0:
314,337,130032,1,8,2:2:0:0:
363,361,130100,1,8,2:2:0:0:
417,346,130169,1,8,2:2:0:0:
448,300,130237,6,0,L|441:242,1,55.0000020980836,8|8,2:3|2:3,0:0:0:0:
320,123,130374,1,8,2:3:0:0:
316,152,130443,1,8,2:3:0:0:
312,181,130511,2,0,L|304:235,1,55.0000020980836,0|0,3:3|3:3,0:0:0:0:
173,347,130648,38,0,B|129:313|129:313|100:137|100:137|43:100,1,293.333333333333,4|0,3:2|3:3,0:0:0:0:
121,3,131059,1,2,3:2:0:0:
152,12,131128,1,0,1:1:0:0:
183,21,131196,1,2,3:2:0:0:
214,30,131265,1,0,1:1:0:0:
245,39,131333,1,2,3:2:0:0:
276,48,131402,1,0,1:1:0:0:
307,56,131470,6,0,L|323:-7,1,55.0000020980836,2|0,3:2|1:1,0:0:0:0:
458,77,131607,2,0,P|418:86|392:94,3,55.0000020980836,2|0|2|0,3:2|1:1|3:2|1:1,0:0:0:0:
331,232,131881,5,2,3:2:0:0:
359,279,131950,1,0,1:1:0:0:
412,290,132018,1,2,3:2:0:0:
458,259,132087,1,0,1:1:0:0:
467,205,132155,1,2,3:2:0:0:
433,161,132224,1,0,1:1:0:0:
378,153,132292,5,2,3:2:0:0:
400,191,132361,1,0,1:1:0:0:
396,234,132429,1,2,3:2:0:0:
363,264,132498,1,0,1:1:0:0:
319,268,132566,1,2,3:2:0:0:
281,244,132635,1,0,1:1:0:0:
271,201,132703,1,2,3:2:0:0:
292,168,132772,1,0,1:1:0:0:
318,162,132840,1,2,3:2:0:0:
335,174,132909,1,0,1:1:0:0:
337,190,132977,1,2,3:2:0:0:
331,205,133046,1,0,1:1:0:0:
316,212,133114,37,2,3:2:0:0:
277,164,133183,1,0,1:1:0:0:
217,158,133251,1,2,3:2:0:0:
166,192,133320,1,0,1:1:0:0:
147,249,133388,2,0,P|151:275|174:310,1,55.0000020980836,2|0,3:2|1:1,0:0:0:0:
295,346,133525,5,2,3:2:0:0:
329,309,133594,1,0,1:1:0:0:
376,297,133662,1,2,3:2:0:0:
423,313,133731,1,0,1:1:0:0:
451,352,133799,2,0,P|475:343|506:346,1,55.0000020980836,2|0,3:2|1:1,0:0:0:0:
509,118,133936,5,2,3:2:0:0:
482,124,134005,1,0,1:1:0:0:
460,141,134073,1,2,3:2:0:0:
445,164,134142,1,0,1:1:0:0:
438,190,134210,1,2,3:2:0:0:
439,217,134279,1,0,1:1:0:0:
448,242,134347,6,0,P|481:266|513:268,5,55.0000020980836,2|0|2|0|2|0,3:2|1:1|3:2|1:1|3:2|1:1,0:0:0:0:
271,316,134758,38,0,B|274:373|341:372|341:372|403:297|337:198|337:198|330:205|330:205|226:121|300:20,1,458.333333333333,6|0,3:2|1:1,0:0:0:0:
347,17,135169,1,2,3:2:0:0:
364,37,135237,1,0,1:1:0:0:
388,50,135306,1,2,3:2:0:0:
414,55,135374,1,0,1:1:0:0:
441,49,135443,2,0,P|464:36|484:13,1,55.0000020980836,2|0,3:2|1:1,0:0:0:0:
511,175,135580,5,2,3:2:0:0:
475,160,135648,1,0,1:1:0:0:
436,163,135717,1,2,3:2:0:0:
401,178,135785,1,0,1:1:0:0:
378,209,135854,1,2,3:2:0:0:
373,246,135922,1,0,1:1:0:0:
381,283,135991,6,0,P|409:304|426:336,5,55.0000020980836,2|0|2|0|2|0,3:2|1:1|3:2|1:1|3:2|1:1,0:0:0:0:
266,377,136402,5,2,3:2:0:0:
257,323,136470,1,8,2:2:0:0:
248,268,136539,1,8,2:2:0:0:
239,214,136607,1,8,2:2:0:0:
231,159,136676,2,0,L|300:134,1,55.0000020980836,8|8,2:2|2:2,0:0:0:0:
110,5,136813,37,2,3:2:0:0:
50,15,136881,1,8,2:2:0:0:
22,69,136950,1,8,2:2:0:0:
23,129,137018,1,8,2:2:0:0:
61,175,137087,1,8,2:2:0:0:
79,232,137155,1,8,2:2:0:0:
53,287,137224,5,2,3:2:0:0:
8,238,137292,1,8,2:2:0:0:
25,173,137361,1,8,2:2:0:0:
80,138,137429,1,8,2:2:0:0:
145,149,137498,1,8,2:2:0:0:
178,205,137566,1,8,2:2:0:0:
163,269,137635,5,8,2:3:0:0:
176,338,137703,1,8,2:3:0:0:
241,367,137772,1,8,2:3:0:0:
310,351,137840,1,8,2:3:0:0:
339,285,137909,1,0,3:3:0:0:
314,218,137977,1,0,3:3:0:0:
247,191,138046,6,0,B|141:221|6:245|6:245|67:244|169:256,1,322.666676513672,4|0,3:2|0:0,0:0:0:0:
444,211,138868,38,0,B|406:29|406:29|509:64|509:64|476:83|471:126,1,322.666676513672,4|0,3:2|0:0,0:0:0:0:
293,314,139279,2,0,B|329:137|329:137|226:172|226:172|258:192|246:190,1,322.666676513672,4|0,3:2|0:0,0:0:0:0:
14,98,139895,5,0,0:0:0:0:
14,98,140100,2,0,B|24:57|65:41|65:41|226:80|226:80|272:58|276:5,1,322.666676513672,4|0,3:2|0:0,0:0:0:0:
156,304,140511,6,0,P|188:170|67:287,1,403.33334564209,4|0,3:2|0:0,0:0:0:0:
125,226,140922,5,8,2:3:0:0:
278,175,141059,1,8,2:3:0:0:
119,220,141196,1,8,2:3:0:0:
352,357,141333,38,0,B|352:324|352:324|378:287|378:287|371:269|371:269|343:250|343:250|341:232|341:232|353:219|353:219|352:212|352:212|363:207|363:207|370:179|370:179|363:158|363:158|358:156|358:156|351:139|351:139|379:106|379:106|368:82|368:82|368:74|368:74|363:54|363:54|378:33|378:33|368:1|368:1|437:37|437:37|452:71,1,513.333317667644,4|0,3:2|0:0,0:0:0:0:
455,69,141744,1,0,0:0:0:0:
275,309,142155,5,8,2:3:0:0:
433,353,142292,1,8,2:3:0:0:
262,306,142429,1,8,2:3:0:0:
463,217,142566,6,0,B|422:202|422:202|403:184|403:184|371:173|371:173|344:191|344:191|329:191|329:191|307:209|307:209|312:254|312:254|261:272|261:272|256:278|256:278|185:297|185:297|180:269|180:269|186:243|186:243|180:233|180:233|122:217|122:217|63:245,1,513.333317667644,4|0,3:2|0:0,0:0:0:0:
59,338,142977,6,0,B|94:295|89:231|55:203|55:203|27:194|27:194|-20:105|73:31,1,322.666676513672,4|0,3:2|0:0,0:0:0:0:
305,139,143799,38,0,B|288:74|207:40|146:115|146:115|162:150|202:178|202:178|215:131|275:138,1,322.666676513672,4|0,3:2|0:0,0:0:0:0:
396,282,144210,2,0,B|379:347|298:381|237:306|237:306|253:271|293:243|293:243|306:290|366:283,1,322.666676513672,4|0,3:2|0:0,0:0:0:0:
427,23,144827,5,0,0:0:0:0:
427,23,145032,2,0,P|394:115|409:226,1,161.333338256836,4|0,3:2|0:0,0:0:0:0:
426,243,145237,2,0,P|409:178|412:109,1,110.000004196167
486,85,145443,6,0,B|381:-9|311:108|310:114|315:123|285:200|189:193|135:138,1,403.33334564209,4|0,3:2|0:0,0:0:0:0:
67,204,145854,5,8,2:3:0:0:
93,70,145991,1,8,2:3:0:0:
65,214,146128,1,8,2:3:0:0:
225,70,146265,38,0,B|215:141|215:141|252:175|252:175|248:202|248:202|235:218|235:218|231:234|231:234|262:259|262:259|261:280|261:280|287:342|287:342|227:354|227:354|192:381|192:381|110:360|110:360|158:281|158:281|197:306,1,615.999981201173,4|0,3:2|0:0,0:0:0:0:
439,274,147087,5,8,2:3:0:0:
417,145,147224,1,8,2:3:0:0:
441,288,147361,1,8,2:3:0:0:
512,87,147498,6,0,B|435:61|435:61|429:64|429:64|370:44|370:44|349:56|349:56|342:65|342:65|319:80|319:80|246:39|246:39|231:62|231:62|187:83|187:83|174:100|174:100|262:148|262:148|251:78,1,513.333317667644,4|0,3:2|0:0,0:0:0:0:
268,249,147909,5,4,3:2:0:0:
258,245,147977,1,0,0:0:0:0:
248,241,148046,1,0,0:0:0:0:
238,237,148114,1,0,0:0:0:0:
228,234,148183,2,0,L|243:310,1,55.0000020980836,8|8,2:3|2:3,0:0:0:0:
6,156,148320,37,8,2:2:0:0:
54,209,148388,1,8,2:2:0:0:
113,203,148457,1,8,2:2:0:0:
145,161,148525,1,8,2:2:0:0:
146,105,148593,1,8,2:2:0:0:
183,74,148662,1,8,2:2:0:0:
229,81,148730,5,8,2:3:0:0:
194,90,148799,1,8,2:3:0:0:
165,81,148868,1,8,2:3:0:0:
147,58,148936,1,8,2:3:0:0:
139,36,149005,1,0,3:3:0:0:
146,19,149073,1,0,3:3:0:0:
156,13,149142,6,0,B|146:55|156:95|156:95|129:52|2:-4|2:-4|84:102|109:216|109:303|109:303|178:325|269:312|293:241|293:241|316:170|295:150|231:105|212:86|233:15|233:15|352:51|352:51|330:123|303:127|224:129|197:134|175:205|175:205|365:263|365:263|383:208|371:163|371:163|460:91|536:80|536:80|434:246|405:381|405:381|374:344|326:331|326:331|337:355|357:368,1,2395.14006176432,4|0,3:2|0:0,0:0:0:0:
385,30,164062,5,4,2:2:0:0:
393,40,164483,1,4,2:2:0:0:
380,52,164904,1,4,2:2:0:0:
366,38,165325,1,4,2:2:0:0:
465,151,165746,38,0,L|460:183,3,27.5,4|0|0|0,3:2|0:0|0:0|0:0,0:0:0:0:
470,158,166167,2,0,L|465:190,3,27.5,2|0|0|0,2:2|0:0|0:0|0:0,0:0:0:0:
475,165,166588,2,0,L|470:197,3,27.5,2|0|0|0,2:2|0:0|0:0|0:0,0:0:0:0:
480,172,167009,2,0,L|475:204,3,27.5,2|0|0|0,2:2|0:0|0:0|0:0,0:0:0:0:
384,258,167430,6,0,L|358:278,3,27.5,2|0|0|0,2:2|0:0|0:0|0:0,0:0:0:0:
384,240,167851,2,0,L|364:214,3,27.5,2|0|0|0,2:2|0:0|0:0|0:0,0:0:0:0:
402,240,168272,2,0,L|428:220,3,27.5,2|0|0|0,2:2|0:0|0:0|0:0,0:0:0:0:
402,258,168693,2,0,L|422:284,3,27.5,2|0|0|0,2:2|0:0|0:0|0:0,0:0:0:0:
371,356,169114,6,0,L|331:348,3,27.5,2|0|0|0,2:2|0:0|0:0|0:0,0:0:0:0:
324,329,169535,2,0,L|284:337,3,27.5,2|0|0|0,2:2|0:0|0:0|0:0,0:0:0:0:
277,356,169956,2,0,L|237:348,3,27.5,2|0|0|0,2:2|0:0|0:0|0:0,0:0:0:0:
230,329,170377,2,0,L|190:337,3,27.5,2|0|0|0,2:2|0:0|0:0|0:0,0:0:0:0:
94,206,170798,6,0,L|86:252,3,27.5,2|0|0|0,2:2|0:0|0:0|0:0,0:0:0:0:
164,247,171219,2,0,L|168:219,3,27.5,2|0|0|0,2:2|0:0|0:0|0:0,0:0:0:0:
84,204,171640,38,0,L|76:250,1,27.5,2|0,2:2|0:0,0:0:0:0:
176,247,171851,2,0,L|184:201,1,27.5
72,197,172062,2,0,L|64:243,1,27.5,2|0,2:2|0:0,0:0:0:0:
184,259,172272,2,0,L|192:213,1,27.5
161,64,172483,5,4,3:2:0:0:
154,73,172588,1,0,3:3:0:0:
151,66,172693,1,0,3:3:0:0:
203,1,172798,5,0,3:3:0:0:
231,22,172904,1,2,3:2:0:0:
240,60,173009,1,0,3:3:0:0:
254,27,173114,1,0,3:3:0:0:
259,41,173219,1,0,3:3:0:0:
333,33,173325,6,0,L|382:24,3,41.2500015735627,2|0|0|0,3:2|3:3|3:3|3:3,0:0:0:0:
494,105,173746,37,2,3:2:0:0:
456,87,173851,1,0,3:3:0:0:
476,122,173956,1,0,3:3:0:0:
461,127,174062,1,0,3:3:0:0:
443,210,174167,6,0,L|396:201,3,41.2500015735627,2|0|0|0,3:2|3:3|3:3|3:3,0:0:0:0:
380,300,174588,5,2,3:2:0:0:
386,310,174693,1,0,3:3:0:0:
370,302,174798,1,0,3:3:0:0:
385,295,174904,1,0,3:3:0:0:
460,308,175009,6,0,L|467:362,3,41.2500015735627,2|0|0|0,3:2|3:3|3:3|3:3,0:0:0:0:
311,365,175430,38,0,L|357:372,1,41.2500015735627,2|0,3:2|3:3,0:0:0:0:
214,245,175640,1,2,3:2:0:0:
251,324,175746,1,2,3:2:0:0:
301,250,175851,1,4,3:2:0:0:
292,249,175956,1,0,3:3:0:0:
291,260,176062,1,0,3:3:0:0:
236,202,176167,5,0,3:3:0:0:
222,182,176272,1,2,3:2:0:0:
199,174,176377,1,0,3:3:0:0:
238,165,176483,1,0,3:3:0:0:
242,175,176588,1,0,3:3:0:0:
181,246,176693,6,0,L|130:255,3,41.2500015735627,2|0|0|0,3:2|3:3|3:3|3:3,0:0:0:0:
50,343,177114,5,2,3:2:0:0:
89,323,177219,1,0,3:3:0:0:
50,313,177325,1,0,3:3:0:0:
69,300,177430,1,0,3:3:0:0:
17,245,177535,37,2,3:2:0:0:
27,221,177640,1,0,3:3:0:0:
11,232,177746,1,0,3:3:0:0:
32,237,177851,1,0,3:3:0:0:
86,181,177956,6,0,P|71:160|57:149,3,41.2500015735627,2|0|0|0,3:2|3:3|3:3|3:3,0:0:0:0:
162,145,178377,5,2,3:2:0:0:
169,129,178483,1,0,3:3:0:0:
170,112,178588,1,0,3:3:0:0:
165,96,178693,1,0,3:3:0:0:
238,171,178798,6,0,P|259:156|270:142,3,41.2500015735627,2|0|0|0,3:2|3:3|3:3|3:3,0:0:0:0:
364,26,179219,37,4,3:2:0:0:
345,23,179325,1,8,3:3:0:0:
348,38,179430,1,8,3:3:0:0:
428,53,179535,5,8,3:3:0:0:
347,114,179640,1,2,2:2:0:0:
438,136,179746,1,8,3:3:0:0:
397,92,179851,5,8,3:3:0:0:
393,106,179956,1,8,3:3:0:0:
385,184,180062,6,0,L|395:242,1,55,2|8,2:2|3:3,0:0:0:0:
471,214,180272,2,0,L|481:272,1,55,8|8,3:3|3:3,0:0:0:0:
353,358,180483,37,2,2:2:0:0:
430,334,180588,1,8,3:3:0:0:
343,285,180693,1,8,3:3:0:0:
412,313,180798,1,8,3:3:0:0:
278,367,180904,6,0,L|204:380,1,55,2|8,2:2|3:3,0:0:0:0:
123,279,181114,2,0,L|178:293,1,55,8|8,3:3|3:3,0:0:0:0:
328,278,181325,2,0,L|276:240,1,55,2|8,2:2|3:3,0:0:0:0:
168,93,181535,5,8,3:3:0:0:
157,96,181640,1,8,3:3:0:0:
141,120,181746,1,2,2:2:0:0:
150,161,181851,1,8,3:3:0:0:
208,181,181956,1,8,3:3:0:0:
269,144,182062,1,8,3:3:0:0:
265,66,182167,5,2,2:2:0:0:
187,41,182272,1,8,3:3:0:0:
204,128,182377,1,8,3:3:0:0:
274,58,182483,1,8,3:3:0:0:
103,10,182588,37,2,2:2:0:0:
86,17,182693,1,8,3:3:0:0:
102,28,182798,1,8,3:3:0:0:
126,145,182904,5,8,3:3:0:0:
75,79,183009,1,2,2:2:0:0:
59,164,183114,1,8,3:3:0:0:
86,120,183219,1,8,3:3:0:0:
78,125,183325,1,8,3:3:0:0:
118,217,183430,6,0,L|202:237,1,55,2|8,2:2|3:3,0:0:0:0:
31,281,183640,2,0,L|115:301,1,55,8|8,3:3|3:3,0:0:0:0:
197,293,183851,5,2,2:2:0:0:
169,384,183956,1,8,3:3:0:0:
207,290,184061,1,8,3:3:0:0:
253,352,184167,1,0,3:3:0:0:
294,279,184272,37,8,2:3:0:0:
297,268,184342,1,8,2:3:0:0:
300,257,184412,1,8,2:3:0:0:
303,246,184483,2,0,L|373:238,1,55,8|0,2:3|0:0,0:0:0:0:
456,220,184693,5,8,2:2:0:0:
288,149,184798,1,8,2:2:0:0:
511,133,184904,1,8,2:2:0:0:
511,117,185114,5,8,2:2:0:0:
376,301,185219,1,8,2:2:0:0:
415,67,185325,1,8,2:2:0:0:
373,313,185535,5,2,2:2:0:0:
225,56,185956,37,4,3:2:0:0:
235,75,186061,1,0,3:3:0:0:
249,59,186167,1,0,3:3:0:0:
145,81,186272,5,8,3:2:0:0:
197,153,186377,1,2,3:2:0:0:
289,139,186483,1,0,3:3:0:0:
182,164,186588,5,8,3:2:0:0:
169,214,186693,1,0,3:3:0:0:
255,278,186798,6,0,L|243:192,3,55,2|0|0|0,3:2|3:3|3:3|3:3,0:0:0:0:
282,145,187219,37,10,3:2:0:0:
356,181,187325,1,0,3:3:0:0:
277,134,187430,1,0,3:3:0:0:
343,83,187535,1,0,3:3:0:0:
251,21,187640,6,0,L|190:33,3,55,2|0|0|0,3:2|3:3|3:3|3:3,0:0:0:0:
186,156,188061,5,10,3:2:0:0:
110,136,188167,1,0,3:3:0:0:
34,116,188272,1,0,3:3:0:0:
20,127,188483,5,2,3:2:0:0:
62,199,188588,1,0,3:3:0:0:
19,269,188693,1,0,3:3:0:0:
30,281,188904,37,10,3:2:0:0:
109,297,189009,1,0,3:3:0:0:
188,311,189114,1,0,3:3:0:0:
190,329,189325,5,2,3:2:0:0:
203,315,189430,1,0,3:3:0:0:
188,311,189535,1,0,3:3:0:0:
247,384,189640,5,0,3:3:0:0:
321,326,189746,5,10,3:2:0:0:
308,245,189851,1,0,3:3:0:0:
293,160,189956,1,0,3:3:0:0:
381,101,190061,37,8,3:2:0:0:
409,129,190167,2,0,L|398:203,3,55,2|0|0|0,3:2|3:3|3:3|3:3,0:0:0:0:
251,66,190588,5,10,3:2:0:0:
333,39,190693,1,0,3:3:0:0:
258,74,190798,1,0,3:3:0:0:
269,162,190904,5,8,3:2:0:0:
196,141,191009,2,0,L|134:124,3,55,2|0|0|0,3:2|3:3|3:3|3:3,0:0:0:0:
334,123,191430,5,10,3:2:0:0:
346,199,191535,1,0,3:3:0:0:
357,275,191640,1,0,3:3:0:0:
369,287,191851,37,2,3:2:0:0:
289,272,191956,1,0,3:3:0:0:
227,331,192061,1,0,3:3:0:0:
229,345,192272,5,10,3:2:0:0:
155,382,192377,1,0,3:3:0:0:
86,330,192482,1,0,3:3:0:0:
69,335,192693,6,0,B|54:291|59:260|59:260|87:221|87:221|96:171|65:115,1,208.999994419098,6|0,3:2|3:3,0:0:0:0:
201,8,193009,5,8,3:2:0:0:
243,90,193114,1,2,3:2:0:0:
175,150,193219,1,0,3:3:0:0:
117,58,193325,37,8,3:2:0:0:
148,68,193430,1,0,3:3:0:0:
253,105,193535,6,0,L|349:87,3,55,2|0|0|0,3:2|3:3|3:3|3:3,0:0:0:0:
161,219,193956,5,10,3:2:0:0:
240,240,194061,1,0,3:3:0:0:
148,213,194167,1,0,3:3:0:0:
214,324,194272,5,8,3:2:0:0:
287,304,194377,2,0,L|348:290,3,55,2|0|0|0,3:2|3:3|3:3|3:3,0:0:0:0:
233,212,194798,37,10,3:2:0:0:
309,189,194904,1,0,3:3:0:0:
385,168,195009,1,0,3:3:0:0:
399,182,195219,5,2,3:2:0:0:
451,119,195325,1,0,3:3:0:0:
405,50,195430,1,0,3:3:0:0:
413,40,195640,5,10,3:2:0:0:
335,29,195746,1,0,3:3:0:0:
259,13,195851,1,0,3:3:0:0:
241,31,196061,6,0,P|216:95|291:76,1,165.000006294251,2|0,3:2|3:3,0:0:0:0:
185,174,196377,37,0,3:3:0:0:
106,116,196483,5,10,3:2:0:0:
96,192,196588,1,0,3:3:0:0:
86,268,196693,1,0,3:3:0:0:
160,335,196798,5,8,3:2:0:0:
85,352,196904,2,0,L|4:372,3,55,2|0|0|0,3:2|3:3|3:3|3:3,0:0:0:0:
226,243,197325,5,10,3:2:0:0:
205,168,197430,1,0,3:3:0:0:
221,256,197535,1,0,3:3:0:0:
121,195,197640,37,8,3:2:0:0:
138,117,197746,2,0,L|152:40,3,55,0|0|2|0,3:3|3:3|3:2|3:3,0:0:0:0:
296,22,198167,5,0,3:3:0:0:
253,97,198272,1,0,3:3:0:0:
310,161,198377,1,10,3:2:0:0:
305,178,198588,5,2,3:2:0:0:
391,162,198693,1,0,3:3:0:0:
479,142,198798,2,0,L|485:64,1,55,2|0,3:2|3:3,0:0:0:0:
497,335,199009,5,0,3:3:0:0:
397,361,199114,1,0,3:3:0:0:
331,267,199219,37,12,3:2:0:0:
255,250,199325,1,0,3:3:0:0:
167,274,199430,6,0,B|139:342|205:377|205:377|321:278|146:127,1,330,4|0,3:2|3:3,0:0:0:0:
123,164,199851,5,8,3:2:0:0:
54,121,199956,1,0,3:3:0:0:
72,40,200061,1,0,3:3:0:0:
71,25,200272,6,0,L|379:49,1,247.500009441376,4|0,2:2|0:0,0:0:0:0:
416,16,200693,37,8,3:2:0:0:
444,88,200798,1,0,3:3:0:0:
372,116,200904,1,0,3:3:0:0:
344,44,201009,1,0,3:3:0:0:
308,190,201219,5,0,3:3:0:0:
338,209,201325,1,0,3:3:0:0:
322,335,201535,6,0,P|369:216|476:32,1,330.000012588501,8|4,3:2|2:2,0:0:0:0:
460,293,202167,5,0,3:3:0:0:
468,289,202237,1,0,3:3:0:0:
461,282,202307,1,0,3:3:0:0:
452,287,202377,2,0,P|421:308|361:363,1,110,8|0,3:2|0:0,0:0:0:0:
194,265,202798,37,4,3:2:0:0:
249,324,202904,1,0,3:3:0:0:
315,279,203009,1,0,3:3:0:0:
260,224,203114,1,0,3:3:0:0:
179,251,203219,5,8,3:2:0:0:
171,175,203325,1,0,3:3:0:0:
167,97,203430,1,0,3:3:0:0:
57,246,204061,5,8,3:2:0:0:
108,191,204167,1,0,3:3:0:0:
79,120,204272,1,0,3:3:0:0:
3,106,204377,1,0,3:3:0:0:
178,13,204588,5,0,3:3:0:0:
171,53,204693,1,0,3:3:0:0:
290,43,204904,37,8,3:2:0:0:
328,175,205114,5,0,3:3:0:0:
362,202,205184,1,8,2:3:0:0:
405,203,205254,1,8,2:3:0:0:
431,177,205325,2,0,L|421:87,2,55,8|8|8,2:3|2:3|2:3,0:0:0:0:
506,256,205640,5,0,3:3:0:0:
506,256,205693,1,0,3:3:0:0:
506,256,205746,2,0,L|517:137,1,110,8|0,3:2|0:0,0:0:0:0:
381,11,206167,5,4,3:2:0:0:
429,76,206272,1,0,3:3:0:0:
355,108,206377,1,0,3:3:0:0:
311,42,206483,1,0,3:3:0:0:
360,124,206588,37,8,3:2:0:0:
352,200,206693,1,0,3:3:0:0:
344,276,206798,1,0,3:3:0:0:
349,293,207009,6,0,B|271:288|176:255|176:255|216:271|248:312,1,247.500009441376,4|0,2:2|0:0,0:0:0:0:
140,342,207430,5,8,3:2:0:0:
68,321,207535,1,0,3:3:0:0:
63,247,207640,1,0,3:3:0:0:
124,204,207746,1,0,3:3:0:0:
37,110,207956,5,0,3:3:0:0:
45,146,208061,1,0,3:3:0:0:
130,19,208272,38,0,L|305:38,2,165.000006294251,8|2|2,3:2|2:2|2:2,0:0:0:0:
187,201,208974,5,0,3:3:0:0:
192,213,209044,1,0,3:3:0:0:
199,222,209114,2,0,P|232:114|292:-5,1,247.500009441376,12|0,3:2|0:0,0:0:0:0:
498,134,209535,5,4,3:2:0:0:
424,123,209640,1,0,3:3:0:0:
349,112,209746,1,0,3:3:0:0:
275,102,209851,1,0,3:3:0:0:
349,133,209956,5,8,3:2:0:0:
395,200,210061,1,0,3:3:0:0:
356,273,210167,1,0,3:3:0:0:
467,358,210588,37,0,0:0:0:0:
237,261,210798,5,8,3:2:0:0:
310,231,210904,1,0,3:3:0:0:
354,297,211009,1,0,3:3:0:0:
281,328,211114,1,4,3:2:0:0:
92,270,211325,5,0,3:3:0:0:
130,287,211430,1,4,3:2:0:0:
276,112,211640,5,8,3:2:0:0:
94,131,211851,37,8,2:2:0:0:
47,112,211956,1,8,2:2:0:0:
34,58,212061,1,8,2:2:0:0:
61,17,212167,1,8,2:2:0:0:
119,5,212272,1,8,2:2:0:0:
186,31,212377,1,8,2:2:0:0:
233,95,212483,1,8,2:2:0:0:
253,176,212588,1,8,2:2:0:0:
234,258,212693,1,8,2:2:0:0:
177,321,212798,1,0,3:3:0:0:
96,324,212904,5,2,3:2:0:0:
85,317,213009,1,0,3:3:0:0:
78,304,213114,1,0,3:3:0:0:
13,261,213219,5,0,3:3:0:0:
28,219,213325,1,10,3:2:0:0:
65,195,213430,1,0,3:3:0:0:
16,183,213535,1,0,3:3:0:0:
40,173,213640,1,0,3:3:0:0:
83,94,213746,6,0,L|27:85,3,55,2|0|0|0,3:2|3:3|3:3|3:3,0:0:0:0:
230,82,214167,37,10,3:2:0:0:
212,179,214272,2,0,L|127:194,1,55,0|0,3:3|3:3,0:0:0:0:
317,38,214483,5,0,3:3:0:0:
339,113,214588,1,2,3:2:0:0:
365,128,214693,1,0,3:3:0:0:
360,106,214798,1,0,3:3:0:0:
347,135,214904,1,0,3:3:0:0:
440,83,215009,5,10,3:2:0:0:
504,135,215114,1,0,3:3:0:0:
463,207,215219,1,0,3:3:0:0:
466,220,215430,5,2,3:2:0:0:
377,220,215535,1,2,3:2:0:0:
363,300,215640,1,2,3:2:0:0:
365,316,215851,37,10,3:2:0:0:
288,343,215956,1,2,3:2:0:0:
246,273,216061,1,2,3:2:0:0:
256,268,216167,1,0,3:3:0:0:
307,199,216272,5,4,3:2:0:0:
292,185,216377,1,0,3:3:0:0:
271,177,216483,1,0,3:3:0:0:
202,113,216588,5,0,3:3:0:0:
139,141,216693,1,10,3:2:0:0:
119,213,216798,1,0,3:3:0:0:
65,151,216904,1,0,3:3:0:0:
78,188,217009,1,0,3:3:0:0:
91,77,217114,6,0,L|4:65,3,55,2|0|0|0,3:2|3:3|3:3|3:3,0:0:0:0:
198,197,217535,37,10,3:2:0:0:
281,176,217640,1,0,3:3:0:0:
232,95,217746,1,0,3:3:0:0:
321,74,217851,1,0,3:3:0:0:
267,0,217956,5,2,3:2:0:0:
331,87,218061,2,0,L|433:107,2,55,0|0|0,3:3|3:3|3:3,0:0:0:0:
177,215,218378,5,10,3:2:0:0:
259,195,218483,1,0,3:3:0:0:
337,173,218588,1,0,3:3:0:0:
351,181,218798,5,2,3:2:0:0:
421,227,218904,1,0,3:3:0:0:
348,273,219009,1,0,3:3:0:0:
332,267,219219,37,10,3:2:0:0:
295,383,219325,1,8,3:2:0:0:
388,341,219430,1,2,3:2:0:0:
398,350,219640,5,6,3:2:0:0:
487,304,219746,2,0,L|497:214,1,55,0|0,3:3|3:3,0:0:0:0:
364,169,219956,2,0,L|383:274,1,55,0|0,3:3|3:3,0:0:0:0:
502,147,220167,1,0,3:3:0:0:
409,73,220272,5,12,3:2:0:0:
337,57,220377,1,0,3:3:0:0:
278,98,220483,2,0,L|271:167,3,55,0|0|0|0,3:3|3:3|3:3|3:3,0:0:0:0:
128,276,220904,5,4,3:2:0:0:
101,169,221009,1,0,3:3:0:0:
144,268,221114,1,0,3:3:0:0:
206,201,221219,1,0,3:3:0:0:
105,188,221325,2,0,L|42:176,1,55,0|0,3:3|3:3,0:0:0:0:
272,373,221535,37,12,3:2:0:0:
233,293,221640,1,0,3:3:0:0:
298,228,221745,1,2,3:2:0:0:
381,264,221851,1,0,3:3:0:0:
368,351,221956,1,2,3:2:0:0:
376,370,222167,5,10,3:2:0:0:
396,242,222272,1,8,3:2:0:0:
309,301,222377,1,2,3:2:0:0:
307,321,222588,5,10,3:2:0:0:
412,248,222693,1,8,3:2:0:0:
363,144,222798,1,2,3:2:0:0:
367,127,223009,5,4,3:2:0:0:
351,121,223114,1,0,3:3:0:0:
334,121,223220,1,0,3:3:0:0:
275,53,223325,37,0,3:3:0:0:
219,115,223430,1,10,3:2:0:0:
229,148,223535,1,0,3:3:0:0:
299,215,223640,5,0,3:3:0:0:
278,306,223746,1,0,3:3:0:0:
314,221,223851,2,0,L|400:207,3,55,2|0|0|0,3:2|3:3|3:3|3:3,0:0:0:0:
192,93,224272,5,10,3:2:0:0:
212,185,224377,1,0,3:3:0:0:
122,166,224483,1,0,3:3:0:0:
103,253,224588,1,0,3:3:0:0:
23,207,224693,5,2,3:2:0:0:
108,277,224798,2,0,L|89:379,2,55,0|0|0,3:3|3:3|3:3,0:0:0:0:
295,320,225114,38,0,L|258:313,2,36.6666666666667,8|8|8,2:2|2:2|2:2,0:0:0:0:
189,203,225325,2,0,L|225:196,2,36.6666666666667,8|8|8,2:2|2:2|2:2,0:0:0:0:
366,237,225535,5,8,2:3:0:0:
328,199,225605,1,8,2:3:0:0:
331,152,225676,1,8,2:2:0:0:
355,126,225746,1,8,2:2:0:0:
372,119,225816,1,8,2:2:0:0:
387,121,225886,1,8,2:2:0:0:
394,123,225956,5,8,2:3:0:0:
376,92,226026,1,8,2:3:0:0:
350,71,226097,1,8,2:3:0:0:
328,65,226167,1,8,2:3:0:0:
311,64,226237,1,8,2:3:0:0:
299,66,226307,1,8,2:3:0:0:
289,70,226377,6,0,B|255:106|255:106|134:88|134:88|98:130,1,220,4|0,3:2|3:3,0:0:0:0:
102,140,226693,1,0,3:3:0:0:
25,86,226798,2,0,L|35:2,1,82.5000031471254,10|0,3:2|3:3,0:0:0:0:
25,189,227009,2,0,L|34:270,1,82.5000031471254,0|0,3:3|3:3,0:0:0:0:
132,348,227219,37,2,3:2:0:0:
164,342,227325,1,0,3:3:0:0:
196,336,227430,1,0,3:3:0:0:
228,331,227535,1,0,3:3:0:0:
311,367,227640,5,10,3:2:0:0:
273,302,227746,1,0,3:3:0:0:
343,270,227851,1,0,3:3:0:0:
383,339,227956,1,0,3:3:0:0:
461,352,228061,6,0,B|470:274|470:274|476:267|476:267|499:106,1,247.500009441376,0|0,3:3|3:3,0:0:0:0:
402,20,228483,5,10,3:2:0:0:
370,92,228588,1,0,3:3:0:0:
436,133,228693,2,0,L|519:114,1,55,0|0,3:3|3:3,0:0:0:0:
387,13,228904,37,2,3:2:0:0:
311,0,229009,1,2,3:2:0:0:
270,63,229114,2,0,L|276:136,1,55,2|0,3:2|3:3,0:0:0:0:
323,328,229325,5,10,3:2:0:0:
385,283,229430,1,2,3:2:0:0:
370,209,229535,2,0,L|314:161,1,55,2|0,3:2|3:3,0:0:0:0:
224,201,229746,5,4,3:2:0:0:
211,210,229851,1,0,3:3:0:0:
201,226,229956,1,0,3:3:0:0:
232,295,230061,1,4,3:2:0:0:
189,356,230167,2,0,L|87:375,1,82.5000031471254,10|0,3:2|3:3,0:0:0:0:
24,251,230377,5,0,3:3:0:0:
103,271,230483,1,0,3:3:0:0:
83,190,230588,2,0,L|-8:159,1,82.5000031471254,2|0,3:2|3:3,0:0:0:0:
165,147,230798,2,0,L|256:116,1,82.5000031471254,0|0,3:3|3:3,0:0:0:0:
80,4,231009,37,10,3:2:0:0:
25,61,231114,1,0,3:3:0:0:
89,108,231219,1,0,3:3:0:0:
141,55,231325,1,0,3:3:0:0:
13,71,231430,5,2,3:2:0:0:
155,56,231535,1,0,3:3:0:0:
89,120,231640,2,0,L|102:213,1,82.5000031471254,0|0,3:3|3:3,0:0:0:0:
164,287,231851,5,10,3:2:0:0:
230,249,231956,1,0,3:3:0:0:
284,302,232061,2,0,L|292:390,1,82.5000031471254,0|0,3:3|3:3,0:0:0:0:
150,295,232272,5,10,3:2:0:0:
166,208,232377,1,8,3:2:0:0:
245,170,232483,2,0,L|347:199,1,82.5000031471254,2|0,3:2|3:3,0:0:0:0:
137,306,232693,37,10,3:2:0:0:
80,241,232798,1,8,3:2:0:0:
100,149,232904,2,0,L|182:124,1,82.5000031471254,2|0,3:2|3:3,0:0:0:0:
327,12,233114,6,0,B|387:-11|387:-11|344:123|344:123|392:100,1,220,4|0,3:2|3:3,0:0:0:0:
441,113,233430,1,0,3:3:0:0:
466,193,233535,2,0,P|440:220|399:291,1,82.5000031471254,0|0,3:3|3:3,0:0:0:0:
302,280,233746,2,0,P|328:307|369:378,1,82.5000031471254,12|0,3:2|3:3,0:0:0:0:
207,380,233956,5,0,3:3:0:0:
211,347,234061,1,0,3:3:0:0:
215,314,234167,1,0,3:3:0:0:
219,281,234272,1,0,3:3:0:0:
179,206,234377,5,4,3:2:0:0:
111,173,234483,1,0,3:3:0:0:
77,241,234588,1,0,3:3:0:0:
144,273,234693,1,0,3:3:0:0:
186,196,234798,37,0,3:3:0:0:
193,185,234904,1,0,3:3:0:0:
161,120,235009,2,0,L|156:17,1,82.5000031471254,8|0,3:2|3:3,0:0:0:0:
331,13,235219,5,8,3:2:0:0:
308,112,235325,1,8,3:2:0:0:
235,43,235430,1,8,3:2:0:0:
512,100,235640,6,0,L|-21:182,1,412.5,8|0,3:2|3:3,0:0:0:0:
36,110,236061,2,0,L|15:18,1,82.5000031471254,4|0,3:2|3:3,0:0:0:0:
116,247,236272,2,0,L|97:327,1,82.5000031471254,10|0,3:2|3:3,0:0:0:0:
222,224,236483,5,4,3:2:0:0:
237,229,236588,1,0,3:3:0:0:
252,234,236693,1,0,3:3:0:0:
267,240,236798,1,0,3:3:0:0:
300,307,236904,37,10,3:2:0:0:
335,246,237009,1,0,3:3:0:0:
376,321,237114,1,0,3:3:0:0:
383,304,237219,1,0,3:3:0:0:
432,365,237325,6,0,L|520:344,1,82.5000031471254,2|0,3:2|3:3,0:0:0:0:
512,225,237535,2,0,L|424:246,1,82.5000031471254,0|0,3:3|3:3,0:0:0:0:
327,155,237746,5,10,3:2:0:0:
400,119,237851,1,0,3:3:0:0:
384,42,237956,1,0,3:3:0:0:
307,32,238061,1,0,3:3:0:0:
260,95,238167,2,0,L|241:187,1,82.5000031471254,2|0,3:2|3:3,0:0:0:0:
156,249,238377,6,0,L|96:261,2,55.0000020980836,8|8|8,2:2|2:2|2:2,0:0:0:0:
169,336,238588,37,8,2:2:0:0:
236,286,238693,2,0,L|229:220,2,41.2500015735627,8|8|8,2:3|2:3|2:3,0:0:0:0:
288,342,238904,1,8,2:3:0:0:
360,318,239009,1,8,2:3:0:0:
386,244,239114,1,8,2:3:0:0:
346,176,239219,2,0,L|247:185,1,82.5000031471254,8|8,2:3|2:3,0:0:0:0:
61,265,239430,5,8,2:3:0:0:
16,325,239535,1,8,2:3:0:0:
72,369,239640,1,8,2:3:0:0:
116,314,239746,1,8,2:3:0:0:
195,260,239851,6,0,B|275:244|308:297|321:353|432:316,1,220,4|0,3:2|0:0,0:0:0:0:
474,276,240167,1,0,3:3:0:0:
413,214,240272,1,2,2:2:0:0:
385,218,240377,1,2,2:2:0:0:
366,234,240483,2,0,P|367:273|386:313,1,55,2|0,3:2|0:0,0:0:0:0:
501,122,240693,5,10,2:2:0:0:
498,116,240798,1,2,2:2:0:0:
496,111,240904,1,2,2:2:0:0:
494,106,241009,1,2,2:2:0:0:
432,44,241114,37,2,3:2:0:0:
353,65,241219,1,8,2:2:0:0:
328,154,241325,1,8,2:2:0:0:
244,175,241430,1,8,2:2:0:0:
168,100,241535,6,0,P|183:55|180:18,1,82.5000031471254,0|0,3:3|0:0,0:0:0:0:
197,0,241746,6,0,B|234:116|129:123|175:254,1,247.500009441376,4|0,3:2|0:0,0:0:0:0:
96,307,242167,2,0,P|88:267|69:222,1,82.5000031471254,2|0,3:2|0:0,0:0:0:0:
26,169,242377,1,8,2:2:0:0:
229,321,242588,5,4,2:2:0:0:
235,318,242693,1,0,0:0:0:0:
240,316,242799,1,0,0:0:0:0:
245,314,242904,1,0,0:0:0:0:
320,342,243009,38,0,B|326:313|326:313|325:308|325:308|334:246,1,55,0|0,3:3|0:0,0:0:0:0:
272,142,243219,5,2,2:2:0:0:
271,147,243312,1,0,0:0:0:0:
270,153,243406,1,0,0:0:0:0:
183,213,243500,6,0,B|288:141|317:267|433:173,1,247.500009441376,0|0,3:3|0:0,0:0:0:0:
364,119,243875,1,2,3:2:0:0:
151,23,244084,6,0,P|161:65|160:136,1,82.5000031471254,8|0,2:2|0:0,0:0:0:0:
48,259,244277,1,0,3:3:0:0:
85,188,244374,1,0,3:3:0:0:
171,204,244471,38,0,P|208:286|81:346,1,247.500009441376,4|0,3:2|0:0,0:0:0:0:
36,254,244904,2,0,P|124:275|161:290,1,82.5000031471254,2|0,3:2|0:0,0:0:0:0:
267,368,245114,5,8,2:2:0:0:
273,365,245219,1,0,0:0:0:0:
278,363,245325,1,2,2:2:0:0:
283,361,245430,1,0,0:0:0:0:
289,358,245535,5,8,2:2:0:0:
300,274,245640,1,8,2:2:0:0:
309,181,245746,1,4,3:2:0:0:
477,320,246026,5,0,3:3:0:0:
460,328,246096,1,0,3:3:0:0:
444,335,246167,2,0,P|424:275|427:226,1,82.5000031471254,12|0,3:2|0:0,0:0:0:0:
512,88,246377,2,0,P|507:128|491:166,1,82.5000031471254,4|0,3:2|0:0,0:0:0:0:
256,123,246588,38,0,B|209:137|182:100|190:31|258:5|314:31|382:113,1,247.500009441376,4|0,3:2|0:0,0:0:0:0:
348,185,247009,5,2,2:2:0:0:
333,191,247114,1,0,0:0:0:0:
292,256,247219,1,2,3:2:0:0:
262,249,247325,1,0,0:0:0:0:
177,202,247430,6,0,P|125:215|99:221,1,55,8|0,2:2|0:0,0:0:0:0:
121,309,247640,2,0,P|147:302|174:295,1,55,2|0,2:2|0:0,0:0:0:0:
19,113,247851,6,0,B|-7:140|3:180|3:180|20:202,1,98.9999969787599,2|0,3:2|0:0,0:0:0:0:
232,127,248061,37,8,2:3:0:0:
150,108,248167,1,8,2:3:0:0:
170,25,248272,1,8,2:3:0:0:
259,45,248377,1,8,2:3:0:0:
139,114,248482,6,0,P|233:85|371:62,1,220,4|2,3:2|2:2,0:0:0:0:
460,200,248904,5,2,3:2:0:0:
443,209,249009,1,0,0:0:0:0:
483,268,249114,2,0,P|460:261|323:238,1,131.99999597168,2|2,3:2|2:2,0:0:0:0:
278,315,249395,5,0,3:3:0:0:
283,333,249465,1,0,3:3:0:0:
289,355,249535,2,0,P|347:337|396:328,1,82.5000031471254,12|0,3:2|0:0,0:0:0:0:
276,124,249746,2,0,P|266:164|253:203,1,82.5000031471254,4|0,3:2|0:0,0:0:0:0:
131,384,249956,38,0,P|121:313|82:154,1,187.000003566742,4|2,3:2|2:2,0:0:0:0:
3,152,250272,5,0,0:0:0:0:
61,96,250377,1,2,2:2:0:0:
91,91,250482,1,0,0:0:0:0:
145,125,250588,1,2,3:2:0:0:
222,136,250693,1,0,0:0:0:0:
254,112,250798,6,0,P|247:74|230:21,1,71.4999967269899,10|0,2:2|0:0,0:0:0:0:
158,25,251009,1,0,3:3:0:0:
319,287,251219,6,0,B|309:192|394:156|356:51,1,214.49999018097,4|0,3:2|0:0,0:0:0:0:
261,48,251640,1,2,2:2:0:0:
256,84,251746,1,0,0:0:0:0:
272,131,251851,2,0,P|305:122|352:115,1,71.4999967269899,2|0,3:2|0:0,0:0:0:0:
512,278,252061,38,0,P|468:272|426:260,1,88,4|0,3:2|0:0,0:0:0:0:
477,45,252314,5,8,2:3:0:0:
484,69,252398,1,8,2:3:0:0:
491,96,252482,5,8,2:3:0:0:
428,144,252588,1,8,2:3:0:0:
356,102,252693,5,8,2:3:0:0:
273,125,252798,1,8,2:3:0:0:
314,209,252904,37,8,2:3:0:0:
310,247,253009,1,8,2:3:0:0:
245,314,253114,5,8,2:3:0:0:
250,337,253219,1,0,0:0:0:0:
310,384,253325,6,0,P|296:298|247:77,1,264,4|0,3:2|3:3,0:0:0:0:
194,79,253746,2,0,P|134:88|156:182,1,176,2|0,2:2|3:3,0:0:0:0:
60,317,254167,6,0,L|16:48,1,264,10|0,2:2|3:0,0:0:0:0:
58,0,254588,38,0,L|15:260,1,264,2|0,3:2|3:3,0:0:0:0:
143,334,255009,6,0,P|115:322|80:317,1,55,2|0,3:2|0:0,0:0:0:0:
2,370,255219,6,0,L|334:313,1,296.99999093628,4|0,3:2|0:0,0:0:0:0:
361,357,255640,1,0,3:3:0:0:
372,132,255851,6,0,P|352:161|401:219,1,107.249995090485,10|0,2:2|0:0,0:0:0:0:
456,201,256272,2,0,P|476:172|427:114,1,107.249995090485,2|0,3:2|0:0,0:0:0:0:
386,67,256693,37,2,3:2:0:0:
381,56,256798,1,0,3:3:0:0:
375,46,256904,1,0,3:3:0:0:
299,52,257009,6,0,B|215:45|215:45|206:50|206:50|89:40,1,165,4|0,3:2|3:3,0:0:0:0:
11,7,257535,6,0,P|26:37|45:88,1,55,10|0,2:2|0:0,0:0:0:0:
92,110,257746,2,0,P|77:140|58:191,1,55,0|0,3:3|0:0,0:0:0:0:
247,192,257956,6,0,B|201:153|123:205|169:215|127:276|46:266,1,220,4|2,3:2|3:2,0:0:0:0:
6,191,258588,1,8,2:2:0:0:
175,339,258798,1,2,2:2:0:0:
141,163,259009,1,0,3:3:0:0:
40,275,259219,38,0,L|57:390,1,110,4|0,3:2|0:0,0:0:0:0:
133,375,259500,1,0,3:3:0:0:
141,367,259570,1,0,3:3:0:0:
144,357,259640,2,0,L|133:273,1,55,12|0,3:2|0:0,0:0:0:0:
258,242,259851,2,0,L|250:296,1,55,4|0,3:2|0:0,0:0:0:0:
159,183,260061,6,0,B|148:24|148:24|187:90,1,220,4|2,3:2|2:2,0:0:0:0:
236,128,260693,1,2,3:2:0:0:
406,20,260904,6,0,P|375:4|349:5,1,55,10|0,2:2|0:0,0:0:0:0:
333,94,261114,2,0,P|364:110|390:109,1,55,0|0,3:3|0:0,0:0:0:0:
277,26,261325,1,2,3:2:0:0:
256,211,261535,5,8,2:3:0:0:
306,180,261640,1,8,2:3:0:0:
356,196,261746,1,8,2:3:0:0:
376,246,261851,1,8,2:3:0:0:
304,299,261956,38,0,P|319:227|376:34,1,263.99999194336,4|0,3:2|3:3,0:0:0:0:
461,12,262588,1,2,3:2:0:0:
511,162,262868,5,0,3:3:0:0:
511,162,262939,1,0,3:3:0:0:
511,162,263009,2,0,L|426:150,1,65.9999979858399,12|0,3:2|0:0,0:0:0:0:
282,201,263219,2,0,L|348:211,1,65.9999979858399,4|0,3:2|0:0,0:0:0:0:
447,379,263430,6,0,P|491:262|352:352,1,395.999987915039,4|2,3:2|3:2,0:0:0:0:
417,303,264272,5,8,2:2:0:0:
417,303,264377,1,0,0:0:0:0:
417,303,264482,1,2,3:2:0:0:
371,274,264588,1,0,3:3:0:0:
324,302,264693,2,0,L|316:374,1,65.9999979858399,4|0,3:2|0:0,0:0:0:0:
130,309,264904,38,0,L|409:267,1,263.99999194336,2|2,2:2|3:2,0:0:0:0:
417,185,265430,1,0,0:0:0:0:
417,185,265535,2,0,L|443:-18,1,197.99999395752,4|0,3:2|0:0,0:0:0:0:
470,0,265956,6,0,L|479:47,2,43.9999986572266,8|8|8,2:3|2:3|2:2,0:0:0:0:
358,47,266167,6,0,L|367:0,2,43.9999986572266,8|8|8,2:2|2:2|2:2,0:0:0:0:
304,112,266377,5,8,2:3:0:0:
279,81,266447,1,8,2:3:0:0:
239,75,266518,1,8,2:3:0:0:
202,89,266588,1,8,2:3:0:0:
182,123,266658,1,8,2:3:0:0:
145,138,266728,1,10,2:3:0:0:
106,128,266798,38,0,P|72:70|140:18,1,131.99999597168,4|0,3:2|0:0,0:0:0:0:
202,89,267114,2,0,P|87:202|86:261,1,197.99999395752,0|2,3:3|3:2,0:0:0:0:
249,384,267640,5,10,2:2:0:0:
241,366,267746,1,2,2:2:0:0:
240,348,267851,1,2,2:2:0:0:
243,332,267956,1,2,2:2:0:0:
253,316,268061,5,2,3:2:0:0:
331,351,268167,1,8,2:2:0:0:
391,289,268272,1,8,2:2:0:0:
341,220,268377,1,8,2:2:0:0:
251,226,268482,6,0,P|255:193|270:164,1,65.9999979858399,2|0,3:2|0:0,0:0:0:0:
512,91,268693,38,0,B|449:139|389:85|387:80|387:74|359:12|270:43,1,264,4|0,3:2|0:0,0:0:0:0:
196,27,269114,2,0,P|205:64|214:121,1,65.9999979858399,2|0,3:2|0:0,0:0:0:0:
42,165,269325,5,8,2:2:0:0:
111,128,269430,1,0,0:0:0:0:
173,175,269535,5,4,3:2:0:0:
171,184,269640,1,0,0:0:0:0:
169,193,269746,1,0,0:0:0:0:
168,203,269851,1,0,0:0:0:0:
99,265,269956,5,4,3:2:0:0:
103,278,270061,1,0,0:0:0:0:
106,291,270167,1,2,2:2:0:0:
107,304,270272,1,0,0:0:0:0:
109,318,270377,1,0,0:0:0:0:
222,284,270482,38,0,B|255:278|289:259|289:259|400:296|400:296|444:261|518:272,1,264,4|0,3:2|3:3,0:0:0:0:
311,80,271009,5,8,2:2:0:0:
384,166,271114,2,0,B|389:137|389:137|392:132|392:132|400:61,2,71.4999967269899,0|0|0,0:0|3:3|3:3,0:0:0:0:
257,319,271430,6,0,B|247:249|247:249|244:249|244:249|236:180,1,142.99999345398,4|2,3:2|2:2,0:0:0:0:
315,79,271746,1,0,0:0:0:0:
228,72,271851,2,0,P|267:80|311:105,1,71.4999967269899,2|0,3:2|0:0,0:0:0:0:
138,122,272061,5,8,2:2:0:0:
236,180,272167,2,0,P|153:202|73:243,1,142.99999345398
58,84,272482,37,2,3:2:0:0:
131,121,272588,1,0,0:0:0:0:
25,171,272693,2,0,B|-5:187|-5:187|-10:237|39:316,1,142.99999345398,4|2,3:2|2:2,0:0:0:0:
81,347,272974,1,0,3:3:0:0:
93,341,273044,1,0,3:3:0:0:
103,335,273114,6,0,B|140:333|140:333|198:348,1,71.4999967269899,10|0,3:2|0:0,0:0:0:0:
185,251,273325,2,0,B|148:253|148:253|90:238,1,71.4999967269899,4|0,3:2|0:0,0:0:0:0:
350,376,273535,5,4,3:2:0:0:
279,307,273640,2,0,P|285:256|325:212,1,71.4999967269899,0|2,0:0|2:2,0:0:0:0:
473,138,273851,5,0,0:0:0:0:
429,205,273956,1,2,2:2:0:0:
400,201,274061,1,0,0:0:0:0:
376,183,274167,2,0,P|361:150|360:115,1,71.4999967269899,2|0,3:2|0:0,0:0:0:0:
184,24,274377,37,8,2:2:0:0:
259,45,274482,1,0,0:0:0:0:
261,122,274588,1,2,2:2:0:0:
189,147,274693,1,0,0:0:0:0:
139,86,274798,6,0,P|95:75|69:71,1,71.4999967269899,2|0,3:2|0:0,0:0:0:0:
21,301,275009,5,8,2:3:0:0:
4,219,275114,1,8,2:3:0:0:
85,202,275219,1,8,2:3:0:0:
108,281,275325,1,8,2:3:0:0:
201,353,275430,5,4,3:2:0:0:
229,268,275535,2,0,B|341:245|283:340|439:302,1,176
436,384,275851,2,0,B|431:355|400:327|400:327|418:297|418:297|387:243|407:162,1,176,2|2,3:2|3:2,0:0:0:0:
441,161,276167,1,0,0:0:0:0:
507,243,276272,37,8,2:2:0:0:
246,147,276482,1,8,2:2:0:0:
472,0,276693,5,4,3:2:0:0:
510,64,276798,1,0,0:0:0:0:
445,106,276904,2,0,P|404:69|311:77,1,142.99999345398,4|2,3:2|2:2,0:0:0:0:
242,148,277219,5,0,0:0:0:0:
291,151,277325,1,2,2:2:0:0:
324,187,277430,1,0,0:0:0:0:
238,245,277535,5,8,2:2:0:0:
211,244,277640,1,0,0:0:0:0:
188,254,277746,1,2,2:2:0:0:
177,266,277851,1,0,0:0:0:0:
249,319,277956,38,0,B|258:282|258:282|256:275|256:275|269:224,1,71.4999967269899,4|0,3:2|0:0,0:0:0:0:
168,87,278167,6,0,B|101:59|101:59|65:125,1,142.99999345398,4|2,3:2|2:2,0:0:0:0:
31,188,278482,1,0,0:0:0:0:
65,201,278588,1,2,2:2:0:0:
84,227,278693,1,0,0:0:0:0:
101,310,278798,5,2,3:2:0:0:
7,267,278904,1,2,3:2:0:0:
141,174,279009,2,0,B|140:148|140:148|145:129|145:129|144:121|144:121|155:102|155:102|150:78|150:78|155:53,1,121,4|0,3:2|0:0,0:0:0:0:
222,17,280272,5,4,3:2:0:0:
303,30,280377,1,0,0:0:0:0:
217,30,280482,1,0,0:0:0:0:
312,24,280588,2,0,B|318:60|318:60|314:62|314:62|322:105,1,82.5000031471254,0|10,3:3|3:2,0:0:0:0:
425,125,280798,37,0,3:3:0:0:
482,67,280904,2,0,P|447:46|413:46,1,71.4999967269899,0|0,3:3|3:3,0:0:0:0:
356,231,281114,1,2,3:2:0:0:
281,192,281219,2,0,B|354:177|354:177|352:181|352:181|451:161,1,165.000006294251,0|0,3:3|3:3,0:0:0:0:
416,342,281535,5,10,3:2:0:0:
475,284,281640,1,0,3:3:0:0:
493,362,281746,5,0,3:3:0:0:
404,266,281851,1,0,3:3:0:0:
344,337,281956,6,0,B|365:364|365:364|418:362,1,71.4999967269899,2|0,3:2|3:3,0:0:0:0:
489,212,282167,1,0,3:3:0:0:
489,212,282272,2,0,L|475:114,1,71.4999967269899,0|10,3:3|3:2,0:0:0:0:
330,45,282482,1,0,3:3:0:0:
386,101,282588,2,0,L|375:171,1,71.4999967269899,0|0,3:3|3:3,0:0:0:0:
189,243,282798,37,2,3:2:0:0:
202,172,282903,1,0,3:3:0:0:
216,101,283009,1,0,3:3:0:0:
189,171,283114,2,0,L|178:83,1,71.4999967269899,0|10,3:3|3:2,0:0:0:0:
73,93,283325,1,0,3:3:0:0:
19,184,283430,2,0,L|100:164,1,71.4999967269899,0|0,3:3|3:3,0:0:0:0:
226,357,283640,5,2,3:2:0:0:
145,344,283745,1,0,3:3:0:0:
231,344,283850,1,0,3:3:0:0:
136,350,283956,2,0,B|129:313|129:313|133:311|133:311|125:268,1,82.5000031471254,2|8,3:2|3:2,0:0:0:0:
303,136,284167,5,0,3:3:0:0:
331,213,284272,2,0,P|307:246|283:293,1,71.4999967269899,2|0,3:2|3:3,0:0:0:0:
500,384,284482,1,0,3:3:0:0:
455,318,284588,2,0,P|376:304|231:285,1,165.000006294251,2|0,3:2|3:3,0:0:0:0:
166,229,284903,5,10,3:2:0:0:
236,212,285008,1,0,3:3:0:0:
306,194,285114,1,0,3:3:0:0:
253,137,285219,2,0,L|126:127,2,71.4999967269899,2|0|0,3:2|3:3|3:3,0:0:0:0:
435,18,285535,1,2,3:2:0:0:
374,148,285640,2,0,L|357:24,1,110,0|0,3:3|3:3,0:0:0:0:
294,0,285956,37,0,3:3:0:0:
446,94,286061,1,2,3:2:0:0:
357,157,286167,2,0,B|293:137|293:137|251:154,2,82.5000031471254,2|0|2,3:2|3:3|3:2,0:0:0:0:
509,228,286482,2,0,P|476:197|439:193,1,71.4999967269899,0|8,3:3|3:2,0:0:0:0:
328,308,286693,1,0,3:3:0:0:
401,345,286798,2,0,P|437:316|437:274,1,71.4999967269899,2|0,3:2|3:3,0:0:0:0:
250,229,287009,5,4,3:2:0:0:
245,310,287114,1,0,3:3:0:0:
236,225,287219,1,0,3:3:0:0:
252,319,287325,2,0,B|216:328|216:328|214:324|214:324|172:337,1,82.5000031471254,0|10,3:3|3:2,0:0:0:0:
114,282,287535,5,0,3:3:0:0:
70,354,287640,2,0,L|-21:339,1,71.4999967269899,0|0,3:3|3:3,0:0:0:0:
31,86,287851,1,2,3:2:0:0:
104,122,287956,2,0,P|123:207|132:271,1,142.99999345398,0|0,3:3|3:3,0:0:0:0:
308,270,288272,5,10,3:2:0:0:
277,183,288377,1,0,3:3:0:0:
223,258,288482,37,2,3:2:0:0:
356,201,288588,1,2,3:2:0:0:
215,246,288693,6,0,L|116:226,1,71.4999967269899,4|0,3:2|3:3,0:0:0:0:
374,62,288903,1,0,3:3:0:0:
374,62,289008,2,0,P|391:103|394:155,1,71.4999967269899,0|10,3:3|3:2,0:0:0:0:
436,211,289219,1,0,3:3:0:0:
476,131,289325,2,0,P|482:95|496:63,1,71.4999967269899,0|0,3:3|3:3,0:0:0:0:
288,17,289535,5,2,3:2:0:0:
219,41,289640,1,0,3:3:0:0:
150,65,289746,1,0,3:3:0:0:
228,54,289851,2,0,L|319:68,2,71.4999967269899,0|10|0,3:3|3:2|3:3,0:0:0:0:
78,194,290167,5,0,3:3:0:0:
87,104,290272,1,0,3:3:0:0:
66,187,290377,2,0,P|47:135|26:81,2,71.4999967269899,4|0|0,3:2|3:3|3:3,0:0:0:0:
43,319,290693,2,0,P|10:277|10:241,1,71.4999967269899,0|10,3:3|3:2,0:0:0:0:
212,236,290903,1,0,3:3:0:0:
157,284,291009,2,0,P|139:318|124:364,1,71.4999967269899,0|0,3:3|3:3,0:0:0:0:
272,370,291219,37,2,3:2:0:0:
309,358,291325,1,0,3:3:0:0:
342,342,291430,1,0,3:3:0:0:
371,323,291535,1,0,3:3:0:0:
312,232,291640,5,10,3:2:0:0:
296,277,291746,1,0,3:3:0:0:
286,322,291851,1,0,3:3:0:0:
288,368,291956,2,0,P|321:307|358:256,2,71.4999967269899,0|2|0,3:3|3:2|3:3,0:0:0:0:
144,332,292272,6,0,B|94:338|94:338|91:341|91:341|30:347,1,110,8|0,3:2|3:3,0:0:0:0:
224,218,292482,2,0,B|274:224|274:224|277:227|277:227|338:233,1,110,2|0,3:2|3:3,0:0:0:0:
73,167,292693,6,0,L|56:37,1,110,8|0,3:2|3:3,0:0:0:0:
211,194,292903,2,0,L|194:64,1,110,8|0,3:2|3:3,0:0:0:0:
389,32,293114,37,8,3:2:0:0:
300,118,293219,1,8,3:2:0:0:
284,126,293430,5,8,3:2:0:0:
398,199,293535,1,8,3:2:0:0:
279,257,293640,1,8,3:2:0:0:
384,319,293746,6,0,L|397:395,2,65.9999979858399,4|0|2,3:2|3:3|3:2,0:0:0:0:
266,249,294061,5,0,3:3:0:0:
194,298,294167,1,10,3:2:0:0:
224,378,294272,1,0,3:3:0:0:
174,289,294377,37,2,3:2:0:0:
154,281,294482,1,0,3:3:0:0:
133,273,294588,1,2,3:2:0:0:
138,190,294693,5,2,3:2:0:0:
41,260,294798,2,0,P|54:290|62:322,1,65.9999979858399,2|0,3:2|3:3,0:0:0:0:
79,92,295009,5,10,3:2:0:0:
63,139,295114,1,0,3:3:0:0:
171,109,295219,5,2,3:2:0:0:
120,4,295325,1,2,3:2:0:0:
182,123,295430,38,0,P|238:133|281:140,2,65.9999979858399,2|0|2,3:2|3:3|3:2,0:0:0:0:
289,229,295746,5,0,3:3:0:0:
181,289,295851,2,0,P|197:228|205:191,1,65.9999979858399,10|0,3:2|3:3,0:0:0:0:
354,364,296061,5,2,3:2:0:0:
283,339,296167,1,0,3:3:0:0:
385,246,296272,5,2,3:2:0:0:
390,271,296377,1,0,3:3:0:0:
410,289,296482,1,2,3:2:0:0:
427,297,296588,2,0,P|464:282|473:207,1,65.9999979858399,0|10,3:3|3:2,0:0:0:0:
347,70,296798,37,0,3:3:0:0:
391,162,296904,1,2,3:2:0:0:
356,56,297009,1,0,3:3:0:0:
403,154,297114,2,0,P|389:211|384:233,1,65.9999979858399,2|0,3:2|3:3,0:0:0:0:
453,70,297325,1,2,3:2:0:0:
314,139,297430,6,0,B|277:149|277:149|274:154|274:154|230:168,1,82.5000031471254,2|8,3:2|3:2,0:0:0:0:
156,200,297640,1,0,3:3:0:0:
229,261,297746,5,2,3:2:0:0:
223,285,297851,1,0,3:3:0:0:
217,307,297956,1,2,3:2:0:0:
97,336,298061,6,0,B|82:326|82:326|108:224,1,82.5000031471254,2|2,3:2|3:2,0:0:0:0:
156,200,298272,1,0,3:3:0:0:
39,129,298377,37,8,3:2:0:0:
45,147,298483,1,0,3:3:0:0:
51,171,298588,1,2,3:2:0:0:
178,97,298693,5,2,3:2:0:0:
111,58,298798,2,0,B|82:39|82:39|31:53,1,65.9999979858399,2|0,3:2|3:3,0:0:0:0:
252,155,299009,5,2,3:2:0:0:
213,23,299114,2,0,L|193:86,2,65.9999979858399,0|10|0,3:3|3:2|3:3,0:0:0:0:
338,195,299430,5,2,3:2:0:0:
230,245,299535,1,2,3:2:0:0:
327,110,299640,38,0,P|388:124|406:167,1,65.9999979858399,2|0,3:2|3:3,0:0:0:0:
481,240,299851,1,2,3:2:0:0:
495,141,299956,2,0,P|470:187|453:229,1,65.9999979858399,0|8,3:3|3:2,0:0:0:0:
395,360,300167,5,0,3:3:0:0:
385,318,300272,1,2,3:2:0:0:
369,278,300377,1,0,3:3:0:0:
287,331,300482,6,0,P|228:317|185:309,2,65.9999979858399,4|0|0,3:2|3:3|3:3,0:0:0:0:
255,202,300798,5,2,3:2:0:0:
176,178,300904,1,8,3:2:0:0:
132,249,301009,1,0,3:3:0:0:
164,153,301114,37,2,3:2:0:0:
153,131,301219,1,0,3:3:0:0:
141,106,301325,1,0,3:3:0:0:
161,19,301430,5,2,3:2:0:0:
47,90,301535,2,0,P|56:60|65:23,1,65.9999979858399,0|0,3:3|3:3,0:0:0:0:
170,240,301746,5,10,3:2:0:0:
129,151,301851,1,0,3:3:0:0:
83,228,301956,5,2,3:2:0:0:
216,171,302062,1,0,3:3:0:0:
64,239,302167,38,0,B|53:281|53:281|91:338,2,82.5000031471254,4|0|0,3:2|3:3|3:3,0:0:0:0:
185,377,302482,5,0,3:3:0:0:
200,339,302588,1,10,3:2:0:0:
308,301,302693,5,0,3:3:0:0:
273,224,302798,2,0,P|251:170|234:124,1,65.9999979858399,2|0,3:2|3:3,0:0:0:0:
54,37,303009,5,2,3:2:0:0:
113,100,303114,1,0,3:3:0:0:
187,56,303219,1,0,3:3:0:0:
92,124,303325,37,0,3:3:0:0:
90,160,303430,1,10,3:2:0:0:
109,186,303535,1,0,3:3:0:0:
187,275,303640,5,2,3:2:0:0:
222,146,303746,1,2,3:2:0:0:
286,289,303851,6,0,P|211:297|103:319,1,165.000006294251,4|0,3:2|3:3,0:0:0:0:
63,191,304167,2,0,P|137:182|246:161,1,165.000006294251,10|0,3:2|3:3,0:0:0:0:
419,105,304482,5,8,3:3:0:0:
411,103,304588,1,0,3:3:0:0:
405,101,304693,1,0,3:3:0:0:
398,100,304798,1,0,3:3:0:0:
391,96,304903,37,8,3:3:0:0:
416,183,305009,1,0,3:3:0:0:
434,269,305114,6,0,P|390:325|268:287,1,192.500001835823,4|0,3:2|3:3,0:0:0:0:
214,116,305430,2,0,P|283:125|312:250,1,192.500001835823,12|0,3:2|3:3,0:0:0:0:
172,311,305746,2,0,P|186:253|253:219,1,96.2500009179115,4|0,3:2|3:3,0:0:0:0:
80,0,305956,6,0,P|106:92|123:187,1,192.500001835823,4|8,3:2|2:2,0:0:0:0:
51,219,306241,1,8,2:2:0:0:
53,243,306313,1,8,2:2:0:0:
63,261,306384,5,8,2:2:0:0:
123,317,306491,2,0,L|115:350,1,19.2499994125366,8|8,2:3|2:3,0:3:0:0:
201,291,306598,1,8,2:3:0:0:
221,207,306706,1,8,2:3:0:0:
287,140,306813,37,8,2:3:0:0:
336,146,306914,1,8,2:3:0:0:
375,178,307016,1,8,2:3:0:0:
389,222,307117,1,8,2:3:0:0:
508,173,307219,6,0,P|497:153|456:126,1,55,4|0,3:2|0:0,0:0:0:0:
457,31,307535,1,0,3:3:0:0:
405,80,307640,1,8,3:2:0:0:
348,36,307746,1,0,3:3:0:0:
279,54,307851,2,0,B|260:87|260:87|295:156|295:156|268:180,1,142.99999345398,2|0,3:2|3:3,0:0:0:0:
219,253,308167,1,2,3:2:0:0:
202,252,308272,2,0,P|178:215|182:167,1,71.4999967269899,0|0,3:3|3:3,0:0:0:0:
126,69,308482,5,8,3:2:0:0:
114,87,308588,1,0,3:3:0:0:
98,101,308693,1,0,3:3:0:0:
79,111,308798,1,2,3:2:0:0:
3,97,308903,5,0,3:3:0:0:
37,108,309009,1,0,3:3:0:0:
67,127,309114,1,2,3:2:0:0:
90,153,309219,1,0,3:3:0:0:
107,184,309325,38,0,L|126:267,1,71.4999967269899,10|2,3:2|3:2,0:0:0:0:
41,307,309535,2,0,L|25:237,1,71.4999967269899,2|2,3:2|3:2,0:0:0:0:
124,342,309746,6,0,P|162:321|207:305,1,71.4999967269899,4|0,3:2|3:3,0:0:0:0:
359,310,309956,1,0,3:3:0:0:
350,321,310061,1,2,3:2:0:0:
338,329,310167,1,8,3:2:0:0:
325,335,310272,1,0,3:3:0:0:
265,277,310377,5,2,3:2:0:0:
307,284,310482,1,0,3:3:0:0:
349,291,310588,1,0,3:3:0:0:
391,298,310693,1,2,3:2:0:0:
433,305,310798,6,0,P|411:331|389:377,1,71.4999967269899,0|0,3:3|3:3,0:0:0:0:
512,225,311009,2,0,P|474:232|424:217,1,71.4999967269899,12|0,3:2|3:3,0:0:0:0:
272,116,311219,37,0,3:3:0:0:
307,127,311325,1,2,3:2:0:0:
335,147,311430,1,0,3:3:0:0:
356,175,311535,1,0,3:3:0:0:
367,208,311640,2,0,P|386:157|402:125,1,71.4999967269899,2|0,3:2|3:3,0:0:0:0:
444,14,311851,5,10,3:2:0:0:
453,23,311956,1,2,3:2:0:0:
372,70,312061,5,2,3:2:0:0:
381,61,312166,1,2,3:2:0:0:
296,24,312272,5,4,3:2:0:0:
283,31,312377,1,0,3:3:0:0:
270,38,312482,1,0,3:3:0:0:
257,45,312588,1,2,3:2:0:0:
244,52,312693,2,0,P|274:68|314:106,1,71.4999967269899,8|0,3:2|3:3,0:0:0:0:
217,236,312903,38,0,P|233:188|237:148,1,71.4999967269899,2|0,3:2|3:3,0:0:0:0:
100,92,313114,2,0,P|125:116|147:145,1,71.4999967269899,0|2,3:3|3:2,0:0:0:0:
98,246,313325,2,0,P|68:218|29:202,1,71.4999967269899,0|0,3:3|3:3,0:0:0:0:
61,359,313535,5,12,3:2:0:0:
110,358,313640,1,0,3:3:0:0:
155,335,313746,1,0,3:3:0:0:
188,297,313851,1,2,3:2:0:0:
198,248,313956,1,0,3:3:0:0:
195,198,314061,1,0,3:3:0:0:
177,150,314167,2,0,P|136:134|90:102,1,71.4999967269899,2|0,3:2|3:3,0:0:0:0:
279,4,314377,5,10,3:2:0:0:
275,17,314482,1,2,3:2:0:0:
321,83,314588,5,2,3:2:0:0:
317,96,314693,1,2,3:2:0:0:
385,27,314798,37,4,3:2:0:0:
394,37,314903,1,0,3:3:0:0:
404,47,315009,1,0,3:3:0:0:
415,56,315114,1,2,3:2:0:0:
427,62,315219,2,0,P|464:31|511:17,1,71.4999967269899,8|0,3:2|3:3,0:0:0:0:
501,194,315430,5,2,3:2:0:0:
467,207,315535,1,0,3:3:0:0:
431,200,315640,1,0,3:3:0:0:
406,173,315746,1,2,3:2:0:0:
404,137,315851,2,0,P|442:97|447:71,1,71.4999967269899,0|0,3:3|3:3,0:0:0:0:
302,37,316061,5,12,3:2:0:0:
232,22,316167,1,0,3:3:0:0:
173,68,316272,1,0,3:3:0:0:
183,141,316377,1,2,3:2:0:0:
232,194,316482,5,0,3:3:0:0:
204,171,316588,1,0,3:3:0:0:
171,155,316693,1,2,3:2:0:0:
136,144,316798,1,0,3:3:0:0:
96,140,316903,38,0,L|81:30,1,82.5000031471254,10|2,3:2|3:2,0:0:0:0:
237,210,317114,2,0,L|248:128,1,82.5000031471254,2|2,3:2|3:2,0:0:0:0:
28,270,317325,5,4,3:2:0:0:
43,329,317430,1,0,3:3:0:0:
109,329,317535,1,0,3:3:0:0:
129,293,317640,2,0,L|120:229,1,55,2|8,3:2|3:2,0:0:0:0:
206,356,317851,5,0,3:3:0:0:
218,340,317956,1,2,3:2:0:0:
272,311,318061,1,0,3:3:0:0:
336,324,318167,1,0,3:3:0:0:
378,376,318272,1,2,3:2:0:0:
435,384,318377,2,0,P|480:366|498:346,1,55,0|0,3:3|3:3,0:0:0:0:
357,151,318588,5,12,3:2:0:0:
327,163,318693,1,0,3:3:0:0:
313,192,318798,1,0,3:3:0:0:
422,270,318903,37,12,3:2:0:0:
411,241,319008,1,0,3:3:0:0:
384,229,319113,1,0,3:3:0:0:
311,277,319219,6,0,P|299:300|285:340,1,55,12|0,3:2|3:3,0:0:0:0:
175,373,319430,5,4,3:2:0:0:
165,302,319535,1,0,3:3:0:0:
155,231,319640,1,0,3:3:0:0:
144,159,319746,1,0,3:3:0:0:
105,91,319851,5,4,3:2:0:0:
133,84,319956,1,0,3:3:0:0:
165,87,320061,1,0,3:3:0:0:
192,100,320167,1,2,3:2:0:0:
206,119,320272,2,0,P|197:157|187:215,1,71.4999967269899,8|0,3:2|3:3,0:0:0:0:
5,264,320482,37,2,3:2:0:0:
71,232,320588,1,0,3:3:0:0:
125,247,320693,1,0,3:3:0:0:
160,287,320798,1,2,3:2:0:0:
167,333,320903,2,0,P|124:346|89:364,1,71.4999967269899,0|0,3:3|3:3,0:0:0:0:
285,138,321114,5,12,3:2:0:0:
264,171,321219,1,0,3:3:0:0:
263,212,321325,1,0,3:3:0:0:
277,239,321430,1,2,3:2:0:0:
304,258,321535,2,0,P|342:241|401:238,1,71.4999967269899,0|0,3:3|3:3,0:0:0:0:
378,64,321746,6,0,P|366:95|354:143,1,71.4999967269899,2|0,3:2|3:3,0:0:0:0:
512,228,321956,2,0,P|499:194|490:159,1,71.4999967269899,8|2,3:2|3:2,0:0:0:0:
261,242,322167,5,0,3:3:0:0:
269,257,322272,1,0,3:3:0:0:
299,291,322377,37,4,3:2:0:0:
312,217,322482,1,0,3:3:0:0:
245,188,322588,1,0,3:3:0:0:
188,232,322693,1,2,3:2:0:0:
216,302,322798,2,0,P|236:237|263:192,1,71.4999967269899,8|0,3:2|3:3,0:0:0:0:
72,95,323009,5,2,3:2:0:0:
121,149,323114,1,0,3:3:0:0:
109,217,323219,1,0,3:3:0:0:
67,244,323325,1,2,3:2:0:0:
16,229,323430,2,0,P|99:207|129:197,1,71.4999967269899,0|0,3:3|3:3,0:0:0:0:
232,43,323640,5,12,3:2:0:0:
298,62,323746,1,0,3:3:0:0:
363,79,323851,1,0,3:3:0:0:
337,159,323956,1,2,3:2:0:0:
410,145,324061,1,0,3:3:0:0:
417,161,324167,1,0,3:3:0:0:
467,222,324272,5,4,3:2:0:0:
426,181,324376,1,0,3:3:0:0:
366,173,324482,1,8,3:2:0:0:
318,203,324587,1,2,3:2:0:0:
367,281,324693,37,0,3:3:0:0:
385,263,324798,1,0,3:3:0:0:
270,279,324903,6,0,P|295:349|306:393,1,71.4999967269899,12|0,2:2|0:0,0:0:0:0:
374,105,325113,2,0,P|349:175|338:219,1,71.4999967269899,8|0,2:2|0:0,0:0:0:0:
118,184,325324,5,8,2:3:0:0:
143,140,325394,1,8,2:3:0:0:
191,131,325464,1,8,2:3:0:0:
239,147,325534,5,8,2:3:0:0:
241,159,325604,1,8,2:3:0:0:
237,172,325674,1,8,2:3:0:0:
231,183,325745,37,8,2:3:0:0:
200,187,325815,1,8,2:3:0:0:
165,170,325885,1,8,2:3:0:0:
144,142,325955,1,8,2:3:0:0:
108,127,326025,1,0,3:3:0:0:
70,136,326095,1,0,3:3:0:0:
42,166,326166,6,0,B|53:254|53:254|73:278|73:278|93:390,1,214.49999018097,12|0,2:2|0:0,0:0:0:0:
170,215,326587,5,4,3:2:0:0:
252,225,326692,1,0,0:0:0:0:
265,139,326797,1,0,0:0:0:0:
181,128,326903,1,0,0:0:0:0:
403,338,327218,5,0,0:0:0:0:
382,260,327324,1,0,0:0:0:0:
418,341,327429,37,2,3:2:0:0:
397,263,327535,1,0,0:0:0:0:
487,21,327850,5,10,2:2:0:0:
474,97,327955,1,0,0:0:0:0:
463,172,328060,1,0,3:3:0:0:
438,178,328166,1,0,3:3:0:0:
415,186,328271,5,2,3:2:0:0:
377,118,328376,1,0,0:0:0:0:
298,106,328481,1,0,0:0:0:0:
237,158,328587,1,0,0:0:0:0:
27,28,328903,5,0,0:0:0:0:
105,49,329009,1,0,0:0:0:0:
24,13,329114,37,2,3:2:0:0:
102,34,329218,1,0,0:0:0:0:
53,263,329534,6,0,B|44:216|44:216|48:209|48:209|37:161,1,104.499997209549,10|0,2:2|0:0,0:0:0:0:
202,76,329745,5,0,0:0:0:0:
189,152,329850,1,0,0:0:0:0:
174,236,329955,5,4,3:2:0:0:
197,242,330060,1,0,3:3:0:0:
270,187,330166,37,2,3:2:0:0:
322,175,330271,1,0,3:3:0:0:
395,234,330376,5,8,3:2:0:0:
381,274,330481,1,0,3:3:0:0:
406,263,330587,1,4,3:2:0:0:
369,250,330692,1,0,3:3:0:0:
286,299,330797,5,2,3:2:0:0:
296,332,330903,1,0,3:3:0:0:
377,381,331008,6,0,B|389:341|389:341|393:392,1,71.4999967269899,0|0,3:3|3:3,0:0:0:0:
256,149,331218,37,10,3:2:0:0:
333,173,331324,1,0,3:3:0:0:
318,75,331429,5,0,3:3:0:0:
343,69,331534,1,0,3:3:0:0:
371,63,331639,1,4,3:2:0:0:
398,56,331745,1,0,3:3:0:0:
476,89,331850,5,2,3:2:0:0:
512,161,331955,1,0,3:3:0:0:
413,213,332061,5,10,3:2:0:0:
418,198,332166,1,0,3:3:0:0:
423,179,332271,1,0,3:3:0:0:
427,165,332376,1,0,3:3:0:0:
367,87,332482,38,0,P|332:96|282:107,1,55,4|0,3:2|3:3,0:0:0:0:
196,242,332692,5,2,3:2:0:0:
271,257,332797,1,0,3:3:0:0:
296,332,332903,5,8,3:2:0:0:
279,351,333008,1,0,3:3:0:0:
251,364,333113,1,0,3:3:0:0:
220,362,333218,1,0,3:3:0:0:
189,352,333324,2,0,P|207:310|226:274,1,55,2|0,3:2|3:3,0:0:0:0:
51,115,333534,5,2,3:2:0:0:
81,213,333640,1,0,3:3:0:0:
182,185,333745,1,8,2:2:0:0:
157,93,333850,1,8,2:2:0:0:
144,74,334166,37,4,3:2:0:0:
193,80,334271,1,0,3:3:0:0:
243,88,334376,1,0,3:3:0:0:
288,95,334482,1,0,3:3:0:0:
364,42,334587,5,10,2:2:0:0:
166,176,334797,5,0,3:3:0:0:
158,187,334903,1,0,3:3:0:0:
211,222,335008,1,2,3:2:0:0:
263,251,335113,1,0,3:3:0:0:
413,360,335429,5,10,3:2:0:0:
368,384,335534,1,0,3:3:0:0:
317,365,335640,1,0,3:3:0:0:
311,312,335745,1,0,3:3:0:0:
429,214,336061,37,8,2:3:0:0:
439,224,336166,1,8,2:3:0:0:
467,130,336271,5,8,2:2:0:0:
388,152,336376,1,8,2:2:0:0:
210,66,336692,5,4,3:2:0:0:
248,6,336797,1,0,3:3:0:0:
292,61,336903,1,0,3:3:0:0:
253,123,337008,2,0,P|210:76|149:51,1,110,8|0,3:2|0:0,0:0:0:0:
69,208,337324,5,0,3:3:0:0:
88,276,337429,1,0,3:3:0:0:
146,235,337534,1,2,3:2:0:0:
125,165,337640,2,0,P|70:198|5:205,1,110,8|0,3:2|0:0,0:0:0:0:
106,362,337955,37,10,3:2:0:0:
167,324,338061,1,0,3:3:0:0:
236,338,338166,1,0,3:3:0:0:
166,311,338271,2,0,L|148:182,1,110,8|0,3:2|0:0,0:0:0:0:
403,281,338587,5,8,3:2:0:0:
342,243,338692,1,0,3:3:0:0:
273,257,338797,1,2,3:2:0:0:
343,230,338903,2,0,L|361:101,1,110,8|0,3:2|0:0,0:0:0:0:
133,18,339219,5,2,3:2:0:0:
133,18,339319,1,0,3:3:0:0:
133,18,339419,1,0,3:3:0:0:
81,73,339519,2,0,L|99:226,1,117.333333333333,4|0,3:2|0:0,0:0:0:0:
146,265,339819,5,10,3:2:0:0:
146,265,339924,1,0,3:3:0:0:
146,265,340029,1,0,3:3:0:0:
200,205,340134,2,0,L|182:52,1,117.333333333333,4|0,3:2|0:0,0:0:0:0:
231,18,340450,37,2,3:2:0:0:
231,18,340555,1,0,3:3:0:0:
231,18,340661,1,0,3:3:0:0:
281,68,340766,2,0,L|299:221,1,117.333333333333,4|0,3:2|0:0,0:0:0:0:
353,254,341092,5,10,3:2:0:0:
353,254,341200,1,0,3:3:0:0:
353,254,341309,1,0,3:3:0:0:
407,194,341418,2,0,L|389:41,1,117.333333333333,4|0,3:2|0:0,0:0:0:0:
495,10,341745,6,0,P|382:113|268:255,1,263.99999194336,4|0,3:2|3:3,0:0:0:0:
295,313,342061,1,10,3:2:0:0:
330,273,342166,1,0,3:3:0:0:
375,263,342271,1,0,3:3:0:0:
424,280,342376,1,2,3:2:0:0:
412,362,342481,5,8,3:2:0:0:
359,351,342587,1,0,3:3:0:0:
307,340,342692,1,2,3:2:0:0:
255,329,342797,1,0,3:3:0:0:
180,368,342902,37,8,3:2:0:0:
209,340,343008,1,2,3:2:0:0:
209,300,343113,1,0,3:3:0:0:
185,268,343218,1,0,3:3:0:0:
97,256,343323,5,10,3:2:0:0:
71,265,343429,1,0,3:3:0:0:
45,260,343534,1,0,3:3:0:0:
24,243,343639,1,2,3:2:0:0:
16,217,343745,1,0,3:3:0:0:
20,190,343850,1,0,3:3:0:0:
92,146,343955,5,10,3:2:0:0:
104,149,344060,1,0,3:3:0:0:
116,152,344166,1,0,3:3:0:0:
171,208,344271,6,0,P|162:138|82:38,1,110.000004196167,4|8,3:2|2:2,0:0:0:0:
134,95,344481,1,8,2:2:0:0:
242,300,344587,38,0,P|269:235|374:161,1,110.000004196167,8|8,2:2|2:2,0:0:0:0:
364,147,344797,1,8,2:2:0:0:
375,158,344902,5,8,2:2:0:0:
330,215,345003,1,8,2:2:0:0:
378,269,345104,1,8,2:2:0:0:
446,226,345205,5,8,2:2:0:0:
450,212,345306,1,8,2:3:0:0:
451,199,345407,1,8,2:2:0:0:
407,144,345508,5,8,2:2:0:0:
332,121,345609,1,8,2:2:0:0:
329,42,345710,1,8,2:2:0:0:
397,5,345811,37,8,2:3:0:0:
403,10,345912,1,8,2:3:0:0:
407,20,346013,1,8,2:3:0:0:
366,88,346114,5,8,2:3:0:0:
292,74,346227,1,0,3:3:0:0:
215,62,346341,1,0,3:3:0:0:
133,128,346454,6,0,L|523:88,1,329.9999899292,12|0,2:2|0:0,0:0:0:0:
445,0,346796,6,0,P|374:81|496:195,1,220.000008392334,4|0,3:2|3:3,0:0:0:0:
483,228,347111,1,10,3:2:0:0:
418,286,347217,1,0,3:3:0:0:
478,349,347322,1,0,3:3:0:0:
407,269,347427,38,0,B|299:227|321:356|180:306,1,220.000008392334,10|0,3:2|3:3,0:0:0:0:
106,253,347743,1,10,3:2:0:0:
112,238,347848,1,0,3:3:0:0:
122,248,347953,1,0,3:3:0:0:
50,315,348059,5,10,3:2:0:0:
10,240,348164,1,0,3:3:0:0:
53,330,348269,1,0,3:3:0:0:
122,248,348374,2,0,B|144:170|144:170|126:133|126:133|150:21,1,220.000008392334,10|0,3:2|3:3,0:0:0:0:
319,101,348690,6,0,L|227:117,1,87.9999973144532,10|0,3:2|3:3,0:0:0:0:
414,15,348901,1,2,3:2:0:0:
414,15,349006,2,0,L|327:0,1,87.9999973144532,10|0,3:2|3:3,0:0:0:0:
407,223,349217,1,0,3:3:0:0:
495,200,349322,6,0,P|480:97|408:138,1,220.000008392334,12|0,3:2|3:3,0:0:0:0:
329,223,349638,1,10,3:2:0:0:
269,166,349743,1,0,3:3:0:0:
319,101,349848,1,0,3:3:0:0:
256,175,349953,38,0,B|144:136|163:239|45:211,1,220.000008392334,10|0,3:2|3:3,0:0:0:0:
195,357,350269,1,10,3:2:0:0:
205,304,350374,1,0,3:3:0:0:
212,255,350480,1,0,3:3:0:0:
256,175,350585,5,10,3:2:0:0:
307,246,350690,1,0,3:3:0:0:
249,160,350796,1,0,3:3:0:0:
339,119,350901,2,0,B|291:153|291:153|124:105,1,220.000008392334,10|0,3:2|3:3,0:0:0:0:
13,100,351217,2,0,B|61:66|61:66|228:114,1,220.000008392334,10|0,3:2|3:3,0:0:0:0:
190,270,351532,5,10,3:2:0:0:
274,252,351638,1,0,3:3:0:0:
356,235,351743,1,0,3:3:0:0:
440,213,351848,6,0,B|486:117|486:117|404:62|404:62|427:123,1,249.333338088989,12|0,3:2|3:3,0:0:0:0:
332,149,352164,1,10,3:2:0:0:
255,123,352269,1,0,3:3:0:0:
283,44,352374,1,0,3:3:0:0:
237,133,352480,38,0,P|263:247|287:367,1,220.000008392334,10|0,3:2|3:3,0:0:0:0:
380,384,352796,1,10,3:2:0:0:
436,309,352901,2,0,P|398:286|355:290,1,87.9999973144532,0|0,3:3|3:3,0:0:0:0:
136,378,353111,5,10,3:2:0:0:
182,304,353217,1,0,3:3:0:0:
142,237,353322,1,0,3:3:0:0:
48,268,353427,6,0,B|156:317|167:190|269:254,1,220.000008392334,10|0,3:2|3:3,0:0:0:0:
258,46,353743,2,0,P|227:91|218:156,1,87.9999973144532,10|0,3:2|3:3,0:0:0:0:
383,222,353953,1,2,3:2:0:0:
383,222,354059,2,0,P|369:180|343:145,1,87.9999973144532,10|0,3:2|3:3,0:0:0:0:
271,354,354269,1,0,3:3:0:0:
198,304,354374,6,0,P|193:234|281:303,1,220.000008392334,12|0,3:2|3:3,0:0:0:0:
365,352,354690,1,10,3:2:0:0:
418,293,354796,1,0,3:3:0:0:
487,324,354901,1,0,3:3:0:0:
408,273,355006,38,0,B|422:179|422:179|428:172|428:172|449:31,1,220.000008392334,10|0,3:2|3:3,0:0:0:0:
336,11,355322,1,10,3:2:0:0:
343,29,355427,1,0,3:3:0:0:
353,17,355532,1,0,3:3:0:0:
305,112,355638,5,10,3:2:0:0:
247,40,355743,1,0,3:3:0:0:
310,122,355848,1,0,3:3:0:0:
348,41,355953,2,0,B|235:13|266:108|127:84,1,220.000008392334,10|0,3:2|3:3,0:0:0:0:
40,165,356269,2,0,B|164:143|133:238|246:210,1,220.000008392334,10|0,3:2|3:3,0:0:0:0:
166,354,356585,1,10,3:2:0:0:
89,333,356690,2,0,P|81:289|71:228,1,87.9999973144532,2|0,3:2|3:3,0:0:0:0:
215,129,356901,5,12,3:2:0:0:
208,165,357006,1,0,3:3:0:0:
203,198,357111,1,0,3:3:0:0:
233,282,357217,5,10,3:2:0:0:
317,183,357322,1,0,3:3:0:0:
327,274,357427,1,0,3:3:0:0:
221,189,357532,38,0,B|179:156|179:156|107:182,2,110.000004196167,14|0|0,3:2|3:3|3:3,0:0:0:0:
331,65,357848,5,10,3:2:0:0:
297,75,357954,1,0,3:3:0:0:
265,82,358059,1,0,3:3:0:0:
343,149,358164,5,10,3:2:0:0:
365,59,358269,1,0,3:3:0:0:
432,171,358374,1,0,3:3:0:0:
460,81,358480,6,0,B|473:29|473:29|404:-12,2,110.000004196167,14|0|0,3:2|3:3|3:3,0:0:0:0:
298,140,358796,2,0,P|309:86|361:60,2,110.000004196167,10|0|2,3:2|3:3|3:2,0:0:0:0:
482,170,359111,2,0,P|425:180|385:143,2,110.000004196167,10|0|0,3:2|3:3|3:3,0:0:0:0:
353,234,359427,37,12,3:2:0:0:
350,244,359532,1,0,3:3:0:0:
347,254,359638,1,0,3:3:0:0:
293,305,359743,5,10,3:2:0:0:
372,343,359848,1,0,3:3:0:0:
275,384,359953,1,0,3:3:0:0:
373,260,360059,6,0,B|428:267|428:267|460:310,2,110.000004196167,14|0|0,3:2|3:3|3:3,0:0:0:0:
282,304,360374,2,0,P|230:285|204:237,2,110.000004196167,10|0|0,3:2|3:3|3:3,0:0:0:0:
299,219,360690,5,10,3:2:0:0:
212,156,360796,1,0,3:3:0:0:
361,156,360901,1,0,3:3:0:0:
287,94,361006,38,0,B|194:55|194:55|66:106,1,220.000008392334,14|0,3:2|3:3,0:0:0:0:
12,48,361322,2,0,P|72:103|93:194,1,175.999994628906,10|0,3:2|3:3,0:0:0:0:
61,310,361638,1,10,3:2:0:0:
6,262,361743,1,2,3:2:0:0:
60,213,361848,1,0,3:3:0:0:
127,261,361953,2,0,B|181:239|220:274|220:274|222:271|222:271|251:318|337:318,1,175.999994628906,12|0,3:2|3:3,0:0:0:0:
373,229,362269,5,10,3:2:0:0:
354,349,362374,1,0,3:3:0:0:
448,269,362480,1,0,3:3:0:0:
445,359,362585,2,0,P|420:272|390:169,1,175.999994628906,14|0,3:2|3:3,0:0:0:0:
415,92,362901,5,10,3:2:0:0:
419,81,363006,1,0,3:3:0:0:
424,68,363111,1,0,3:3:0:0:
366,19,363217,5,10,3:2:0:0:
444,62,363322,1,0,3:3:0:0:
370,106,363427,1,0,3:3:0:0:
443,147,363532,38,0,P|360:133|230:119,1,175.999994628906,14|0,3:2|3:3,0:0:0:0:
194,102,363848,6,0,L|173:-5,2,87.9999973144532,10|0|0,3:2|3:3|3:3,0:0:0:0:
208,183,364164,1,10,3:2:0:0:
145,236,364269,1,0,3:3:0:0:
134,157,364374,1,0,3:3:0:0:
229,260,364480,6,0,P|287:280|386:353,1,175.999994628906,4|0,3:2|3:3,0:0:0:0:
503,264,364796,5,10,3:2:0:0:
399,224,364901,1,0,3:3:0:0:
509,163,365006,1,0,3:3:0:0:
404,122,365111,2,0,B|309:142|309:142|306:145|306:145|152:177,1,220.000008392334,8|8,2:2|2:2,0:0:0:0:
65,109,365427,37,8,2:2:0:0:
172,36,365532,1,8,2:2:0:0:
176,178,365638,1,8,2:2:0:0:
280,9,365743,6,0,P|262:140|241:351,1,330.000012588501,4|10,3:2|3:2,0:0:0:0:
171,369,366164,1,0,3:3:0:0:
149,340,366269,1,0,3:3:0:0:
114,324,366374,1,2,3:2:0:0:
74,327,366480,1,0,3:3:0:0:
43,353,366585,1,0,3:3:0:0:
15,278,366690,6,0,L|0:158,2,87.9999973144532,12|0|0,3:2|3:3|3:3,0:0:0:0:
159,262,367006,2,0,B|194:248|194:248|284:300|284:300|341:283,1,175.999994628906,4|0,3:2|3:3,0:0:0:0:
385,223,367322,5,10,3:2:0:0:
394,208,367427,1,0,3:3:0:0:
403,193,367532,1,0,3:3:0:0:
391,120,367638,37,2,3:2:0:0:
407,115,367743,1,0,3:3:0:0:
424,111,367848,1,0,3:3:0:0:
486,168,367953,6,0,L|500:283,2,87.9999973144532,12|0|0,3:2|3:3|3:3,0:0:0:0:
440,35,368269,2,0,B|378:29|346:68|362:68|338:107|270:107,1,175.999994628906,4|0,3:2|3:3,0:0:0:0:
206,70,368584,5,10,3:2:0:0:
194,56,368690,1,0,3:3:0:0:
173,46,368795,1,0,3:3:0:0:
123,101,368900,5,2,3:2:0:0:
104,99,369006,1,0,3:3:0:0:
82,107,369111,1,0,3:3:0:0:
47,177,369216,38,0,L|30:277,2,87.9999973144532,12|0|0,3:2|3:3|3:3,0:0:0:0:
197,130,369532,2,0,L|170:353,1,175.999994628906,4|0,3:2|3:3,0:0:0:0:
246,360,369847,1,10,3:2:0:0:
256,368,369953,1,0,3:3:0:0:
266,375,370058,1,0,3:3:0:0:
346,368,370163,5,4,3:2:0:0:
300,312,370268,1,8,1:2:0:0:
327,238,370373,1,8,2:2:0:0:
398,207,370478,1,8,2:2:0:0:
452,156,370584,2,0,P|473:161|497:173,1,36.6666666666667,8|8,2:3|2:3,0:0:0:0:
421,83,370689,1,8,2:3:0:0:
337,93,370794,5,8,2:3:0:0:
320,101,370899,1,8,2:3:0:0:
316,120,371005,1,8,2:3:0:0:
326,137,371110,1,8,2:3:0:0:
348,144,371215,1,8,2:3:0:0:
361,132,371320,1,8,2:3:0:0:
309,50,371426,6,0,B|213:34|245:135|119:99,1,175.999994628906,4|0,3:2|3:3,0:0:0:0:
114,177,371741,1,10,3:2:0:0:
41,143,371847,1,0,3:3:0:0:
77,72,371952,1,0,3:3:0:0:
150,105,372057,1,2,3:2:0:0:
114,177,372163,2,0,P|100:224|90:288,1,87.9999973144532,0|0,3:3|3:3,0:0:0:0:
269,384,372373,37,10,3:2:0:0:
265,358,372478,1,0,3:3:0:0:
260,334,372583,1,0,3:3:0:0:
312,277,372689,2,0,P|300:289|190:228,1,175.999994628906,2|0,3:2|3:3,0:0:0:0:
119,160,373004,2,0,P|161:146|201:128,1,87.9999973144532,10|0,3:2|3:3,0:0:0:0:
78,313,373215,1,2,3:2:0:0:
22,262,373320,2,0,P|33:180|44:81,1,175.999994628906,2|0,3:2|3:3,0:0:0:0:
93,0,373636,5,10,3:2:0:0:
143,73,373741,1,0,3:3:0:0:
214,27,373847,1,0,3:3:0:0:
269,99,373952,6,0,P|279:132|241:183,1,87.9999973144532,2|0,3:2|3:3,0:0:0:0:
76,188,374162,1,0,3:3:0:0:
76,188,374268,2,0,P|99:162|162:170,1,87.9999973144532,10|0,3:2|3:3,0:0:0:0:
266,357,374478,1,0,3:3:0:0:
353,294,374583,6,0,P|296:282|101:252,1,220.000008392334,2|0,3:2|3:3,0:0:0:0:
71,334,374899,2,0,P|112:260|57:200,1,175.999994628906,10|2,3:2|3:2,0:0:0:0:
7,118,375215,38,0,P|50:110|93:102,1,87.9999973144532,2|0,3:2|3:3,0:0:0:0:
206,14,375426,1,0,3:3:0:0:
206,14,375531,2,0,P|162:7|119:0,1,87.9999973144532,10|0,3:2|3:3,0:0:0:0:
197,213,375741,5,0,3:3:0:0:
171,179,375847,1,2,3:2:0:0:
179,127,375952,1,0,3:3:0:0:
247,98,376057,1,0,3:3:0:0:
306,144,376162,6,0,P|277:272|264:352,1,175.999994628906,10|0,3:2|3:3,0:0:0:0:
373,378,376478,1,2,3:2:0:0:
371,358,376583,1,0,3:3:0:0:
365,338,376689,1,0,3:3:0:0:
296,306,376794,2,0,L|425:323,1,87.9999973144532,10|0,3:2|3:3,0:0:0:0:
512,127,377004,5,0,3:3:0:0:
437,99,377110,1,2,3:2:0:0:
382,156,377215,2,0,P|404:220|459:216,1,87.9999973144532,0|0,3:3|3:3,0:0:0:0:
293,0,377426,37,10,3:2:0:0:
355,72,377531,2,0,L|255:95,1,87.9999973144532,0|0,3:3|3:3,0:0:0:0:
108,29,377741,6,0,B|165:101|165:101|108:233,1,175.999994628906,2|0,3:2|3:3,0:0:0:0:
250,261,378057,2,0,P|234:219|219:154,1,87.9999973144532,10|0,3:2|3:3,0:0:0:0:
50,257,378268,5,0,3:3:0:0:
108,261,378373,1,2,3:2:0:0:
130,298,378478,1,0,3:3:0:0:
127,332,378583,1,2,3:2:0:0:
105,355,378689,2,0,P|45:345|45:281,1,87.9999973144532,8|2,3:2|3:2,0:0:0:0:
153,140,378899,1,2,3:2:0:0:
67,105,379004,6,0,P|83:193|100:304,1,175.999994628906,4|0,3:2|3:3,0:0:0:0:
250,351,379320,37,10,3:2:0:0:
166,384,379426,2,0,B|174:346|174:346|170:340|170:340|180:299,1,87.9999973144532,0|0,3:3|3:3,0:0:0:0:
327,190,379636,5,2,3:2:0:0:
244,159,379742,2,0,B|254:200|254:200|250:206|250:206|258:243,1,87.9999973144532,0|0,3:3|3:3,0:0:0:0:
83,236,379952,6,0,P|113:205|156:206,1,87.9999973144532,10|0,3:2|3:3,0:0:0:0:
294,79,380162,1,0,3:3:0:0:
225,53,380268,1,2,3:2:0:0:
176,74,380373,1,0,3:3:0:0:
157,98,380478,1,0,3:3:0:0:
152,129,380583,2,0,P|170:181|185:262,1,87.9999973144532,10|0,3:2|3:3,0:0:0:0:
33,364,380794,1,2,3:2:0:0:
0,285,380899,6,0,P|82:297|237:331,1,175.999994628906,2|0,3:2|3:3,0:0:0:0:
284,296,381215,2,0,P|257:348|291:403,2,87.9999973144532,10|0|0,3:2|3:3|3:3,0:0:0:0:
192,189,381531,1,2,3:2:0:0:
201,215,381636,1,0,3:3:0:0:
207,242,381741,1,0,3:3:0:0:
288,197,381847,38,0,B|394:188|342:293|494:251,1,175.999994628906,10|0,3:2|3:3,0:0:0:0:
512,138,382162,2,0,P|467:139|438:213,1,87.9999973144532,2|0,3:2|3:3,0:0:0:0:
415,353,382373,1,2,3:2:0:0:
489,324,382478,1,8,3:2:0:0:
460,251,382585,1,2,3:2:0:0:
383,276,382693,1,2,3:2:0:0:
328,222,382800,2,0,P|340:172|346:126,2,87.9999973144532,2|0|0,3:2|3:3|3:3,0:0:0:0:
234,272,383123,5,10,3:2:0:0:
236,200,383230,1,0,3:3:0:0:
166,181,383338,1,0,3:3:0:0:
126,238,383445,1,2,3:2:0:0:
164,300,383548,2,0,P|210:288|291:274,1,87.9999973144532,0|0,3:3|3:3,0:0:0:0:
355,85,383756,5,10,3:2:0:0:
292,134,383860,1,0,3:3:0:0:
215,115,383964,1,0,3:3:0:0:
165,52,384068,1,2,3:2:0:0:
91,53,384172,1,0,3:3:0:0:
50,111,384276,1,0,3:3:0:0:
69,161,384380,1,10,3:2:0:0:
100,167,384483,1,0,3:3:0:0:
114,158,384587,1,0,3:3:0:0:
119,145,384689,6,0,P|95:237|92:281,2,87.9999973144532,2|0|0,3:2|3:3|3:3,0:0:0:0:
207,129,385004,37,2,3:2:0:0:
280,147,385110,1,0,3:3:0:0:
298,69,385215,1,0,3:3:0:0:
220,49,385320,2,0,P|146:65|79:78,1,87.9999973144532,2|0,3:2|3:3,0:0:0:0:
313,238,385531,1,0,3:3:0:0:
313,238,385635,2,0,P|239:222|172:209,1,87.9999973144532,4|0,3:2|3:3,0:0:0:0:
383,28,385845,1,0,3:3:0:0:
306,76,385951,6,0,P|378:148|391:63,1,175.999994628906,4|0,3:2|3:3,0:0:0:0:
481,60,386266,1,4,3:2:0:0:
488,91,386372,1,0,3:3:0:0:
497,124,386477,1,0,3:3:0:0:
500,203,386582,6,0,P|418:182|313:163,1,175.999994628906,4|0,3:2|3:3,0:0:0:0:
227,296,386898,1,10,3:2:0:0:
284,351,387003,1,0,3:3:0:0:
343,298,387109,1,0,3:3:0:0:
287,237,387214,6,0,P|279:153|262:41,1,175.999994628906,2|0,3:2|3:3,0:0:0:0:
198,14,387530,1,10,3:2:0:0:
185,24,387635,1,0,3:3:0:0:
167,35,387740,1,0,3:3:0:0:
97,10,387845,2,0,P|126:36|59:204,1,175.999994628906,2|0,3:2|3:3,0:0:0:0:
129,262,388161,37,10,3:2:0:0:
55,223,388266,2,0,L|39:107,1,87.9999973144532,0|0,3:3|3:3,0:0:0:0:
0,347,388477,6,0,B|47:378|108:356|78:349|130:300|231:363,1,175.999994628906,2|0,3:2|3:3,0:0:0:0:
301,363,388793,1,10,3:2:0:0:
241,318,388898,2,0,P|241:285|272:232,1,87.9999973144532,0|2,3:3|3:2,0:0:0:0:
431,272,389109,1,2,3:2:0:0:
452,288,389214,1,0,3:3:0:0:
458,312,389319,1,0,3:3:0:0:
415,371,389424,6,0,P|426:302|456:159,1,175.999994628906,10|0,3:2|3:3,0:0:0:0:
442,98,389740,1,2,3:2:0:0:
450,85,389845,1,0,3:3:0:0:
464,71,389951,1,0,3:3:0:0:
512,129,390056,5,10,3:2:0:0:
440,120,390161,1,0,3:3:0:0:
394,65,390266,1,0,3:3:0:0:
312,0,390372,38,0,P|233:24|196:145,1,175.999994628906,2|0,3:2|3:3,0:0:0:0:
286,232,390688,1,10,3:2:0:0:
347,176,390793,2,0,P|345:144|307:98,1,87.9999973144532,0|0,3:3|3:3,0:0:0:0:
179,261,391003,5,2,3:2:0:0:
103,295,391109,1,0,3:3:0:0:
24,272,391214,1,2,3:2:0:0:
0,198,391319,1,10,3:2:0:0:
8,130,391424,1,0,3:3:0:0:
58,89,391530,1,0,3:3:0:0:
108,96,391635,1,2,3:2:0:0:
134,130,391740,1,0,3:3:0:0:
130,158,391845,1,0,3:3:0:0:
118,169,391951,2,0,P|79:151|48:118,2,73.3333333333333,10|0|2,3:2|3:3|3:2,0:0:0:0:
293,41,392266,5,2,3:2:0:0:
243,14,392372,1,0,3:3:0:0:
185,28,392477,1,0,3:3:0:0:
160,76,392582,2,0,P|205:104|226:137,1,73.3333333333333,10|0,3:2|3:3,0:0:0:0:
147,302,392793,1,0,3:3:0:0:
115,234,392898,2,0,P|171:183|197:173,1,73.3333333333333,2|0,3:2|3:3,0:0:0:0:
332,197,393109,5,2,3:2:0:0:
235,274,393214,2,0,B|289:256|359:295|310:307|362:364|467:362,1,220,10|2,3:2|3:2,0:0:0:0:
486,287,393635,1,0,3:3:0:0:
491,252,393740,1,0,3:3:0:0:
495,219,393845,2,0,L|508:134,2,73.3333333333333,10|0|0,3:2|3:3|3:3,0:0:0:0:
313,104,394161,37,4,3:2:0:0:
334,82,394266,1,0,3:3:0:0:
364,74,394372,1,0,3:3:0:0:
422,121,394477,5,10,3:2:0:0:
389,166,394582,1,0,3:3:0:0:
339,175,394688,1,0,3:3:0:0:
283,159,394793,1,2,3:2:0:0:
247,104,394898,1,0,3:3:0:0:
196,64,395003,1,2,3:2:0:0:
119,58,395109,1,10,3:2:0:0:
63,108,395214,1,0,3:3:0:0:
67,163,395319,1,0,3:3:0:0:
100,191,395424,1,2,3:2:0:0:
129,182,395530,1,0,3:3:0:0:
139,161,395635,1,0,3:3:0:0:
134,142,395740,6,0,P|102:139|36:208,1,73.3333333333333,10|0,3:2|3:3,0:0:0:0:
64,355,395951,1,2,3:2:0:0:
140,334,396056,6,0,P|162:294|170:246,2,73.3333333333333,4|0|0,3:2|3:3|3:3,0:0:0:0:
309,364,396372,1,10,3:2:0:0:
274,369,396477,1,0,3:3:0:0:
244,330,396582,1,0,3:3:0:0:
247,258,396688,2,0,P|274:221|307:206,2,73.3333333333333,2|0|0,3:2|3:3|3:3,0:0:0:0:
386,378,397003,38,0,P|409:315|478:203,1,175.999994628906,2|8,3:2|3:2,0:0:0:0:
486,103,397319,5,8,3:2:0:0:
436,137,397424,1,8,3:2:0:0:
378,121,397530,1,8,3:2:0:0:
405,22,397635,5,8,3:2:0:0:
416,35,397740,1,8,3:3:0:0:
421,48,397845,1,8,3:3:0:0:
365,109,397951,6,0,B|314:90|272:121|282:127|263:171|172:180,1,175.999994628906,4|0,3:2|3:3,0:0:0:0:
56,87,398266,1,10,3:2:0:0:
86,45,398372,1,0,3:3:0:0:
137,61,398477,1,0,3:3:0:0:
118,130,398582,2,0,L|107:233,2,87.9999973144532,2|0|0,3:2|3:3|3:3,0:0:0:0:
260,6,398898,38,0,P|279:121|293:251,1,175.999994628906,10|0,3:2|3:3,0:0:0:0:
294,268,399214,1,2,3:2:0:0:
294,278,399319,1,0,3:3:0:0:
294,290,399424,1,0,3:3:0:0:
362,218,399530,2,0,P|413:181|469:159,2,87.9999973144532,10|0|0,3:2|3:3|3:3,0:0:0:0:
433,384,399845,5,2,3:2:0:0:
470,324,399951,1,0,3:3:0:0:
445,252,400056,1,0,3:3:0:0:
374,225,400161,1,10,3:2:0:0:
302,245,400266,1,0,3:3:0:0:
257,311,400372,1,0,3:3:0:0:
193,353,400477,2,0,P|145:345|100:308,2,87.9999973144532,2|0|0,3:2|3:3|3:3,0:0:0:0:
317,169,400793,5,10,3:2:0:0:
303,97,400898,1,0,3:3:0:0:
251,47,401003,1,0,3:3:0:0:
180,33,401109,2,0,P|151:55|114:118,2,87.9999973144532,2|0|0,3:2|3:3|3:3,0:0:0:0:
0,103,401424,2,0,P|29:125|66:188,2,87.9999973144532,10|0|0,3:2|3:3|3:3,0:0:0:0:
94,287,401740,5,4,3:2:0:0:
107,270,401845,1,0,3:3:0:0:
110,240,401951,1,0,3:3:0:0:
87,199,402056,37,10,3:2:0:0:
141,244,402161,1,0,3:3:0:0:
206,255,402266,1,0,3:3:0:0:
266,225,402372,1,2,3:2:0:0:
313,172,402477,1,0,3:3:0:0:
383,152,402582,1,0,3:3:0:0:
450,181,402688,2,0,P|472:225|485:281,2,87.9999973144532,10|0|0,3:2|3:3|3:3,0:0:0:0:
339,88,403003,5,2,3:2:0:0:
365,16,403109,1,0,3:3:0:0:
441,36,403214,1,0,3:3:0:0:
412,111,403319,6,0,P|292:87|199:75,1,175.999994628906,10|0,3:2|3:3,0:0:0:0:
115,7,403635,5,2,3:2:0:0:
64,26,403742,1,8,2:2:0:0:
37,78,403850,1,8,2:2:0:0:
171,178,403957,37,8,2:2:0:0:
167,133,404065,1,8,2:3:0:0:
140,99,404172,1,8,2:3:0:0:
18,190,404280,5,8,2:3:0:0:
50,179,404387,1,8,2:3:0:0:
71,153,404495,1,8,2:3:0:0:
74,70,404602,5,8,2:3:0:0:
64,74,404702,1,8,2:3:0:0:
57,83,404802,1,8,2:3:0:0:
88,159,404902,5,8,2:3:0:0:
170,106,405007,1,8,2:3:0:0:
223,217,405112,1,0,3:3:0:0:
301,136,405217,38,0,P|383:158|423:313,1,220.000008392334,4|0,3:2|0:0,0:0:0:0:
453,381,405531,6,0,P|471:289|523:86,1,220.000008392334,4|0,3:2|3:3,0:0:0:0:
453,50,405846,5,10,3:2:0:0:
435,69,405952,1,0,3:3:0:0:
425,91,406057,1,0,3:3:0:0:
342,91,406162,5,2,3:2:0:0:
343,118,406267,1,0,3:3:0:0:
357,141,406373,1,0,3:3:0:0:
281,179,406478,37,10,3:2:0:0:
306,218,406583,1,0,3:3:0:0:
356,230,406688,1,0,3:3:0:0:
426,183,406794,5,2,3:2:0:0:
409,204,406899,1,0,3:3:0:0:
399,230,407004,1,0,3:3:0:0:
334,296,407109,5,10,3:2:0:0:
342,321,407215,1,0,3:3:0:0:
363,340,407320,1,0,3:3:0:0:
441,303,407425,6,0,P|513:285|535:280,2,73.3333333333333,2|0|0,3:2|3:3|3:3,0:0:0:0:
296,194,407741,37,10,3:2:0:0:
364,153,407846,1,0,3:3:0:0:
405,219,407952,1,0,3:3:0:0:
474,126,408057,6,0,P|365:109|257:89,1,220.000008392334,4|0,3:2|3:3,0:0:0:0:
115,42,408373,5,10,3:2:0:0:
158,105,408478,1,0,3:3:0:0:
144,176,408583,1,0,3:3:0:0:
64,200,408688,5,2,3:2:0:0:
106,212,408794,1,0,3:3:0:0:
128,252,408899,1,0,3:3:0:0:
98,338,409004,37,10,3:2:0:0:
82,333,409109,1,0,3:3:0:0:
63,328,409215,1,0,3:3:0:0:
0,370,409320,6,0,B|36:334|36:334|-3:154,1,220.000008392334,2|0,3:2|3:3,0:0:0:0:
33,74,409636,5,10,3:2:0:0:
52,80,409741,1,0,3:3:0:0:
67,83,409846,1,0,3:3:0:0:
158,43,409952,6,0,B|194:79|194:79|155:259,1,220.000008392334,2|0,3:2|3:3,0:0:0:0:
36,275,410267,2,0,B|109:227|150:280|148:365|288:271,1,220.000008392334,10|0,3:2|3:3,0:0:0:0:
406,365,410583,37,4,3:2:0:0:
334,309,410691,1,0,3:3:0:0:
348,222,410796,1,0,3:3:0:0:
429,189,410901,1,10,3:2:0:0:
481,124,411007,1,0,3:3:0:0:
462,48,411112,1,0,3:3:0:0:
390,12,411217,1,2,3:2:0:0:
317,46,411322,1,0,3:3:0:0:
309,120,411428,1,0,3:3:0:0:
361,176,411533,2,0,B|400:152|400:152|467:162,2,87.9999973144532,10|0|0,3:2|3:3|3:3,0:0:0:0:
244,176,411849,5,2,3:2:0:0:
264,206,411954,1,0,3:3:0:0:
221,265,412059,1,0,3:3:0:0:
319,328,412164,6,0,P|152:285|82:272,1,234.666666666667,10|0,3:2|3:3,0:0:0:0:
10,169,412480,5,2,3:2:0:0:
30,164,412586,1,0,3:3:0:0:
53,158,412691,1,0,3:3:0:0:
135,191,412796,37,10,3:2:0:0:
81,136,412901,1,0,3:3:0:0:
116,67,413007,1,0,3:3:0:0:
194,58,413112,6,0,P|236:105|232:165,1,80.6666691284181,2|0,3:2|3:3,0:0:0:0:
163,297,413322,1,0,3:3:0:0:
114,229,413428,2,0,P|133:169|187:142,1,80.6666691284181,10|0,3:2|3:3,0:0:0:0:
357,279,413638,1,0,3:3:0:0:
426,171,413743,6,0,B|315:190|315:190|308:199|308:199|199:219,1,234.666666666667,2|0,3:2|3:3,0:0:0:0:
101,147,414059,5,10,3:2:0:0:
132,182,414164,1,0,3:3:0:0:
120,228,414270,1,0,3:3:0:0:
34,247,414375,37,2,3:2:0:0:
3,212,414480,1,0,3:3:0:0:
15,166,414586,1,0,3:3:0:0:
101,123,414691,6,0,P|167:138|213:147,2,80.6666691284181,10|0|0,3:2|3:3|3:3,0:0:0:0:
7,26,415007,5,4,3:2:0:0:
95,10,415112,1,0,3:3:0:0:
0,41,415217,1,0,3:3:0:0:
109,16,415322,6,0,L|80:229,1,205.333327067058,10|0,3:2|3:3,0:0:0:0:
25,301,415637,37,2,3:2:0:0:
63,326,415743,1,0,3:3:0:0:
114,321,415848,1,0,3:3:0:0:
148,283,415953,1,10,3:2:0:0:
196,228,416058,1,0,3:3:0:0:
271,225,416164,1,0,3:3:0:0:
321,285,416269,5,4,3:2:0:0:
396,242,416374,1,0,3:3:0:0:
343,173,416479,1,0,3:3:0:0:
332,297,416585,6,0,B|294:315|262:307|262:307|223:337|223:337|183:295|117:301,1,205.333327067058,10|0,3:2|3:3,0:0:0:0:
48,318,416900,6,0,P|22:320|-4:308,1,51.3333317667644,2|0,3:2|0:0,0:0:0:0:
45,302,417006,2,0,P|55:278|79:261,1,51.3333317667644,0|0,3:3|0:0,0:0:0:0:
59,309,417111,2,0,P|74:329|76:359,1,51.3333317667644,0|0,3:3|0:0,0:0:0:0:
0,226,417216,38,0,P|58:182|130:196,1,102.666663533529,10|0,3:2|3:3,0:0:0:0:
255,270,417427,1,0,3:3:0:0:
155,302,417532,2,0,P|167:236|189:84,1,175.999994628906,2|0,3:2|3:3,0:0:0:0:
62,29,417848,5,10,3:2:0:0:
48,71,417953,1,0,3:3:0:0:
72,100,418058,1,0,3:3:0:0:
162,42,418164,6,0,B|256:11|235:122|355:63,1,175.999994628906,2|0,3:2|3:3,0:0:0:0:
391,8,418479,5,10,3:2:0:0:
400,62,418585,1,0,3:3:0:0:
408,117,418690,1,0,3:3:0:0:
500,161,418795,38,0,L|512:89,2,73.3333333333333,2|0|0,3:2|3:3|3:3,0:0:0:0:
385,223,419111,5,10,3:2:0:0:
311,124,419216,1,0,3:3:0:0:
397,136,419321,1,0,3:3:0:0:
283,214,419426,6,0,B|230:190|187:237|187:237|190:243|190:243|141:304|68:264,1,220.000008392334,4|0,3:2|3:3,0:0:0:0:
6,205,419742,5,10,3:2:0:0:
60,129,419847,2,0,P|108:150|123:208,1,80.6666691284181,0|0,3:3|3:3,0:0:0:0:
172,384,420058,37,2,3:2:0:0:
87,350,420163,2,0,P|81:297|123:255,1,80.6666691284181,0|0,3:3|3:3,0:0:0:0:
281,200,420374,5,10,3:2:0:0:
252,232,420479,1,0,3:3:0:0:
214,235,420584,1,0,3:3:0:0:
162,153,420689,6,0,P|170:111|182:53,2,73.3333333333333,2|0|0,3:2|3:3|3:3,0:0:0:0:
305,216,421005,5,10,3:2:0:0:
287,185,421110,1,0,3:3:0:0:
223,250,421216,1,0,3:3:0:0:
162,153,421321,38,0,B|274:174|274:174|280:172|280:172|428:201,1,234.666666666667,4|0,3:2|3:3,0:0:0:0:
512,100,421637,5,10,3:2:0:0:
445,53,421742,1,0,3:3:0:0:
383,111,421847,1,0,3:3:0:0:
396,122,421952,1,2,3:2:0:0:
474,190,422058,2,0,B|465:234|465:234|461:238|461:238|446:315,1,95.3333289693199,0|0,3:3|3:3,0:0:0:0:
288,52,422268,6,0,B|300:141|300:141|307:151|307:151|325:307,1,190.66665793864,12|0,3:2|3:3,0:0:0:0:
241,324,422584,5,2,3:2:0:0:
198,294,422689,1,0,3:3:0:0:
150,304,422795,1,0,3:3:0:0:
100,380,422900,37,10,3:2:0:0:
113,300,423005,1,0,3:3:0:0:
129,220,423110,1,0,3:3:0:0:
77,139,423216,6,0,B|127:173|127:173|231:135|231:135|328:192,1,220.000008392334,4|0,3:2|3:3,0:0:0:0:
302,270,423531,5,10,3:2:0:0:
227,239,423637,1,0,3:3:0:0:
192,313,423742,1,0,3:3:0:0:
272,355,423847,1,2,3:2:0:0:
272,355,423952,2,0,P|341:338|406:319,1,87.9999973144532,0|0,3:3|3:3,0:0:0:0:
336,140,424163,5,10,3:2:0:0:
262,169,424268,1,0,3:3:0:0:
189,199,424374,1,0,3:3:0:0:
140,87,424479,37,2,3:2:0:0:
160,96,424584,1,0,3:3:0:0:
181,105,424690,1,0,3:3:0:0:
87,187,424795,5,10,3:2:0:0:
104,274,424900,1,0,3:3:0:0:
122,362,425006,1,0,3:3:0:0:
220,296,425110,6,0,B|209:300|200:322|200:322|180:258|248:222|248:222|247:213|247:213|261:244|303:308|415:279,1,322.666676513672,4|0,3:2|0:0,0:0:0:0:
364,174,425426,6,0,P|342:175|357:196,2,55.0000020980836
461,238,425742,2,0,P|439:237|454:216,2,55.0000020980836
500,93,426058,38,0,B|537:79|472:39|448:123|448:123|419:84|369:56|295:90|295:90|324:85|344:94,1,322.666676513672,4|0,3:2|0:0,0:0:0:0:
188,49,426405,5,8,2:3:0:0:
212,37,426505,1,8,2:3:0:0:
206,145,426605,5,8,2:2:0:0:
101,78,426705,1,8,2:2:0:0:
85,193,426805,5,8,2:3:0:0:
107,182,426905,1,8,2:3:0:0:
21,114,427005,38,0,B|16:119|0:124|0:124|51:123|103:104|64:44|76:1|76:1|79:94|153:144|256:269|459:298|512:303|512:303|504:273|473:280|447:200|461:133|461:133|430:246|335:333|185:302|185:302|183:316|187:338|187:338|135:251|230:142|230:142|159:267|49:272|1:261|1:261|-6:306|15:368|81:312|123:377|123:377|61:285|130:223|58:194|58:194|117:177|159:127|178:80|161:28|161:28|181:60|215:62|215:62|215:62|215:62|248:52|262:17|262:17|254:55|277:80|277:80|277:80|277:80|307:96|342:83|342:83|309:102|309:136|309:136|309:137|309:137|318:170|352:184|352:184|267:183|206:243|223:356|295:388|378:354|378:354|354:366|338:386,1,3247.20004954834,4|0,3:2|0:0,0:0:0:0:
269,368,445320,6,0,P|290:353|306:346,2,29.3333333333333,0|0|0,3:3|0:0|0:0,0:0:0:0:
295,267,445636,2,0,P|320:271|336:277,2,43.9999986572266,0|0|0,3:3|0:0|0:0,0:0:0:0:
461,372,445952,6,0,P|421:323|485:224,1,176,2|0,3:2|0:0,0:0:0:0:
512,134,446373,1,0,0:0:0:0:
507,120,446478,1,0,0:0:0:0:
492,112,446583,2,0,P|466:123|447:154,2,58.6666666666667
375,0,446899,6,0,L|354:186,1,176,2|0,2:2|0:0,0:0:0:0:
272,234,447320,1,0,0:0:0:0:
252,212,447426,1,0,0:0:0:0:
223,214,447531,2,0,P|201:238|187:280,1,58.6666666666667,2|0,3:2|0:0,0:0:0:0:
337,353,447741,1,0,0:0:0:0:
330,361,447847,38,0,P|276:338|194:329,1,117.333333333333,2|0,3:2|0:0,0:0:0:0:
98,364,448162,2,0,P|129:331|141:296,2,58.6666666666667
79,262,448478,2,0,P|77:216|61:183,2,58.6666666666667
220,118,448794,6,0,B|184:166|184:166|115:142,1,117.333333333333,2|0,2:2|0:0,0:0:0:0:
52,54,449110,1,0,0:0:0:0:
47,39,449215,1,0,0:0:0:0:
54,23,449320,1,0,0:0:0:0:
76,14,449426,1,2,2:2:0:0:
115,23,449531,1,0,0:0:0:0:
146,64,449636,1,0,0:0:0:0:
228,73,449741,6,0,B|271:57|287:37|302:16|375:14|412:34,1,176,2|0,3:2|0:0,0:0:0:0:
482,92,450162,1,0,0:0:0:0:
485,106,450268,1,0,0:0:0:0:
489,119,450373,2,0,P|501:78|511:57,2,58.6666666666667
482,250,450689,6,0,P|465:211|350:173,1,117.333333333333,2|0,2:2|0:0,0:0:0:0:
300,200,451005,1,2,2:2:0:0:
288,212,451110,1,0,0:0:0:0:
284,234,451215,1,0,0:0:0:0:
341,301,451320,37,2,3:2:0:0:
309,260,451426,1,0,0:0:0:0:
256,257,451531,1,0,0:0:0:0:
193,307,451636,6,0,B|150:321|102:296|142:285|85:256|37:279,1,146.666666666667,2|0,3:2|0:0,0:0:0:0:
22,142,451952,2,0,P|41:169|55:207,2,58.6666666666667
147,195,452268,2,0,P|141:227|124:264,2,58.6666666666667
202,322,452583,6,0,P|265:275|386:291,1,146.666666666667,2|0,2:2|0:0,0:0:0:0:
449,359,452899,1,0,3:3:0:0:
424,349,453005,1,0,3:3:0:0:
410,325,453110,1,0,3:3:0:0:
454,268,453215,5,2,3:2:0:0:
482,223,453320,1,0,3:3:0:0:
460,171,453426,1,0,3:3:0:0:
385,136,453531,38,0,P|313:159|343:278,1,220,2|0,3:2|0:0,0:0:0:0:
438,274,453952,1,0,0:0:0:0:
457,256,454057,1,0,0:0:0:0:
464,228,454162,2,0,L|481:326,2,58.6666666666667
479,34,454478,6,0,P|489:77|397:118,1,146.666666666667,2|0,2:2|0:0,0:0:0:0:
338,64,454794,1,0,0:0:0:0:
321,54,454899,1,0,0:0:0:0:
293,51,455005,1,0,0:0:0:0:
241,107,455110,5,2,3:2:0:0:
190,120,455215,1,0,0:0:0:0:
136,96,455320,1,0,0:0:0:0:
140,5,455426,6,0,P|181:42|150:142,1,146.666666666667,2|0,3:2|0:0,0:0:0:0:
83,176,455741,1,0,0:0:0:0:
69,197,455847,1,0,0:0:0:0:
67,221,455952,1,0,0:0:0:0:
78,239,456057,2,0,P|95:266|102:305,2,58.6666666666667,2|0|0,2:2|0:0|0:0,0:0:0:0:
0,336,456373,38,0,B|23:354|23:354|92:293|215:320,1,220,2|0,2:2|0:0,0:0:0:0:
270,355,456794,1,0,0:0:0:0:
318,366,456899,1,0,0:0:0:0:
364,345,457005,2,0,P|371:291|281:258,1,146.666666666667,2|0,2:2|0:0,0:0:0:0:
447,375,457320,6,0,B|459:269|459:269|463:266|463:266|478:128,1,220,2|0,3:2|0:0,0:0:0:0:
451,83,457741,1,0,0:0:0:0:
449,68,457847,1,0,0:0:0:0:
447,53,457952,2,0,P|486:34|504:10,2,58.6666666666667
343,12,458268,6,0,P|295:45|294:137,1,146.666666666667,2|0,2:2|0:0,0:0:0:0:
340,234,458583,1,0,0:0:0:0:
344,222,458689,1,0,0:0:0:0:
348,207,458794,1,0,0:0:0:0:
403,279,458899,5,2,3:2:0:0:
358,252,459005,1,0,3:3:0:0:
305,251,459110,1,0,3:3:0:0:
246,296,459215,38,0,B|206:323|165:297|186:285|131:270|67:290,1,146.666666666667,2|0,3:2|0:0,0:0:0:0:
30,378,459531,2,0,P|76:346|83:256,1,117.333333333333
40,223,459847,2,0,P|28:192|31:141,2,58.6666666666667,2|0|0,2:2|0:0|0:0,0:0:0:0:
257,190,460162,6,0,L|94:166,1,146.666666666667,2|0,3:2|0:0,0:0:0:0:
70,35,460478,1,2,2:2:0:0:
74,48,460583,1,0,0:0:0:0:
83,60,460689,1,0,0:0:0:0:
148,97,460794,5,2,3:2:0:0:
180,63,460899,1,0,3:3:0:0:
224,43,461005,1,0,3:3:0:0:
300,51,461110,6,0,P|261:200|242:297,1,220,2|0,3:2|0:0,0:0:0:0:
298,329,461531,1,0,0:0:0:0:
313,312,461636,1,0,0:0:0:0:
338,299,461741,2,0,P|369:311|434:322,2,58.6666666666667
225,259,462057,38,0,P|266:171|239:124,1,146.666666666667,2|0,2:2|0:0,0:0:0:0:
201,68,462373,1,0,0:0:0:0:
184,91,462478,1,0,0:0:0:0:
160,103,462583,1,0,0:0:0:0:
86,83,462689,5,2,3:2:0:0:
54,113,462794,1,0,0:0:0:0:
51,157,462899,1,0,0:0:0:0:
39,246,463005,6,0,P|142:217|239:222,1,146.666666666667,2|0,3:2|0:0,0:0:0:0:
240,140,463320,2,0,P|199:209|230:255,1,102.666663533529
287,264,463636,2,0,P|328:195|297:149,1,102.666663533529
176,84,463952,6,0,P|292:100|355:109,1,146.666666666667,2|0,2:2|0:0,0:0:0:0:
402,55,464268,1,0,0:0:0:0:
398,77,464373,1,0,0:0:0:0:
406,103,464478,1,0,0:0:0:0:
472,138,464583,37,2,2:2:0:0:
478,179,464689,1,0,0:0:0:0:
462,217,464794,1,0,0:0:0:0:
506,283,464899,6,0,P|375:247|271:239,1,220,2|0,3:2|0:0,0:0:0:0:
229,300,465320,1,0,0:0:0:0:
236,321,465426,1,0,0:0:0:0:
253,338,465531,2,0,P|286:329|332:325,2,58.6666666666667
146,296,465847,6,0,P|164:178|172:113,1,146.666666666667,2|0,2:2|0:0,0:0:0:0:
93,95,466162,2,0,P|45:110|22:115,2,58.6666666666667
221,62,466478,5,2,3:2:0:0:
185,23,466583,1,0,3:3:0:0:
169,73,466689,1,0,3:3:0:0:
193,52,466794,38,0,B|307:16|274:163|443:83,1,220,2|0,3:2|0:0,0:0:0:0:
476,259,467320,1,0,0:0:0:0:
464,237,467426,2,0,P|485:166|492:153,2,58.6666666666667
382,299,467741,6,0,P|368:207|352:131,1,146.666666666667,2|0,2:2|0:0,0:0:0:0:
305,88,468057,1,2,3:2:0:0:
289,100,468163,1,0,0:0:0:0:
278,123,468268,1,0,3:3:0:0:
202,115,468373,5,2,3:2:0:0:
201,155,468478,1,0,3:3:0:0:
222,180,468583,1,0,3:3:0:0:
297,208,468689,6,0,P|222:155|63:169,1,220,2|0,3:2|0:0,0:0:0:0:
42,219,469110,1,0,0:0:0:0:
60,239,469215,1,0,0:0:0:0:
77,251,469320,2,0,P|129:237|116:151,1,117.333333333333,2|0,2:2|0:0,0:0:0:0:
185,293,469636,38,0,B|248:293|275:347|275:347|343:365|396:295,1,220,2|0,2:2|0:0,0:0:0:0:
470,302,470057,1,0,0:0:0:0:
461,277,470162,1,0,0:0:0:0:
448,254,470268,2,0,P|395:239|351:221,2,58.6666666666667,2|0|0,3:2|0:0|0:0,0:0:0:0:
304,260,470583,6,0,P|374:199|346:109,2,197.99999395752,2|0|2,3:2|0:0|2:2,0:0:0:0:
241,202,471320,1,0,0:0:0:0:
224,187,471426,1,0,0:0:0:0:
191,181,471531,6,0,P|210:258|217:338,1,131.99999597168,2|0,3:2|0:0,0:0:0:0:
111,380,471847,1,0,3:3:0:0:
87,351,471952,1,0,3:3:0:0:
91,315,472057,1,0,3:3:0:0:
115,294,472162,2,0,P|212:314|281:338,1,131.99999597168,2|0,3:2|0:0,0:0:0:0:
301,384,472478,6,0,B|241:313|298:274|303:268|306:263|344:219|267:145,1,220,2|0,3:2|0:0,0:0:0:0:
442,311,473005,1,0,0:0:0:0:
432,328,473110,2,0,P|372:343|351:353,2,58.6666666666667
481,232,473426,38,0,P|411:218|411:139,1,146.666666666667,2|0,2:2|0:0,0:0:0:0:
457,96,473741,1,0,0:0:0:0:
440,79,473847,1,0,0:0:0:0:
414,71,473952,1,0,0:0:0:0:
336,101,474057,5,0,0:0:0:0:
309,135,474162,1,0,0:0:0:0:
267,141,474268,1,0,0:0:0:0:
195,101,474373,6,0,P|254:185|219:232,1,146.666666666667,2|0,3:2|0:0,0:0:0:0:
269,310,474689,2,0,P|185:251|138:286,1,146.666666666667
134,356,475005,2,0,P|163:348|191:342,2,58.6666666666667,2|0|0,2:2|0:0|0:0,0:0:0:0:
50,309,475320,6,0,P|71:280|70:244,1,73.3333333333333,2|0,3:2|0:0,0:0:0:0:
141,177,475531,1,0,0:0:0:0:
129,182,475636,2,0,P|107:153|108:117,1,73.3333333333333
65,22,475847,1,0,0:0:0:0:
79,35,475952,2,0,L|1:54,2,73.3333333333333,2|0|0,3:2|3:3|3:3,0:0:0:0:
175,7,476268,38,0,P|187:68|326:98,1,220,2|0,3:2|0:0,0:0:0:0:
449,26,476794,1,0,0:0:0:0:
435,34,476899,2,0,P|410:71|404:107,2,55.0000020980836
512,124,477215,6,0,B|416:106|416:106|352:174,1,146.666666666667,2|0,2:2|0:0,0:0:0:0:
336,233,477531,2,0,P|324:206|305:173,2,55.0000020980836
399,313,477847,1,2,3:2:0:0:
419,279,477952,1,0,0:0:0:0:
456,257,478057,1,0,0:0:0:0:
505,355,478162,6,0,P|437:333|309:309,1,146.666666666667,2|0,3:2|0:0,0:0:0:0:
250,295,478478,2,0,P|294:302|341:400,1,146.666666666667,0|0,3:3|3:3,0:0:0:0:
155,298,478794,2,0,P|168:266|192:235,2,58.6666666666667,0|0|0,3:3|3:3|3:3,0:0:0:0:
7,368,479110,6,0,P|70:318|28:261,1,146.666666666667,2|0,3:2|0:0,0:0:0:0:
15,149,479426,1,0,0:0:0:0:
34,178,479531,1,0,0:0:0:0:
70,185,479636,1,0,0:0:0:0:
103,169,479741,2,0,P|99:139|74:87,1,58.6666666666667,2|0,2:2|0:0,0:0:0:0:
30,0,479952,1,0,0:0:0:0:
45,2,480057,38,0,P|79:113|117:263,1,220,2|0,3:2|3:3,0:0:0:0:
259,220,480478,1,0,3:3:0:0:
285,192,480583,1,0,3:3:0:0:
285,157,480689,2,0,P|231:131|163:154,1,131.99999597168,0|0,3:3|3:3,0:0:0:0:
284,294,481005,6,0,L|303:98,1,146.666666666667,2|0,3:2|0:0,0:0:0:0:
347,56,481320,1,0,0:0:0:0:
365,68,481426,1,0,0:0:0:0:
386,76,481531,1,0,0:0:0:0:
453,36,481636,5,2,3:2:0:0:
432,60,481741,1,0,0:0:0:0:
419,90,481847,1,0,0:0:0:0:
464,151,481952,6,0,P|488:212|511:308,1,146.666666666667,2|0,3:2|0:0,0:0:0:0:
399,364,482268,2,0,P|424:304|515:309,1,146.666666666667,0|0,3:3|3:3,0:0:0:0:
362,189,482583,2,0,P|338:250|315:346,1,146.666666666667,0|0,3:3|3:3,0:0:0:0:
205,383,482899,38,0,L|192:236,1,146.666666666667,2|0,3:2|0:0,0:0:0:0:
134,140,483215,2,0,P|113:174|69:196,2,58.6666666666667,2|0|0,2:2|0:0|0:0,0:0:0:0:
51,29,483531,1,2,2:2:0:0:
67,104,483636,2,0,P|105:124|159:110,1,65.9999979858399
324,18,483847,6,0,P|231:49|204:166,1,220,2|0,3:2|3:3,0:0:0:0:
436,106,484373,1,0,0:0:0:0:
435,93,484478,2,0,P|419:67|391:40,2,58.6666666666667,0|0|0,3:3|3:3|3:3,0:0:0:0:
512,257,484794,6,0,P|481:196|377:220,1,146.666666666667,2|0,3:2|0:0,0:0:0:0:
321,220,485110,2,0,P|296:202|262:153,2,58.6666666666667
373,352,485426,1,2,3:2:0:0:
341,318,485531,1,0,0:0:0:0:
291,311,485636,1,0,0:0:0:0:
230,353,485741,6,0,L|62:373,1,146.666666666667,2|0,3:2|0:0,0:0:0:0:
5,296,486057,2,0,L|150:278,1,146.666666666667
260,137,486373,1,2,3:2:0:0:
224,139,486478,1,0,3:3:0:0:
197,171,486583,1,0,3:3:0:0:
250,219,486689,38,0,B|190:183|119:196|145:223|95:271|35:271,1,220,2|0,3:2|0:0,0:0:0:0:
11,157,487110,1,0,0:0:0:0:
6,121,487215,1,0,0:0:0:0:
0,82,487320,2,0,P|45:102|133:114,1,73.3333333333333,2|0,2:2|0:0,0:0:0:0:
243,46,487531,1,0,0:0:0:0:
237,27,487636,6,0,P|184:68|135:202,1,146.666666666667,2|0,3:2|0:0,0:0:0:0:
268,186,487952,2,0,P|242:123|267:-16,1,146.666666666667,0|0,3:3|0:0,0:0:0:0:
400,5,488268,1,0,3:3:0:0:
370,20,488373,1,0,3:3:0:0:
356,53,488478,1,0,3:3:0:0:
403,112,488583,6,0,P|451:184|465:294,1,146.666666666667,2|0,3:2|0:0,0:0:0:0:
371,327,488899,1,0,0:0:0:0:
377,313,489005,1,0,0:0:0:0:
377,294,489110,1,0,0:0:0:0:
340,224,489215,5,2,3:2:0:0:
318,252,489320,1,0,0:0:0:0:
284,264,489426,1,0,0:0:0:0:
228,202,489531,38,0,L|253:379,1,146.666666666667,2|0,3:2|0:0,0:0:0:0:
38,313,489847,2,0,P|80:257|180:296,1,146.666666666667
237,205,490162,2,0,L|216:59,1,146.666666666667,0|0,3:3|3:3,0:0:0:0:
61,7,490478,6,0,P|11:37|27:119,1,146.666666666667,2|0,3:2|0:0,0:0:0:0:
121,144,490794,2,0,P|171:114|155:32,1,146.666666666667,2|0,2:2|0:0,0:0:0:0:
46,203,491110,2,0,L|62:311,1,73.3333333333333,0|0,3:3|0:0,0:0:0:0:
162,350,491320,1,0,0:0:0:0:
211,295,491426,6,0,P|338:302|438:381,1,220,2|0,3:2|3:3,0:0:0:0:
469,144,492057,1,0,3:3:0:0:
447,127,492162,1,0,3:3:0:0:
420,127,492268,1,0,3:3:0:0:
416,205,492373,6,0,P|348:124|246:171,1,220,2|0,3:2|0:0,0:0:0:0:
142,24,492899,1,0,0:0:0:0:
146,37,493005,2,0,P|194:48|229:53,2,58.6666666666667,2|0|0,3:2|0:0|0:0,0:0:0:0:
71,69,493320,38,0,P|100:154|114:254,1,146.666666666667,2|0,3:2|0:0,0:0:0:0:
69,281,493636,2,0,P|130:247|186:273,1,117.333333333333,0|0,3:3|3:3,0:0:0:0:
227,134,493952,2,0,P|180:166|124:154,1,117.333333333333,0|0,3:3|3:3,0:0:0:0:
249,52,494268,6,0,P|273:183|285:244,1,146.666666666667,2|0,3:2|0:0,0:0:0:0:
230,265,494583,1,2,2:2:0:0:
259,286,494689,1,0,0:0:0:0:
304,279,494794,1,0,0:0:0:0:
358,213,494899,5,2,2:2:0:0:
377,194,495005,1,0,0:0:0:0:
404,192,495110,1,0,0:0:0:0:
466,248,495215,6,0,B|414:201|437:150|442:148|448:146|499:97|413:27,1,220,2|0,3:2|0:0,0:0:0:0:
297,7,495741,1,0,0:0:0:0:
283,23,495847,2,0,P|292:103|383:91,1,146.666666666667,2|0,3:2|3:3,0:0:0:0:
476,96,496162,38,0,P|405:115|336:140,1,146.666666666667,2|0,3:2|0:0,0:0:0:0:
274,236,496478,2,0,P|249:165|236:137,2,58.6666666666667,2|0|0,2:2|0:0|0:0,0:0:0:0:
369,334,496794,5,2,3:2:0:0:
409,305,496899,1,0,3:3:0:0:
370,287,497005,1,0,3:3:0:0:
326,349,497110,6,0,B|295:322|229:317|229:317|192:370|106:357,1,220,2|0,3:2|3:3,0:0:0:0:
179,191,497636,1,0,3:3:0:0:
105,162,497741,2,0,P|98:228|142:258,1,117.333333333333,2|0,3:2|3:3,0:0:0:0:
17,137,498057,6,0,P|94:121|175:98,1,146.666666666667,2|0,3:2|0:0,0:0:0:0:
239,21,498373,1,0,0:0:0:0:
220,54,498478,1,0,0:0:0:0:
237,88,498583,1,0,0:0:0:0:
320,68,498689,38,0,P|254:105|304:184,1,146.666666666667,2|0,2:2|0:0,0:0:0:0:
201,269,499005,6,0,P|303:244|371:232,1,146.666666666667,2|0,3:2|0:0,0:0:0:0:
421,280,499320,2,0,P|401:306|368:318,1,58.6666666666667
412,147,499531,1,0,0:0:0:0:
397,157,499636,2,0,P|417:183|450:195,1,58.6666666666667,2|0,2:2|0:0,0:0:0:0:
458,29,499847,1,0,0:0:0:0:
494,48,499952,6,0,B|428:107|411:18|303:114,1,146.666666666667,2|0,3:2|0:0,0:0:0:0:
241,60,500268,1,2,2:2:0:0:
276,93,500373,1,0,0:0:0:0:
280,142,500478,1,0,0:0:0:0:
242,180,500583,2,0,P|211:159|177:153,1,58.6666666666667,2|0,3:2|0:0,0:0:0:0:
67,291,500794,1,0,0:0:0:0:
35,269,500899,6,0,P|160:241|234:223,1,146.666666666667,2|0,3:2|0:0,0:0:0:0:
241,328,501215,2,0,P|170:296|193:247,1,146.666666666667
284,203,501531,1,2,3:2:0:0:
278,223,501636,1,0,3:3:0:0:
272,242,501741,1,0,3:3:0:0:
336,302,501847,38,0,P|324:237|304:97,1,146.666666666667,2|0,3:2|0:0,0:0:0:0:
247,109,502162,1,0,0:0:0:0:
225,134,502268,1,0,0:0:0:0:
183,143,502373,1,0,0:0:0:0:
132,84,502478,6,0,P|156:141|92:205,1,146.666666666667,2|0,3:2|0:0,0:0:0:0:
0,202,502794,6,0,P|71:215|141:238,1,146.666666666667,2|0,3:2|0:0,0:0:0:0:
81,347,503110,1,0,0:0:0:0:
101,356,503215,2,0,P|88:291|77:263,1,58.6666666666667
226,230,503426,5,2,3:2:0:0:
232,261,503531,1,0,3:3:0:0:
208,287,503636,1,0,3:3:0:0:
147,224,503741,38,0,P|230:206|302:186,1,146.666666666667,2|0,3:2|0:0,0:0:0:0:
347,244,504057,1,0,0:0:0:0:
361,228,504162,1,0,0:0:0:0:
384,216,504268,1,0,0:0:0:0:
400,130,504373,5,0,0:0:0:0:
432,136,504478,1,0,0:0:0:0:
451,157,504583,1,0,0:0:0:0:
508,96,504689,6,0,P|491:167|478:239,1,146.666666666667,2|0,3:2|0:0,0:0:0:0:
509,314,505005,2,0,P|480:319|451:325,1,58.6666666666667
306,262,505215,1,0,3:3:0:0:
317,291,505320,2,0,P|384:257|340:174,1,146.666666666667,2|0,3:2|3:3,0:0:0:0:
455,120,505636,6,0,P|378:110|271:93,1,142.99999345398,2|0,3:2|0:0,0:0:0:0:
209,237,506162,1,0,0:0:0:0:
197,225,506268,2,0,P|282:207|318:200,1,95.3333289693199
374,259,506583,37,4,0:0:0:0:
292,374,538794,5,2,2:2:0:0:
291,363,539110,6,0,P|301:346|321:329,5,36.6666666666667,2|0|0|0|0|0,0:2|0:0|0:0|0:0|0:0|0:0,0:0:0:0:
284,253,539426,6,0,P|305:247|333:249,5,51.3333317667644,2|0|0|0|0|0,0:2|0:0|0:0|0:0|0:0|0:0,0:0:0:0:
449,165,539741,38,0,P|380:236|254:171,1,220.000008392334,0|0,3:3|3:3,0:0:0:0:
242,93,540057,1,10,3:2:0:0:
189,46,540162,1,0,3:3:0:0:
120,67,540268,1,0,3:3:0:0:
59,104,540373,2,0,P|5:93|86:27,1,220.000008392334,2|0,3:2|3:3,0:0:0:0:
170,127,540689,6,0,L|148:369,1,220.000008392334,10|0,3:2|3:3,0:0:0:0:
50,384,541005,2,0,L|32:227,1,95.3333289693199,2|0,3:2|3:3,0:0:0:0:
61,189,541215,5,0,3:3:0:0:
142,234,541320,2,0,L|150:139,2,80.6666691284181,10|0|0,3:2|3:3|3:3,0:0:0:0:
178,367,541636,6,0,P|203:322|331:323,1,161.333338256836,4|0,3:2|3:3,0:0:0:0:
391,358,541952,37,10,3:2:0:0:
397,341,542057,1,0,3:3:0:0:
401,321,542162,1,0,3:3:0:0:
471,235,542268,5,2,3:2:0:0:
411,287,542373,1,0,3:3:0:0:
335,231,542478,1,0,3:3:0:0:
352,135,542583,6,0,P|483:79|492:216,1,263.99999194336,10|0,3:2|3:3,0:0:0:0:
471,235,542899,1,2,3:2:0:0:
406,251,543005,1,0,3:3:0:0:
342,267,543110,1,0,3:3:0:0:
274,218,543215,2,0,B|217:201|152:259|197:286|158:331|72:350,1,205.333327067058,10|0,3:2|3:3,0:0:0:0:
4,240,543531,6,0,P|95:310|153:229,1,205.333327067058,4|0,3:2|3:3,0:0:0:0:
147,60,543847,1,10,3:2:0:0:
102,81,543952,1,0,3:3:0:0:
91,132,544057,1,0,3:3:0:0:
122,174,544162,2,0,L|300:145,2,102.666663533529,2|0|0,3:2|3:3|3:3,0:0:0:0:
206,9,544478,38,0,P|318:10|356:121,1,205.333327067058,10|0,3:2|3:3,0:0:0:0:
316,165,544794,5,2,3:2:0:0:
296,177,544899,1,0,3:3:0:0:
279,185,545005,1,0,3:3:0:0:
283,272,545110,5,10,3:2:0:0:
362,228,545215,1,0,3:3:0:0:
416,318,545320,1,0,3:3:0:0:
475,236,545426,6,0,L|144:298,1,249.333338088989,4|0,3:2|3:3,0:0:0:0:
155,234,545741,37,10,3:2:0:0:
145,245,545847,1,0,3:3:0:0:
132,254,545952,1,0,3:3:0:0:
89,317,546057,5,2,3:2:0:0:
66,293,546163,1,0,3:3:0:0:
39,282,546268,1,0,3:3:0:0:
5,376,546373,6,0,P|82:274|62:124,1,249.333338088989,10|0,3:2|3:3,0:0:0:0:
0,91,546689,2,0,B|47:66|143:132|39:129|125:188|206:191|223:157,1,205.333327067058,2|0,3:2|3:3,0:0:0:0:
231,17,547005,2,0,P|198:43|171:90,2,87.9999973144532,10|0|0,3:2|3:3|3:3,0:0:0:0:
331,163,547320,5,4,3:2:0:0:
370,149,547426,1,0,3:3:0:0:
393,112,547531,1,0,3:3:0:0:
351,15,547636,38,0,P|372:131|392:267,1,234.666666666667,10|0,3:2|3:3,0:0:0:0:
335,322,547952,1,2,3:2:0:0:
227,260,548057,2,0,P|262:231|325:235,1,87.9999973144532,0|0,3:3|3:3,0:0:0:0:
464,375,548268,6,0,L|133:331,1,234.666666666667,10|0,3:2|3:3,0:0:0:0:
65,318,548583,2,0,L|182:299,1,87.9999973144532,2|0,3:2|3:3,0:0:0:0:
224,245,548794,1,0,3:3:0:0:
131,150,548899,2,0,P|104:191|103:250,2,87.9999973144532,10|0|0,3:2|3:3|3:3,0:0:0:0:
218,23,549215,6,0,P|139:-1|112:153,1,205.333327067058,4|0,3:2|3:3,0:0:0:0:
214,148,549531,5,10,3:2:0:0:
234,151,549636,1,0,3:3:0:0:
254,154,549741,1,0,3:3:0:0:
336,114,549847,37,2,3:2:0:0:
285,163,549952,1,0,3:3:0:0:
327,221,550057,1,0,3:3:0:0:
301,298,550162,6,0,L|335:-6,1,234.666666666667,10|0,3:2|3:3,0:0:0:0:
459,0,550478,2,0,P|428:12|394:64,2,73.3333333333333,2|0|0,3:2|3:3|3:3,0:0:0:0:
512,147,550794,2,0,P|415:121|233:83,1,234.666666666667,10|0,3:2|3:3,0:0:0:0:
143,218,551110,6,0,P|205:272|226:160,1,234.666666666667,4|0,3:2|3:3,0:0:0:0:
165,117,551426,5,10,3:2:0:0:
145,121,551531,1,0,3:3:0:0:
125,126,551636,1,0,3:3:0:0:
20,152,551741,37,2,3:2:0:0:
71,200,551847,1,0,3:3:0:0:
86,269,551952,1,0,3:3:0:0:
30,342,552057,6,0,B|18:322|-19:305|-19:305|195:338,1,234.666666666667,10|0,3:2|3:3,0:0:0:0:
307,214,552373,1,2,3:2:0:0:
253,223,552478,1,0,3:3:0:0:
217,267,552583,1,0,3:3:0:0:
237,321,552689,2,0,P|287:294|351:290,2,87.9999973144532,10|0|0,3:2|3:3|3:3,0:0:0:0:
425,378,553005,6,0,P|393:295|419:113,1,220.000008392334,4|0,3:2|3:3,0:0:0:0:
504,47,553320,1,10,3:2:0:0:
436,96,553426,2,0,P|412:62|390:10,1,87.9999973144532,0|0,3:3|3:3,0:0:0:0:
247,4,553636,5,2,3:2:0:0:
307,62,553741,1,0,3:3:0:0:
258,128,553847,1,0,3:3:0:0:
336,188,553952,38,0,P|248:153|101:203,1,175.999994628906,10|0,3:2|3:3,0:0:0:0:
69,274,554268,5,2,3:2:0:0:
166,339,554373,1,8,2:2:0:0:
151,229,554478,1,8,2:2:0:0:
72,361,554583,5,8,2:2:0:0:
224,267,554689,1,8,2:2:0:0:
77,189,554794,1,8,2:2:0:0:
185,349,554899,6,0,B|243:383|306:340|278:308|328:251|455:340,1,220.000008392334,4|0,3:2|3:3,0:0:0:0:
499,347,555215,1,10,3:2:0:0:
426,384,555320,1,0,3:3:0:0:
379,316,555426,1,0,3:3:0:0:
426,245,555531,2,0,P|465:258|507:266,2,80.6666691284181,2|0|0,3:2|3:3|3:3,0:0:0:0:
297,149,555847,38,0,P|368:180|378:67,1,205.333327067058,12|0,3:2|3:3,0:0:0:0:
229,0,556162,5,2,3:2:0:0:
215,74,556268,1,0,3:3:0:0:
199,153,556373,1,0,3:3:0:0:
185,229,556478,2,0,P|168:186|96:204,1,102.666663533529,12|0,3:2|3:3,0:0:0:0:
0,319,556689,5,0,3:3:0:0:
122,380,556794,2,0,B|101:257|101:257|97:250|97:250|70:98,1,278.666659225464,4|0,3:2|3:3,0:0:0:0:
216,33,557110,5,8,3:2:0:0:
187,150,557215,1,8,3:2:0:0:
221,21,557320,1,8,3:2:0:0:
340,74,557426,38,0,B|364:68|388:85|402:171|307:208|208:116|312:19|113:86,1,278.666659225464,4|0,3:2|3:3,0:0:0:0:
92,211,557741,6,0,P|130:269|148:155,1,263.99999194336,10|0,3:2|3:3,0:0:0:0:
40,48,558057,5,2,3:2:0:0:
60,85,558162,1,0,3:3:0:0:
95,101,558268,1,0,3:3:0:0:
122,8,558373,6,0,P|74:82|97:128,1,102.666663533529,10|0,3:2|3:3,0:0:0:0:
235,214,558583,1,0,3:3:0:0:
135,302,558689,38,0,P|150:202|172:86,1,205.333327067058,4|0,3:2|3:3,0:0:0:0:
265,20,559005,2,0,P|271:70|277:121,2,102.666663533529,10|0|0,3:2|3:3|3:3,0:0:0:0:
55,148,559320,5,2,3:2:0:0:
81,46,559426,2,0,P|122:12|170:9,1,102.666663533529,0|0,3:3|3:3,0:0:0:0:
242,198,559636,5,10,3:2:0:0:
272,218,559741,1,0,3:3:0:0:
308,217,559846,1,0,3:3:0:0:
378,165,559952,5,2,3:2:0:0:
429,226,560057,1,0,3:3:0:0:
374,282,560162,1,0,3:3:0:0:
461,339,560268,38,0,B|416:311|416:311|325:330|325:330|292:380,1,205.333327067058,10|0,3:2|3:3,0:0:0:0:
201,208,560583,6,0,P|270:216|295:263,2,102.666663533529,4|0|0,3:2|3:3|3:3,0:0:0:0:
119,318,560899,5,8,3:2:0:0:
225,285,561005,1,8,3:2:0:0:
105,321,561110,1,8,3:2:0:0:
197,384,561215,6,0,P|208:287|230:113,1,234.666666666667,2|0,3:2|3:3,0:0:0:0:
81,97,561531,37,12,3:2:0:0:
141,151,561636,1,0,3:3:0:0:
218,136,561741,1,0,3:3:0:0:
259,68,561847,1,2,3:2:0:0:
335,44,561952,1,0,3:3:0:0:
401,88,562057,1,0,3:3:0:0:
399,166,562162,2,0,P|353:154|287:140,2,102.666663533529,10|0|0,3:2|3:3|3:3,0:0:0:0:
512,256,562478,6,0,B|426:273|426:273|382:262|382:262|265:285,1,234.666666666667,4|0,3:2|3:3,0:0:0:0:
192,357,562794,1,10,3:2:0:0:
270,384,562899,1,0,3:3:0:0:
297,296,563005,1,0,3:3:0:0:
214,269,563110,2,0,B|167:257|167:257|114:302,1,102.666663533529,2|0,3:2|3:3,0:0:0:0:
1,333,563320,5,0,3:3:0:0:
103,384,563426,2,0,B|89:295|89:295|91:288|91:288|75:180,1,205.333327067058,12|0,3:2|3:3,0:0:0:0:
56,67,563741,5,2,3:2:0:0:
118,18,563847,1,0,3:3:0:0:
186,54,563952,1,0,3:3:0:0:
159,142,564057,37,12,3:2:0:0:
140,136,564162,1,0,3:3:0:0:
122,117,564268,1,0,3:3:0:0:
215,42,564373,6,0,B|262:25|270:-14|270:-14|362:113|225:200,1,278.666659225464,4|0,3:2|3:3,0:0:0:0:
394,299,564689,5,8,3:2:0:0:
368,179,564794,1,8,3:2:0:0:
398,312,564899,1,8,3:2:0:0:
471,228,565005,6,0,P|333:206|195:183,1,278.666659225464,2|0,3:2|3:3,0:0:0:0:
64,254,565320,38,0,P|183:293|99:193,1,263.99999194336,12|0,3:2|3:3,0:0:0:0:
87,139,565636,6,0,P|37:157|-34:176,2,87.9999973144532,2|2|2,3:2|3:2|3:2,0:0:0:0:
219,33,565952,5,10,3:2:0:0:
156,78,566057,1,2,3:2:0:0:
218,129,566162,1,2,3:2:0:0:
154,216,566268,6,0,B|215:187|246:233|246:233|246:239|246:239|285:292|398:239,1,205.333327067058,4|0,3:2|3:3,0:0:0:0:
442,307,566583,1,10,3:2:0:0:
426,234,566689,1,0,3:3:0:0:
409,160,566794,1,0,3:3:0:0:
505,114,566899,37,2,3:2:0:0:
499,141,567005,1,0,3:3:0:0:
495,165,567110,1,0,3:3:0:0:
394,138,567215,6,0,B|341:103|341:103|255:156|310:260,1,205.333327067058,12|0,3:2|3:3,0:0:0:0:
377,344,567531,1,2,3:2:0:0:
394,306,567636,1,0,3:3:0:0:
379,267,567741,1,0,3:3:0:0:
294,309,567847,6,0,P|244:298|191:287,1,102.666663533529,10|0,3:2|3:3,0:0:0:0:
29,246,568057,1,0,3:3:0:0:
107,332,568162,6,0,B|124:348|141:403|56:429|-9:343|71:292|180:325|71:142,1,278.666659225464,4|8,3:2|2:2,0:0:0:0:
248,82,568478,37,8,2:2:0:0:
220,184,568583,1,8,2:3:0:0:
252,69,568688,1,8,2:2:0:0:
137,105,568794,6,0,P|87:98|41:119,1,102.666663533529,8|8,2:2|2:3,0:0:0:0:
38,140,568952,1,8,2:3:0:0:
35,157,569005,1,8,2:2:0:0:
73,267,569110,5,8,2:2:0:0:
142,225,569215,1,8,2:2:0:0:
216,240,569320,1,8,2:2:0:0:
242,316,569426,5,8,2:3:0:0:
164,307,569531,1,8,2:3:0:0:
135,241,569636,1,8,2:3:0:0:
161,178,569742,1,8,2:3:0:0:
203,158,569847,1,8,2:3:0:0:
244,161,569952,1,8,2:3:0:0:
293,230,570057,38,0,B|319:264|370:263|395:225|395:225|404:234|404:234|418:185|497:159|550:243,1,263.99999194336,4|0,3:2|3:3,0:0:0:0:
433,15,570373,1,10,3:2:0:0:
366,51,570478,1,0,3:3:0:0:
410,117,570583,1,0,3:3:0:0:
472,79,570689,2,0,P|336:107|298:121,1,95.3333289693199,2|0,3:2|3:3,0:0:0:0:
335,168,570899,1,0,3:3:0:0:
172,77,571005,6,0,B|132:37|177:-8|248:-2|294:72|250:159,1,249.333338088989,10|0,3:2|3:3,0:0:0:0:
178,204,571320,2,0,P|155:237|145:285,2,73.3333333333333,2|0|0,3:2|3:3|3:3,0:0:0:0:
317,333,571636,1,10,3:2:0:0:
251,279,571741,1,0,3:3:0:0:
184,350,571847,1,0,3:3:0:0:
99,301,571952,6,0,L|380:342,1,263.99999194336,4|0,3:2|3:3,0:0:0:0:
439,218,572268,5,10,3:2:0:0:
415,232,572373,1,0,3:3:0:0:
407,257,572478,1,0,3:3:0:0:
466,307,572583,37,2,3:2:0:0:
382,226,572689,1,0,3:3:0:0:
477,143,572794,1,0,3:3:0:0:
394,61,572899,6,0,B|312:20|216:84|290:84|227:168|81:168,1,263.99999194336,10|0,3:2|3:3,0:0:0:0:
0,8,573215,2,0,P|98:20|38:146,1,220.000008392334,2|0,3:2|3:3,0:0:0:0:
0,205,573531,2,0,L|358:160,1,263.99999194336,10|0,3:2|3:3,0:0:0:0:
417,384,573847,6,0,B|447:376|476:373|476:373|314:333|314:333|290:358|246:373,1,263.99999194336,4|0,3:2|3:3,0:0:0:0:
190,359,574162,2,0,P|162:338|141:277,2,73.3333333333333,10|0|0,3:2|3:3|3:3,0:0:0:0:
261,172,574478,1,2,3:2:0:0:
229,272,574583,2,0,L|219:159,1,73.3333333333333,0|0,3:3|3:3,0:0:0:0:
313,76,574794,6,0,B|343:68|343:68|484:146|484:146|522:134,1,220.000008392334,10|0,3:2|3:3,0:0:0:0:
400,204,575110,1,2,3:2:0:0:
378,210,575215,1,0,3:3:0:0:
356,216,575320,1,0,3:3:0:0:
287,262,575426,37,10,3:2:0:0:
354,294,575531,1,0,3:3:0:0:
422,325,575636,1,0,3:3:0:0:
506,288,575741,6,0,B|459:246|371:292|417:305|391:360|262:346,1,220.000008392334,4|0,3:2|3:3,0:0:0:0:
205,274,576057,2,0,P|203:228|247:172,2,95.3333289693199,10|0|0,3:2|3:3|3:3,0:0:0:0:
161,371,576373,2,0,P|117:355|91:299,1,95.3333289693199,2|0,3:2|3:3,0:0:0:0:
296,256,576583,1,0,3:3:0:0:
256,384,576689,6,0,L|221:100,1,220.000008392334,10|0,3:2|3:3,0:0:0:0:
249,35,577005,1,2,3:2:0:0:
261,67,577110,1,0,3:3:0:0:
288,78,577215,1,0,3:3:0:0:
356,36,577320,2,0,P|395:14|440:9,2,73.3333333333333,10|0|0,3:2|3:3|3:3,0:0:0:0:
424,189,577636,5,4,3:2:0:0:
415,142,577741,1,0,3:3:0:0:
371,127,577847,1,0,3:3:0:0:
222,144,577952,38,0,L|550:88,1,278.666659225464,10|0,3:2|3:3,0:0:0:0:
405,239,578268,1,2,3:2:0:0:
469,295,578373,2,0,P|504:283|505:214,1,102.666663533529,0|0,3:3|3:3,0:0:0:0:
372,333,578583,2,0,B|345:369|294:372|260:344|260:344|253:347|253:347|221:307|157:292|86:360,1,263.99999194336,10|0,3:2|3:3,0:0:0:0:
1,169,578899,5,2,3:2:0:0:
44,332,579005,2,0,P|63:288|96:243,1,87.9999973144532,0|0,3:3|3:3,0:0:0:0:
212,121,579215,5,10,3:2:0:0:
178,251,579319,2,0,P|159:207|126:162,1,87.9999973144532,0|0,3:3|3:3,0:0:0:0:
35,76,579531,6,0,B|26:58|3:45|3:45|136:68|136:68|163:127|232:139,1,263.99999194336,4|0,3:2|3:3,0:0:0:0:
312,13,579847,1,10,3:2:0:0:
286,24,579952,1,0,3:3:0:0:
273,48,580057,1,0,3:3:0:0:
287,141,580162,37,2,3:2:0:0:
357,87,580268,1,0,3:3:0:0:
441,185,580373,1,0,3:3:0:0:
510,100,580478,6,0,L|147:151,1,263.99999194336,10|0,3:2|3:3,0:0:0:0:
196,45,580794,2,0,P|164:72|154:131,2,87.9999973144532,2|0|0,3:2|3:3|3:3,0:0:0:0:
326,282,581110,2,0,P|350:209|248:136,1,220.000008392334,10|0,3:2|3:3,0:0:0:0:
49,264,581426,6,0,B|119:233|175:293|121:301|195:376|311:329,1,220.000008392334,4|0,3:2|3:3,0:0:0:0:
384,233,581741,1,10,3:2:0:0:
357,209,581847,1,0,3:3:0:0:
321,205,581952,1,0,3:3:0:0:
396,364,582057,5,2,3:2:0:0:
375,315,582162,1,0,3:3:0:0:
404,263,582268,1,0,3:3:0:0:
492,290,582373,38,0,B|515:273|533:274|533:274|352:249|352:249|339:275|282:304,1,263.99999194336,10|0,3:2|3:3,0:0:0:0:
148,251,582689,1,2,3:2:0:0:
217,244,582794,1,0,3:3:0:0:
271,197,582899,1,0,3:3:0:0:
269,125,583005,2,0,P|202:88|166:83,2,87.9999973144532,10|0|0,3:2|3:3|3:3,0:0:0:0:
368,0,583320,6,0,P|348:154|332:298,1,278.666659225464,4|0,3:2|3:3,0:0:0:0:
359,368,583636,2,0,P|402:346|428:292,2,87.9999973144532,10|0|0,3:2|3:3|3:3,0:0:0:0:
197,364,583952,5,2,3:2:0:0:
262,309,584056,1,0,3:3:0:0:
209,238,584162,1,0,3:3:0:0:
109,251,584268,5,10,3:2:0:0:
297,222,584373,1,8,3:2:0:0:
148,134,584478,1,8,3:2:0:0:
194,215,584583,37,2,3:2:0:0:
201,212,584689,1,0,3:3:0:0:
191,205,584794,1,0,3:3:0:0:
44,172,584899,6,0,L|25:276,1,87.9999973144532,8|0,3:2|3:3,0:0:0:0:
108,52,585110,1,0,3:3:0:0:
195,195,585215,6,0,P|300:170|442:152,1,220.000008392334,4|0,3:2|3:3,0:0:0:0:
512,303,585531,1,10,3:2:0:0:
480,227,585636,1,0,3:3:0:0:
398,260,585741,1,0,3:3:0:0:
487,218,585847,2,0,P|497:172|510:101,1,80.6666691284181,2|0,3:2|3:3,0:0:0:0:
392,0,586057,5,0,3:3:0:0:
511,59,586162,2,0,B|460:50|425:89|425:89|421:102|421:102|369:148|295:124,1,205.333327067058,12|0,3:2|3:3,0:0:0:0:
202,263,586478,37,2,3:2:0:0:
278,244,586583,1,0,3:3:0:0:
357,232,586689,1,0,3:3:0:0:
430,200,586794,2,0,P|438:256|401:302,1,102.666663533529,12|0,3:2|3:3,0:0:0:0:
193,153,587005,5,0,3:3:0:0:
320,103,587110,2,0,B|296:236|296:236|297:246|297:246|272:386,1,278.666659225464,4|0,3:2|3:3,0:0:0:0:
175,273,587426,5,8,3:2:0:0:
208,148,587531,1,8,3:2:0:0:
171,284,587636,1,8,3:2:0:0:
79,166,587741,6,0,B|39:150|20:110|20:110|-62:226|48:301,1,278.666659225464,4|0,3:2|3:3,0:0:0:0:
228,272,588057,38,0,P|195:330|188:225,1,263.99999194336,10|0,3:2|3:3,0:0:0:0:
283,95,588373,5,2,3:2:0:0:
247,131,588478,1,0,3:3:0:0:
247,184,588583,1,0,3:3:0:0:
396,205,588689,6,0,P|362:163|300:166,1,102.666663533529,10|0,3:2|3:3,0:0:0:0:
188,376,588899,1,0,3:3:0:0:
116,278,589005,6,0,B|170:250|170:250|276:279|351:321,1,205.333327067058,4|0,3:2|3:3,0:0:0:0:
465,333,589320,37,10,3:2:0:0:
392,272,589426,1,0,3:3:0:0:
468,206,589531,1,0,3:3:0:0:
392,128,589636,6,0,P|336:141|267:164,1,102.666663533529,2|0,3:2|3:3,0:0:0:0:
173,324,589847,1,0,3:3:0:0:
305,275,589952,6,0,P|197:239|44:210,1,205.333327067058,10|0,3:2|3:3,0:0:0:0:
63,364,590268,5,2,3:2:0:0:
94,344,590373,1,0,3:3:0:0:
103,304,590478,1,0,3:3:0:0:
14,211,590583,37,10,3:2:0:0:
31,287,590689,1,0,3:3:0:0:
107,312,590794,1,0,3:3:0:0:
187,244,590899,6,0,B|185:171|120:149|120:149|125:141|125:141|122:98|157:59,1,205.333327067058,4|0,3:2|3:3,0:0:0:0:
2,10,591215,5,8,3:2:0:0:
34,146,591320,1,8,3:2:0:0:
0,0,591426,1,8,3:2:0:0:
103,5,591531,6,0,B|162:-28|209:19|209:19|217:17|217:17|259:66|322:40,1,234.666666666667,2|0,3:2|3:3,0:0:0:0:
357,194,591847,37,12,3:2:0:0:
304,131,591952,1,0,3:3:0:0:
333,54,592057,1,0,3:3:0:0:
413,41,592162,1,2,3:2:0:0:
465,104,592268,1,0,3:3:0:0:
443,183,592373,1,0,3:3:0:0:
353,235,592478,5,10,3:2:0:0:
342,201,592583,1,0,3:3:0:0:
332,165,592689,1,0,3:3:0:0:
226,126,592794,6,0,B|210:158|177:169|177:169|373:206,1,234.666666666667,4|0,3:2|3:3,0:0:0:0:
457,325,593110,5,10,3:2:0:0:
379,280,593215,1,0,3:3:0:0:
309,335,593320,1,0,3:3:0:0:
229,284,593426,38,0,P|236:250|283:203,1,102.666663533529,2|0,3:2|3:3,0:0:0:0:
39,128,593636,1,0,3:3:0:0:
94,22,593741,6,0,P|119:115|149:251,1,205.333327067058,12|0,3:2|3:3,0:0:0:0:
4,279,594057,5,2,3:2:0:0:
12,239,594162,1,0,3:3:0:0:
51,220,594268,1,0,3:3:0:0:
153,342,594373,5,12,3:2:0:0:
79,316,594478,1,0,3:3:0:0:
6,292,594583,1,0,3:3:0:0:
162,237,594689,38,0,B|205:244|236:263|236:263|271:339|271:339|324:301|444:293,1,278.666659225464,4|0,3:2|3:3,0:0:0:0:
495,212,595005,5,8,3:2:0:0:
349,175,595110,1,8,3:2:0:0:
506,215,595215,1,8,3:2:0:0:
395,314,595320,6,0,B|384:251|380:197|380:197|364:167|364:167|369:104|355:15,1,278.666659225464,2|0,3:2|3:3,0:0:0:0:
478,54,595636,6,0,B|530:33|550:127|510:138|465:147|435:157|432:-2|275:138,1,278.666659225464,12|0,3:2|3:3,0:0:0:0:
240,34,595952,37,2,3:2:0:0:
262,110,596057,1,2,3:2:0:0:
285,181,596162,1,2,3:2:0:0:
240,269,596268,5,10,3:2:0:0:
180,203,596373,1,2,3:2:0:0:
104,256,596478,1,2,3:2:0:0:
40,161,596583,6,0,B|11:314|11:314|13:272|-18:223,1,205.333327067058,4|0,3:2|3:3,0:0:0:0:
138,377,596899,5,10,3:2:0:0:
107,345,597005,1,0,3:3:0:0:
117,301,597110,1,0,3:3:0:0:
260,264,597215,37,2,3:2:0:0:
204,316,597320,1,0,3:3:0:0:
128,296,597426,1,0,3:3:0:0:
179,192,597531,6,0,B|235:171|275:215|275:215|274:221|274:221|293:282|396:277,1,205.333327067058,12|0,3:2|3:3,0:0:0:0:
454,175,597847,1,2,3:2:0:0:
403,159,597952,1,0,3:3:0:0:
358,191,598057,1,0,3:3:0:0:
455,280,598162,6,0,P|475:206|489:160,1,102.666663533529,10|0,3:2|3:3,0:0:0:0:
332,1,598373,1,0,3:3:0:0:
430,90,598478,6,0,B|396:101|380:125|380:125|333:113|333:113|232:129|232:129|292:123|333:170,1,278.666659225464,4|8,3:2|2:2,0:0:0:0:
301,239,598794,37,8,2:2:0:0:
164,200,598899,1,8,2:3:0:0:
312,243,599005,1,8,2:2:0:0:
166,332,599110,5,8,2:2:0:0:
227,270,599215,1,8,2:2:0:0:
164,200,599320,1,8,2:2:0:0:
79,262,599426,5,8,2:2:0:0:
69,259,599531,1,8,2:2:0:0:
55,255,599636,1,8,2:3:0:0:
0,173,599741,5,8,2:3:0:0:
58,123,599847,1,8,2:3:0:0:
128,151,599952,1,8,2:3:0:0:
170,239,600057,37,8,2:3:0:0:
248,248,600162,1,8,2:3:0:0:
294,191,600268,1,8,2:3:0:0:
266,117,600373,6,0,B|230:92|143:112|173:249|203:307|280:325|303:244,1,307.999990600586,4|0,3:2|0:0,0:0:0:0:
454,71,601005,5,2,3:2:0:0:
412,168,601110,1,0,3:3:0:0:
490,144,601215,1,0,3:3:0:0:
379,96,601320,6,0,B|302:51|234:125|234:125|225:121|225:121|181:194|83:147,1,307.999990600586,2|0,3:2|0:0,0:0:0:0:
17,27,602268,38,0,P|84:93|117:253,1,205.333327067058,4|0,3:2|3:3,0:0:0:0:
202,245,602583,1,8,2:2:0:0:
126,315,602689,2,0,P|97:284|36:244,1,87.9999973144532,2|0,2:2|1:1,0:0:0:0:
300,278,602899,5,8,2:2:0:0:
197,368,603005,1,8,2:2:0:0:
304,372,603110,1,2,3:2:0:0:
207,277,603215,6,0,L|196:154,1,87.9999973144532,8|8,2:2|2:3,0:0:0:0:
197,175,603373,1,8,2:3:0:0:
195,165,603426,1,8,2:3:0:0:
293,189,603531,2,0,L|300:276,2,87.9999973144532,8|8|8,2:3|2:3|2:3,0:0:0:0:
400,11,603847,5,8,2:3:0:0:
459,78,603952,1,8,2:3:0:0:
396,136,604057,1,8,2:3:0:0:
331,67,604162,38,0,B|256:25|162:25|162:25|121:90,1,220.000008392334,4|0,3:2|3:3,0:0:0:0:
139,190,604478,2,0,P|182:166|193:108,2,87.9999973144532,10|0|0,3:2|3:3|3:3,0:0:0:0:
48,264,604794,2,0,L|17:156,1,87.9999973144532,2|0,3:2|3:3,0:0:0:0:
74,91,605005,1,0,3:3:0:0:
133,275,605110,6,0,B|205:266|238:311|238:311|236:316|236:316|269:374|393:372,1,220.000008392334,10|0,3:2|3:3,0:0:0:0:
426,326,605426,1,2,3:2:0:0:
444,310,605531,1,0,3:3:0:0:
445,288,605636,1,0,3:3:0:0:
388,235,605741,1,10,3:2:0:0:
370,219,605846,1,0,3:3:0:0:
369,197,605951,1,0,3:3:0:0:
428,143,606057,6,0,P|481:156|531:183,1,87.9999973144532,2|0,3:2|3:3,0:0:0:0:
393,42,606268,1,0,3:3:0:0:
321,135,606373,2,0,P|340:191|387:226,2,87.9999973144532,10|0|0,3:2|3:3|3:3,0:0:0:0:
219,31,606689,5,2,3:2:0:0:
177,95,606794,1,0,3:3:0:0:
218,158,606899,1,0,3:3:0:0:
210,234,607005,38,0,P|199:126|177:-2,1,220.000008392334,10|0,3:2|3:3,0:0:0:0:
36,24,607320,2,0,P|52:50|105:68,2,87.9999973144532,2|0|0,3:2|3:3|3:3,0:0:0:0:
10,183,607636,1,10,3:2:0:0:
88,168,607741,1,0,3:3:0:0:
165,155,607847,1,0,3:3:0:0:
240,200,607952,6,0,B|323:176|323:176|381:195|381:195|406:157|406:157|453:145,1,220.000008392334,2|0,3:2|3:3,0:0:0:0:
491,314,608268,2,0,B|452:254|452:254|473:223,2,87.9999973144532,10|0|0,3:2|3:3|3:3,0:0:0:0:
369,293,608583,2,0,L|281:267,1,87.9999973144532,2|0,3:2|3:3,0:0:0:0:
422,372,608794,1,0,3:3:0:0:
261,346,608899,6,0,B|158:362|158:362|151:368|151:368|26:390,1,205.333327067058,12|0,3:2|3:3,0:0:0:0:
13,212,609215,1,2,3:2:0:0:
37,205,609320,1,0,3:3:0:0:
57,219,609426,1,0,3:3:0:0:
108,276,609531,1,10,3:2:0:0:
132,283,609636,1,0,3:3:0:0:
152,269,609742,1,0,3:3:0:0:
198,205,609847,6,0,P|154:158|78:208,1,87.9999973144532,2|0,3:2|3:3,0:0:0:0:
59,205,610057,1,0,3:3:0:0:
202,88,610162,2,0,L|178:-31,2,87.9999973144532,10|0|2,3:2|3:3|3:2,0:0:0:0:
279,179,610478,37,2,3:2:0:0:
332,122,610583,1,0,3:3:0:0:
421,205,610689,1,2,3:2:0:0:
487,163,610794,6,0,L|246:192,1,220.000008392334,8|2,3:2|3:2,0:0:0:0:
158,232,611110,1,4,3:2:0:0:
174,241,611215,1,0,3:3:0:0:
184,259,611320,1,0,3:3:0:0:
162,335,611426,2,0,P|113:353|78:395,2,87.9999973144532,8|0|0,3:2|3:3|3:3,0:0:0:0:
276,359,611741,6,0,B|311:346|323:323|323:323|428:351|428:351|464:331|506:335,1,220.000008392334,4|0,3:2|3:3,0:0:0:0:
477,209,612057,2,0,P|421:240|418:286,2,87.9999973144532,10|0|0,3:2|3:3|3:3,0:0:0:0:
512,66,612373,5,2,3:2:0:0:
470,125,612478,1,0,3:3:0:0:
398,119,612583,1,0,3:3:0:0:
357,57,612689,38,0,P|318:16|198:118,1,220.000008392334,10|0,3:2|3:3,0:0:0:0:
130,158,613005,1,2,3:2:0:0:
143,172,613110,1,0,3:3:0:0:
151,193,613215,1,0,3:3:0:0:
211,244,613320,1,10,3:2:0:0:
198,256,613425,1,0,3:3:0:0:
190,279,613530,1,0,3:3:0:0:
133,349,613636,6,0,P|103:335|41:321,2,87.9999973144532,2|2|2,3:2|3:2|3:2,0:0:0:0:
280,307,613952,1,10,3:2:0:0:
263,320,614057,1,2,3:2:0:0:
250,339,614162,1,2,3:2:0:0:
335,373,614268,5,2,3:2:0:0:
273,294,614373,1,0,3:3:0:0:
340,233,614478,1,2,3:2:0:0:
301,157,614583,6,0,B|289:140|263:136|263:136|139:195|139:195|105:190|88:171,1,220.000008392334,12|2,3:2|3:2,0:0:0:0:
79,13,614899,2,0,P|112:27|136:91,2,87.9999973144532,2|2|2,3:2|3:2|3:2,0:0:0:0:
16,248,615215,37,10,3:2:0:0:
106,231,615320,1,0,3:3:0:0:
201,213,615426,1,0,3:3:0:0:
294,276,615531,6,0,B|257:282|245:303|245:303|190:226|261:145,1,220.000008392334,4|0,3:2|3:3,0:0:0:0:
430,168,615846,5,10,3:2:0:0:
361,206,615952,1,0,3:3:0:0:
455,242,616057,1,0,3:3:0:0:
389,283,616162,2,0,P|378:315|366:365,2,73.3333333333333,2|0|0,3:2|3:3|3:3,0:0:0:0:
355,125,616478,5,10,3:2:0:0:
246,164,616583,1,0,3:3:0:0:
308,69,616688,1,0,3:3:0:0:
233,86,616794,2,0,P|179:71|129:60,2,87.9999973144532,2|0|0,3:2|3:3|3:3,0:0:0:0:
151,234,617109,38,0,P|142:191|159:152,1,87.9999973144532,10|0,3:2|3:3,0:0:0:0:
244,206,617320,1,0,3:3:0:0:
178,325,617425,2,0,B|219:288|272:311|272:311|271:321|271:321|302:379|380:364,1,220.000008392334,2|0,3:2|3:3,0:0:0:0:
453,286,617741,5,12,3:2:0:0:
379,257,617846,1,0,3:3:0:0:
476,203,617952,1,0,3:3:0:0:
400,180,618057,2,0,P|391:130|384:86,1,87.9999973144532,4|0,3:2|3:3,0:0:0:0:
409,3,618267,1,0,3:3:0:0:
303,58,618373,2,0,B|288:152|288:152|292:159|292:159|275:255,1,175.999994628906,10|0,3:2|3:3,0:0:0:0:
350,340,618688,5,2,3:2:0:0:
324,326,618794,1,0,3:3:0:0:
289,330,618899,1,0,3:3:0:0:
196,273,619004,5,10,3:2:0:0:
138,330,619109,1,0,3:3:0:0:
61,299,619215,1,0,3:3:0:0:
124,216,619320,38,0,P|116:171|106:106,1,87.9999973144532,2|0,3:2|3:3,0:0:0:0:
181,83,619531,1,0,3:3:0:0:
45,54,619636,2,0,B|75:47|99:22|99:22|157:21|224:107,1,175.999994628906,10|0,3:2|3:3,0:0:0:0:
305,133,619952,5,2,3:2:0:0:
301,116,620057,1,0,3:3:0:0:
297,98,620162,1,0,3:3:0:0:
242,193,620267,6,0,P|295:163|338:208,1,131.99999597168,12|0,3:2|3:3,0:0:0:0:
276,280,620478,1,0,3:3:0:0:
147,152,620583,6,0,B|150:205|164:240|164:240|147:282|147:282|164:319|170:395,1,220.000008392334,4|0,3:2|3:3,0:0:0:0:
273,375,620899,37,10,3:2:0:0:
341,337,621004,1,0,3:3:0:0:
245,301,621109,1,0,3:3:0:0:
316,259,621215,6,0,P|325:219|343:150,2,87.9999973144532,2|0|0,3:2|3:3|3:3,0:0:0:0:
187,208,621531,5,10,3:2:0:0:
133,88,621636,1,0,3:3:0:0:
247,157,621741,1,0,3:3:0:0:
225,84,621846,2,0,P|278:63|335:45,2,87.9999973144532,2|0|0,3:2|3:3|3:3,0:0:0:0:
88,28,622162,6,0,P|52:82|77:134,1,87.9999973144532,10|0,3:2|3:3,0:0:0:0:
128,158,622373,1,0,3:3:0:0:
22,217,622478,2,0,P|87:233|137:250,2,87.9999973144532,2|0|0,3:2|3:3|3:3,0:0:0:0:
130,358,622794,37,10,3:2:0:0:
193,294,622899,1,0,3:3:0:0:
279,367,623004,1,0,3:3:0:0:
338,269,623109,6,0,B|308:220|327:153|327:153|356:134|356:134|339:115|313:35,1,220.000008392334,4|0,3:2|3:3,0:0:0:0:
440,17,623425,5,10,3:2:0:0:
436,35,623531,1,0,3:3:0:0:
433,58,623636,1,0,3:3:0:0:
512,119,623741,6,0,P|482:75|429:73,1,110.000004196167,2|0,3:2|3:3,0:0:0:0:
345,139,623952,1,0,3:3:0:0:
391,262,624057,38,0,P|437:228|436:179,1,110.000004196167,10|0,3:2|3:3,0:0:0:0:
351,127,624267,1,0,3:3:0:0:
284,240,624373,5,4,3:2:0:0:
268,236,624478,1,8,2:2:0:0:
251,230,624583,1,8,2:2:0:0:
232,223,624688,1,8,2:2:0:0:
211,217,624794,1,8,2:2:0:0:
131,271,624899,6,0,L|108:151,1,87.9999973144532,8|10,2:2|2:2,0:0:0:0:
287,46,625109,2,0,L|270:132,1,87.9999973144532,8|8,2:2|2:2,0:0:0:0:
33,113,625320,5,10,2:2:0:0:
109,92,625425,1,8,2:2:0:0:
186,72,625531,1,8,2:2:0:0:
275,44,625636,38,0,L|241:232,1,175.999994628906,8|0,2:2|0:0,0:0:0:0:
483,138,625952,6,0,P|452:163|395:140,3,65.9999979858399,4|0|0|0,3:2|0:0|0:0|0:0,0:0:0:0:
429,5,626267,2,0,P|381:246|367:342,1,330.000012588501,4|10,3:2|2:2,0:0:0:0:
246,232,626794,5,8,2:2:0:0:
277,324,626899,1,4,3:2:0:0:
251,304,627004,1,0,3:3:0:0:
212,302,627109,1,0,3:3:0:0:
141,360,627215,6,0,P|178:316|107:231,1,175.999994628906,12|0,2:2|0:0,0:0:0:0:
0,243,627531,2,0,P|160:211|346:178,1,330.000012588501,4|10,3:2|2:2,0:0:0:0:
223,7,628162,37,4,3:2:0:0:
228,15,628267,1,0,0:0:0:0:
236,21,628373,1,0,3:3:0:0:
292,76,628478,5,10,3:2:0:0:
282,88,628583,1,0,3:3:0:0:
269,97,628689,1,0,3:3:0:0:
182,112,628794,5,4,3:2:0:0:
211,134,628899,1,0,3:3:0:0:
223,168,629004,1,0,3:3:0:0:
174,242,629109,5,10,3:2:0:0:
238,189,629215,1,0,3:3:0:0:
333,270,629320,1,0,3:3:0:0:
444,226,629425,37,4,3:2:0:0:
328,170,629531,1,8,2:2:0:0:
424,129,629636,1,8,2:2:0:0:
352,50,629741,1,8,2:2:0:0:
363,45,629846,6,0,L|359:105,2,55.0000020980836,8|8|8,2:3|2:3|2:3,0:0:0:0:
464,355,630057,5,8,2:3:0:0:
445,331,630162,1,8,2:3:0:0:
407,320,630267,1,8,2:3:0:0:
320,367,630373,5,8,2:3:0:0:
262,300,630478,1,8,2:3:0:0:
165,375,630583,1,8,2:3:0:0:
86,341,630688,37,8,2:2:0:0:
150,161,631004,6,0,P|163:182|174:250,3,65.9999979858399,4|0|0|0,3:2|0:0|0:0|0:0,0:0:0:0:
24,49,631320,2,0,P|55:140|188:86,1,263.99999194336,4|10,3:2|2:2,0:0:0:0:
266,13,631846,5,8,2:2:0:0:
300,89,631952,1,4,3:2:0:0:
328,52,632057,1,0,3:3:0:0:
371,38,632162,1,0,3:3:0:0:
416,158,632267,2,0,P|360:141|396:41,1,175.999994628906,12|0,2:2|0:0,0:0:0:0:
512,211,632583,2,0,B|465:171|393:184|376:235|376:235|365:231|365:231|354:295|302:326|237:300,1,330.000012588501,4|10,3:2|2:2,0:0:0:0:
141,232,633109,5,8,2:2:0:0:
113,342,633215,2,0,P|97:304|52:255,2,87.9999973144532,4|0|0,3:2|0:0|3:3,0:0:0:0:
228,191,633531,2,0,P|160:206|128:234,2,87.9999973144532,10|0|0,3:2|3:3|3:3,0:0:0:0:
344,330,633846,2,0,P|287:279|186:303,1,175.999994628906,2|0,3:2|3:3,0:0:0:0:
51,142,634162,37,12,3:2:0:0:
134,200,634267,1,0,3:3:0:0:
142,108,634373,1,0,3:3:0:0:
40,239,634478,5,4,3:2:0:0:
97,303,634583,1,8,2:2:0:0:
179,287,634688,1,8,2:2:0:0:
316,193,634794,5,8,2:2:0:0:
230,188,634899,2,0,L|208:129,1,43.9999986572266,8|8,2:3|2:3,0:0:0:0:
183,257,635004,1,8,2:3:0:0:
256,338,635109,5,8,2:3:0:0:
269,343,635215,1,8,2:3:0:0:
284,349,635320,1,8,2:3:0:0:
394,362,635425,37,8,2:3:0:0:
345,296,635531,1,8,2:3:0:0:
412,219,635636,1,8,2:3:0:0:
366,125,635741,6,0,B|282:75|190:125|297:253|25:223|53:76,1,293.333333333333,4|0,3:2|3:3,0:0:0:0:
42,35,636056,5,10,3:2:0:0:
73,46,636161,1,0,3:3:0:0:
103,58,636267,1,0,3:3:0:0:
3,129,636372,6,0,P|16:185|31:264,1,110.000004196167,2|0,3:2|3:3,0:0:0:0:
175,89,636583,1,0,3:3:0:0:
239,166,636688,38,0,B|266:185|277:211|217:284|141:233|203:106|34:201,1,220.000008392334,10|0,3:2|3:3,0:0:0:0:
26,236,637004,5,2,3:2:0:0:
48,247,637109,1,0,3:3:0:0:
77,259,637214,1,0,3:3:0:0:
60,362,637319,6,0,P|114:345|168:330,1,110.000004196167,10|0,3:2|3:3,0:0:0:0:
239,166,637530,1,0,3:3:0:0:
159,235,637635,6,0,B|200:243|239:258|239:258|280:244|280:244|330:261|388:271,1,220.000008392334,2|0,3:2|3:3,0:0:0:0:
481,142,637951,37,10,3:2:0:0:
388,150,638057,1,0,3:3:0:0:
442,78,638162,1,0,3:3:0:0:
333,29,638267,6,0,B|294:7|256:47|256:47|295:93|295:93|285:161|285:161|316:199|326:280,1,293.333333333333,2|0,3:2|3:3,0:0:0:0:
406,331,638583,5,10,3:2:0:0:
390,323,638688,1,0,3:3:0:0:
369,313,638793,1,0,3:3:0:0:
265,358,638898,5,2,3:2:0:0:
146,318,639004,1,0,3:3:0:0:
234,266,639109,1,0,3:3:0:0:
133,342,639214,38,0,L|101:90,1,220.000008392334,10|0,3:2|3:3,0:0:0:0:
0,49,639530,6,0,B|15:92|76:111|121:75|121:75|123:67|123:67|161:32|242:30|280:139,1,293.333333333333,4|0,3:2|3:3,0:0:0:0:
278,196,639846,5,10,3:2:0:0:
250,185,639951,1,0,3:3:0:0:
218,173,640056,1,0,3:3:0:0:
332,115,640162,6,0,P|413:96|479:80,1,110.000004196167,2|0,3:2|3:3,0:0:0:0:
280,302,640372,1,0,3:3:0:0:
258,205,640477,38,0,B|371:235|371:235|374:231|374:231|433:297|360:347,1,220.000008392334,10|0,3:2|3:3,0:0:0:0:
281,384,640793,5,2,3:2:0:0:
273,353,640898,1,0,3:3:0:0:
268,322,641004,1,0,3:3:0:0:
184,262,641109,6,0,P|161:356|166:362,1,110.000004196167,10|0,3:2|3:3,0:0:0:0:
32,120,641319,1,0,3:3:0:0:
0,221,641425,6,0,P|166:169|272:131,1,220.000008392334,2|0,3:2|3:3,0:0:0:0:
365,37,641741,37,10,3:2:0:0:
336,121,641846,1,0,3:3:0:0:
267,61,641951,1,0,3:3:0:0:
300,193,642056,6,0,B|345:213|382:199|382:199|379:194|379:194|396:163|450:141|450:141|452:184|452:184|494:210|521:262,1,293.333333333333,2|0,3:2|3:3,0:0:0:0:
473,332,642372,5,10,3:2:0:0:
438,342,642477,1,0,3:3:0:0:
406,353,642583,1,0,3:3:0:0:
292,372,642688,5,2,3:2:0:0:
334,285,642793,1,0,3:3:0:0:
240,252,642898,1,0,3:3:0:0:
284,149,643004,38,0,B|155:130|209:258|20:216,1,220.000008392334,10|0,3:2|3:3,0:0:0:0:
19,337,643319,6,0,B|31:320|62:290|62:290|13:117|13:117|29:152|97:165,1,293.333333333333,4|0,3:2|3:3,0:0:0:0:
150,45,643635,5,10,3:2:0:0:
125,57,643741,1,0,3:3:0:0:
96,71,643846,1,0,3:3:0:0:
181,142,643951,6,0,P|168:211|157:270,1,110.000004196167,2|0,3:2|3:3,0:0:0:0:
286,384,644162,1,0,3:3:0:0:
166,347,644267,38,0,B|228:342|251:292|251:292|248:283|248:283|340:273|370:361,1,220.000008392334,10|0,3:2|3:3,0:0:0:0:
455,243,644583,5,2,3:2:0:0:
423,233,644688,1,0,3:3:0:0:
398,222,644793,1,0,3:3:0:0:
415,135,644898,6,0,P|358:132|322:181,1,110.000004196167,10|0,3:2|3:3,0:0:0:0:
191,332,645109,1,0,3:3:0:0:
289,364,645214,6,0,P|261:257|231:151,1,220.000008392334,2|0,3:2|3:3,0:0:0:0:
127,43,645530,37,10,3:2:0:0:
34,67,645635,1,0,3:3:0:0:
119,127,645741,1,0,3:3:0:0:
30,229,645846,6,0,B|87:208|132:207|132:207|176:244|176:244|238:222|238:222|247:247|271:337,1,293.333333333333,2|0,3:2|3:3,0:0:0:0:
358,373,646162,5,10,3:2:0:0:
365,342,646267,1,0,3:3:0:0:
374,310,646372,1,0,3:3:0:0:
449,231,646477,5,2,3:2:0:0:
358,182,646583,1,0,3:3:0:0:
465,126,646688,1,0,3:3:0:0:
339,199,646793,38,0,B|325:165|305:145|305:145|316:110|344:84|344:84|347:3|347:3|302:64|212:109,1,293.333333333333,10|0,3:2|3:3,0:0:0:0:
200,160,647109,6,0,B|257:110|182:33|41:65|190:191|26:218|-65:100,1,293.333333333333,4|0,3:2|3:3,0:0:0:0:
14,25,647424,5,10,3:2:0:0:
27,53,647530,1,0,3:3:0:0:
38,80,647635,1,0,3:3:0:0:
109,164,647741,6,0,P|87:259|80:315,1,110.000004196167,2|0,3:2|3:3,0:0:0:0:
256,384,647951,1,0,3:3:0:0:
268,285,648056,38,0,B|214:294|176:315|176:315|156:342|156:342|102:357|54:371,1,220.000008392334,10|0,3:2|3:3,0:0:0:0:
0,243,648372,5,2,3:2:0:0:
28,252,648477,1,0,3:3:0:0:
57,263,648583,1,0,3:3:0:0:
133,183,648688,6,0,P|127:237|183:281,2,110.000004196167,10|0|0,3:2|3:3|3:3,0:0:0:0:
9,83,649004,5,4,3:2:0:0:
19,119,649111,1,8,2:3:0:0:
45,144,649219,1,8,2:3:0:0:
206,134,649326,37,8,2:2:0:0:
130,83,649434,1,8,2:2:0:0:
63,135,649541,1,8,2:2:0:0:
93,218,649649,2,0,P|167:232|275:257,1,146.666666666667,2|0,3:2|0:0,0:0:0:0:
363,357,649971,5,2,3:2:0:0:
381,279,650074,1,8,2:2:0:0:
321,229,650177,1,8,2:2:0:0:
280,318,650280,5,8,2:2:0:0:
373,288,650383,1,8,2:2:0:0:
413,198,650486,1,8,2:2:0:0:
509,232,650589,2,0,P|422:240|235:283,1,220.000008392334,2|0,3:2|0:0,0:0:0:0:
218,43,650898,5,2,3:2:0:0:
239,29,651003,1,8,2:2:0:0:
271,22,651108,1,8,2:2:0:0:
322,30,651213,1,8,2:2:0:0:
376,76,651319,1,8,2:2:0:0:
403,150,651424,1,8,2:2:0:0:
382,229,651529,1,8,2:2:0:0:
78,335,652476,37,8,2:2:0:0:
105,356,652582,1,8,2:2:0:0:
140,352,652687,1,8,2:2:0:0:
162,246,652792,5,8,2:2:0:0:
138,256,652898,1,8,2:2:0:0:
125,278,653003,1,8,2:2:0:0:
213,310,653108,5,8,2:2:0:0:
100,58,654055,5,8,2:2:0:0:
87,65,654161,1,8,2:2:0:0:
73,78,654266,1,8,2:2:0:0:
15,143,654371,37,8,2:2:0:0:
22,156,654477,1,8,2:2:0:0:
35,170,654582,1,8,2:2:0:0:
124,165,654687,6,0,B|156:127|209:142|222:172|222:172|228:172|228:172|234:209|264:229|321:222,1,220.000008392334,4|0,3:2|0:0,0:0:0:0:
401,115,655003,5,8,2:2:0:0:
477,156,655108,1,8,2:2:0:0:
454,239,655213,1,8,2:2:0:0:
377,196,655319,1,2,3:2:0:0:
275,365,655634,6,0,B|304:421|401:347|342:249|233:235,1,220.000008392334,4|0,3:2|0:0,0:0:0:0:
193,201,655950,1,8,2:2:0:0:
122,231,656055,1,8,2:2:0:0:
100,306,656161,1,8,2:2:0:0:
143,374,656266,1,2,3:2:0:0:
128,383,656582,38,0,P|80:283|224:207,1,220.000008392334,4|0,3:2|0:0,0:0:0:0:
252,169,656898,5,8,2:3:0:0:
286,180,656976,1,8,2:3:0:0:
306,214,657055,1,0,3:3:0:0:
302,253,657134,1,0,3:3:0:0:
278,278,657213,2,0,P|264:151|270:14,1,247.500009441376,10|0,2:2|0:0,0:0:0:0:
337,0,657529,6,0,P|419:15|405:134,1,220.000008392334,4|0,3:2|0:0,0:0:0:0:
333,160,657845,5,8,2:3:0:0:
314,143,657924,1,8,2:3:0:0:
290,134,658003,1,0,3:3:0:0:
265,135,658082,1,0,3:3:0:0:
243,146,658161,1,10,2:2:0:0:
186,377,658476,37,4,3:2:0:0:
161,365,658582,1,8,2:2:0:0:
138,331,658687,1,8,2:2:0:0:
145,274,658792,1,8,2:2:0:0:
198,220,658898,1,8,2:2:0:0:
278,216,659003,1,8,2:2:0:0:
338,270,659108,1,8,2:2:0:0:
505,90,660055,5,8,2:2:0:0:
489,71,660161,1,8,2:2:0:0:
467,61,660266,1,8,2:2:0:0:
416,118,660371,5,8,2:2:0:0:
391,116,660477,1,8,2:2:0:0:
368,124,660582,1,8,2:2:0:0:
329,189,660687,5,8,2:2:0:0:
325,384,661634,37,8,2:2:0:0:
354,359,661740,1,8,2:2:0:0:
349,320,661845,1,8,2:2:0:0:
272,296,661950,5,8,2:2:0:0:
243,271,662056,1,8,2:2:0:0:
248,232,662161,1,8,2:2:0:0:
312,179,662266,6,0,P|316:220|147:262,1,247.500009441376,4|0,3:2|0:0,0:0:0:0:
125,206,662582,1,8,2:2:0:0:
113,130,662687,1,8,2:2:0:0:
104,55,662792,1,8,2:2:0:0:
32,11,662898,5,2,3:2:0:0:
27,24,663213,38,0,B|84:-1|129:38|129:38|142:32|142:32|181:108|303:84,1,220.000008392334,4|0,3:2|0:0,0:0:0:0:
318,20,663529,1,8,2:3:0:0:
354,14,663608,1,8,2:3:0:0:
393,27,663687,1,8,2:3:0:0:
413,69,663766,1,8,2:3:0:0:
403,112,663845,2,0,P|341:153|372:285,1,220.000008392334,4|0,3:2|0:0,0:0:0:0:
496,277,664161,6,0,B|534:239|534:239|428:202|327:337,1,220.000008392334,4|0,3:2|0:0,0:0:0:0:
317,344,664476,1,8,2:3:0:0:
293,364,664555,1,8,2:3:0:0:
259,365,664634,1,8,2:3:0:0:
236,346,664713,1,8,2:3:0:0:
231,319,664792,2,0,B|205:243|95:231|95:231|68:259|59:296,1,220.000008392334,4|0,3:2|0:0,0:0:0:0:
70,384,665108,6,0,B|82:279|82:279|85:276|85:276|104:106,1,220.000008392334,4|0,3:2|0:0,0:0:0:0:
174,50,665424,1,8,2:3:0:0:
220,66,665503,1,8,2:3:0:0:
247,109,665582,1,0,3:3:0:0:
243,155,665661,1,0,3:3:0:0:
210,191,665740,2,0,B|156:235|168:332|168:332|216:255|311:272,1,220.000008392334,12|0,2:2|0:0,0:0:0:0:
330,225,666055,5,8,2:2:0:0:
333,270,666161,1,8,2:2:0:0:
375,304,666266,1,8,2:2:0:0:
446,304,666371,1,8,2:2:0:0:
504,249,666476,1,8,2:2:0:0:
500,164,666582,1,8,2:2:0:0:
422,118,666687,1,8,2:2:0:0:
191,292,667003,38,0,P|235:282|359:255,1,146.666666666667
411,193,667634,5,8,2:2:0:0:
392,175,667740,1,8,2:2:0:0:
362,168,667845,1,8,2:2:0:0:
451,102,667950,5,8,2:2:0:0:
426,145,668055,1,8,2:2:0:0:
378,157,668161,1,8,2:2:0:0:
291,93,668266,5,8,2:2:0:0:
497,82,668898,38,0,P|468:76|439:70,1,58.6666666666667
341,120,669213,5,8,2:2:0:0:
360,146,669319,1,8,2:2:0:0:
371,177,669424,1,8,2:2:0:0:
452,241,669529,5,8,2:2:0:0:
458,200,669635,1,8,2:2:0:0:
483,165,669740,1,8,2:2:0:0:
472,276,669845,6,0,B|425:262|384:261|384:261|344:274|344:274|299:264|224:258,1,220.000008392334,4|0,3:2|0:0,0:0:0:0:
92,185,670161,37,8,2:2:0:0:
43,105,670266,1,8,2:2:0:0:
134,92,670371,1,8,2:2:0:0:
189,171,670476,1,2,3:2:0:0:
175,192,670792,6,0,B|133:244|151:344|151:344|162:305|229:288,1,220.000008392334,4|0,3:2|0:0,0:0:0:0:
284,210,671108,5,8,2:2:0:0:
272,190,671187,1,8,2:2:0:0:
265,173,671266,1,8,2:2:0:0:
262,154,671345,1,8,2:2:0:0:
263,134,671424,1,2,3:2:0:0:
244,107,671740,6,0,B|310:59|310:59|380:74|461:130,1,220.000008392334,4|0,3:2|0:0,0:0:0:0:
489,201,672055,37,8,2:3:0:0:
446,202,672134,1,8,2:3:0:0:
417,232,672213,1,0,3:3:0:0:
419,261,672292,1,0,3:3:0:0:
430,276,672371,1,10,2:2:0:0:
451,262,672687,6,0,B|402:302|326:281|300:238|300:238|346:223|388:130,1,220.000008392334,4|0,3:2|0:0,0:0:0:0:
380,112,673003,5,8,2:3:0:0:
401,122,673082,1,8,2:3:0:0:
413,134,673161,1,0,3:3:0:0:
419,146,673240,1,0,3:3:0:0:
424,165,673319,6,0,P|401:249|389:315,2,110.000004196167,10|0|0,2:2|0:0|0:0,0:0:0:0:
466,56,673634,37,4,3:2:0:0:
426,29,673740,1,8,2:2:0:0:
367,38,673845,1,8,2:2:0:0:
321,100,673950,1,8,2:2:0:0:
259,159,674055,1,8,2:2:0:0:
168,145,674161,1,8,2:2:0:0:
122,66,674266,1,8,2:2:0:0:
12,285,674582,6,0,P|78:267|168:250,1,146.666666666667
232,304,675213,5,8,2:2:0:0:
258,276,675319,1,8,2:2:0:0:
293,273,675424,1,8,2:2:0:0:
290,379,675529,5,8,2:2:0:0:
323,338,675634,1,8,2:2:0:0:
312,284,675740,1,8,2:2:0:0:
368,205,675845,37,8,2:2:0:0:
64,1,676476,6,0,P|79:62|81:78,1,58.6666666666667
8,103,676792,5,8,2:2:0:0:
30,135,676898,1,8,2:2:0:0:
66,147,677003,1,8,2:2:0:0:
157,217,677108,5,8,2:2:0:0:
102,222,677214,1,8,2:2:0:0:
73,270,677319,1,8,2:2:0:0:
199,290,677424,38,0,B|181:193|181:193|181:178|181:178|160:54,1,220.000008392334,4|0,3:2|0:0,0:0:0:0:
279,0,677740,5,8,2:2:0:0:
320,72,677845,1,8,2:2:0:0:
265,135,677950,1,8,2:2:0:0:
307,206,678055,1,2,3:2:0:0:
293,226,678371,6,0,B|343:189|394:223|394:223|400:216|400:216|428:296|567:256,1,220.000008392334,4|0,3:2|0:0,0:0:0:0:
340,309,678687,5,8,2:2:0:0:
320,311,678766,1,8,2:2:0:0:
296,319,678845,1,8,2:2:0:0:
270,337,678924,1,8,2:2:0:0:
257,361,679003,1,4,3:2:0:0:
227,376,679319,38,0,B|202:344|162:342|162:342|144:266|210:190,1,220.000008392334,4|0,3:2|0:0,0:0:0:0:
127,138,679634,5,8,2:2:0:0:
160,126,679713,1,8,2:2:0:0:
194,116,679792,1,8,2:2:0:0:
225,109,679871,1,8,2:2:0:0:
254,101,679950,1,4,3:2:0:0:
265,76,680266,6,0,B|420:116|420:116|373:126|343:186,1,220.000008392334,4|0,3:2|0:0,0:0:0:0:
383,282,680582,5,8,2:2:0:0:
360,235,680661,1,8,2:2:0:0:
316,209,680740,1,8,2:2:0:0:
266,212,680819,1,8,2:2:0:0:
227,247,680898,37,8,2:3:0:0:
231,263,680976,1,8,2:3:0:0:
236,276,681055,1,8,2:3:0:0:
241,291,681134,1,8,2:3:0:0:
247,309,681213,5,8,2:2:0:0:
208,344,681292,1,8,2:2:0:0:
158,347,681371,1,8,2:2:0:0:
114,321,681450,1,8,2:2:0:0:
91,274,681529,5,8,2:3:0:0:
107,259,681608,1,8,2:3:0:0:
125,247,681687,1,12,2:2:0:0:
146,239,681766,1,8,2:3:0:0:
173,236,681845,2,0,P|153:322|153:333,3,60.5000018463135,8|8|0|0,2:3|2:3|0:0|3:3,0:0:0:0:
315,383,682161,6,0,P|294:253|264:108,1,247.500009441376,6|0,2:2|0:0,0:0:0:0:
122,38,682476,1,2,3:2:0:0:
68,76,682555,1,0,1:1:0:0:
69,142,682634,1,0,3:3:0:0:
122,180,682713,1,0,1:1:0:0:
187,171,682792,1,2,3:2:0:0:
219,113,682871,1,0,1:1:0:0:
283,97,682950,1,0,3:3:0:0:
343,123,683029,1,0,1:1:0:0:
353,188,683108,37,2,3:2:0:0:
284,159,683187,1,0,1:1:0:0:
273,85,683266,1,0,3:3:0:0:
317,25,683345,1,0,1:1:0:0:
391,21,683424,1,2,3:2:0:0:
447,68,683503,1,0,1:1:0:0:
450,142,683582,1,0,3:3:0:0:
409,204,683661,1,0,1:1:0:0:
340,232,683740,2,0,P|311:195|269:173,1,82.5000031471254,2|0,3:2|1:1,0:0:0:0:
209,31,683898,2,0,P|180:68|138:90,1,82.5000031471254,0|0,3:3|1:1,0:0:0:0:
138,328,684055,5,2,3:2:0:0:
199,305,684134,1,0,1:1:0:0:
214,240,684213,1,0,3:3:0:0:
177,184,684292,1,0,1:1:0:0:
112,168,684371,2,0,P|58:197|33:245,3,65.9999979858399,2|0|0|0,3:2|1:1|3:3|1:1,0:0:0:0:
145,338,684687,2,0,P|178:341|208:356,3,65.9999979858399,2|0|0|0,3:2|1:1|3:3|1:1,0:0:0:0:
349,360,685003,5,4,3:2:0:0:
394,345,685082,1,0,1:1:0:0:
410,299,685161,1,0,3:3:0:0:
389,255,685240,1,0,1:1:0:0:
343,239,685319,1,2,3:2:0:0:
328,192,685398,1,0,1:1:0:0:
351,150,685476,1,0,3:3:0:0:
398,140,685555,1,0,1:1:0:0:
436,168,685634,1,2,3:2:0:0:
438,216,685713,1,0,1:1:0:0:
400,245,685792,1,0,3:3:0:0:
351,239,685871,1,0,1:1:0:0:
324,199,685950,5,2,3:2:0:0:
288,237,686029,1,0,1:1:0:0:
235,242,686108,1,0,3:3:0:0:
195,206,686187,1,0,1:1:0:0:
155,170,686266,1,2,3:2:0:0:
102,168,686345,1,0,1:1:0:0:
58,198,686424,1,0,3:3:0:0:
46,249,686503,1,0,1:1:0:0:
69,296,686582,1,2,3:2:0:0:
120,308,686661,1,0,1:1:0:0:
166,283,686740,1,0,3:3:0:0:
190,236,686819,1,0,1:1:0:0:
182,183,686898,37,2,3:2:0:0:
131,212,686976,1,0,1:1:0:0:
117,269,687055,1,0,3:3:0:0:
135,325,687134,1,0,1:1:0:0:
182,360,687213,5,2,3:2:0:0:
207,306,687292,1,0,1:1:0:0:
261,281,687371,1,0,3:3:0:0:
318,295,687450,1,0,1:1:0:0:
348,346,687529,6,0,P|357:312|392:263,1,65.9999979858399,4|0,3:2|1:1,0:0:0:0:
512,224,687687,2,0,P|473:262|426:277,1,65.9999979858399,0|0,3:3|1:1,0:0:0:0:
343,141,687845,5,4,3:2:0:0:
320,117,687924,1,0,1:1:0:0:
315,84,688003,1,0,3:3:0:0:
330,54,688082,1,0,1:1:0:0:
357,38,688161,37,2,3:2:0:0:
311,64,688240,1,0,1:1:0:0:
258,69,688319,1,0,3:3:0:0:
210,46,688398,1,0,1:1:0:0:
184,7,688476,5,2,3:2:0:0:
190,4,688555,1,0,1:1:0:0:
195,10,688634,1,0,3:3:0:0:
192,19,688713,1,0,1:1:0:0:
184,21,688792,5,2,3:2:0:0:
142,42,688871,1,0,1:1:0:0:
115,79,688950,1,0,3:3:0:0:
109,124,689029,1,0,1:1:0:0:
124,167,689108,5,2,3:2:0:0:
174,182,689187,1,0,1:1:0:0:
206,223,689266,1,0,3:3:0:0:
214,275,689345,1,0,1:1:0:0:
200,326,689424,38,0,P|183:302|142:263,1,65.9999979858399,2|0,3:2|1:1,0:0:0:0:
96,179,689582,2,0,P|79:203|38:242,1,65.9999979858399,0|0,3:3|1:1,0:0:0:0:
258,372,689740,5,2,3:2:0:0:
325,384,689819,1,0,1:1:0:0:
387,350,689898,1,0,3:3:0:0:
411,285,689976,1,0,1:1:0:0:
389,216,690055,5,2,3:2:0:0:
340,176,690134,1,0,1:1:0:0:
333,120,690213,1,0,3:3:0:0:
367,68,690292,1,0,1:1:0:0:
427,59,690371,5,2,3:2:0:0:
436,65,690450,1,0,1:1:0:0:
432,75,690529,1,0,3:3:0:0:
423,77,690608,1,0,1:1:0:0:
414,64,690687,37,4,3:2:0:0:
459,91,690766,1,0,1:1:0:0:
479,139,690845,1,0,3:3:0:0:
470,191,690924,1,0,1:1:0:0:
434,229,691003,1,2,3:2:0:0:
382,242,691082,1,0,1:1:0:0:
331,225,691161,2,0,P|313:193|273:167,1,65.9999979858399,0|0,3:3|1:1,0:0:0:0:
219,316,691319,2,0,P|243:254|229:216,3,65.9999979858399,2|0|0|0,3:2|1:1|3:3|1:1,0:0:0:0:
188,27,691634,5,4,2:2:0:0:
137,69,691713,1,8,2:2:0:0:
103,126,691792,1,8,2:2:0:0:
86,190,691871,1,8,2:2:0:0:
95,251,691950,5,8,2:2:0:0:
107,258,692029,1,8,2:2:0:0:
121,246,692108,2,0,P|103:212|50:206,1,65.9999979858399,2|8,3:2|2:3,0:0:0:0:
52,375,692266,2,0,P|92:334|147:314,1,65.9999979858399,8|8,2:2|2:2,0:0:0:0:
216,241,692424,2,0,P|256:282|311:302,1,65.9999979858399,8|8,2:2|2:2,0:0:0:0:
393,358,692582,5,4,3:2:0:0:
451,347,692661,1,8,2:2:0:0:
479,295,692740,1,8,2:2:0:0:
461,238,692819,1,8,2:2:0:0:
413,210,692898,1,8,2:3:0:0:
391,166,692976,1,8,2:3:0:0:
399,129,693055,1,8,2:3:0:0:
426,124,693134,1,8,2:3:0:0:
436,138,693213,1,8,2:3:0:0:
427,155,693292,1,8,2:3:0:0:
417,163,693371,2,0,P|388:138|382:79,1,65.9999979858399,0|0,3:3|3:3,0:0:0:0:
503,6,693529,38,0,P|437:80|341:97,1,197.99999395752,4|0,3:2|3:3,0:0:0:0:
269,19,693862,5,10,3:2:0:0:
226,15,693938,1,0,3:3:0:0:
181,31,694015,1,2,3:2:0:0:
156,70,694092,1,0,3:3:0:0:
153,115,694169,5,10,3:2:0:0:
182,121,694246,1,0,3:3:0:0:
214,135,694323,1,2,3:2:0:0:
237,161,694400,1,0,3:3:0:0:
246,192,694477,6,0,P|233:235|222:301,1,65.9999979858399,10|0,3:2|3:3,0:0:0:0:
44,107,694634,2,0,P|57:150|68:216,1,65.9999979858399,2|0,3:2|3:3,0:0:0:0:
243,31,694792,37,10,3:2:0:0:
269,72,694871,1,0,3:3:0:0:
314,88,694950,1,2,3:2:0:0:
362,76,695029,1,0,3:3:0:0:
389,34,695108,2,0,P|346:18|324:10,1,65.9999979858399,10|0,3:2|3:3,0:0:0:0:
246,192,695266,2,0,P|289:176|311:168,1,65.9999979858399,2|0,3:2|3:3,0:0:0:0:
193,0,695424,6,0,P|215:70|225:104,1,65.9999979858399,10|0,3:2|3:3,0:0:0:0:
393,214,695582,1,2,3:2:0:0:
419,165,695661,1,0,3:3:0:0:
402,110,695740,1,10,3:2:0:0:
362,80,695819,1,0,3:3:0:0:
312,82,695898,1,2,3:2:0:0:
277,115,695977,1,0,3:3:0:0:
272,160,696055,2,0,P|282:194|295:248,3,65.9999979858399,10|0|0|0,3:2|3:3|3:3|3:3,0:0:0:0:
78,152,696371,5,12,3:2:0:0:
116,183,696450,1,0,3:3:0:0:
141,230,696529,1,0,3:3:0:0:
130,281,696608,1,0,3:3:0:0:
96,323,696687,5,10,3:2:0:0:
81,284,696766,1,0,3:3:0:0:
88,242,696845,1,2,3:2:0:0:
121,215,696924,1,0,3:3:0:0:
160,209,697003,37,10,3:2:0:0:
168,242,697082,1,0,3:3:0:0:
186,267,697161,1,2,3:2:0:0:
207,280,697240,1,0,3:3:0:0:
233,289,697319,6,0,P|281:273|334:255,1,65.9999979858399,10|0,3:2|3:3,0:0:0:0:
372,180,697477,2,0,P|420:196|473:214,1,65.9999979858399,2|0,3:2|3:3,0:0:0:0:
246,53,697634,5,10,3:2:0:0:
274,80,697713,1,0,3:3:0:0:
289,117,697792,1,2,3:2:0:0:
288,157,697871,1,0,3:3:0:0:
269,191,697950,6,0,P|222:202|183:229,1,65.9999979858399,10|0,3:2|3:3,0:0:0:0:
56,72,698108,2,0,P|113:83|148:110,1,65.9999979858399,2|0,3:2|3:3,0:0:0:0:
104,281,698266,37,8,3:2:0:0:
99,256,698345,1,2,3:2:0:0:
94,231,698424,2,0,L|77:147,1,65.9999979858399,2|0,3:2|3:3,0:0:0:0:
242,60,698582,5,8,3:2:0:0:
238,86,698661,1,2,3:2:0:0:
232,110,698740,2,0,L|214:190,1,65.9999979858399,2|0,3:2|3:3,0:0:0:0:
366,268,698898,5,8,3:2:0:0:
361,242,698977,1,2,3:2:0:0:
356,218,699056,2,0,L|339:137,1,65.9999979858399,2|0,3:2|3:3,0:0:0:0:
492,19,699213,5,12,3:2:0:0:
438,13,699292,1,0,3:3:0:0:
406,57,699371,1,0,3:3:0:0:
412,105,699450,1,0,3:3:0:0:
445,135,699529,1,10,3:2:0:0:
488,149,699608,1,0,3:3:0:0:
512,190,699687,1,2,3:2:0:0:
502,230,699766,1,0,3:3:0:0:
472,256,699845,38,0,P|422:238|387:226,1,65.9999979858399,10|0,3:2|3:3,0:0:0:0:
335,348,700003,2,0,P|408:324|436:316,1,65.9999979858399,2|0,3:2|3:3,0:0:0:0:
298,153,700161,5,10,3:2:0:0:
318,190,700240,1,0,3:3:0:0:
311,225,700319,1,2,3:2:0:0:
288,255,700398,1,0,3:3:0:0:
253,261,700476,1,10,3:2:0:0:
218,250,700555,1,0,3:3:0:0:
199,223,700634,2,0,P|205:190|213:158,1,65.9999979858399,0|0,3:3|3:3,0:0:0:0:
178,49,700792,5,8,3:2:0:0:
149,29,700871,1,2,3:2:0:0:
118,28,700950,1,0,3:3:0:0:
94,42,701029,1,0,3:3:0:0:
82,60,701108,6,0,P|92:112|118:136,1,65.9999979858399,12|0,3:2|3:3,0:0:0:0:
299,163,701267,1,2,3:2:0:0:
256,132,701347,1,0,3:3:0:0:
206,150,701427,1,8,3:2:0:0:
182,191,701506,1,0,3:3:0:0:
152,227,701586,1,0,3:3:0:0:
116,234,701666,1,0,3:3:0:0:
77,222,701746,38,0,P|93:154|102:117,1,65.9999979858399,12|0,3:2|3:3,0:0:0:0:
216,286,701905,2,0,P|208:253|200:221,1,65.9999979858399,0|0,3:3|3:3,0:0:0:0:
28,380,702065,5,12,3:2:0:0:
51,337,702145,1,0,3:3:0:0:
99,323,702225,1,0,3:3:0:0:
144,334,702304,1,0,3:3:0:0:
175,364,702384,1,10,3:2:0:0:
212,384,702464,1,0,3:3:0:0:
254,377,702544,1,2,3:2:0:0:
274,345,702623,1,0,3:3:0:0:
270,310,702703,2,0,P|241:294|208:287,3,65.9999979858399,12|0|0|0,3:2|3:3|3:3|3:3,0:0:0:0:
413,374,703022,5,12,3:2:0:0:
369,343,703100,1,0,3:3:0:0:
358,296,703178,1,0,3:3:0:0:
377,253,703256,1,0,3:3:0:0:
414,233,703334,1,2,3:2:0:0:
463,237,703412,1,0,3:3:0:0:
491,269,703490,2,0,P|471:314|462:347,1,65.9999979858399,2|0,3:2|3:3,0:0:0:0:
300,174,703647,5,12,2:2:0:0:
351,152,703725,1,8,2:2:0:0:
406,130,703803,2,0,L|503:157,1,65.9999979858399,2|8,3:2|2:2,0:0:0:0:
294,364,703959,37,8,2:2:0:0:
282,307,704037,1,8,2:2:0:0:
271,248,704115,1,8,2:2:0:0:
264,192,704193,1,8,2:2:0:0:
253,136,704272,5,8,2:3:0:0:
220,127,704350,1,8,2:3:0:0:
185,136,704428,1,8,2:3:0:0:
165,162,704506,1,8,2:3:0:0:
165,196,704584,2,0,P|237:219|258:231,3,65.9999979858399,8|8|0|0,2:3|2:3|3:3|3:3,0:0:0:0:
370,285,704898,6,0,P|405:291|438:119,1,247.500009441376,4|0,3:2|0:0,0:0:0:0:
356,27,705213,1,2,3:2:0:0:
287,51,705292,1,0,1:1:0:0:
252,116,705371,1,0,3:3:0:0:
201,170,705450,1,0,1:1:0:0:
126,175,705529,1,2,3:2:0:0:
68,128,705608,1,0,1:1:0:0:
75,53,705687,1,0,3:3:0:0:
141,15,705766,1,0,1:1:0:0:
217,26,705845,6,0,P|177:190|142:388,1,330,2|0,3:2|1:1,0:0:0:0:
69,367,706161,2,0,P|43:340|14:319,1,65.9999979858399,2|0,3:2|1:1,0:0:0:0:
287,215,706319,2,0,P|261:242|232:263,1,65.9999979858399,0|0,3:3|1:1,0:0:0:0:
376,364,706476,37,2,3:2:0:0:
384,363,706555,1,0,1:1:0:0:
383,355,706634,1,0,3:3:0:0:
371,355,706713,1,0,1:1:0:0:
376,358,706792,5,2,3:2:0:0:
412,320,706871,1,0,1:1:0:0:
417,260,706950,1,0,3:3:0:0:
384,208,707029,1,0,1:1:0:0:
324,182,707108,5,4,3:2:0:0:
303,130,707187,1,0,1:1:0:0:
330,81,707266,1,0,3:3:0:0:
386,73,707345,1,0,1:1:0:0:
424,107,707424,5,2,3:2:0:0:
388,131,707503,1,0,1:1:0:0:
347,116,707582,1,0,3:3:0:0:
335,74,707661,1,0,1:1:0:0:
351,36,707740,37,4,3:2:0:0:
374,83,707819,1,0,1:1:0:0:
361,134,707898,1,0,3:3:0:0:
322,168,707976,1,0,1:1:0:0:
270,180,708055,1,2,3:2:0:0:
219,163,708134,1,0,1:1:0:0:
187,120,708213,1,0,3:3:0:0:
141,92,708292,1,0,1:1:0:0:
88,94,708371,1,2,3:2:0:0:
49,130,708450,1,0,1:1:0:0:
42,182,708529,1,0,3:3:0:0:
67,228,708608,1,0,1:1:0:0:
116,246,708687,5,4,3:2:0:0:
164,211,708766,1,0,1:1:0:0:
223,213,708845,1,0,3:3:0:0:
263,256,708924,1,0,1:1:0:0:
269,315,709003,1,2,3:2:0:0:
237,365,709082,1,0,1:1:0:0:
178,374,709161,1,0,3:3:0:0:
139,328,709240,1,0,1:1:0:0:
158,271,709319,1,2,3:2:0:0:
209,242,709398,1,0,1:1:0:0:
267,243,709476,1,0,3:3:0:0:
314,278,709555,1,0,1:1:0:0:
339,331,709634,6,0,P|368:290|396:267,3,65.9999979858399,4|0|0|0,3:2|1:1|3:3|1:1,0:0:0:0:
512,222,709950,5,4,3:2:0:0:
502,237,710029,1,0,1:1:0:0:
483,245,710108,2,0,P|465:237|439:193,1,65.9999979858399,0|0,3:3|1:1,0:0:0:0:
414,43,710266,1,2,3:2:0:0:
436,37,710345,1,0,1:1:0:0:
461,47,710424,2,0,P|476:75|470:116,1,65.9999979858399,0|0,3:3|1:1,0:0:0:0:
362,234,710582,37,4,3:2:0:0:
293,216,710661,1,0,1:1:0:0:
252,157,710740,1,0,3:3:0:0:
253,86,710819,1,0,1:1:0:0:
220,23,710898,1,4,3:2:0:0:
154,0,710976,1,0,1:1:0:0:
86,18,711055,1,0,3:3:0:0:
52,79,711134,1,0,1:1:0:0:
66,147,711213,2,0,P|90:182|109:229,1,65.9999979858399,2|0,3:2|1:1,0:0:0:0:
190,340,711371,2,0,P|204:310|224:283,1,65.9999979858399,0|0,3:3|1:1,0:0:0:0:
377,100,711529,5,4,3:2:0:0:
444,115,711608,1,0,1:1:0:0:
485,171,711687,1,0,3:3:0:0:
483,235,711766,1,0,1:1:0:0:
445,289,711845,5,2,3:2:0:0:
399,256,711924,1,0,1:1:0:0:
344,248,712003,1,0,3:3:0:0:
290,268,712082,1,0,1:1:0:0:
260,317,712161,5,2,3:2:0:0:
264,324,712240,1,0,1:1:0:0:
272,321,712319,1,0,3:3:0:0:
272,315,712398,1,0,1:1:0:0:
272,328,712476,37,2,3:2:0:0:
340,356,712555,1,0,1:1:0:0:
407,335,712634,1,0,3:3:0:0:
441,270,712713,1,0,1:1:0:0:
421,202,712792,1,2,3:2:0:0:
360,160,712871,1,0,1:1:0:0:
287,168,712950,1,0,3:3:0:0:
240,228,713029,1,0,1:1:0:0:
196,286,713108,2,0,P|110:289|69:192,1,187.000003566742,4|0,3:2|3:3,0:0:0:0:
294,20,713424,6,0,P|321:201|343:373,1,330,2|0,3:2|1:1,0:0:0:0:
458,358,713740,5,4,3:2:0:0:
468,354,713819,1,0,1:1:0:0:
472,345,713898,2,0,P|450:325|412:330,1,65.9999979858399,0|0,3:3|1:1,0:0:0:0:
260,339,714055,1,2,3:2:0:0:
245,354,714134,1,0,1:1:0:0:
222,358,714213,2,0,P|186:345|172:315,1,65.9999979858399,0|0,3:3|1:1,0:0:0:0:
190,160,714371,5,4,3:2:0:0:
200,157,714450,1,0,1:1:0:0:
206,169,714529,1,0,3:3:0:0:
192,174,714608,1,0,1:1:0:0:
185,162,714687,37,2,3:2:0:0:
128,148,714766,1,0,1:1:0:0:
71,178,714845,1,0,3:3:0:0:
48,240,714924,1,0,1:1:0:0:
54,310,715003,2,0,P|89:354|249:362,1,187.000003566742,4|0,3:2|3:3,0:0:0:0:
503,204,715319,6,0,P|367:230|121:281,1,330,4|8,3:2|2:2,0:0:0:0:
85,171,715634,1,8,2:2:0:0:
52,125,715713,1,8,2:2:0:0:
61,68,715792,1,8,2:3:0:0:
103,33,715871,1,8,2:3:0:0:
157,28,715950,5,8,2:2:0:0:
167,37,716029,1,8,2:2:0:0:
163,47,716108,1,8,2:2:0:0:
151,47,716187,1,8,2:2:0:0:
144,37,716266,5,4,3:2:0:0:
192,20,716345,1,8,2:2:0:0:
244,31,716424,1,8,2:2:0:0:
274,76,716503,1,8,2:2:0:0:
324,105,716582,1,8,2:2:0:0:
372,93,716661,1,8,2:2:0:0:
394,46,716740,2,0,P|356:27|336:0,1,65.9999979858399,2|8,3:2|2:2,0:0:0:0:
503,103,716898,2,0,P|480:126|450:139,3,65.9999979858399,8|8|8|8,2:2|2:2|2:2|2:2,0:0:0:0:
297,127,717213,38,0,P|327:185|348:247,1,87.9999973144532,4|8,3:2|2:2,0:0:0:0:
396,370,717424,1,8,2:2:0:0:
500,280,717529,6,0,L|390:261,1,87.9999973144532,8|8,2:2|2:3,0:0:0:0:
405,272,717687,1,8,2:3:0:0:
395,279,717740,1,8,2:2:0:0:
310,353,717845,2,0,L|200:372,1,87.9999973144532,8|8,2:2|2:3,0:0:0:0:
215,361,718003,1,8,2:3:0:0:
205,354,718056,1,8,2:2:0:0:
99,163,718161,6,0,P|169:177|187:272,1,175.999994628906,8|8,2:2|2:3,0:0:0:0:
32,368,718476,5,8,2:3:0:0:
47,285,718582,1,8,2:3:0:0:
115,237,718687,1,8,2:3:0:0:
203,224,718792,1,8,2:3:0:0:
281,262,718898,1,8,2:3:0:0:
314,341,719003,1,8,2:3:0:0:
242,382,719108,22,0,P|206:309|267:35,1,263.99999194336,4|0,3:2|3:3,0:0:0:0:
365,11,719424,69,10,3:2:0:0:
427,76,719529,1,0,3:3:0:0:
361,141,719634,1,0,3:3:0:0:
426,201,719740,2,0,P|448:308|455:343,1,110.000004196167,2|0,3:2|3:3,0:0:0:0:
374,376,719950,1,0,3:3:0:0:
288,254,720055,6,0,B|254:240|221:251|185:302|314:388|323:285|319:217|454:298,1,263.99999194336,10|0,3:2|3:3,0:0:0:0:
506,152,720371,2,0,P|426:176|363:200,1,110.000004196167,2|0,3:2|3:3,0:0:0:0:
303,121,720582,1,0,3:3:0:0:
386,2,720687,2,0,P|411:58|372:102,2,110.000004196167,10|0|0,3:2|3:3|3:3,0:0:0:0:
243,41,721003,70,0,P|279:180|296:314,1,220.000008392334,4|0,3:2|3:3,0:0:0:0:
363,353,721319,1,10,3:2:0:0:
389,266,721424,1,0,3:3:0:0:
462,323,721529,1,0,3:3:0:0:
371,371,721634,2,0,P|300:343|250:337,1,110.000004196167,2|0,3:2|3:3,0:0:0:0:
170,384,721845,1,0,3:3:0:0:
292,255,721950,6,0,B|259:225|244:193|244:193|144:224|93:323,1,263.99999194336,10|0,3:2|3:3,0:0:0:0:
0,184,722266,69,2,3:2:0:0:
33,189,722371,1,0,3:3:0:0:
54,213,722476,1,0,3:3:0:0:
170,108,722582,5,10,3:2:0:0:
96,94,722687,1,0,3:3:0:0:
48,155,722792,1,0,3:3:0:0:
185,205,722898,70,0,B|213:86|226:15|226:15|228:59|239:95,1,263.99999194336,4|0,3:2|3:3,0:0:0:0:
383,18,723213,5,10,3:2:0:0:
338,84,723318,1,0,3:3:0:0:
407,125,723424,1,0,3:3:0:0:
453,58,723529,69,2,3:2:0:0:
324,96,723634,2,0,P|318:174|358:195,1,110.000004196167,0|0,3:3|3:3,0:0:0:0:
511,322,723845,6,0,B|458:296|414:336|414:336|414:341|414:341|372:408|250:372,1,220.000008392334,10|0,3:2|3:3,0:0:0:0:
225,267,724161,2,0,P|285:281|355:310,1,110.000004196167,2|0,3:2|3:3,0:0:0:0:
174,377,724371,1,0,3:3:0:0:
84,235,724476,69,10,3:2:0:0:
137,297,724582,1,0,3:3:0:0:
71,348,724687,1,0,3:3:0:0:
90,215,724792,6,0,B|194:198|194:198|201:190|201:190|310:170,1,220.000008392334,4|0,3:2|3:3,0:0:0:0:
429,283,725108,69,10,3:2:0:0:
474,218,725213,1,0,3:3:0:0:
428,157,725319,1,0,3:3:0:0:
469,88,725424,2,0,P|407:77|325:63,2,110.000004196167,2|0|0,3:2|3:3|3:3,0:0:0:0:
311,218,725740,5,10,3:2:0:0:
322,175,725845,1,0,3:3:0:0:
297,136,725950,1,0,3:3:0:0:
147,166,726055,69,2,3:2:0:0:
183,198,726160,1,0,3:3:0:0:
228,196,726265,1,0,3:3:0:0:
276,57,726371,6,0,P|221:97|215:143,2,87.9999973144532,10|0|0,3:2|3:3|3:3,0:0:0:0:
423,176,726687,70,0,P|355:163|283:149,1,110.000004196167,4|0,3:2|3:3,0:0:0:0:
223,215,726898,1,0,3:3:0:0:
348,383,727003,6,0,P|411:344|287:300,1,293.333333333333,10|0,3:2|3:3,0:0:0:0:
113,306,727319,69,2,3:2:0:0:
215,359,727424,2,0,P|204:302|193:248,1,110.000004196167,0|0,3:3|3:3,0:0:0:0:
116,79,727634,6,0,B|95:75|61:51|61:51|-2:156|133:219,1,220.000008392334,10|0,3:2|3:3,0:0:0:0:
268,187,727950,2,0,P|224:156|170:152,1,110.000004196167,2|0,3:2|3:3,0:0:0:0:
95,208,728161,1,0,3:3:0:0:
212,322,728266,69,10,3:2:0:0:
191,239,728371,1,0,3:3:0:0:
117,291,728476,1,0,3:3:0:0:
235,315,728582,6,0,B|291:273|348:302|348:302|376:365|447:358|447:358,1,220.000008392334,4|0,3:2|3:3,0:0:0:0:
511,221,728898,69,10,3:2:0:0:
434,244,729003,1,0,3:3:0:0:
381,183,729108,1,0,3:3:0:0:
303,201,729213,2,0,P|314:139|336:54,1,110.000004196167,2|0,3:2|3:3,0:0:0:0:
290,7,729424,1,0,3:3:0:0:
183,122,729529,6,0,P|214:247|234:353,1,220.000008392334,10|0,3:2|3:3,0:0:0:0:
77,376,729845,69,2,3:2:0:0:
90,335,729950,1,0,3:3:0:0:
127,318,730055,1,0,3:3:0:0:
50,206,730161,5,10,3:2:0:0:
14,273,730266,1,0,3:3:0:0:
55,337,730371,1,0,3:3:0:0:
204,275,730476,70,0,B|169:234|122:236|122:236|158:124|180:7,1,263.99999194336,4|0,3:2|3:3,0:0:0:0:
337,25,730792,5,10,3:2:0:0:
272,88,730898,1,0,3:3:0:0:
239,2,731003,1,0,3:3:0:0:
357,30,731108,70,0,P|374:96|390:164,1,110.000004196167,2|0,3:2|3:3,0:0:0:0:
297,225,731319,1,0,3:3:0:0:
163,120,731424,6,0,B|129:130|92:168|146:246|255:221|199:163|233:96|348:153,1,263.99999194336,10|0,3:2|3:3,0:0:0:0:
444,305,731740,69,2,3:2:0:0:
382,234,731845,1,0,3:3:0:0:
458,174,731950,1,0,3:3:0:0:
394,106,732055,2,0,L|421:0,2,110.000004196167,10|0|0,3:2|3:3|3:3,0:0:0:0:
366,253,732371,6,0,B|316:248|283:231|283:231|208:285|208:285|172:276|97:301,1,263.99999194336,4|0,3:2|3:3,0:0:0:0:
0,226,732687,2,0,P|15:278|27:332,2,110.000004196167,10|0|0,3:2|3:3|3:3,0:0:0:0:
136,45,733003,69,2,3:2:0:0:
119,126,733108,1,0,3:3:0:0:
101,214,733213,1,0,3:3:0:0:
6,145,733319,6,0,B|45:107|45:107|102:109,2,110.000004196167,10|0|0,3:2|3:3|3:3,0:0:0:0:
107,300,733634,69,2,3:2:0:0:
182,242,733740,1,8,2:2:0:0:
206,333,733845,1,8,2:2:0:0:
101,211,733950,5,8,2:2:0:0:
265,265,734055,1,8,2:2:0:0:
128,381,734161,1,8,2:2:0:0:
245,176,734266,70,0,B|280:150|340:173|356:214|356:214|364:214|364:214|374:274|430:312|517:276,1,263.99999194336,4|0,3:2|3:3,0:0:0:0:
509,152,734582,1,10,3:2:0:0:
432,165,734687,1,0,3:3:0:0:
355,181,734792,1,0,3:3:0:0:
439,80,734898,5,2,3:2:0:0:
393,277,735003,2,0,P|372:226|337:180,1,95.3333289693199,0|0,3:3|3:3,0:0:0:0:
183,29,735213,70,0,P|219:125|255:296,1,263.99999194336,12|0,3:2|3:3,0:0:0:0:
203,358,735529,1,2,3:2:0:0:
177,351,735634,1,0,3:3:0:0:
151,344,735740,1,0,3:3:0:0:
38,370,735845,6,0,P|74:324|82:261,1,87.9999973144532,12|0,3:2|3:3,0:0:0:0:
52,202,736055,1,0,3:3:0:0:
180,262,736161,70,0,B|296:253|296:253|303:257|303:257|461:243,1,220.000008392334,4|0,3:2|3:3,0:0:0:0:
464,169,736476,1,8,3:2:0:0:
438,319,736582,1,8,3:2:0:0:
476,157,736687,1,8,3:2:0:0:
300,312,736792,6,0,P|372:371|338:262,1,263.99999194336,4|0,3:2|3:3,0:0:0:0:
271,172,737108,70,0,B|225:97|291:-57|413:13|419:108|302:141,1,263.99999194336,10|0,3:2|3:3,0:0:0:0:
396,174,737424,1,2,3:2:0:0:
425,197,737529,1,0,3:3:0:0:
467,197,737634,1,0,3:3:0:0:
503,122,737740,6,0,P|468:142|432:205,1,87.9999973144532,10|0,3:2|3:3,0:0:0:0:
423,284,737950,1,0,3:3:0:0:
339,219,738055,70,0,B|316:183|237:203|232:242|232:242|224:244|224:244|223:284|175:315|127:314,1,234.666666666667,4|0,3:2|3:3,0:0:0:0:
31,174,738371,1,10,3:2:0:0:
84,177,738476,1,0,3:3:0:0:
117,218,738582,1,0,3:3:0:0:
77,323,738687,6,0,P|66:278|23:246,1,87.9999973144532,2|0,3:2|3:3,0:0:0:0:
69,85,738898,1,0,3:3:0:0:
171,149,739003,70,0,P|277:92|174:26,1,234.666666666667,10|0,3:2|3:3,0:0:0:0:
315,134,739319,1,2,3:2:0:0:
349,161,739424,1,0,3:3:0:0:
391,160,739529,1,0,3:3:0:0:
467,65,739634,5,10,3:2:0:0:
449,72,739740,1,0,3:3:0:0:
438,82,739845,1,0,3:3:0:0:
482,167,739950,70,0,P|506:211|369:277,1,234.666666666667,4|0,3:2|3:3,0:0:0:0:
296,157,740266,1,8,3:2:0:0:
274,294,740371,1,8,3:2:0:0:
300,140,740476,1,8,3:2:0:0:
174,225,740582,6,0,B|101:252|58:376|204:393|204:327,1,234.666666666667,2|0,3:2|3:3,0:0:0:0:
283,166,740898,69,12,3:2:0:0:
336,103,741003,1,0,3:3:0:0:
307,26,741108,1,0,3:3:0:0:
227,13,741213,1,2,3:2:0:0:
175,76,741319,1,0,3:3:0:0:
197,155,741424,1,0,3:3:0:0:
287,207,741529,5,10,3:2:0:0:
298,173,741634,1,0,3:3:0:0:
308,137,741740,1,0,3:3:0:0:
412,89,741845,70,0,P|507:97|457:234,1,234.666666666667,4|0,3:2|3:3,0:0:0:0:
505,307,742161,2,0,P|392:276|152:237,1,263.99999194336,10|0,3:2|3:3,0:0:0:0:
98,371,742476,6,0,P|152:340|180:296,1,87.9999973144532,2|0,3:2|3:3,0:0:0:0:
178,153,742687,1,0,3:3:0:0:
24,231,742792,70,0,B|-4:258|17:344|100:312|151:256|115:177|81:153,1,263.99999194336,12|0,3:2|3:3,0:0:0:0:
127,38,743108,5,2,3:2:0:0:
188,200,743213,2,0,P|202:152|244:103,1,87.9999973144532,0|0,3:3|3:3,0:0:0:0:
388,113,743424,69,12,3:2:0:0:
327,275,743529,2,0,P|312:227|270:178,1,87.9999973144532,0|0,3:3|3:3,0:0:0:0:
107,361,743740,6,0,B|172:383|244:317|186:320|264:238|349:293,1,263.99999194336,4|0,3:2|3:3,0:0:0:0:
486,211,744055,1,8,3:2:0:0:
320,195,744161,1,8,3:2:0:0:
499,219,744266,1,8,3:2:0:0:
361,364,744371,70,0,B|347:236|347:236|350:230|350:230|335:65,1,263.99999194336,2|0,3:2|3:3,0:0:0:0:
81,81,744687,6,0,B|72:63|49:50|49:50|182:73|182:73|209:133|278:144,1,263.99999194336,12|0,3:2|3:3,0:0:0:0:
340,14,745003,2,0,P|278:35|265:86,2,87.9999973144532,2|2|2,3:2|3:2|3:2,0:0:0:0:
462,154,745319,1,10,3:2:0:0:
505,92,745424,1,2,3:2:0:0:
441,45,745529,1,2,3:2:0:0:
390,114,745634,70,0,B|348:121|348:121|248:238|248:238|206:249,1,234.666666666667,4|0,3:2|3:3,0:0:0:0:
95,107,745950,1,10,3:2:0:0:
143,111,746055,1,0,3:3:0:0:
167,148,746161,1,0,3:3:0:0:
81,255,746266,5,2,3:2:0:0:
70,181,746371,1,0,3:3:0:0:
61,108,746476,1,0,3:3:0:0:
115,28,746582,70,0,B|159:-3|207:15|228:59|228:59|236:58|236:58|256:108|309:129|368:103,1,263.99999194336,12|0,3:2|3:3,0:0:0:0:
481,43,746898,2,0,P|441:20|390:24,2,87.9999973144532,2|0|0,3:2|3:3|3:3,0:0:0:0:
445,260,747213,5,10,3:2:0:0:
411,108,747319,2,0,P|448:127|483:179,1,87.9999973144532,0|0,3:3|3:3,0:0:0:0:
443,272,747529,69,4,3:2:0:0:
384,337,747634,1,8,2:2:0:0:
295,330,747740,1,8,2:2:0:0:
265,154,747845,5,8,2:2:0:0:
333,181,747950,1,8,2:3:0:0:
345,256,748055,1,8,2:3:0:0:
268,342,748161,69,8,2:3:0:0:
212,285,748266,1,8,2:3:0:0:
124,357,748371,1,8,2:3:0:0:
56,281,748476,6,0,B|45:171|45:171|47:164|47:164|35:32,1,220.000008392334,4|0,3:2|3:3,0:0:0:0:
182,25,748792,2,0,P|151:77|103:94,2,87.9999973144532,10|0|2,3:2|3:3|3:2,0:0:0:0:
245,118,749108,1,0,3:3:0:0:
289,103,749213,1,2,3:2:0:0:
335,87,749319,1,0,3:3:0:0:
391,27,749424,70,0,P|431:37|473:97,1,110.000004196167,10|0,3:2|3:3,0:0:0:0:
361,352,749634,6,0,P|334:319|334:251,1,110.000004196167,2|0,3:2|3:3,0:0:0:0:
320,115,749845,70,0,P|281:134|248:195,1,110.000004196167,2|0,3:2|3:3,0:0:0:0:
506,232,750055,6,0,P|466:192|401:189,2,110.000004196167,10|0|0,3:2|3:3|3:3,0:0:0:0:
450,344,750371,69,2,3:2:0:0:
356,375,750476,1,0,3:3:0:0:
278,324,750582,1,0,3:3:0:0:
297,238,750687,1,10,3:2:0:0:
377,185,750792,1,0,3:3:0:0:
386,96,750898,1,2,3:2:0:0:
311,37,751003,1,0,3:3:0:0:
224,59,751108,1,2,3:2:0:0:
183,137,751213,1,0,3:3:0:0:
92,149,751319,6,0,B|56:105|56:105|230:130|230:130|255:181,1,263.99999194336,10|0,3:2|3:3,0:0:0:0:
314,237,751634,1,2,3:2:0:0:
348,247,751740,1,0,3:3:0:0:
385,259,751845,1,0,3:3:0:0:
446,304,751950,70,0,P|460:264|512:191,1,87.9999973144532,12|0,3:2|3:3,0:0:0:0:
326,360,752161,1,0,3:3:0:0:
390,154,752266,22,0,B|285:178|285:178|278:184|278:184|148:214,1,220.000008392334,4|0,3:2|3:3,0:0:0:0:
30,79,752582,5,10,3:2:0:0:
130,127,752687,1,0,3:3:0:0:
53,165,752792,1,0,3:3:0:0:
108,47,752898,6,0,P|180:57|180:192,1,220.000008392334,2|0,3:2|3:3,0:0:0:0:
23,256,753213,6,0,B|68:242|101:227|101:227|154:266|154:266|194:267|273:288,1,220.000008392334,10|0,3:2|3:3,0:0:0:0:
350,364,753529,37,2,3:2:0:0:
309,239,753634,1,0,3:3:0:0:
416,306,753740,1,0,3:3:0:0:
393,233,753845,2,0,P|404:178|421:93,1,87.9999973144532,10|0,3:2|3:3,0:0:0:0:
340,59,754055,1,0,3:3:0:0:
455,61,754161,6,0,B|389:33|352:80|352:80|349:77|349:77|309:133|210:91,1,220.000008392334,4|0,3:2|3:3,0:0:0:0:
144,61,754476,5,10,3:2:0:0:
154,135,754582,1,0,3:3:0:0:
87,168,754687,1,0,3:3:0:0:
25,118,754792,2,0,P|64:51|99:55,2,87.9999973144532,2|0|0,3:2|3:3|3:3,0:0:0:0:
65,259,755108,6,0,B|48:232|21:225|21:225|114:190|178:275,1,220.000008392334,12|0,3:2|3:3,0:0:0:0:
225,384,755424,37,4,3:2:0:0:
244,303,755529,1,0,3:3:0:0:
264,214,755634,1,0,3:3:0:0:
347,152,755740,5,12,3:2:0:0:
364,230,755845,1,0,3:3:0:0:
383,305,755950,1,0,3:3:0:0:
476,208,756055,6,0,B|419:170|419:170|316:192|262:239,1,220.000008392334,4|0,3:2|3:3,0:0:0:0:
118,369,756371,5,10,3:2:0:0:
194,266,756476,1,0,3:3:0:0:
213,355,756582,1,0,3:3:0:0:
98,284,756687,38,0,B|114:183|114:183|118:179|118:179|136:66,1,220.000008392334,2|0,3:2|3:3,0:0:0:0:
294,9,757003,5,12,3:2:0:0:
239,71,757108,1,0,3:3:0:0:
328,127,757213,1,0,3:3:0:0:
238,184,757319,6,0,L|128:156,1,87.9999973144532,2|0,3:2|3:3,0:0:0:0:
80,227,757529,1,0,3:3:0:0:
193,330,757634,2,0,B|176:292|176:292|179:283|179:283|152:221,1,87.9999973144532,10|0,3:2|3:3,0:0:0:0:
78,78,757845,1,0,3:3:0:0:
7,200,757950,6,0,B|144:153|144:153|240:175,1,220.000008392334,4|0,3:2|3:3,0:0:0:0:
344,35,758266,37,10,3:2:0:0:
283,94,758371,1,0,3:3:0:0:
336,166,758476,1,0,3:3:0:0:
419,141,758582,2,0,P|426:93|437:21,2,87.9999973144532,2|0|0,3:2|3:3|3:3,0:0:0:0:
469,273,758898,6,0,B|509:237|509:237|320:276,1,220.000008392334,10|0,3:2|3:3,0:0:0:0:
249,159,759213,2,0,P|327:181|376:195,2,87.9999973144532,2|0|0,3:2|3:3|3:3,0:0:0:0:
199,353,759529,5,10,3:2:0:0:
251,300,759634,1,0,3:3:0:0:
208,239,759740,1,0,3:3:0:0:
96,289,759845,6,0,P|26:242|51:154,1,175.999994628906,4|0,3:2|3:3,0:0:0:0:
160,80,760161,37,12,3:2:0:0:
63,45,760266,1,0,3:3:0:0:
146,166,760371,1,0,3:3:0:0:
251,105,760476,2,0,P|237:63|228:20,2,87.9999973144532,2|0|0,3:2|3:3|3:3,0:0:0:0:
97,237,760792,6,0,B|143:196|196:206|196:206|229:272|311:268,1,220.000008392334,10|0,3:2|3:3,0:0:0:0:
436,146,761108,5,2,3:2:0:0:
384,262,761213,1,0,3:3:0:0:
351,173,761319,1,0,3:3:0:0:
475,236,761424,2,0,P|465:288|458:323,2,87.9999973144532,10|0|0,3:2|3:3|3:3,0:0:0:0:
420,72,761740,6,0,P|374:179|285:121,1,220.000008392334,4|0,3:2|3:3,0:0:0:0:
150,45,762060,37,10,3:2:0:0:
223,0,762167,1,0,3:3:0:0:
268,68,762274,1,0,3:3:0:0:
195,117,762381,2,0,P|181:165|164:236,1,87.9999973144532,10|0,3:2|3:3,0:0:0:0:
141,277,762595,1,0,3:3:0:0:
64,122,762702,6,0,B|77:197|77:197|55:255|55:255|69:335,1,220.000008392334,10|0,3:2|3:3,0:0:0:0:
184,370,763012,5,10,3:2:0:0:
178,336,763116,1,0,3:3:0:0:
171,303,763220,1,0,3:3:0:0:
279,218,763323,6,0,P|258:300|215:278,1,110.000004196167,10|0,3:2|3:3,0:0:0:0:
183,222,763531,1,0,3:3:0:0:
297,132,763634,38,0,B|241:109|204:157|204:157|205:161|205:161|175:227|67:187,1,220.000008392334,12|0,3:2|3:3,0:0:0:0:
29,360,763949,5,10,3:2:0:0:
90,294,764055,1,0,3:3:0:0:
169,348,764160,1,0,3:3:0:0:
235,281,764265,2,0,B|342:304|342:304|350:301|350:301|501:337,1,220.000008392334,10|0,3:2|3:3,0:0:0:0:
499,185,764581,5,10,3:2:0:0:
468,210,764686,1,0,3:3:0:0:
427,216,764791,1,0,3:3:0:0:
364,139,764897,6,0,P|382:75|392:39,1,87.9999973144532,10|0,3:2|3:3,0:0:0:0:
291,0,765107,1,0,3:3:0:0:
196,114,765212,2,0,P|251:99|302:88,2,87.9999973144532,10|0|0,3:2|3:3|3:3,0:0:0:0:
39,10,765528,38,0,B|106:48|106:48|87:206|10:229,1,220.000008392334,12|0,3:2|3:3,0:0:0:0:
0,326,765844,5,10,3:2:0:0:
92,298,765949,1,0,3:3:0:0:
187,273,766055,1,0,3:3:0:0:
260,384,766160,5,10,3:2:0:0:
181,359,766265,1,0,3:3:0:0:
100,335,766370,1,0,3:3:0:0:
142,208,766476,6,0,P|198:238|208:265,2,87.9999973144532,10|0|0,3:2|3:3|3:3,0:0:0:0:
0,83,766791,37,4,3:2:0:0:
87,45,766897,1,8,2:2:0:0:
117,128,767002,1,8,2:2:0:0:
218,72,767107,5,8,2:2:0:0:
309,164,767212,1,8,2:2:0:0:
332,36,767318,1,8,2:2:0:0:
331,184,767423,6,0,P|397:244|422:119,1,263.99999194336,4|0,3:2|3:3,0:0:0:0:
227,139,767739,1,10,3:2:0:0:
216,190,767844,1,0,3:3:0:0:
206,241,767949,1,0,3:3:0:0:
244,308,768055,6,0,P|201:265|165:262,1,87.9999973144532,2|0,3:2|3:3,0:0:0:0:
86,289,768265,1,0,3:3:0:0:
163,365,768370,38,0,B|275:352|275:352|279:355|279:355|390:343,1,220.000008392334,10|0,3:2|3:3,0:0:0:0:
510,322,768686,2,0,P|470:343|448:395,2,87.9999973144532,2|0|0,3:2|3:3|3:3,0:0:0:0:
506,180,769002,1,10,3:2:0:0:
465,218,769107,1,0,3:3:0:0:
411,217,769212,1,0,3:3:0:0:
371,156,769318,6,0,B|314:131|276:183|276:183|268:181|268:181|234:248|121:222,1,220.000008392334,4|0,3:2|3:3,0:0:0:0:
86,80,769634,2,0,P|143:97|166:124,1,87.9999973144532,10|0,3:2|3:3,0:0:0:0:
31,204,769844,1,0,3:3:0:0:
226,314,769949,2,0,L|-8:278,1,220.000008392334,2|0,3:2|3:3,0:0:0:0:
252,2,770265,6,0,P|274:141|295:290,1,263.99999194336,10|0,3:2|3:3,0:0:0:0:
338,338,770581,1,2,3:2:0:0:
369,359,770686,1,0,3:3:0:0:
404,357,770791,1,0,3:3:0:0:
449,267,770897,6,0,P|410:272|363:309,1,87.9999973144532,10|0,3:2|3:3,0:0:0:0:
492,354,771107,1,0,3:3:0:0:
487,195,771212,38,0,P|399:198|275:321,1,220.000008392334,4|0,3:2|3:3,0:0:0:0:
177,377,771528,1,10,3:2:0:0:
225,309,771634,1,0,3:3:0:0:
165,236,771739,1,0,3:3:0:0:
226,162,771844,6,0,P|311:126|334:244,1,220.000008392334,2|0,3:2|3:3,0:0:0:0:
317,373,772160,5,10,3:2:0:0:
239,310,772265,1,0,3:3:0:0:
150,372,772370,1,0,3:3:0:0:
73,327,772476,2,0,L|56:132,1,175.999994628906,2|0,3:2|3:3,0:0:0:0:
162,2,772791,5,10,3:2:0:0:
220,77,772897,1,0,3:3:0:0:
143,132,773002,1,0,3:3:0:0:
81,61,773107,38,0,L|340:32,1,220.000008392334,4|0,3:2|3:3,0:0:0:0:
361,114,773423,1,10,3:2:0:0:
349,161,773528,1,0,3:3:0:0:
339,207,773634,1,0,3:3:0:0:
361,282,773739,2,0,B|347:197|347:197|344:194|344:194|326:82,1,175.999994628906,2|0,3:2|3:3,0:0:0:0:
512,88,774055,6,0,B|477:116|429:100|415:53|415:53|407:56|407:56|386:10|323:-12|263:32,1,263.99999194336,10|0,3:2|3:3,0:0:0:0:
126,175,774370,5,2,3:2:0:0:
176,259,774476,1,0,3:3:0:0:
264,251,774581,1,0,3:3:0:0:
320,170,774686,1,12,3:2:0:0:
412,180,774791,1,0,3:3:0:0:
452,267,774897,1,0,3:3:0:0:
367,382,775002,6,0,B|362:352|336:334|336:334|384:177|384:177|399:200|440:226,1,263.99999194336,4|0,3:2|3:3,0:0:0:0:
354,91,775318,1,10,3:2:0:0:
296,154,775423,1,0,3:3:0:0:
211,100,775528,1,0,3:3:0:0:
135,154,775634,2,0,L|117:38,1,87.9999973144532,2|0,3:2|3:3,0:0:0:0:
191,0,775844,1,0,3:3:0:0:
11,181,775949,38,0,B|48:167|48:167|184:215|184:215|287:178,1,220.000008392334,10|0,3:2|3:3,0:0:0:0:
288,49,776265,2,0,P|235:59|206:115,2,87.9999973144532,2|0|0,3:2|3:3|3:3,0:0:0:0:
379,171,776581,2,0,L|492:148,1,87.9999973144532,10|0,3:2|3:3,0:0:0:0:
512,67,776791,1,0,3:3:0:0:
358,3,776897,6,0,P|329:89|298:273,1,220.000008392334,4|0,3:2|3:3,0:0:0:0:
304,314,777212,2,0,P|354:303|401:266,1,87.9999973144532,10|0,3:2|3:3,0:0:0:0:
463,360,777423,1,0,3:3:0:0:
262,225,777528,2,0,P|288:272|300:321,1,87.9999973144532,2|0,3:2|3:3,0:0:0:0:
333,125,777739,1,0,3:3:0:0:
232,374,777844,6,0,P|205:278|96:176,1,220.000008392334,12|0,3:2|3:3,0:0:0:0:
32,175,778160,5,0,3:3:0:0:
144,115,778265,1,8,2:2:0:0:
39,71,778370,1,8,2:2:0:0:
214,171,778476,37,8,2:2:0:0:
63,249,778581,1,8,2:2:0:0:
126,99,778686,1,8,2:2:0:0:
143,258,778791,6,0,B|229:315|288:237|287:171|349:167|482:254,1,293.333333333333,4|0,3:2|3:3,0:0:0:0:
475,367,779107,5,10,3:2:0:0:
460,362,779212,1,0,3:3:0:0:
442,356,779318,1,0,3:3:0:0:
375,283,779423,5,10,3:2:0:0:
361,287,779528,1,0,3:3:0:0:
344,292,779634,1,0,3:3:0:0:
267,364,779739,37,10,3:2:0:0:
275,368,779844,1,0,3:3:0:0:
265,375,779949,1,0,3:3:0:0:
177,308,780055,5,10,3:2:0:0:
182,276,780160,1,0,3:3:0:0:
207,259,780265,1,0,3:3:0:0:
232,164,780370,5,10,3:2:0:0:
264,169,780475,1,0,3:3:0:0:
281,194,780580,1,0,3:3:0:0:
318,303,780686,5,12,3:2:0:0:
326,296,780791,1,0,3:3:0:0:
311,294,780896,1,0,3:3:0:0:
404,223,781002,37,10,3:2:0:0:
412,187,781107,1,0,3:3:0:0:
430,151,781212,1,0,3:3:0:0:
327,110,781318,5,10,3:2:0:0:
319,74,781423,1,0,3:3:0:0:
301,38,781528,1,0,3:3:0:0:
423,0,781634,5,10,3:2:0:0:
431,13,781739,1,0,3:3:0:0:
417,17,781844,1,2,3:2:0:0:
461,121,781949,5,10,3:2:0:0:
412,117,782054,1,0,3:3:0:0:
370,149,782160,1,0,3:3:0:0:
353,257,782265,37,12,3:2:0:0:
312,289,782371,1,0,3:3:0:0:
262,285,782476,1,0,3:3:0:0:
256,176,782581,5,12,3:2:0:0:
183,193,782686,1,0,3:3:0:0:
110,207,782791,1,0,3:3:0:0:
16,271,782897,5,10,3:2:0:0:
60,284,783002,1,0,3:3:0:0:
107,295,783107,1,0,3:3:0:0:
182,361,783212,5,12,3:2:0:0:
151,371,783317,1,0,3:3:0:0:
120,384,783422,1,0,3:3:0:0:
126,262,783528,37,10,3:2:0:0:
197,248,783634,1,0,3:3:0:0:
244,313,783739,1,0,3:3:0:0:
326,196,783844,5,10,3:2:0:0:
249,177,783950,1,0,3:3:0:0:
204,235,784055,1,0,3:3:0:0:
139,133,784160,5,12,3:2:0:0:
157,143,784265,1,0,3:3:0:0:
141,153,784370,1,0,3:3:0:0:
49,197,784476,5,10,3:2:0:0:
32,165,784581,1,0,3:3:0:0:
37,137,784686,1,0,3:3:0:0:
86,45,784791,37,10,3:2:0:0:
172,68,784897,1,0,3:3:0:0:
253,90,785002,1,0,3:3:0:0:
342,12,785107,5,10,3:2:0:0:
325,19,785212,1,0,3:3:0:0:
328,5,785318,1,0,3:3:0:0:
422,80,785423,5,10,3:2:0:0:
452,153,785528,1,0,3:3:0:0:
402,215,785634,1,0,3:3:0:0:
254,170,785739,5,10,3:2:0:0:
336,147,785844,1,0,3:3:0:0:
383,223,785949,1,0,3:3:0:0:
273,321,786055,38,0,B|289:185|289:185|294:180|294:180|315:-16,1,293.333333333333,12|0,3:2|0:0,0:0:0:0:
36,37,786370,5,8,2:2:0:0:
197,118,786476,1,8,2:2:0:0:
157,0,786581,1,8,2:2:0:0:
83,161,786686,1,8,2:2:0:0:
262,373,787002,5,8,2:2:0:0:
181,212,787108,1,8,2:2:0:0:
299,252,787213,1,8,2:2:0:0:
141,330,787318,1,8,2:2:0:0:
373,135,787634,5,8,2:2:0:0:
464,43,787739,1,8,2:2:0:0:
420,230,787844,1,8,2:2:0:0:
299,70,787949,1,8,2:2:0:0:
472,121,788055,1,8,2:2:0:0:
325,206,788160,1,8,2:2:0:0:
365,27,788265,38,0,B|370:7|349:-3|349:-3|340:32|376:62|399:61|423:11|470:20|470:20|418:30|369:60|329:163|318:181|323:205|365:344|365:344|322:206|315:182|299:170|241:142|98:97|195:10|195:10|178:81|240:49|205:154|146:167|62:71|59:73|9:87|9:87|35:49|94:33|94:33|38:31|14:1|14:1|59:61|83:125|94:211|3:289|3:289|38:207|-15:162|-15:162|-8:235|107:296|132:273|154:262|170:274|179:282|191:297|191:297|208:339|167:418|104:347|42:359|42:359|92:331|98:295|124:225|168:292|124:390|199:286|297:202|221:248|293:132|461:170|508:205|534:228|551:271|520:332|461:306|461:306|405:270|386:196|416:134|466:104|466:104|412:144|336:138|286:90|272:33|272:33|295:97|266:167|205:200|146:195|146:195|146:195|146:195|214:193|272:242|285:309|263:364|263:364|282:299|342:260|416:269|461:308|461:308|492:352|466:391|421:365|441:342|451:357,1,4371.8399146125,4|0,3:2|0:0,0:0:0:0:
