osu file format v14

[General]
AudioFilename: audio.mp3
AudioLeadIn: 0
PreviewTime: 72
Countdown: 0
SampleSet: Normal
StackLeniency: 0.7
Mode: 0
LetterboxInBreaks: 0
EpilepsyWarning: 1
WidescreenStoryboard: 1

[Editor]
Bookmarks: 17877,21833,42932,64031,85130,101614,168042,183702,186504
DistanceSpacing: 0.9
BeatDivisor: 12
GridSize: 4
TimelineZoom: 1.2

[Metadata]
Title:Alchemy
TitleUnicode:Alchemy
Artist:wintermute
ArtistUnicode:wintermute
Creator:Renumi
Version:Normal
Source:
Tags:The Voc@loid M@ster Master 20 初音ミク vol.1 japanese shoegaze alternative noise rock altrock alt-rock jrock j-rock vocaloid hatsune miku mikgazer
BeatmapID:3163223
BeatmapSetID:1547938

[Difficulty]
HPDrainRate:4
CircleSize:3.2
OverallDifficulty:4
ApproachRate:5
SliderMultiplier:1.15
SliderTickRate:1

[Events]
//Background and Video events
0,0,"26986878_p0.jpg",0,0
//Break Periods
//Storyboard Layer 0 (Background)
//Storyboard Layer 1 (Fail)
//Storyboard Layer 2 (Pass)
//Storyboard Layer 3 (Foreground)
//Storyboard Layer 4 (Overlay)
//Storyboard Sound Samples

[TimingPoints]
72,329.67032967033,4,1,1,40,1,0
735,329.67032967033,4,1,1,80,1,0
42932,-100,4,1,1,85,0,1
53482,-100,4,1,1,85,0,0
53647,-100,4,1,1,80,0,0
85130,-100,4,1,1,85,0,1
95680,-100,4,1,1,85,0,0
95844,-100,4,1,1,80,0,0
106229,-100,4,1,1,85,0,1
126998,-100,4,1,1,85,0,0
127328,-100,4,1,1,85,0,1
148427,-100,4,1,1,85,0,0
148592,-100,4,1,1,80,0,0
169526,-100,4,1,1,85,0,0
178756,-100,4,1,1,80,0,0
189141,-100,4,1,1,85,0,0
189416,-100,4,1,1,84,0,0
189526,-100,4,1,1,83,0,0
189636,-100,4,1,1,82,0,0
189745,-100,4,1,1,81,0,0
189855,-100,4,1,1,80,0,0
189965,-100,4,1,1,79,0,0
190075,-100,4,1,1,78,0,0
190185,-100,4,1,1,77,0,0
190295,-100,4,1,1,76,0,0
190405,-100,4,1,1,75,0,0
190515,-100,4,1,1,74,0,0
190625,-100,4,1,1,73,0,0
190735,-100,4,1,1,72,0,0
190844,-100,4,1,1,71,0,0
190954,-100,4,1,1,70,0,0
191064,-100,4,1,1,69,0,0
191174,-100,4,1,1,68,0,0
191284,-100,4,1,1,67,0,0
191394,-100,4,1,1,66,0,0
191504,-100,4,1,1,65,0,0
191614,-100,4,1,1,64,0,0
191724,-100,4,1,1,63,0,0
191833,-100,4,1,1,62,0,0
191943,-100,4,1,1,61,0,0
192053,-100,4,1,1,60,0,0
192163,-100,4,1,1,59,0,0
192273,-100,4,1,1,58,0,0
192383,-100,4,1,1,57,0,0
192493,-100,4,1,1,56,0,0
192603,-100,4,1,1,55,0,0
192713,-100,4,1,1,54,0,0
192822,-100,4,1,1,53,0,0
192932,-100,4,1,1,52,0,0
193042,-100,4,1,1,51,0,0
193152,-100,4,1,1,50,0,0
193262,-100,4,1,1,49,0,0
193372,-100,4,1,1,48,0,0
193482,-100,4,1,1,47,0,0
193592,-100,4,1,1,46,0,0
193702,-100,4,1,1,45,0,0
193811,-100,4,1,1,44,0,0
193921,-100,4,1,1,43,0,0
194031,-100,4,1,1,42,0,0
194141,-100,4,1,1,41,0,0
194251,-100,4,1,1,40,0,0
194361,-100,4,1,1,39,0,0
194471,-100,4,1,1,38,0,0
194581,-100,4,1,1,37,0,0
194691,-100,4,1,1,36,0,0
194800,-100,4,1,1,35,0,0
194910,-100,4,1,1,34,0,0
195020,-100,4,1,1,33,0,0
195130,-100,4,1,1,32,0,0
195240,-100,4,1,1,31,0,0
195350,-100,4,1,1,30,0,0
195460,-100,4,1,1,29,0,0
195570,-100,4,1,1,28,0,0
195680,-100,4,1,1,27,0,0
195789,-100,4,1,1,26,0,0
195899,-100,4,1,1,25,0,0
196009,-100,4,1,1,24,0,0
196119,-100,4,1,1,23,0,0
196229,-100,4,1,1,22,0,0
196339,-100,4,1,1,21,0,0
196449,-100,4,1,1,20,0,0
196559,-100,4,1,1,19,0,0
196669,-100,4,1,1,18,0,0
196778,-100,4,1,1,17,0,0
196888,-100,4,1,1,16,0,0
196998,-100,4,1,1,15,0,0
197108,-100,4,1,1,14,0,0
197218,-100,4,1,1,13,0,0
197328,-100,4,1,1,12,0,0
197438,-100,4,1,1,11,0,0
197548,-100,4,1,1,10,0,0
197658,-100,4,1,1,9,0,0
197767,-100,4,1,1,8,0,0
197877,-100,4,1,1,7,0,0
197987,-100,4,1,1,6,0,0
198097,-100,4,1,1,5,0,0

[Colours]
Combo1 : 236,219,202
Combo2 : 216,219,243
Combo3 : 198,231,234

[HitObjects]
11,0,72,5,2,2:3:0:0:
87,69,401,1,2,2:3:0:0:
79,173,735,2,0,P|70:232|54:298,1,115,4|8,3:2|0:0,0:0:0:0:
131,357,1394,2,0,L|261:318,1,115,6|8,3:2|0:0,0:0:0:0:
260,277,1888,2,0,B|334:322|334:322|436:310,1,172.5,6|8,3:2|0:0,0:0:0:0:
495,240,2713,2,0,L|483:171,1,57.5,0|0,3:0|3:0,0:0:0:0:
472,133,3042,1,8,0:0:0:0:
412,46,3372,6,0,P|353:74|300:112,1,115,6|8,3:2|0:0,0:0:0:0:
244,180,4031,2,0,P|223:233|191:281,1,115,6|8,3:2|0:0,0:0:0:0:
176,331,4526,2,0,B|82:310|105:339|4:329,1,172.5,6|8,3:2|0:0,0:0:0:0:
50,236,5350,2,0,L|97:183,1,57.5,0|0,3:0|3:0,0:0:0:0:
123,154,5680,1,8,0:0:0:0:
204,72,6009,6,0,P|221:128|246:183,1,115,6|8,3:2|0:0,0:0:0:0:
310,259,6669,2,0,L|431:239,1,115,6|8,3:2|0:0,0:0:0:0:
470,257,7163,2,0,P|498:219|428:124,1,172.5,6|8,3:2|0:0,0:0:0:0:
337,124,7987,2,0,L|319:54,1,57.5,0|0,3:0|3:0,0:0:0:0:
294,24,8317,1,8,0:0:0:0:
192,1,8647,6,0,P|153:23|62:50,1,115,6|8,3:2|0:0,0:0:0:0:
0,88,9306,2,0,P|16:115|32:134,1,57.5,6|0,3:2|3:0,0:0:0:0:
75,161,9636,1,8,0:0:0:0:
75,161,9800,2,0,B|90:207|95:242|95:242|89:277|74:330,1,172.5,4|8,0:0|0:0,0:0:0:0:
168,373,10625,1,0,3:0:0:0:
233,292,10954,2,0,L|293:305,1,57.5,8|8,0:0|0:0,0:0:0:0:
332,333,11284,6,0,P|378:302|431:251,1,115,6|8,3:2|0:0,0:0:0:0:
479,177,11943,2,0,L|469:55,1,115,6|8,3:2|0:0,0:0:0:0:
429,28,12438,2,0,B|331:6|331:6|288:22|253:44,1,172.5,6|8,3:2|0:0,0:0:0:0:
173,82,13262,2,0,L|100:70,1,57.5,0|0,3:0|3:0,0:0:0:0:
71,45,13592,1,8,0:0:0:0:
13,130,13921,6,0,P|34:182|68:248,1,115,6|8,3:2|0:0,0:0:0:0:
54,338,14581,2,0,P|97:350|177:361,1,115,6|8,3:2|0:0,0:0:0:0:
210,332,15075,2,0,B|298:309|286:357|396:312,1,172.5,6|8,3:2|0:0,0:0:0:0:
445,238,15899,2,0,P|470:206|486:188,1,57.5,0|0,3:0|3:0,0:0:0:0:
466,143,16229,1,8,0:0:0:0:
377,88,16559,6,0,P|361:148|341:205,1,115,6|8,3:2|0:0,0:0:0:0:
257,253,17218,2,0,P|233:209|203:140,1,115,6|8,3:2|0:0,0:0:0:0:
174,108,17713,2,0,L|37:83,1,115,4|2,3:2|3:2,0:0:0:0:
32,131,18207,1,8,0:0:0:0:
32,131,18372,2,0,B|-5:226|51:201|-9:315,1,172.5,8|8,0:0|0:0,0:0:0:0:
86,354,19196,6,0,L|221:341,1,115,6|8,3:2|0:0,0:0:0:0:
276,272,19855,2,0,P|308:282|342:297,1,57.5,6|0,3:2|3:0,0:0:0:0:
367,335,20185,1,8,0:0:0:0:
367,335,20350,2,0,P|443:341|446:256,1,172.5,4|8,0:0|0:0,0:0:0:0:
409,166,21174,1,0,3:0:0:0:
310,135,21504,2,0,L|313:69,1,57.5,8|8,0:0|0:0,0:0:0:0:
278,38,21833,6,0,B|227:18|227:18|153:30,1,115,6|8,3:1|0:0,0:0:0:0:
78,81,22493,2,0,L|21:92,2,57.5,2|0|8,3:1|3:0|0:0,0:0:0:0:
112,119,22987,2,0,L|96:301,1,172.5,2|8,3:1|0:0,0:0:0:0:
184,346,23811,1,0,3:0:0:0:
283,315,24141,1,8,0:0:0:0:
386,324,24471,6,0,P|452:305|496:277,1,115,2|8,3:2|0:0,0:0:0:0:
501,177,25130,2,0,P|451:148|395:133,1,115,2|8,3:2|0:0,0:0:0:0:
347,146,25625,2,0,L|358:19,1,115,2|0,3:2|3:0,0:0:0:0:
311,6,26119,1,8,0:0:0:0:
229,66,26449,1,0,3:0:0:0:
193,162,26778,2,0,L|205:230,1,57.5,10|2,0:0|0:3,0:0:0:0:
182,258,27108,6,0,B|124:263|124:263|66:237,1,115,2|10,3:2|0:0,0:0:0:0:
0,339,27767,2,0,B|58:334|58:334|116:360,1,115,2|8,3:2|0:0,0:0:0:0:
161,365,28262,2,0,L|295:348,1,115,2|0,3:2|3:0,0:0:0:0:
323,369,28756,1,8,0:0:0:0:
411,314,29086,1,0,3:0:0:0:
401,210,29416,2,0,L|408:138,1,57.5,10|0,0:0|0:0,0:0:0:0:
436,110,29745,6,0,B|391:73|391:73|326:60,1,115,2|10,3:2|0:0,0:0:0:0:
231,67,30405,2,0,L|247:194,1,115,2|8,3:2|0:0,0:0:0:0:
266,228,30899,2,0,B|199:278|199:278|98:282,1,172.5,2|8,3:2|0:0,0:0:0:0:
115,177,31724,1,0,3:0:0:0:
128,62,32053,2,0,L|192:79,1,57.5,8|8,0:0|0:0,0:0:0:0:
231,67,32383,6,0,P|276:98|330:127,1,115,6|8,3:1|0:0,0:0:0:0:
385,213,33042,2,0,L|444:228,2,57.5,2|0|8,3:1|3:0|0:0,0:0:0:0:
333,220,33537,2,0,B|323:260|317:302|317:302|332:344|355:392,1,172.5,2|8,3:1|0:0,0:0:0:0:
248,371,34361,1,0,3:0:0:0:
167,305,34691,1,8,0:0:0:0:
65,324,35020,6,0,L|43:194,1,115,2|8,3:2|0:0,0:0:0:0:
113,132,35680,2,0,P|170:147|224:175,1,115,2|8,3:2|0:0,0:0:0:0:
261,202,36174,2,0,P|316:187|367:161,1,115,2|0,3:2|3:0,0:0:0:0:
413,136,36669,1,8,0:0:0:0:
481,213,36998,1,0,3:0:0:0:
480,316,37328,2,0,L|413:323,1,57.5,10|2,0:0|0:3,0:0:0:0:
375,300,37658,6,0,B|316:297|316:297|252:321,1,115,2|10,3:2|0:0,0:0:0:0:
163,342,38317,2,0,P|173:286|180:224,1,115,2|8,3:2|0:0,0:0:0:0:
174,176,38811,2,0,L|42:152,1,115,2|0,3:2|3:0,0:0:0:0:
16,127,39306,1,8,0:0:0:0:
73,40,39636,1,0,3:0:0:0:
176,44,39965,2,0,L|246:59,1,57.5,10|0,0:0|0:0,0:0:0:0:
272,89,40295,6,0,P|300:126|361:177,1,115,2|10,3:2|0:0,0:0:0:0:
373,272,40954,2,0,P|428:258|482:229,1,115,2|8,3:2|0:0,0:0:0:0:
487,179,41449,2,0,B|503:100|503:100|478:5,1,172.5,2|8,3:2|0:0,0:0:0:0:
376,10,42273,1,0,3:0:0:0:
274,29,42603,2,0,L|214:53,1,57.5,8|8,0:0|0:0,0:0:0:0:
205,100,42932,6,0,P|151:122|84:132,1,115,6|8,3:1|0:0,0:0:0:0:
45,117,43427,1,2,0:0:0:0:
12,215,43756,1,2,3:1:0:0:
38,309,44086,2,0,B|122:295|110:333|226:306,1,172.5,6|8,3:2|0:0,0:0:0:0:
300,260,44910,2,0,L|363:282,2,57.5,0|0|8,0:0|3:0|0:0,0:0:0:0:
233,179,45570,6,0,P|215:118|214:51,1,115,6|8,3:1|0:0,0:0:0:0:
256,39,46064,1,2,0:0:0:0:
356,64,46394,1,2,3:1:0:0:
407,153,46724,2,0,P|401:240|375:325,1,172.5,6|8,3:2|0:0,0:0:0:0:
281,359,47548,1,0,3:0:0:0:
186,316,47877,2,0,L|176:251,1,57.5,8|8,0:0|0:0,0:0:0:0:
155,212,48207,6,0,P|105:198|43:187,1,115,6|8,3:1|0:0,0:0:0:0:
11,145,48702,1,2,0:0:0:0:
78,67,49031,1,2,3:1:0:0:
157,0,49361,2,0,P|199:48|287:130,1,172.5,6|10,3:2|0:0,0:0:0:0:
380,104,50185,2,0,L|438:92,2,57.5,0|0|8,0:0|3:0|0:0,0:0:0:0:
343,201,50844,6,0,L|338:324,1,115,6|8,3:1|0:0,0:0:0:0:
310,359,51339,1,2,0:0:0:0:
206,366,51669,1,2,3:1:0:0:
170,269,51998,2,0,B|129:252|129:252|0:249,1,172.5,6|8,3:2|0:0,0:0:0:0:
4,149,52822,1,0,3:0:0:0:
4,149,52987,2,0,L|65:91,1,57.5,8|8,3:1|3:1,0:0:0:0:
104,23,53482,5,6,3:2:0:0:
170,102,53811,1,8,0:0:0:0:
250,167,54141,2,0,P|283:181|382:213,1,115,6|8,3:2|0:0,0:0:0:0:
397,173,54636,2,0,B|416:217|433:249|433:249|435:285|423:356,1,172.5,6|8,3:2|0:0,0:0:0:0:
324,359,55460,2,0,L|253:340,1,57.5,0|0,3:0|3:0,0:0:0:0:
241,299,55789,1,8,0:0:0:0:
147,344,56119,6,0,P|115:311|71:244,1,115,6|8,3:2|0:0,0:0:0:0:
123,167,56778,2,0,L|144:41,1,115,6|8,3:2|0:0,0:0:0:0:
183,22,57273,2,0,P|253:32|259:126,1,172.5,6|8,3:2|0:0,0:0:0:0:
281,222,58097,2,0,P|315:248|344:267,1,57.5,0|0,3:0|3:0,0:0:0:0:
378,266,58427,1,8,0:0:0:0:
357,367,58756,6,0,L|240:381,1,115,6|8,3:2|0:0,0:0:0:0:
150,333,59416,2,0,P|118:293|90:235,1,115,6|8,3:2|0:0,0:0:0:0:
87,184,59910,2,0,B|191:170|153:214|282:191,1,172.5,4|8,3:2|0:0,0:0:0:0:
361,193,60735,2,0,L|445:196,1,57.5,0|0,3:0|3:0,0:0:0:0:
470,198,61064,1,8,0:0:0:0:
480,301,61394,6,0,P|434:318|369:338,1,115,6|8,3:2|0:0,0:0:0:0:
269,359,62053,2,0,L|201:339,1,57.5,6|0,3:2|3:0,0:0:0:0:
161,342,62383,1,8,0:0:0:0:
161,342,62548,2,0,P|181:276|205:163,1,172.5,4|8,0:0|0:0,0:0:0:0:
190,72,63372,1,0,3:0:0:0:
276,14,63702,2,0,L|306:70,1,57.5,8|8,0:0|0:0,0:0:0:0:
310,116,64031,6,0,L|430:77,1,115,6|8,3:1|0:0,0:0:0:0:
468,171,64691,2,0,L|519:215,2,57.5,2|0|8,3:1|3:0|0:0,0:0:0:0:
425,200,65185,2,0,B|427:257|437:290|437:290|422:324|410:378,1,172.5,2|8,3:1|0:0,0:0:0:0:
309,379,66009,1,0,3:0:0:0:
206,362,66339,1,8,0:0:0:0:
208,258,66669,6,0,B|160:230|160:230|83:228,1,115,2|8,3:2|0:0,0:0:0:0:
16,167,67328,2,0,L|-1:53,1,115,2|8,3:2|0:0,0:0:0:0:
43,28,67822,2,0,B|91:0|91:0|150:-1,1,115,2|0,3:2|3:0,0:0:0:0:
199,16,68317,1,8,0:0:0:0:
268,92,68647,1,0,3:0:0:0:
246,193,68976,2,0,L|269:264,1,57.5,10|2,0:0|0:3,0:0:0:0:
265,299,69306,6,0,P|317:332|382:354,1,115,2|10,3:2|0:0,0:0:0:0:
456,299,69965,2,0,P|479:226|484:179,1,115,2|8,3:2|0:0,0:0:0:0:
471,137,70460,2,0,L|334:107,1,115,2|0,3:2|3:0,0:0:0:0:
321,76,70954,1,8,0:0:0:0:
240,140,71284,1,0,3:0:0:0:
137,153,71614,2,0,L|72:143,1,57.5,10|0,0:0|0:0,0:0:0:0:
29,156,71943,6,0,P|17:103|12:27,1,115,2|10,3:2|0:0,0:0:0:0:
107,0,72603,2,0,P|119:53|124:129,1,115,2|8,3:2|0:0,0:0:0:0:
121,165,73097,2,0,B|226:155|194:200|311:180,1,172.5,2|8,3:2|0:0,0:0:0:0:
390,210,73921,1,0,3:0:0:0:
365,310,74251,2,0,L|293:297,1,57.5,8|8,0:0|0:0,0:0:0:0:
260,320,74581,6,0,B|219:337|219:337|141:332,1,115,6|8,3:1|0:0,0:0:0:0:
61,277,75240,2,0,L|1:293,2,57.5,2|0|8,3:1|3:0|0:0,0:0:0:0:
95,238,75735,2,0,B|107:192|110:150|110:150|99:107|79:65,1,172.5,2|8,3:1|0:0,0:0:0:0:
162,10,76559,1,0,3:0:0:0:
258,46,76888,1,8,0:0:0:0:
323,126,77218,6,0,L|439:139,1,115,2|8,3:2|0:0,0:0:0:0:
492,226,77877,2,0,P|449:269|402:300,1,115,2|8,3:2|0:0,0:0:0:0:
383,346,78372,2,0,L|268:333,1,115,2|0,3:2|3:0,0:0:0:0:
227,360,78866,1,8,0:0:0:0:
148,291,79196,1,0,3:0:0:0:
138,187,79526,2,0,L|71:185,1,57.5,10|2,0:0|0:3,0:0:0:0:
31,202,79855,6,0,B|11:148|11:148|17:84,1,115,2|10,3:2|0:0,0:0:0:0:
99,28,80515,2,0,L|218:40,1,115,2|8,3:2|0:0,0:0:0:0:
262,22,81009,2,0,P|297:56|339:125,1,115,2|0,3:2|3:0,0:0:0:0:
359,156,81504,1,8,0:0:0:0:
444,214,81833,1,0,3:0:0:0:
452,317,82163,2,0,L|385:330,1,57.5,10|0,0:0|0:0,0:0:0:0:
352,355,82493,6,0,P|297:330|248:290,1,115,2|10,3:2|0:0,0:0:0:0:
254,192,83152,2,0,P|299:156|351:133,1,115,2|8,3:2|0:0,0:0:0:0:
373,86,83647,2,0,B|281:96|306:62|195:75,1,172.5,2|8,3:2|0:0,0:0:0:0:
125,4,84471,1,0,3:0:0:0:
22,16,84800,2,0,L|29:96,1,57.5,8|8,0:0|0:0,0:0:0:0:
1,118,85130,6,0,P|15:176|42:246,1,115,6|8,3:1|0:0,0:0:0:0:
70,265,85625,1,2,0:0:0:0:
153,212,85954,1,2,3:1:0:0:
244,163,86284,2,0,P|272:215|275:338,1,172.5,6|8,3:2|0:0,0:0:0:0:
183,369,87108,2,0,L|113:355,2,57.5,0|0|8,0:0|3:0|0:0,0:0:0:0:
281,338,87767,6,0,L|397:322,1,115,6|8,3:1|0:0,0:0:0:0:
442,301,88262,1,2,0:0:0:0:
440,197,88592,1,2,3:1:0:0:
421,95,88921,2,0,B|355:113|355:113|236:82,1,172.5,6|8,3:2|0:0,0:0:0:0:
155,56,89745,2,0,L|146:-3,2,57.5,0|0|8,0:0|3:0|0:0,0:0:0:0:
154,153,90405,6,0,P|97:177|29:187,1,115,6|8,3:1|0:0,0:0:0:0:
0,166,90899,1,2,0:0:0:0:
21,267,91229,1,2,3:1:0:0:
9,370,91559,2,0,B|111:384|86:351|186:375,1,172.5,6|10,3:2|0:0,0:0:0:0:
267,318,92383,2,0,L|341:298,2,57.5,0|0|8,0:0|3:0|0:0,0:0:0:0:
179,262,93042,6,0,L|172:124,1,115,6|8,3:1|0:0,0:0:0:0:
150,100,93537,1,2,0:0:0:0:
243,56,93866,1,2,3:1:0:0:
320,124,94196,2,0,B|368:126|368:126|501:111,1,172.5,6|8,3:2|0:0,0:0:0:0:
455,213,95020,1,0,3:0:0:0:
455,213,95185,2,0,L|440:277,1,57.5,8|8,3:1|3:1,0:0:0:0:
351,321,95680,5,6,3:2:0:0:
277,249,96009,1,8,0:0:0:0:
221,161,96339,2,0,P|164:175|102:183,1,115,6|8,3:2|0:0,0:0:0:0:
56,183,96833,2,0,P|44:275|118:295,1,172.5,6|8,3:2|0:0,0:0:0:0:
194,352,97658,2,0,L|264:368,1,57.5,0|0,3:0|3:0,0:0:0:0:
300,378,97987,1,8,0:0:0:0:
345,284,98317,6,0,P|391:257|449:231,1,115,6|8,3:2|0:0,0:0:0:0:
447,128,98976,2,0,P|392:113|333:90,1,115,6|8,3:2|0:0,0:0:0:0:
286,101,99471,2,0,B|203:128|228:78|114:105,1,172.5,6|8,3:2|0:0,0:0:0:0:
21,146,100295,2,0,L|38:214,1,57.5,0|0,3:0|3:0,0:0:0:0:
18,251,100625,1,8,0:0:0:0:
101,311,100954,6,0,P|144:349|200:380,1,115,6|8,3:2|0:0,0:0:0:0:
295,357,101614,2,0,P|333:314|364:258,1,115,6|8,3:2|0:0,0:0:0:0:
356,212,102108,2,0,L|484:235,1,115,6|2,3:2|3:2,0:0:0:0:
512,206,102603,1,8,0:0:0:0:
512,206,102767,2,0,B|505:99|470:143|469:36,1,172.5,8|8,0:0|0:0,0:0:0:0:
365,49,103592,6,0,P|278:91|243:102,1,115,6|8,3:2|0:0,0:0:0:0:
171,149,104251,2,0,L|128:199,1,57.5,6|0,3:2|3:0,0:0:0:0:
120,245,104581,1,8,0:0:0:0:
120,245,104745,2,0,P|207:287|306:312,1,172.5,4|8,0:0|0:0,0:0:0:0:
343,225,105570,2,0,L|408:193,2,57.5,0|0|4,3:0|3:0|0:2,0:0:0:0:
268,153,106229,6,0,L|255:15,2,115,6|8|2,3:1|0:0|3:0,0:0:0:0:
204,235,107218,1,8,0:0:0:0:
103,211,107548,2,0,L|130:322,1,115,2|8,0:0|0:0,0:0:0:0:
227,353,108207,2,0,L|283:365,2,57.5,2|0|8,3:1|3:0|0:0,0:0:0:0:
125,334,108866,6,0,B|69:347|69:347|22:387,2,115,2|8|2,3:1|0:0|3:0,0:0:0:0:
201,263,109855,1,8,0:0:0:0:
201,263,110020,2,0,L|210:127,1,115,0|0,3:0|3:0,0:0:0:0:
212,96,110515,1,8,0:0:0:0:
316,136,110844,2,0,L|313:200,1,57.5,2|0,3:1|3:0,0:0:0:0:
311,245,111174,1,8,0:0:0:0:
367,332,111504,6,0,P|421:330|481:321,2,115,2|8|2,3:1|0:0|3:0,0:0:0:0:
301,251,112493,1,8,0:0:0:0:
217,312,112822,2,0,L|99:276,1,115,2|8,0:0|0:0,0:0:0:0:
55,187,113482,2,0,P|-2:209|-22:214,2,57.5,2|0|8,3:1|3:0|0:0,0:0:0:0:
139,127,114141,6,0,P|154:76|163:-4,2,115,2|8|2,3:1|0:0|3:0,0:0:0:0:
67,202,115130,1,8,0:0:0:0:
67,202,115295,2,0,P|74:258|90:314,1,115,0|0,3:0|3:0,0:0:0:0:
113,360,115789,1,8,0:0:0:0:
203,309,116119,2,0,L|264:324,1,57.5,4|0,3:2|3:0,0:0:0:0:
301,353,116449,2,0,L|356:339,1,57.5,12|0,0:2|0:0,0:0:0:0:
376,291,116778,6,0,B|431:287|431:287|501:316,2,115,6|8|2,3:1|0:0|3:0,0:0:0:0:
284,242,117767,1,8,0:0:0:0:
204,175,118097,2,0,L|166:57,1,115,2|8,0:0|0:0,0:0:0:0:
251,4,118756,2,0,L|331:23,2,57.5,2|0|8,3:1|3:0|0:0,0:0:0:0:
161,57,119416,6,0,P|106:73|50:89,2,115,2|8|2,3:1|0:0|3:0,0:0:0:0:
263,92,120405,1,8,0:0:0:0:
263,92,120570,2,0,L|301:210,1,115,0|0,3:0|3:0,0:0:0:0:
314,250,121064,1,8,0:0:0:0:
416,215,121394,2,0,L|394:155,1,57.5,2|0,3:1|3:0,0:0:0:0:
378,112,121724,1,8,0:0:0:0:
399,11,122053,6,0,B|458:5|458:5|516:27,2,115,2|8|2,3:1|0:0|3:0,0:0:0:0:
305,56,123042,1,8,0:0:0:0:
218,112,123372,2,0,P|161:126|102:123,1,115,2|8,0:0|0:0,0:0:0:0:
55,32,124031,2,0,L|0:18,2,57.5,2|0|8,3:1|3:0|0:0,0:0:0:0:
91,129,124691,6,0,L|84:258,1,115,2|8,3:1|0:0,0:0:0:0:
143,329,125350,2,0,P|193:362|243:384,1,115,2|8,3:0|0:0,0:0:0:0:
271,341,125844,2,0,L|400:348,1,115,0|0,3:0|3:0,0:0:0:0:
424,312,126339,1,8,0:0:0:0:
473,221,126669,2,0,L|446:169,1,57.5,4|4,3:2|3:0,0:0:0:0:
443,118,126998,2,0,L|389:97,1,57.5,8|8,0:0|0:0,0:0:0:0:
346,67,127328,6,0,P|298:98|245:121,1,115,6|8,3:1|0:0,0:0:0:0:
197,140,127822,1,2,0:0:0:0:
118,207,128152,1,2,3:1:0:0:
88,306,128482,2,0,B|132:285|180:279|180:279|214:299|256:307,1,172.5,6|8,3:2|0:0,0:0:0:0:
353,293,129306,2,0,L|406:313,2,57.5,0|0|8,3:0|3:0|0:0,0:0:0:0:
305,200,129965,6,0,L|289:86,1,115,6|8,3:1|0:0,0:0:0:0:
276,35,130460,1,2,0:0:0:0:
175,56,130789,1,2,3:1:0:0:
72,71,131119,2,0,B|67:126|41:170|41:170|36:213|26:238,1,172.5,6|8,3:2|0:0,0:0:0:0:
74,327,131943,2,0,L|99:378,2,57.5,0|0|8,3:0|3:0|0:0,0:0:0:0:
123,235,132603,6,0,L|249:213,1,115,6|8,3:1|0:0,0:0:0:0:
288,210,133097,1,2,0:0:0:0:
389,189,133427,1,2,3:1:0:0:
490,170,133756,2,0,B|490:109|490:109|462:49,1,115,6|0,3:2|3:0,0:0:0:0:
438,16,134251,1,10,0:0:0:0:
438,16,134416,2,0,L|324:35,1,115,8|0,0:0|3:0,0:0:0:0:
276,18,134910,1,8,0:0:0:0:
223,107,135240,6,0,B|166:112|166:112|93:94,1,115,6|8,3:1|0:0,0:0:0:0:
58,89,135735,1,2,0:0:0:0:
44,191,136064,1,2,3:1:0:0:
60,293,136394,2,0,B|116:275|116:275|235:296,1,172.5,6|8,3:2|0:0,0:0:0:0:
331,285,137218,2,0,L|400:263,1,57.5,0|0,3:0|3:0,0:0:0:0:
437,258,137548,2,0,L|431:186,1,57.5,8|8,3:1|0:0,0:0:0:0:
394,165,137877,6,0,L|389:46,1,115,6|8,3:1|0:0,0:0:0:0:
356,9,138372,1,2,0:0:0:0:
252,18,138702,1,2,3:1:0:0:
152,44,139031,2,0,B|169:81|169:81|174:129|194:213,1,172.5,6|8,3:2|0:0,0:0:0:0:
119,283,139855,2,0,L|86:232,2,57.5,0|0|8,3:0|3:0|0:0,0:0:0:0:
202,344,140515,6,0,L|324:351,1,115,6|8,3:1|0:0,0:0:0:0:
369,355,141009,1,2,0:0:0:0:
398,255,141339,1,2,3:1:0:0:
418,153,141669,2,0,P|338:116|261:57,1,172.5,6|8,3:2|0:0,0:0:0:0:
174,26,142493,2,0,L|111:15,2,57.5,0|0|8,3:0|3:0|0:0,0:0:0:0:
202,125,143152,6,0,L|221:251,1,115,6|8,3:1|0:0,0:0:0:0:
204,292,143647,1,2,0:0:0:0:
120,352,143976,1,2,3:1:0:0:
18,330,144306,2,0,P|41:280|58:214,1,115,6|0,3:2|3:0,0:0:0:0:
99,193,144800,1,10,0:0:0:0:
99,193,144965,2,0,L|79:71,1,115,8|0,0:0|3:0,0:0:0:0:
103,32,145460,1,8,0:0:0:0:
203,10,145789,6,0,P|248:48|301:80,1,115,6|8,3:1|0:0,0:0:0:0:
343,98,146284,1,2,0:0:0:0:
433,148,146614,1,2,3:1:0:0:
462,246,146943,2,0,B|403:253|403:253|382:238|333:250|272:239,1,172.5,6|8,3:2|0:0,0:0:0:0:
199,289,147767,2,0,L|118:284,1,57.5,0|8,3:0|3:1,0:0:0:0:
114,240,148097,2,0,L|120:176,1,57.5,8|8,3:1|0:0,0:0:0:0:
113,130,148427,6,0,P|143:135|185:137,2,57.5,6|0|8,3:2|3:0|0:0,0:0:0:0:
14,161,149086,2,0,L|28:294,1,115,6|8,3:2|0:0,0:0:0:0:
20,327,149581,2,0,B|71:350|93:368|93:368|135:362|197:359,1,172.5,6|8,3:2|0:0,0:0:0:0:
270,308,150405,2,0,L|348:331,1,57.5,0|0,3:0|3:0,0:0:0:0:
364,358,150735,1,8,0:0:0:0:
439,287,151064,6,0,P|449:230|453:173,1,115,6|8,3:2|0:0,0:0:0:0:
355,216,151724,2,0,P|360:151|372:93,1,115,6|8,3:2|0:0,0:0:0:0:
371,50,152218,2,0,B|283:85|299:44|195:75,1,172.5,6|8,3:2|0:0,0:0:0:0:
104,38,153042,2,0,P|87:60|47:91,1,57.5,0|0,3:0|3:0,0:0:0:0:
17,102,153372,1,8,0:0:0:0:
81,183,153702,6,0,L|126:300,1,115,6|8,3:2|0:0,0:0:0:0:
223,314,154361,2,0,L|309:209,1,115,6|8,3:2|0:0,0:0:0:0:
288,173,154855,2,0,B|345:160|345:160|471:195,1,172.5,6|8,3:2|0:0,0:0:0:0:
511,105,155680,2,0,L|463:51,1,57.5,0|0,3:0|3:0,0:0:0:0:
436,25,156009,1,8,0:0:0:0:
336,54,156339,6,0,P|281:75|216:93,1,115,6|8,3:2|0:0,0:0:0:0:
140,33,156998,2,0,L|87:70,1,57.5,6|0,3:2|3:0,0:0:0:0:
41,72,157328,1,8,0:0:0:0:
41,72,157493,2,0,P|24:113|100:219,1,172.5,4|8,0:0|0:0,0:0:0:0:
186,226,158317,1,0,3:0:0:0:
233,317,158647,2,0,L|287:356,1,57.5,8|8,0:0|0:0,0:0:0:0:
327,370,158976,6,0,B|342:314|342:314|332:247,1,115,6|8,3:2|0:0,0:0:0:0:
295,160,159636,2,0,B|348:136|348:136|421:142,1,115,6|8,3:2|0:0,0:0:0:0:
445,171,160130,2,0,B|471:120|482:99|482:99|472:55|465:-1,1,172.5,6|8,3:2|0:0,0:0:0:0:
362,13,160954,2,0,L|296:48,1,57.5,0|0,3:0|3:0,0:0:0:0:
263,60,161284,1,8,0:0:0:0:
163,37,161614,6,0,P|158:71|134:157,1,115,6|8,3:2|0:0,0:0:0:0:
114,249,162273,2,0,P|171:238|226:230,1,115,6|8,3:2|0:0,0:0:0:0:
259,270,162767,2,0,P|338:286|386:212,1,172.5,6|8,3:2|0:0,0:0:0:0:
355,119,163592,2,0,L|362:57,1,57.5,0|0,3:0|3:0,0:0:0:0:
365,10,163921,1,8,0:0:0:0:
463,31,164251,6,0,P|482:79|512:149,1,115,6|8,3:2|0:0,0:0:0:0:
510,241,164910,2,0,P|487:293|466:347,1,115,6|8,3:2|0:0,0:0:0:0:
418,369,165405,2,0,B|324:377|367:344|231:363,1,172.5,6|8,3:2|0:0,0:0:0:0:
150,323,166229,2,0,L|112:269,1,57.5,0|0,3:0|3:0,0:0:0:0:
85,234,166559,1,8,0:0:0:0:
183,204,166888,6,0,P|201:145|213:76,1,115,6|8,3:2|0:0,0:0:0:0:
273,9,167548,2,0,L|303:57,1,57.5,6|0,3:2|3:0,0:0:0:0:
338,95,167877,1,8,0:0:0:0:
338,95,168042,2,0,B|425:107|425:107|501:70,1,172.5,4|8,0:0|0:0,0:0:0:0:
505,121,168702,2,0,L|486:311,1,172.5,8|8,0:0|0:0,0:0:0:0:
405,355,169526,5,12,3:1:0:0:
318,299,169855,1,8,0:0:0:0:
221,336,170185,2,0,L|91:348,1,115,2|8,3:2|0:0,0:0:0:0:
55,355,170680,2,0,P|34:282|130:252,1,172.5,6|8,3:2|0:0,0:0:0:0:
152,215,171339,2,0,B|175:163|175:163|174:83,1,115,8|0,0:0|3:0,0:0:0:0:
149,59,171833,1,8,0:0:0:0:
249,3,172163,5,12,3:1:0:0:
328,69,172493,1,8,0:0:0:0:
283,162,172822,2,0,P|313:213|359:267,1,115,2|8,3:2|0:0,0:0:0:0:
331,305,173317,2,0,B|425:278|423:314|511:281,1,172.5,6|8,3:2|0:0,0:0:0:0:
489,234,173976,2,0,L|499:168,1,57.5,8|0,0:0|3:0,0:0:0:0:
451,83,174471,2,0,L|385:73,1,57.5,8|8,0:0|0:0,0:0:0:0:
363,32,174800,6,0,P|307:38|245:63,1,115,12|8,3:1|0:0,0:0:0:0:
183,134,175460,2,0,P|127:128|65:103,1,115,2|8,3:2|0:0,0:0:0:0:
25,128,175954,2,0,B|16:177|12:209|12:209|28:248|44:307,1,172.5,6|8,3:2|0:0,0:0:0:0:
66,339,176614,2,0,P|123:332|176:312,1,115,8|0,0:0|3:0,0:0:0:0:
220,286,177108,1,8,0:0:0:0:
243,185,177438,5,6,3:2:0:0:
334,137,177767,1,8,0:0:0:0:
418,181,178097,2,0,L|483:205,1,57.5,2|0,3:2|3:0,0:0:0:0:
487,256,178427,1,8,0:0:0:0:
487,256,178592,2,0,B|496:207|500:175|500:175|484:136|468:77,1,172.5,4|8,0:0|0:0,0:0:0:0:
405,17,179416,1,0,3:0:0:0:
405,17,179581,2,0,L|345:29,1,57.5,0|8,3:0|0:0,0:0:0:0:
267,92,180075,6,0,P|217:72|157:38,1,115,6|8,3:2|0:0,0:0:0:0:
69,84,180735,2,0,L|84:216,1,115,6|8,3:2|0:0,0:0:0:0:
59,244,181229,2,0,B|155:226|123:266|229:246,1,172.5,6|8,3:2|0:0,0:0:0:0:
332,255,182053,2,0,L|321:320,1,57.5,0|0,3:0|3:0,0:0:0:0:
333,362,182383,1,8,0:0:0:0:
432,332,182713,6,0,B|455:280|455:280|448:209,1,115,6|8,3:2|0:0,0:0:0:0:
400,130,183372,2,0,P|356:106|270:107,1,115,6|8,3:2|0:0,0:0:0:0:
273,149,183866,2,0,L|137:172,1,115,6|2,3:2|3:2,0:0:0:0:
113,157,184361,1,8,0:0:0:0:
113,157,184526,2,0,B|89:208|81:238|81:238|83:283|96:348,1,172.5,8|8,0:0|0:0,0:0:0:0:
181,372,185350,6,0,P|227:331|264:285,1,115,6|8,3:2|0:0,0:0:0:0:
303,195,186009,2,0,P|349:236|386:282,1,115,6|8,3:2|0:0,0:0:0:0:
429,299,186504,2,0,L|449:161,1,115,6|2,3:2|3:2,0:0:0:0:
495,165,186998,1,8,0:0:0:0:
495,165,187163,2,0,P|470:106|445:-8,1,172.5,8|8,0:0|0:0,0:0:0:0:
354,49,187987,6,0,L|226:34,1,115,6|8,3:2|0:0,0:0:0:0:
188,28,188482,1,0,0:0:0:0:
188,28,188647,2,0,L|173:156,1,115,6|8,3:2|0:0,0:0:0:0:
167,193,189141,1,4,3:1:0:0:
256,192,189306,12,0,198207,2:0:0:0:
