osu file format v14

[General]
AudioFilename: audio.mp3
AudioLeadIn: 0
PreviewTime: 72
Countdown: 0
SampleSet: Normal
StackLeniency: 0.7
Mode: 0
LetterboxInBreaks: 0
EpilepsyWarning: 1
WidescreenStoryboard: 1

[Editor]
Bookmarks: 21833,42932,64031,85130,101614,131037,151559,168042,183702,186504
DistanceSpacing: 0.9
BeatDivisor: 12
GridSize: 4
TimelineZoom: 2.2

[Metadata]
Title:Alchemy
TitleUnicode:Alchemy
Artist:wintermute
ArtistUnicode:wintermute
Creator:Renumi
Version:Insane
Source:
Tags:The Voc@loid M@ster Master 20 初音ミク vol.1 japanese shoegaze alternative noise rock altrock alt-rock jrock j-rock vocaloid hatsune miku mikgazer
BeatmapID:3163222
BeatmapSetID:1547938

[Difficulty]
HPDrainRate:7
CircleSize:4
OverallDifficulty:8
ApproachRate:8.5
SliderMultiplier:1.51
SliderTickRate:1

[Events]
//Background and Video events
0,0,"26986878_p0.jpg",0,0
//Break Periods
//Storyboard Layer 0 (Background)
//Storyboard Layer 1 (Fail)
//Storyboard Layer 2 (Pass)
//Storyboard Layer 3 (Foreground)
//Storyboard Layer 4 (Overlay)
//Storyboard Sound Samples

[TimingPoints]
72,329.67032967033,4,1,1,40,1,0
735,329.67032967033,4,1,1,80,1,0
42932,-100,4,1,1,85,0,1
53482,-100,4,1,1,85,0,0
53647,-100,4,1,1,80,0,0
85130,-100,4,1,1,85,0,1
95680,-100,4,1,1,85,0,0
95844,-100,4,1,1,80,0,0
106229,-100,4,1,1,85,0,1
126998,-100,4,1,1,85,0,0
127328,-100,4,1,1,85,0,1
148427,-100,4,1,1,85,0,0
148592,-100,4,1,1,80,0,0
169526,-100,4,1,1,85,0,0
178756,-100,4,1,1,80,0,0
189141,-100,4,1,1,85,0,0
189416,-100,4,1,1,84,0,0
189526,-100,4,1,1,83,0,0
189636,-100,4,1,1,82,0,0
189745,-100,4,1,1,81,0,0
189855,-100,4,1,1,80,0,0
189965,-100,4,1,1,79,0,0
190075,-100,4,1,1,78,0,0
190185,-100,4,1,1,77,0,0
190295,-100,4,1,1,76,0,0
190405,-100,4,1,1,75,0,0
190515,-100,4,1,1,74,0,0
190625,-100,4,1,1,73,0,0
190735,-100,4,1,1,72,0,0
190844,-100,4,1,1,71,0,0
190954,-100,4,1,1,70,0,0
191064,-100,4,1,1,69,0,0
191174,-100,4,1,1,68,0,0
191284,-100,4,1,1,67,0,0
191394,-100,4,1,1,66,0,0
191504,-100,4,1,1,65,0,0
191614,-100,4,1,1,64,0,0
191724,-100,4,1,1,63,0,0
191833,-100,4,1,1,62,0,0
191943,-100,4,1,1,61,0,0
192053,-100,4,1,1,60,0,0
192163,-100,4,1,1,59,0,0
192273,-100,4,1,1,58,0,0
192383,-100,4,1,1,57,0,0
192493,-100,4,1,1,56,0,0
192603,-100,4,1,1,55,0,0
192713,-100,4,1,1,54,0,0
192822,-100,4,1,1,53,0,0
192932,-100,4,1,1,52,0,0
193042,-100,4,1,1,51,0,0
193152,-100,4,1,1,50,0,0
193262,-100,4,1,1,49,0,0
193372,-100,4,1,1,48,0,0
193482,-100,4,1,1,47,0,0
193592,-100,4,1,1,46,0,0
193702,-100,4,1,1,45,0,0
193811,-100,4,1,1,44,0,0
193921,-100,4,1,1,43,0,0
194031,-100,4,1,1,42,0,0
194141,-100,4,1,1,41,0,0
194251,-100,4,1,1,40,0,0
194361,-100,4,1,1,39,0,0
194471,-100,4,1,1,38,0,0
194581,-100,4,1,1,37,0,0
194691,-100,4,1,1,36,0,0
194800,-100,4,1,1,35,0,0
194910,-100,4,1,1,34,0,0
195020,-100,4,1,1,33,0,0
195130,-100,4,1,1,32,0,0
195240,-100,4,1,1,31,0,0
195350,-100,4,1,1,30,0,0
195460,-100,4,1,1,29,0,0
195570,-100,4,1,1,28,0,0
195680,-100,4,1,1,27,0,0
195789,-100,4,1,1,26,0,0
195899,-100,4,1,1,25,0,0
196009,-100,4,1,1,24,0,0
196119,-100,4,1,1,23,0,0
196229,-100,4,1,1,22,0,0
196339,-100,4,1,1,21,0,0
196449,-100,4,1,1,20,0,0
196559,-100,4,1,1,19,0,0
196669,-100,4,1,1,18,0,0
196778,-100,4,1,1,17,0,0
196888,-100,4,1,1,16,0,0
196998,-100,4,1,1,15,0,0
197108,-100,4,1,1,14,0,0
197218,-100,4,1,1,13,0,0
197328,-100,4,1,1,12,0,0
197438,-100,4,1,1,11,0,0
197548,-100,4,1,1,10,0,0
197658,-100,4,1,1,9,0,0
197767,-100,4,1,1,8,0,0
197877,-100,4,1,1,7,0,0
197987,-100,4,1,1,6,0,0
198097,-100,4,1,1,5,0,0

[Colours]
Combo1 : 236,219,202
Combo2 : 216,219,243
Combo3 : 198,231,234

[HitObjects]
190,96,72,5,2,2:3:0:0:
321,288,401,1,2,2:3:0:0:
256,192,735,6,0,L|160:216,1,75.5,4|0,3:2|3:0,0:0:0:0:
4,340,1064,2,0,P|60:304|128:308,1,113.25,8|0,0:0|0:0,0:0:0:0:
117,310,1394,2,0,P|161:326|205:326,1,75.5,6|0,3:2|3:0,0:0:0:0:
392,256,1724,1,8,0:0:0:0:
367,384,1888,2,0,P|303:324|263:236,1,151,6|0,3:2|3:0,0:0:0:0:
324,140,2383,1,8,0:0:0:0:
380,248,2548,1,8,0:0:0:0:
466,215,2713,2,0,L|382:231,1,75.5,0|0,3:0|3:0,0:0:0:0:
182,198,3042,1,8,0:0:0:0:
324,140,3207,1,2,0:3:0:0:
239,266,3372,5,6,3:2:0:0:
267,85,3537,1,0,3:0:0:0:
156,203,3702,2,0,P|130:246|68:300,1,113.25,8|0,0:0|0:0,0:0:0:0:
74,299,4031,2,0,L|-28:288,1,75.5,6|0,3:2|3:0,0:0:0:0:
239,266,4361,1,8,0:0:0:0:
6,208,4526,2,0,B|95:186|62:228|184:196,1,151,6|0,3:2|3:0,0:0:0:0:
248,145,5020,1,8,0:0:0:0:
95,380,5185,1,8,0:0:0:0:
93,281,5350,2,0,L|73:382,1,75.5,0|0,3:0|3:0,0:0:0:0:
282,292,5680,1,8,0:0:0:0:
195,204,5844,1,2,0:3:0:0:
192,325,6009,5,6,3:2:0:0:
363,212,6174,1,0,3:0:0:0:
303,376,6339,2,0,P|283:332|274:250,1,113.25,8|0,0:0|0:0,0:0:0:0:
280,255,6669,2,0,L|288:173,1,75.5,6|0,3:2|3:0,0:0:0:0:
383,313,6998,1,8,0:0:0:0:
182,171,7163,2,0,P|207:100|221:20,1,151,6|0,3:2|3:0,0:0:0:0:
316,0,7658,1,8,0:0:0:0:
78,0,7822,1,8,0:0:0:0:
129,80,7987,2,0,L|100:10,1,75.5,0|0,3:0|3:0,0:0:0:0:
25,108,8317,1,8,0:0:0:0:
182,171,8482,1,2,0:3:0:0:
105,86,8647,5,6,3:2:0:0:
135,247,8811,1,0,3:0:0:0:
278,167,8976,2,0,P|341:131|384:119,1,113.25,8|0,0:0|0:0,0:0:0:0:
394,121,9306,1,6,3:2:0:0:
346,0,9471,1,0,3:0:0:0:
486,18,9636,1,8,0:0:0:0:
361,221,9800,6,0,P|402:261|482:314,1,151,4|0,0:0|3:0,0:0:0:0:
398,374,10295,1,8,0:0:0:0:
319,311,10460,1,8,0:0:0:0:
233,360,10625,2,0,L|145:340,1,75.5,0|0,3:0|3:0,0:0:0:0:
0,279,10954,5,8,0:0:0:0:
8,267,11037,1,8,0:0:0:0:
15,253,11119,1,8,0:0:0:0:
21,239,11202,1,8,0:0:0:0:
26,225,11284,2,0,L|9:138,1,75.5,6|0,3:2|3:0,0:0:0:0:
134,260,11614,2,0,P|145:220|153:140,1,113.25,8|0,0:0|0:0,0:0:0:0:
149,134,11943,2,0,L|224:119,1,75.5,6|0,3:2|3:0,0:0:0:0:
145,26,12273,1,8,0:0:0:0:
353,173,12438,2,0,P|316:110|291:29,1,151,6|0,3:2|3:0,0:0:0:0:
398,5,12932,1,8,0:0:0:0:
474,142,13097,1,8,0:0:0:0:
512,58,13262,2,0,L|494:131,1,75.5,0|0,3:0|3:0,0:0:0:0:
408,303,13592,1,8,0:0:0:0:
287,272,13756,1,2,0:3:0:0:
403,216,13921,5,6,3:2:0:0:
315,351,14086,1,0,3:0:0:0:
214,227,14251,2,0,P|167:245|84:253,1,113.25,8|0,0:0|0:0,0:0:0:0:
91,247,14581,2,0,L|12:224,1,75.5,6|0,3:2|3:0,0:0:0:0:
60,131,14910,1,8,0:0:0:0:
181,338,15075,2,0,B|87:363|115:326|31:343,1,151,6|0,3:2|3:0,0:0:0:0:
119,256,15570,1,8,0:0:0:0:
321,296,15735,1,8,0:0:0:0:
234,276,15899,2,0,P|279:300|310:309,1,75.5,0|0,3:0|3:0,0:0:0:0:
407,346,16229,1,8,0:0:0:0:
496,257,16394,1,2,0:3:0:0:
491,372,16559,5,6,3:2:0:0:
390,225,16724,1,0,3:0:0:0:
512,63,16888,2,0,P|468:91|385:107,1,113.25,8|0,0:0|0:0,0:0:0:0:
396,97,17218,2,0,L|407:10,1,75.5,6|0,3:2|3:0,0:0:0:0:
483,143,17548,1,8,0:0:0:0:
278,96,17713,2,0,P|262:152|239:202,1,113.25,4|0,3:2|0:0,0:0:0:0:
231,215,18042,2,0,L|180:197,2,37.75,2|0|8,3:2|0:0|0:0,0:0:0:0:
144,384,18372,2,0,P|122:332|116:299,1,75.5,8|0,0:0|3:0,0:0:0:0:
225,311,18702,1,0,3:0:0:0:
79,195,18866,1,8,0:0:0:0:
79,195,19196,6,0,L|63:106,1,75.5,6|0,3:2|3:0,0:0:0:0:
188,0,19526,2,0,P|206:33|267:86,1,113.25,8|0,0:0|0:0,0:0:0:0:
274,91,19855,1,6,3:2:0:0:
373,139,20020,1,0,3:0:0:0:
353,25,20185,1,8,0:0:0:0:
296,188,20350,6,0,L|312:363,1,151,4|0,0:0|3:0,0:0:0:0:
217,303,20844,1,8,0:0:0:0:
128,346,21009,1,8,0:0:0:0:
38,304,21174,1,0,3:0:0:0:
38,304,21339,1,0,3:0:0:0:
154,216,21504,5,8,0:0:0:0:
144,204,21586,1,8,0:0:0:0:
136,191,21669,1,8,0:0:0:0:
128,178,21751,1,8,0:0:0:0:
122,164,21833,1,6,3:1:0:0:
182,91,21998,1,0,3:0:0:0:
16,142,22163,1,8,0:0:0:0:
16,142,22493,2,0,L|27:243,1,75.5,2|0,3:1|3:0,0:0:0:0:
0,302,22822,1,8,0:0:0:0:
129,213,22987,6,0,P|186:235|280:257,1,151,2|0,3:1|3:0,0:0:0:0:
370,210,23482,1,8,0:0:0:0:
370,210,23811,1,0,3:0:0:0:
355,311,23976,2,0,P|360:348|372:384,2,75.5,2|8|2,3:1|0:0|0:1,0:0:0:0:
472,215,24471,5,2,3:2:0:0:
381,146,24636,1,0,3:0:0:0:
463,135,24800,1,8,0:0:0:0:
394,226,24965,1,0,0:0:0:0:
311,75,25130,1,2,3:2:0:0:
252,153,25295,1,0,3:0:0:0:
164,198,25460,1,8,0:0:0:0:
0,0,25625,6,0,P|38:25|150:62,1,151,2|0,3:2|3:0,0:0:0:0:
252,153,26119,2,0,P|251:195|242:238,1,75.5,8|0,0:0|0:0,0:0:0:0:
176,284,26449,1,0,3:0:0:0:
79,272,26614,1,0,3:0:0:0:
88,384,26778,2,0,P|52:378|-8:363,1,75.5,10|2,0:0|0:3,0:0:0:0:
117,172,27108,5,2,3:2:0:0:
2,221,27273,1,0,3:0:0:0:
176,284,27438,2,0,P|193:317|218:345,1,75.5,10|0,0:0|0:0,0:0:0:0:
363,343,27767,2,0,B|442:325|425:349|531:320,1,151,2|8,3:2|0:0,0:0:0:0:
512,191,28262,2,0,B|403:192|348:172,1,151,2|0,3:2|3:0,0:0:0:0:
252,104,28756,1,8,0:0:0:0:
205,13,28921,1,0,0:0:0:0:
153,94,29086,1,0,3:0:0:0:
195,187,29251,1,0,3:0:0:0:
87,359,29416,2,0,P|51:349|-5:324,1,75.5,10|0,0:0|0:0,0:0:0:0:
1,237,29745,5,2,3:2:0:0:
32,144,29910,1,0,3:0:0:0:
177,159,30075,2,0,P|166:122|160:85,1,75.5,10|0,0:0|0:0,0:0:0:0:
264,202,30405,1,2,3:2:0:0:
355,205,30570,1,0,3:0:0:0:
440,158,30735,1,8,0:0:0:0:
439,6,30899,2,0,P|392:33|288:67,1,151,2|0,3:2|3:0,0:0:0:0:
264,202,31394,2,0,P|262:243|255:288,1,75.5,8|0,0:0|0:0,0:0:0:0:
192,351,31724,1,0,3:0:0:0:
98,341,31888,1,0,3:0:0:0:
43,142,32053,5,8,0:0:0:0:
50,154,32136,1,8,0:0:0:0:
58,167,32218,1,8,0:0:0:0:
67,180,32300,1,8,0:0:0:0:
74,192,32383,1,6,3:1:0:0:
156,230,32548,1,0,3:0:0:0:
0,273,32713,1,8,0:0:0:0:
0,273,33042,2,0,P|35:284|72:292,1,75.5,2|0,3:1|3:0,0:0:0:0:
212,154,33372,1,8,0:0:0:0:
144,384,33537,6,0,P|167:338|195:237,1,151,2|0,3:1|3:0,0:0:0:0:
128,155,34031,2,0,P|116:106|110:60,1,75.5,8|0,0:0|0:0,0:0:0:0:
191,22,34361,1,0,3:0:0:0:
286,34,34526,1,2,3:1:0:0:
212,154,34691,2,0,P|248:146|285:136,1,75.5,8|2,0:0|0:1,0:0:0:0:
424,111,35020,6,0,L|420:261,1,151,2|8,3:2|0:0,0:0:0:0:
419,261,35680,2,0,P|380:288|339:306,1,75.5,2|0,3:2|3:0,0:0:0:0:
213,235,36009,1,8,0:0:0:0:
336,190,36174,2,0,P|275:157|202:76,1,151,2|0,3:2|3:0,0:0:0:0:
136,13,36669,2,0,P|56:11|40:14,1,75.5,8|0,0:0|0:0,0:0:0:0:
21,135,36998,1,0,3:0:0:0:
36,232,37163,1,0,3:0:0:0:
0,384,37328,2,0,P|38:380|76:382,1,75.5,10|2,0:0|0:3,0:0:0:0:
180,364,37658,5,2,3:2:0:0:
194,266,37822,1,0,3:0:0:0:
355,248,37987,2,0,P|318:239|284:223,1,75.5,10|0,0:0|0:0,0:0:0:0:
202,97,38317,1,2,3:2:0:0:
107,69,38482,1,0,3:0:0:0:
12,77,38647,1,8,0:0:0:0:
167,184,38811,2,0,P|241:174|313:150,1,151,2|0,3:2|3:0,0:0:0:0:
509,185,39306,1,8,0:0:0:0:
509,185,39636,1,0,3:0:0:0:
470,274,39800,1,0,3:0:0:0:
313,150,39965,2,0,P|303:186|287:220,1,75.5,10|0,0:0|0:0,0:0:0:0:
203,281,40295,5,2,3:2:0:0:
105,270,40460,1,0,3:0:0:0:
190,384,40625,2,0,L|280:373,1,75.5,10|0,0:0|0:0,0:0:0:0:
372,298,40954,1,2,3:2:0:0:
396,202,41119,1,0,3:0:0:0:
465,132,41284,1,8,0:0:0:0:
317,45,41449,1,2,3:2:0:0:
317,45,41778,1,0,3:0:0:0:
179,77,41943,1,8,0:0:0:0:
266,122,42108,1,0,0:0:0:0:
168,110,42273,1,0,3:0:0:0:
100,34,42438,1,0,3:0:0:0:
96,200,42603,5,8,0:0:0:0:
101,214,42685,1,8,0:0:0:0:
106,228,42767,1,8,0:0:0:0:
111,242,42850,1,8,0:0:0:0:
117,258,42932,2,0,P|155:297|232:324,1,113.25,6|0,3:1|0:0,0:0:0:0:
222,325,43262,1,8,0:0:0:0:
333,321,43427,2,0,L|423:348,1,75.5,2|2,0:0|3:2,0:0:0:0:
267,222,43756,2,0,L|269:146,1,75.5,2|8,3:1|0:0,0:0:0:0:
489,237,44086,6,0,P|418:225|358:156,1,151,6|0,3:2|3:0,0:0:0:0:
345,3,44581,1,8,0:0:0:0:
512,51,44745,2,0,P|413:36|345:17,1,151,8|0,0:0|3:0,0:0:0:0:
230,17,45240,2,0,P|193:28|149:31,1,75.5,8|0,0:0|0:0,0:0:0:0:
22,140,45570,6,0,P|67:143|140:189,1,113.25,6|0,3:1|0:0,0:0:0:0:
138,183,45899,1,8,0:0:0:0:
227,261,46064,2,0,P|169:294|138:304,1,75.5,2|2,0:0|3:2,0:0:0:0:
361,384,46394,2,0,P|296:366|267:351,1,75.5,2|8,3:1|0:0,0:0:0:0:
134,186,46724,6,0,P|167:109|188:17,1,151,6|0,3:2|3:0,0:0:0:0:
337,0,47218,1,8,0:0:0:0:
375,165,47383,1,8,0:0:0:0:
423,83,47548,2,0,P|403:146|395:165,1,75.5,0|0,3:0|3:0,0:0:0:0:
258,152,47877,5,8,0:0:0:0:
256,167,47960,1,8,0:0:0:0:
255,182,48042,1,8,0:0:0:0:
253,197,48125,1,8,0:0:0:0:
254,212,48207,2,0,L|241:344,1,113.25,6|0,3:1|0:0,0:0:0:0:
241,339,48537,1,8,0:0:0:0:
158,289,48702,2,0,P|142:335|137:375,1,75.5,2|2,0:0|3:2,0:0:0:0:
347,221,49031,2,0,P|363:267|368:307,1,75.5,2|8,3:1|0:0,0:0:0:0:
258,152,49361,6,0,P|191:171|97:186,1,151,6|0,3:2|3:0,0:0:0:0:
9,89,49855,1,10,0:0:0:0:
0,264,50020,2,0,P|19:197|34:103,1,151,8|0,0:0|3:0,0:0:0:0:
145,0,50515,2,0,P|153:41|169:85,1,75.5,8|0,0:0|0:0,0:0:0:0:
284,196,50844,6,0,P|358:187|405:156,1,113.25,6|0,3:1|0:0,0:0:0:0:
403,160,51174,1,8,0:0:0:0:
323,97,51339,2,0,L|345:14,1,75.5,2|2,0:0|3:2,0:0:0:0:
264,281,51669,2,0,L|286:364,1,75.5,2|8,3:1|0:0,0:0:0:0:
180,189,51998,2,0,P|114:174|14:177,1,151,6|0,3:2|3:0,0:0:0:0:
150,281,52493,1,8,0:0:0:0:
64,314,52658,2,0,P|115:311|146:302,1,75.5,8|0,0:0|3:0,0:0:0:0:
287,206,52987,5,8,3:1:0:0:
294,219,53070,1,8,0:0:0:0:
301,232,53152,1,8,3:1:0:0:
310,244,53235,1,8,0:0:0:0:
318,257,53317,1,8,0:0:0:0:
328,268,53399,1,8,0:0:0:0:
335,279,53482,2,0,P|388:308|418:316,1,75.5,6|0,3:2|3:0,0:0:0:0:
457,84,53811,2,0,P|398:95|319:85,1,113.25,8|0,0:0|0:0,0:0:0:0:
331,84,54141,2,0,L|322:-1,1,75.5,6|0,3:2|3:0,0:0:0:0:
443,0,54471,1,8,0:0:0:0:
238,115,54636,2,0,P|211:169|147:252,1,151,6|0,3:2|3:0,0:0:0:0:
48,201,55130,1,8,0:0:0:0:
226,353,55295,1,8,0:0:0:0:
130,340,55460,2,0,L|227:329,1,75.5,0|0,3:0|3:0,0:0:0:0:
354,358,55789,1,8,0:0:0:0:
380,257,55954,1,2,0:3:0:0:
474,347,56119,5,6,3:2:0:0:
400,157,56284,1,0,3:0:0:0:
283,232,56449,2,0,P|239:240|159:234,1,113.25,8|0,0:0|0:0,0:0:0:0:
160,225,56778,2,0,L|84:210,1,75.5,6|0,3:2|3:0,0:0:0:0:
0,69,57108,1,8,0:0:0:0:
9,245,57273,2,0,P|55:193|110:98,1,151,6|0,3:2|3:0,0:0:0:0:
60,0,57767,1,8,0:0:0:0:
223,127,57932,1,8,0:0:0:0:
187,31,58097,2,0,L|200:111,1,75.5,0|0,3:0|3:0,0:0:0:0:
343,192,58427,1,8,0:0:0:0:
434,133,58592,1,2,0:3:0:0:
313,116,58756,5,6,3:2:0:0:
460,209,58921,1,0,3:0:0:0:
256,198,59086,2,0,P|185:177|131:148,1,113.25,8|0,0:0|0:0,0:0:0:0:
135,155,59416,2,0,L|38:169,1,75.5,6|0,3:2|3:0,0:0:0:0:
230,93,59745,1,8,0:0:0:0:
281,273,59910,2,0,P|215:306|141:326,1,151,4|0,3:2|3:0,0:0:0:0:
0,301,60405,1,8,0:0:0:0:
73,148,60570,1,8,0:0:0:0:
76,240,60735,2,0,P|66:203|59:143,1,75.5,0|0,3:0|3:0,0:0:0:0:
207,9,61064,1,8,0:0:0:0:
207,9,61394,6,0,L|294:22,1,75.5,6|0,3:2|3:0,0:0:0:0:
466,69,61724,2,0,P|431:106|362:143,1,113.25,8|0,0:0|0:0,0:0:0:0:
363,142,62053,1,6,3:2:0:0:
269,217,62218,1,0,3:0:0:0:
257,105,62383,1,8,0:0:0:0:
360,238,62548,6,0,L|520:223,1,151,4|0,0:0|3:0,0:0:0:0:
413,313,63042,1,8,0:0:0:0:
297,384,63207,1,8,0:0:0:0:
465,383,63372,2,0,P|452:353|417:301,1,75.5,0|0,3:0|3:0,0:0:0:0:
281,297,63702,5,8,0:0:0:0:
266,294,63784,1,8,0:0:0:0:
251,291,63866,1,8,0:0:0:0:
236,288,63949,1,8,0:0:0:0:
221,286,64031,1,6,3:1:0:0:
139,194,64196,1,0,3:0:0:0:
107,384,64361,1,8,0:0:0:0:
107,384,64691,2,0,P|136:341|152:308,1,75.5,2|0,3:1|3:0,0:0:0:0:
63,242,65020,1,8,0:0:0:0:
192,115,65185,6,0,P|204:186|240:263,1,151,2|0,3:1|3:0,0:0:0:0:
350,337,65680,2,0,L|442:320,1,75.5,8|0,0:0|0:0,0:0:0:0:
479,242,66009,1,0,3:0:0:0:
417,165,66174,1,2,3:1:0:0:
512,2,66339,2,0,P|510:43|502:78,1,75.5,8|2,0:0|0:1,0:0:0:0:
317,128,66669,6,0,L|297:38,2,75.5,2|0|8,3:2|3:0|0:0,0:0:0:0:
420,202,67163,1,0,0:0:0:0:
289,280,67328,2,0,P|324:292|361:299,1,75.5,2|0,3:2|3:0,0:0:0:0:
317,128,67658,1,8,0:0:0:0:
154,208,67822,6,0,B|143:158|136:131|136:131|136:98|129:34,1,151,2|0,3:2|3:0,0:0:0:0:
25,59,68317,1,8,0:0:0:0:
95,136,68482,1,0,0:0:0:0:
0,135,68647,1,0,3:0:0:0:
114,61,68811,1,0,3:0:0:0:
154,208,68976,2,0,P|147:246|130:294,1,75.5,10|2,0:0|0:3,0:0:0:0:
341,339,69306,6,0,B|429:326|411:350|511:333,1,151,2|10,3:2|0:0,0:0:0:0:
491,336,69965,2,0,L|508:256,1,75.5,2|0,3:2|3:0,0:0:0:0:
409,251,70295,1,8,0:0:0:0:
376,13,70460,2,0,P|405:82|416:156,1,151,2|0,3:2|3:0,0:0:0:0:
396,270,70954,2,0,P|335:312|309:321,1,75.5,8|0,0:0|0:0,0:0:0:0:
235,310,71284,1,0,3:0:0:0:
143,273,71449,1,0,3:0:0:0:
309,198,71614,2,0,L|315:121,1,75.5,10|0,0:0|0:0,0:0:0:0:
276,32,71943,5,2,3:2:0:0:
177,32,72108,1,0,3:0:0:0:
405,72,72273,2,0,P|454:105|479:114,1,75.5,10|0,0:0|0:0,0:0:0:0:
481,247,72603,1,2,3:2:0:0:
386,198,72767,1,0,3:0:0:0:
332,114,72932,1,8,0:0:0:0:
232,255,73097,2,0,B|156:255|190:233|69:265,1,151,2|0,3:2|3:0,0:0:0:0:
209,358,73592,1,8,0:0:0:0:
209,358,73921,1,0,3:0:0:0:
160,270,74086,1,0,3:0:0:0:
102,172,74251,1,8,0:0:0:0:
96,190,74333,1,8,0:0:0:0:
91,204,74416,1,8,0:0:0:0:
3,57,74581,5,6,3:1:0:0:
135,91,74745,1,0,3:0:0:0:
19,257,74910,1,8,0:0:0:0:
19,257,75240,2,0,P|50:275|104:300,1,75.5,2|0,3:1|3:0,0:0:0:0:
196,236,75570,1,8,0:0:0:0:
57,384,75735,6,0,P|126:363|219:366,1,151,2|0,3:1|3:0,0:0:0:0:
389,318,76229,1,8,0:0:0:0:
382,193,76394,1,0,0:0:0:0:
321,258,76559,1,0,3:0:0:0:
447,250,76724,1,2,3:1:0:0:
382,94,76888,2,0,P|375:140|361:182,1,75.5,8|2,0:0|0:0,0:0:0:0:
269,186,77218,5,2,3:2:0:0:
170,190,77383,1,0,3:0:0:0:
18,117,77548,2,0,P|44:144|75:167,1,75.5,8|0,0:0|0:0,0:0:0:0:
191,295,77877,1,2,3:2:0:0:
123,360,78042,1,0,3:0:0:0:
91,273,78207,1,8,0:0:0:0:
279,351,78372,6,0,P|307:305|338:199,1,151,2|0,3:2|3:0,0:0:0:0:
322,38,78866,2,0,P|359:51|411:69,1,75.5,8|0,0:0|0:0,0:0:0:0:
445,173,79196,1,0,3:0:0:0:
338,131,79361,1,0,3:0:0:0:
402,276,79526,2,0,P|423:303|456:335,1,75.5,10|2,0:0|0:3,0:0:0:0:
336,212,79855,5,2,3:2:0:0:
239,186,80020,1,0,3:0:0:0:
173,303,80185,2,0,L|254:284,1,75.5,10|0,0:0|0:0,0:0:0:0:
302,112,80515,2,0,P|222:81|163:28,1,151,2|8,3:2|0:0,0:0:0:0:
14,168,81009,1,2,3:2:0:0:
14,168,81339,1,0,3:0:0:0:
112,183,81504,1,8,0:0:0:0:
53,268,81669,1,0,0:0:0:0:
53,268,81751,1,0,0:0:0:0:
53,268,81833,1,0,3:0:0:0:
103,167,81998,1,0,3:0:0:0:
65,384,82163,2,0,P|18:360|-11:340,1,75.5,10|0,0:0|0:0,0:0:0:0:
181,291,82493,5,2,3:2:0:0:
278,276,82658,1,0,3:0:0:0:
428,381,82822,2,0,P|389:377|336:365,1,75.5,10|0,0:0|0:0,0:0:0:0:
268,201,83152,2,0,P|269:238|277:275,1,75.5,2|0,3:2|3:0,0:0:0:0:
403,235,83482,1,8,0:0:0:0:
172,108,83647,1,2,3:2:0:0:
172,108,83976,1,0,3:0:0:0:
78,139,84141,1,8,0:0:0:0:
186,18,84306,1,0,0:0:0:0:
272,68,84471,1,0,3:0:0:0:
373,65,84636,1,0,3:0:0:0:
238,169,84800,5,8,0:0:0:0:
234,183,84883,1,8,0:0:0:0:
231,198,84965,1,8,0:0:0:0:
229,213,85048,1,8,0:0:0:0:
227,228,85130,2,0,B|237:356,1,113.25,6|0,3:1|0:0,0:0:0:0:
237,355,85460,1,8,0:0:0:0:
133,244,85625,2,0,P|101:296|92:324,1,75.5,2|2,0:0|3:2,0:0:0:0:
331,176,85954,2,0,P|363:228|372:256,1,75.5,2|8,3:1|0:0,0:0:0:0:
209,125,86284,6,0,P|204:69|296:21,1,151,6|0,3:2|3:0,0:0:0:0:
449,78,86778,1,8,0:0:0:0:
275,91,86943,2,0,B|353:80|340:109|446:91,1,151,8|0,0:0|3:0,0:0:0:0:
475,269,87438,2,0,P|410:241|392:226,1,75.5,8|0,0:0|0:0,0:0:0:0:
170,167,87767,6,0,P|125:184|41:208,1,113.25,6|0,3:1|0:0,0:0:0:0:
47,205,88097,1,8,0:0:0:0:
219,264,88262,2,0,P|235:298|254:347,1,75.5,2|2,0:0|3:2,0:0:0:0:
109,91,88592,2,0,P|123:53|144:8,1,75.5,2|8,3:1|0:0,0:0:0:0:
289,154,88921,6,0,P|340:169|414:262,1,151,6|0,3:2|3:0,0:0:0:0:
311,338,89416,1,8,0:0:0:0:
490,359,89581,2,0,P|423:356|311:346,1,151,8|0,0:0|3:0,0:0:0:0:
196,330,90075,5,8,0:0:0:0:
181,326,90158,1,8,0:0:0:0:
166,322,90240,1,8,0:0:0:0:
152,318,90322,1,8,0:0:0:0:
137,316,90405,2,0,P|111:260|102:184,1,113.25,6|0,3:1|0:0,0:0:0:0:
105,194,90735,1,8,0:0:0:0:
114,68,90899,2,0,P|140:37|171:19,1,75.5,2|2,0:0|3:2,0:0:0:0:
311,155,91229,2,0,P|282:163|237:169,1,75.5,2|8,3:1|0:0,0:0:0:0:
434,0,91559,6,0,L|470:171,1,151,6|0,3:2|3:0,0:0:0:0:
289,70,92053,1,10,0:0:0:0:
265,234,92218,2,0,B|285:199|285:199|306:89,1,151,8|0,0:0|3:0,0:0:0:0:
413,247,92713,2,0,P|431:289|441:342,1,75.5,8|0,0:0|0:0,0:0:0:0:
277,362,93042,6,0,L|141:334,1,113.25,6|0,3:1|0:0,0:0:0:0:
151,336,93372,1,8,0:0:0:0:
74,147,93537,2,0,P|56:181|35:239,1,75.5,2|2,0:0|3:2,0:0:0:0:
198,56,93866,2,0,P|212:91|229:124,1,75.5,2|8,3:1|0:0,0:0:0:0:
358,221,94196,2,0,P|377:293|381:369,1,151,6|0,3:2|3:0,0:0:0:0:
201,253,94691,1,8,0:0:0:0:
226,353,94855,2,0,P|220:320|223:260,1,75.5,8|0,0:0|3:0,0:0:0:0:
389,141,95185,5,8,3:1:0:0:
403,146,95267,1,8,0:0:0:0:
416,151,95350,1,8,3:1:0:0:
430,158,95432,1,8,0:0:0:0:
443,166,95515,1,8,0:0:0:0:
455,174,95597,1,8,0:0:0:0:
463,182,95680,2,0,L|454:275,1,75.5,6|0,3:2|3:0,0:0:0:0:
296,211,96009,2,0,P|267:164|244:83,1,113.25,8|0,0:0|0:0,0:0:0:0:
247,94,96339,2,0,P|218:118|166:142,1,75.5,6|0,3:2|3:0,0:0:0:0:
62,66,96669,1,8,0:0:0:0:
203,253,96833,2,0,B|118:264|150:232|45:245,1,151,6|0,3:2|3:0,0:0:0:0:
0,335,97328,1,8,0:0:0:0:
100,144,97493,1,8,0:0:0:0:
2,142,97658,2,0,L|90:167,1,75.5,0|0,3:0|3:0,0:0:0:0:
227,150,97987,1,8,0:0:0:0:
321,237,98152,1,2,0:3:0:0:
327,151,98317,5,6,3:2:0:0:
221,264,98482,1,0,3:0:0:0:
371,315,98647,2,0,P|415:288|465:219,1,113.25,8|0,0:0|0:0,0:0:0:0:
454,226,98976,2,0,L|439:145,1,75.5,6|0,3:2|3:0,0:0:0:0:
512,316,99306,1,8,0:0:0:0:
327,151,99471,2,0,P|306:98|302:-10,1,151,6|0,3:2|3:0,0:0:0:0:
410,0,99965,1,8,0:0:0:0:
173,71,100130,1,8,0:0:0:0:
264,100,100295,2,0,L|187:91,1,75.5,0|0,3:0|3:0,0:0:0:0:
66,72,100625,1,8,0:0:0:0:
137,165,100789,1,2,0:3:0:0:
173,71,100954,5,6,3:2:0:0:
24,156,101119,1,0,3:0:0:0:
234,231,101284,2,0,P|298:261|352:313,1,113.25,8|0,0:0|0:0,0:0:0:0:
334,302,101614,2,0,P|301:325|264:340,1,75.5,6|0,3:2|3:0,0:0:0:0:
135,270,101943,1,8,0:0:0:0:
404,374,102108,2,0,P|445:336|517:308,1,113.25,6|0,3:2|0:0,0:0:0:0:
511,316,102438,2,0,L|504:353,2,37.75,2|0|8,3:2|0:0|0:0,0:0:0:0:
471,215,102767,2,0,P|415:210|382:199,1,75.5,8|0,0:0|3:0,0:0:0:0:
250,91,103097,1,0,3:0:0:0:
296,250,103262,1,8,0:0:0:0:
296,250,103592,6,0,P|309:195|316:163,1,75.5,6|0,3:2|3:0,0:0:0:0:
117,16,103921,2,0,P|118:57|147:129,1,113.25,8|0,0:0|0:0,0:0:0:0:
154,133,104251,1,6,3:2:0:0:
188,244,104416,1,0,3:0:0:0:
78,219,104581,1,8,0:0:0:0:
313,176,104745,6,0,P|312:217|248:340,1,151,4|0,0:0|3:0,0:0:0:0:
183,364,105240,1,8,0:0:0:0:
94,320,105405,1,8,0:0:0:0:
7,363,105570,1,0,3:0:0:0:
7,363,105735,1,0,3:0:0:0:
313,176,105899,2,0,P|363:181|410:178,1,75.5,4|0,0:2|0:0,0:0:0:0:
201,175,106229,6,0,B|81:167|132:173|27:175,2,151,6|8|2,3:1|0:0|3:0,0:0:0:0:
314,254,107053,1,0,3:0:0:0:
320,65,107218,1,8,0:0:0:0:
276,146,107383,1,0,3:0:0:0:
407,185,107548,6,0,P|457:153|480:134,1,75.5,2|0,0:0|3:0,0:0:0:0:
439,55,107877,1,8,0:0:0:0:
439,55,108042,1,0,0:0:0:0:
380,308,108207,2,0,P|437:322|467:326,1,75.5,2|0,3:1|3:0,0:0:0:0:
496,242,108537,1,8,0:0:0:0:
496,242,108702,1,0,0:0:0:0:
315,223,108866,6,0,P|268:253|260:351,2,151,2|8|2,3:1|0:0|3:0,0:0:0:0:
412,190,109691,1,0,3:0:0:0:
256,56,109855,1,8,0:0:0:0:
383,93,110020,2,0,P|305:132|218:153,1,151,0|0,3:0|3:0,0:0:0:0:
79,72,110515,2,0,L|99:-16,1,75.5,8|0,0:0|0:0,0:0:0:0:
198,0,110844,1,2,3:1:0:0:
175,99,111009,1,0,3:0:0:0:
150,201,111174,2,0,P|112:189|61:164,1,75.5,8|2,0:0|0:3,0:0:0:0:
332,195,111504,6,0,B|409:191|399:179|499:185,2,151,2|8|2,3:1|0:0|3:0,0:0:0:0:
230,247,112328,1,0,3:0:0:0:
308,311,112493,2,0,P|250:278|224:256,1,75.5,8|0,0:0|3:0,0:0:0:0:
136,182,112822,6,0,P|127:223|110:266,1,75.5,2|0,0:0|3:0,0:0:0:0:
55,332,113152,1,8,0:0:0:0:
55,332,113317,1,0,0:0:0:0:
15,110,113482,2,0,P|24:151|41:194,1,75.5,2|0,3:1|3:0,0:0:0:0:
115,254,113811,1,8,0:0:0:0:
115,254,113976,1,0,0:0:0:0:
195,14,114141,6,0,P|165:76|93:111,2,151,2|8|2,3:1|0:0|3:0,0:0:0:0:
94,1,114965,1,0,3:0:0:0:
380,75,115130,1,8,0:0:0:0:
304,18,115295,2,0,B|302:53|294:77|294:77|300:124|303:171,1,151,0|0,3:0|3:0,0:0:0:0:
406,179,115789,1,8,0:0:0:0:
406,179,116119,1,4,3:2:0:0:
494,209,116284,1,0,3:0:0:0:
230,179,116449,1,12,0:2:0:0:
318,209,116614,1,0,0:0:0:0:
156,232,116778,6,0,B|57:236|110:217|-5:235,2,151,6|8|2,3:1|0:0|3:0,0:0:0:0:
281,248,117603,1,0,3:0:0:0:
234,337,117767,2,0,L|261:246,1,75.5,8|0,0:0|3:0,0:0:0:0:
179,153,118097,6,0,P|162:109|153:62,1,75.5,2|0,0:0|3:0,0:0:0:0:
197,0,118427,1,8,0:0:0:0:
197,0,118592,1,0,0:0:0:0:
156,232,118756,2,0,P|112:249|65:258,1,75.5,2|0,3:1|3:0,0:0:0:0:
3,214,119086,1,8,0:0:0:0:
3,214,119251,1,0,0:0:0:0:
258,176,119416,6,0,P|309:174|366:265,2,151,2|8|2,3:1|0:0|3:0,0:0:0:0:
171,226,120240,1,0,3:0:0:0:
93,20,120405,1,8,0:0:0:0:
144,95,120570,2,0,B|237:77|189:113|304:88,1,151,0|0,3:0|3:0,0:0:0:0:
413,0,121064,2,0,P|396:52|371:95,1,75.5,8|0,0:0|0:0,0:0:0:0:
270,176,121394,1,2,3:1:0:0:
221,67,121559,1,0,3:0:0:0:
376,206,121724,1,8,0:0:0:0:
376,206,122053,6,0,B|368:289|379:271|375:364,2,151,2|8|2,3:1|0:0|3:0,0:0:0:0:
379,82,122877,1,0,3:0:0:0:
483,103,123042,2,0,P|417:108|394:106,1,75.5,8|0,0:0|3:0,0:0:0:0:
230,102,123372,6,0,P|216:144|201:178,1,75.5,2|0,0:0|3:0,0:0:0:0:
159,263,123702,1,8,0:0:0:0:
159,263,123866,1,0,0:0:0:0:
376,206,124031,2,0,L|474:228,1,75.5,2|0,3:1|3:0,0:0:0:0:
203,172,124361,2,0,L|105:194,1,75.5,8|0,0:0|0:0,0:0:0:0:
280,384,124691,6,0,P|288:318|280:205,1,151,2|8,3:1|0:0,0:0:0:0:
232,0,125350,2,0,P|228:33|232:89,1,75.5,2|0,3:0|3:0,0:0:0:0:
357,179,125680,1,8,0:0:0:0:
203,172,125844,2,0,B|240:166|281:141|281:141|306:144|367:175,1,151,0|0,3:0|3:0,0:0:0:0:
512,237,126339,2,0,P|486:257|434:282,1,75.5,8|0,0:0|0:0,0:0:0:0:
330,316,126669,5,4,3:2:0:0:
318,317,126751,1,8,0:0:0:0:
307,318,126833,1,4,3:0:0:0:
296,317,126916,1,4,3:0:0:0:
270,323,126998,1,8,0:0:0:0:
261,310,127081,1,8,0:0:0:0:
251,298,127163,1,8,0:0:0:0:
241,288,127245,1,8,0:0:0:0:
229,279,127328,2,0,P|173:302|94:305,1,113.25,6|0,3:1|0:0,0:0:0:0:
105,307,127658,1,8,0:0:0:0:
24,134,127822,2,0,L|34:44,1,75.5,2|2,0:0|3:2,0:0:0:0:
112,211,128152,2,0,L|193:189,1,75.5,2|8,3:1|0:0,0:0:0:0:
241,7,128482,6,0,P|254:51|315:148,1,151,6|0,3:2|3:0,0:0:0:0:
465,118,128976,1,8,0:0:0:0:
341,230,129141,1,8,0:0:0:0:
433,194,129306,2,0,L|347:214,1,75.5,0|0,3:0|3:0,0:0:0:0:
511,328,129636,2,0,L|499:254,1,75.5,8|0,0:0|0:0,0:0:0:0:
305,261,129965,6,0,B|241:272|257:250|174:264,1,113.25,6|0,3:1|0:0,0:0:0:0:
177,263,130295,1,8,0:0:0:0:
284,168,130460,2,0,P|304:130|320:70,1,75.5,2|2,0:0|3:2,0:0:0:0:
437,165,130789,2,0,P|472:152|505:134,1,75.5,2|8,3:1|0:0,0:0:0:0:
434,318,131119,6,0,P|391:275|286:266,1,151,6|0,3:2|3:0,0:0:0:0:
166,326,131614,1,8,0:0:0:0:
240,151,131778,1,8,0:0:0:0:
219,246,131943,2,0,P|228:228|247:177,1,75.5,0|0,3:0|3:0,0:0:0:0:
172,75,132273,1,8,0:0:0:0:
157,78,132355,1,8,0:0:0:0:
142,81,132438,1,8,0:0:0:0:
354,45,132603,6,0,P|293:37|240:1,1,113.25,6|0,3:1|0:0,0:0:0:0:
237,1,132932,1,8,0:0:0:0:
393,140,133097,2,0,P|442:179|477:193,1,75.5,2|2,0:0|3:2,0:0:0:0:
504,76,133427,2,0,L|514:-4,1,75.5,2|8,3:1|0:0,0:0:0:0:
354,45,133756,6,0,P|313:112|312:202,1,151,6|0,3:2|3:0,0:0:0:0:
399,335,134251,1,10,0:0:0:0:
199,272,134416,1,8,0:0:0:0:
292,270,134581,2,0,P|255:278|218:286,1,75.5,0|0,3:0|3:0,0:0:0:0:
87,172,134910,1,8,0:0:0:0:
87,172,135240,6,0,P|117:135|149:53,1,113.25,6|0,3:1|0:0,0:0:0:0:
149,61,135570,1,8,0:0:0:0:
227,161,135735,2,0,P|262:225|286:253,1,75.5,2|2,0:0|3:2,0:0:0:0:
62,315,136064,2,0,L|-4:267,1,75.5,2|8,3:1|0:0,0:0:0:0:
175,326,136394,2,0,B|270:313|230:350|357:332,1,151,6|0,3:2|3:0,0:0:0:0:
460,275,136888,1,8,0:0:0:0:
415,360,137053,2,0,P|452:318|469:291,1,75.5,8|0,0:0|3:0,0:0:0:0:
423,141,137383,5,0,3:0:0:0:
409,134,137465,1,8,0:0:0:0:
394,130,137548,1,8,3:1:0:0:
380,128,137630,1,8,0:0:0:0:
364,128,137713,1,8,0:0:0:0:
350,131,137795,1,8,0:0:0:0:
337,138,137877,1,6,3:1:0:0:
228,62,138042,1,0,3:0:0:0:
284,212,138207,1,8,0:0:0:0:
143,128,138372,2,0,L|50:120,1,75.5,2|2,0:0|3:2,0:0:0:0:
0,284,138702,2,0,P|37:283|72:270,1,75.5,2|8,3:1|0:0,0:0:0:0:
284,212,139031,6,0,P|354:217|357:303,1,151,6|0,3:2|3:0,0:0:0:0:
215,333,139526,1,8,0:0:0:0:
133,162,139691,1,8,0:0:0:0:
83,237,139855,2,0,P|125:203|153:172,1,75.5,0|0,3:0|3:0,0:0:0:0:
227,62,140185,2,0,P|200:35|170:12,1,75.5,8|0,0:0|0:0,0:0:0:0:
284,212,140515,6,0,L|423:219,1,113.25,6|0,3:1|0:0,0:0:0:0:
412,219,140844,1,8,0:0:0:0:
481,109,141009,2,0,P|445:111|396:120,1,75.5,2|2,0:0|3:2,0:0:0:0:
284,212,141339,2,0,P|246:205|209:203,1,75.5,2|8,3:1|0:0,0:0:0:0:
37,113,141669,6,0,P|54:64|157:61,1,151,6|0,3:2|3:0,0:0:0:0:
279,75,142163,1,8,0:0:0:0:
108,164,142328,1,8,0:0:0:0:
209,203,142493,2,0,P|118:189|107:186,1,75.5,0|0,3:0|3:0,0:0:0:0:
16,211,142822,5,8,0:0:0:0:
18,225,142905,1,8,0:0:0:0:
20,240,142987,1,8,0:0:0:0:
25,255,143070,1,8,0:0:0:0:
30,268,143152,1,6,3:1:0:0:
99,356,143317,1,0,3:0:0:0:
174,187,143482,1,8,0:0:0:0:
274,271,143647,2,0,P|342:299|366:303,1,75.5,2|2,0:0|3:2,0:0:0:0:
318,47,143976,2,0,P|332:87|337:121,1,75.5,2|8,3:1|0:0,0:0:0:0:
512,195,144306,6,0,B|438:223|454:187|360:211,1,151,6|0,3:2|3:0,0:0:0:0:
197,128,144800,1,10,0:0:0:0:
254,307,144965,1,8,0:0:0:0:
271,205,145130,2,0,P|273:271|269:300,1,75.5,0|0,3:0|3:0,0:0:0:0:
141,365,145460,1,8,0:0:0:0:
141,365,145789,6,0,P|118:311|117:237,1,113.25,6|0,3:1|0:0,0:0:0:0:
117,242,146119,1,8,0:0:0:0:
98,120,146284,2,0,P|43:136|14:155,1,75.5,2|2,0:0|3:2,0:0:0:0:
254,209,146614,2,0,P|309:225|338:244,1,75.5,2|8,3:1|0:0,0:0:0:0:
207,92,146943,6,0,P|245:63|370:64,1,151,6|0,3:2|3:0,0:0:0:0:
494,77,147438,1,8,0:0:0:0:
334,141,147603,1,8,0:0:0:0:
445,200,147767,1,0,3:0:0:0:
360,263,147932,5,8,3:1:0:0:
352,276,148015,1,8,0:0:0:0:
347,290,148097,1,8,3:1:0:0:
344,305,148180,1,8,0:0:0:0:
342,320,148262,1,8,0:0:0:0:
342,335,148344,1,8,0:0:0:0:
344,351,148427,2,0,P|392:370|422:372,1,75.5,6|0,3:2|3:0,0:0:0:0:
255,234,148756,2,0,P|180:231|123:259,1,113.25,8|0,0:0|0:0,0:0:0:0:
132,253,149086,2,0,L|52:238,1,75.5,6|0,3:2|3:0,0:0:0:0:
202,311,149416,1,8,0:0:0:0:
146,10,149581,2,0,P|167:75|218:155,1,151,6|0,3:2|3:0,0:0:0:0:
329,176,150075,1,8,0:0:0:0:
482,23,150240,1,8,0:0:0:0:
481,111,150405,2,0,P|492:78|501:30,1,75.5,0|0,3:0|3:0,0:0:0:0:
382,105,150735,1,8,0:0:0:0:
416,217,150899,1,2,0:3:0:0:
481,111,151064,5,6,3:2:0:0:
329,176,151229,1,0,3:0:0:0:
497,275,151394,1,8,0:0:0:0:
497,275,151724,2,0,P|428:287|377:312,1,113.25,6|0,3:2|0:0,0:0:0:0:
376,313,152053,1,8,0:0:0:0:
208,384,152218,2,0,P|223:330|232:207,1,151,6|0,3:2|3:0,0:0:0:0:
147,111,152713,1,8,0:0:0:0:
73,236,152877,1,8,0:0:0:0:
71,148,153042,1,0,3:0:0:0:
152,266,153207,1,0,3:0:0:0:
290,161,153372,1,8,0:0:0:0:
253,316,153537,1,2,0:3:0:0:
185,153,153702,6,0,L|166:62,1,75.5,6|0,3:2|3:0,0:0:0:0:
395,0,154031,2,0,P|388:54|371:109,1,113.25,8|0,0:0|0:0,0:0:0:0:
363,123,154361,2,0,L|278:112,1,75.5,6|0,3:2|3:0,0:0:0:0:
239,12,154691,1,8,0:0:0:0:
466,127,154855,2,0,P|473:181|513:271,1,151,6|0,3:2|3:0,0:0:0:0:
512,384,155350,1,8,0:0:0:0:
399,300,155515,1,8,0:0:0:0:
330,368,155680,2,0,P|375:343|406:310,1,75.5,0|0,3:0|3:0,0:0:0:0:
278,186,156009,1,8,0:0:0:0:
318,277,156174,1,2,0:3:0:0:
372,197,156339,5,6,3:2:0:0:
205,288,156504,1,0,3:0:0:0:
98,161,156669,2,0,P|181:121|219:120,1,113.25,8|0,0:0|0:0,0:0:0:0:
215,120,156998,1,6,3:2:0:0:
311,42,157163,1,0,3:0:0:0:
201,10,157328,1,8,0:0:0:0:
278,186,157493,6,0,L|260:340,1,151,4|0,0:0|3:0,0:0:0:0:
163,369,157987,1,8,0:0:0:0:
92,305,158152,1,8,0:0:0:0:
186,275,158317,1,0,3:0:0:0:
186,275,158482,1,0,3:0:0:0:
103,137,158647,5,8,0:0:0:0:
99,122,158729,1,8,0:0:0:0:
96,107,158811,1,8,0:0:0:0:
94,92,158894,1,8,0:0:0:0:
95,76,158976,2,0,P|89:19|92:-17,1,75.5,6|0,3:2|3:0,0:0:0:0:
230,24,159306,2,0,P|261:68|274:146,1,113.25,8|0,0:0|0:0,0:0:0:0:
274,140,159636,2,0,L|355:155,1,75.5,6|0,3:2|3:0,0:0:0:0:
441,55,159965,1,8,0:0:0:0:
501,258,160130,2,0,B|422:235|441:275|337:248,1,151,6|0,3:2|3:0,0:0:0:0:
257,199,160625,1,8,0:0:0:0:
174,358,160789,1,8,0:0:0:0:
152,267,160954,2,0,P|190:340|194:358,1,75.5,0|0,3:0|3:0,0:0:0:0:
0,269,161284,1,8,0:0:0:0:
88,194,161449,1,2,0:3:0:0:
58,321,161614,5,6,3:2:0:0:
32,141,161778,1,0,3:0:0:0:
216,165,161943,2,0,P|277:155|338:129,1,113.25,8|0,0:0|0:0,0:0:0:0:
337,128,162273,2,0,L|350:45,1,75.5,6|0,3:2|3:0,0:0:0:0:
443,116,162603,1,8,0:0:0:0:
277,237,162767,2,0,P|263:281|268:384,1,151,6|0,3:2|3:0,0:0:0:0:
381,368,163262,1,8,0:0:0:0:
359,220,163427,1,8,0:0:0:0:
455,214,163592,2,0,P|403:229|365:232,1,75.5,0|0,3:0|3:0,0:0:0:0:
257,157,163921,1,8,0:0:0:0:
153,231,164086,1,2,0:3:0:0:
195,117,164251,5,6,3:2:0:0:
218,294,164416,1,0,3:0:0:0:
20,195,164581,2,0,L|44:73,1,113.25,8|0,0:0|0:0,0:0:0:0:
45,69,164910,2,0,P|86:45|135:43,1,75.5,6|0,3:2|3:0,0:0:0:0:
252,0,165240,1,8,0:0:0:0:
102,202,165405,2,0,B|188:188|163:222|258:198,1,151,6|0,3:2|3:0,0:0:0:0:
339,121,165899,1,8,0:0:0:0:
357,339,166064,1,8,0:0:0:0:
349,242,166229,2,0,P|359:288|372:334,1,75.5,0|0,3:0|3:0,0:0:0:0:
197,373,166559,1,8,0:0:0:0:
248,255,166724,1,2,0:3:0:0:
274,357,166888,5,6,3:2:0:0:
150,263,167053,1,0,3:0:0:0:
349,242,167218,2,0,P|380:277|439:321,1,113.25,8|0,0:0|0:0,0:0:0:0:
447,321,167548,1,6,3:2:0:0:
512,222,167713,1,0,3:0:0:0:
409,177,167877,1,8,0:0:0:0:
511,37,168042,6,0,B|447:46|467:23|374:37,1,113.25,4|0,0:0|0:0,0:0:0:0:
383,36,168372,2,0,L|333:64,2,37.75,2|0|8,3:2|0:0|0:0,0:0:0:0:
199,136,168702,2,0,B|228:62|240:97|283:-9,1,151,8|0,0:0|3:0,0:0:0:0:
95,80,169196,5,8,0:0:0:0:
92,94,169278,1,8,0:0:0:0:
90,109,169361,1,8,0:0:0:0:
88,124,169443,1,8,0:0:0:0:
85,139,169526,2,0,P|78:193|80:243,1,75.5,12|0,3:1|3:0,0:0:0:0:
427,245,169855,2,0,P|434:191|432:141,1,75.5,8|0,0:0|0:0,0:0:0:0:
179,202,170185,1,2,3:2:0:0:
333,182,170350,1,0,3:0:0:0:
291,290,170515,1,8,0:0:0:0:
110,134,170680,6,0,P|67:72|40:-15,1,151,6|0,3:2|3:0,0:0:0:0:
110,134,171174,1,8,0:0:0:0:
216,159,171339,1,8,0:0:0:0:
412,181,171504,1,0,3:0:0:0:
306,206,171669,1,0,3:0:0:0:
175,309,171833,1,8,0:0:0:0:
175,309,172163,6,0,P|225:339|273:351,1,75.5,12|0,3:1|3:0,0:0:0:0:
337,75,172493,2,0,P|287:45|239:33,1,75.5,8|0,0:0|0:0,0:0:0:0:
265,253,172822,1,2,3:2:0:0:
150,88,172987,1,0,3:0:0:0:
265,126,173152,1,8,0:0:0:0:
43,203,173317,6,0,P|45:263|66:352,1,151,6|0,3:2|3:0,0:0:0:0:
185,379,173811,1,8,0:0:0:0:
202,283,173976,1,8,0:0:0:0:
126,105,174141,1,0,3:0:0:0:
143,201,174306,1,0,3:0:0:0:
320,265,174471,5,8,0:0:0:0:
326,278,174553,1,8,0:0:0:0:
334,291,174636,1,8,0:0:0:0:
342,303,174718,1,8,0:0:0:0:
351,316,174800,2,0,P|398:289|426:254,1,75.5,12|0,3:1|3:0,0:0:0:0:
161,68,175130,2,0,P|114:95|86:130,1,75.5,8|0,0:0|0:0,0:0:0:0:
371,220,175460,1,2,3:2:0:0:
167,169,175625,1,0,3:0:0:0:
193,284,175789,1,8,0:0:0:0:
311,151,175954,6,0,P|333:87|346:-9,1,151,6|0,3:2|3:0,0:0:0:0:
311,151,176449,1,8,0:0:0:0:
499,177,176614,1,8,0:0:0:0:
417,207,176778,2,0,P|467:201|500:193,1,75.5,0|0,3:0|3:0,0:0:0:0:
424,20,177108,1,8,0:0:0:0:
424,20,177438,6,0,L|412:102,1,75.5,6|0,3:2|3:0,0:0:0:0:
417,207,177767,2,0,P|361:231|310:240,1,113.25,8|0,0:0|0:0,0:0:0:0:
294,243,178097,1,2,3:2:0:0:
232,142,178262,1,0,3:0:0:0:
166,239,178427,1,8,0:0:0:0:
67,3,178592,6,0,P|65:62|39:187,1,151,4|0,0:0|3:0,0:0:0:0:
0,291,179086,1,8,0:0:0:0:
67,225,179251,2,0,P|50:164|47:139,1,75.5,8|0,0:0|3:0,0:0:0:0:
191,254,179581,5,0,3:0:0:0:
203,262,179663,1,8,0:0:0:0:
217,269,179745,1,8,0:0:0:0:
230,275,179828,1,8,0:0:0:0:
245,279,179910,1,8,0:0:0:0:
259,283,179993,1,8,0:0:0:0:
275,286,180075,2,0,L|357:265,1,75.5,6|0,3:2|3:0,0:0:0:0:
475,173,180405,2,0,P|412:157|370:112,1,113.25,8|0,0:0|0:0,0:0:0:0:
374,109,180735,2,0,P|376:70|387:27,1,75.5,6|0,3:2|3:0,0:0:0:0:
488,81,181064,1,8,0:0:0:0:
311,174,181229,2,0,B|234:200|259:158|146:193,1,151,6|0,3:2|3:0,0:0:0:0:
0,162,181724,2,0,P|50:176|93:195,1,75.5,8|8,0:0|0:0,0:0:0:0:
191,303,182053,2,0,P|139:277|98:246,1,75.5,0|0,3:0|3:0,0:0:0:0:
177,50,182383,1,8,0:0:0:0:
232,143,182548,1,2,0:3:0:0:
252,12,182713,5,6,3:2:0:0:
132,123,182877,1,0,3:0:0:0:
312,173,183042,2,0,P|378:196|437:199,1,113.25,8|0,0:0|0:0,0:0:0:0:
435,202,183372,2,0,P|452:237|484:280,1,75.5,6|0,3:2|3:0,0:0:0:0:
349,294,183702,1,8,0:0:0:0:
412,128,183866,2,0,L|430:14,1,113.25,6|0,3:2|0:0,0:0:0:0:
442,6,184196,2,0,L|491:13,2,37.75,2|0|8,3:2|0:0|0:0,0:0:0:0:
310,44,184526,1,8,0:0:0:0:
451,198,184691,1,0,3:0:0:0:
320,238,184855,1,0,3:0:0:0:
461,286,185020,5,8,0:0:0:0:
462,301,185103,1,8,0:0:0:0:
463,316,185185,1,10,0:0:0:0:
462,331,185267,1,8,0:0:0:0:
460,346,185350,2,0,P|373:357|358:355,1,75.5,6|0,3:2|3:0,0:0:0:0:
228,277,185680,2,0,P|166:268|106:244,1,113.25,8|0,0:0|0:0,0:0:0:0:
112,238,186009,2,0,P|68:274|38:290,1,75.5,6|0,3:2|3:0,0:0:0:0:
147,363,186339,1,8,0:0:0:0:
160,166,186504,2,0,L|142:52,1,113.25,6|0,3:2|0:0,0:0:0:0:
128,45,186833,2,0,L|79:52,2,37.75,2|0|8,3:2|0:0|0:0,0:0:0:0:
281,4,187163,1,8,0:0:0:0:
264,155,187328,1,0,3:0:0:0:
363,187,187493,1,0,3:0:0:0:
315,329,187658,1,8,0:0:0:0:
315,329,187987,6,0,P|386:328|416:333,1,75.5,6|0,3:2|3:0,0:0:0:0:
218,351,188317,1,8,0:0:0:0:
115,189,188482,1,0,0:0:0:0:
308,148,188647,2,0,P|310:110|307:72,1,75.5,6|8,3:2|0:0,0:0:0:0:
305,57,188894,1,8,0:0:0:0:
319,55,188976,1,8,0:0:0:0:
334,52,189059,1,8,0:0:0:0:
349,49,189141,1,4,3:1:0:0:
256,192,189306,12,0,198207,2:0:0:0:
