osu file format v14

[General]
AudioFilename: audio.mp3
AudioLeadIn: 0
PreviewTime: 72
Countdown: 0
SampleSet: Normal
StackLeniency: 0.7
Mode: 0
LetterboxInBreaks: 0
EpilepsyWarning: 1
WidescreenStoryboard: 1

[Editor]
Bookmarks: 21833,42932,64031,85130,101614,131037,151559,168042,183702,186504
DistanceSpacing: 1
BeatDivisor: 4
GridSize: 4
TimelineZoom: 2.899999

[Metadata]
Title:Alchemy
TitleUnicode:Alchemy
Artist:wintermute
ArtistUnicode:wintermute
Creator:Renumi
Version:Hard
Source:
Tags:The Voc@loid M@ster Master 20 初音ミク vol.1 japanese shoegaze alternative noise rock altrock alt-rock jrock j-rock vocaloid hatsune miku mikgazer
BeatmapID:3163221
BeatmapSetID:1547938

[Difficulty]
HPDrainRate:6
CircleSize:3.7
OverallDifficulty:6
ApproachRate:7.4
SliderMultiplier:1.4
SliderTickRate:1

[Events]
//Background and Video events
0,0,"26986878_p0.jpg",0,0
//Break Periods
//Storyboard Layer 0 (Background)
//Storyboard Layer 1 (Fail)
//Storyboard Layer 2 (Pass)
//Storyboard Layer 3 (Foreground)
//Storyboard Layer 4 (Overlay)
//Storyboard Sound Samples

[TimingPoints]
72,329.67032967033,4,1,1,40,1,0
735,329.67032967033,4,1,1,80,1,0
42932,-100,4,1,1,85,0,1
53482,-100,4,1,1,85,0,0
53647,-100,4,1,1,80,0,0
85130,-100,4,1,1,85,0,1
95680,-100,4,1,1,85,0,0
95844,-100,4,1,1,80,0,0
106229,-100,4,1,1,85,0,1
126998,-100,4,1,1,85,0,0
127328,-100,4,1,1,85,0,1
148427,-100,4,1,1,85,0,0
148592,-100,4,1,1,80,0,0
169526,-100,4,1,1,85,0,0
178756,-100,4,1,1,80,0,0
189141,-100,4,1,1,85,0,0
189416,-100,4,1,1,84,0,0
189526,-100,4,1,1,83,0,0
189636,-100,4,1,1,82,0,0
189745,-100,4,1,1,81,0,0
189855,-100,4,1,1,80,0,0
189965,-100,4,1,1,79,0,0
190075,-100,4,1,1,78,0,0
190185,-100,4,1,1,77,0,0
190295,-100,4,1,1,76,0,0
190405,-100,4,1,1,75,0,0
190515,-100,4,1,1,74,0,0
190625,-100,4,1,1,73,0,0
190735,-100,4,1,1,72,0,0
190844,-100,4,1,1,71,0,0
190954,-100,4,1,1,70,0,0
191064,-100,4,1,1,69,0,0
191174,-100,4,1,1,68,0,0
191284,-100,4,1,1,67,0,0
191394,-100,4,1,1,66,0,0
191504,-100,4,1,1,65,0,0
191614,-100,4,1,1,64,0,0
191724,-100,4,1,1,63,0,0
191833,-100,4,1,1,62,0,0
191943,-100,4,1,1,61,0,0
192053,-100,4,1,1,60,0,0
192163,-100,4,1,1,59,0,0
192273,-100,4,1,1,58,0,0
192383,-100,4,1,1,57,0,0
192493,-100,4,1,1,56,0,0
192603,-100,4,1,1,55,0,0
192713,-100,4,1,1,54,0,0
192822,-100,4,1,1,53,0,0
192932,-100,4,1,1,52,0,0
193042,-100,4,1,1,51,0,0
193152,-100,4,1,1,50,0,0
193262,-100,4,1,1,49,0,0
193372,-100,4,1,1,48,0,0
193482,-100,4,1,1,47,0,0
193592,-100,4,1,1,46,0,0
193702,-100,4,1,1,45,0,0
193811,-100,4,1,1,44,0,0
193921,-100,4,1,1,43,0,0
194031,-100,4,1,1,42,0,0
194141,-100,4,1,1,41,0,0
194251,-100,4,1,1,40,0,0
194361,-100,4,1,1,39,0,0
194471,-100,4,1,1,38,0,0
194581,-100,4,1,1,37,0,0
194691,-100,4,1,1,36,0,0
194800,-100,4,1,1,35,0,0
194910,-100,4,1,1,34,0,0
195020,-100,4,1,1,33,0,0
195130,-100,4,1,1,32,0,0
195240,-100,4,1,1,31,0,0
195350,-100,4,1,1,30,0,0
195460,-100,4,1,1,29,0,0
195570,-100,4,1,1,28,0,0
195680,-100,4,1,1,27,0,0
195789,-100,4,1,1,26,0,0
195899,-100,4,1,1,25,0,0
196009,-100,4,1,1,24,0,0
196119,-100,4,1,1,23,0,0
196229,-100,4,1,1,22,0,0
196339,-100,4,1,1,21,0,0
196449,-100,4,1,1,20,0,0
196559,-100,4,1,1,19,0,0
196669,-100,4,1,1,18,0,0
196778,-100,4,1,1,17,0,0
196888,-100,4,1,1,16,0,0
196998,-100,4,1,1,15,0,0
197108,-100,4,1,1,14,0,0
197218,-100,4,1,1,13,0,0
197328,-100,4,1,1,12,0,0
197438,-100,4,1,1,11,0,0
197548,-100,4,1,1,10,0,0
197658,-100,4,1,1,9,0,0
197767,-100,4,1,1,8,0,0
197877,-100,4,1,1,7,0,0
197987,-100,4,1,1,6,0,0
198097,-100,4,1,1,5,0,0

[Colours]
Combo1 : 236,219,202
Combo2 : 216,219,243
Combo3 : 198,231,234

[HitObjects]
30,95,72,5,2,2:3:0:0:
231,268,401,1,2,2:3:0:0:
111,175,735,6,0,P|102:223|83:269,1,70,4|0,3:2|3:0,0:0:0:0:
27,306,1064,1,8,0:0:0:0:
194,377,1394,2,0,P|237:357|350:337,1,140,6|8,3:2|0:0,0:0:0:0:
429,384,1888,2,0,L|441:244,1,140,6|0,3:2|3:0,0:0:0:0:
512,185,2383,1,8,0:0:0:0:
512,185,2548,1,8,0:0:0:0:
512,185,2713,2,0,L|482:87,1,70,0|0,3:0|3:0,0:0:0:0:
451,252,3042,2,0,P|480:270|511:286,1,70,8|2,0:0|0:3,0:0:0:0:
376,188,3372,6,0,P|384:153|392:97,1,70,6|0,3:2|3:0,0:0:0:0:
369,27,3702,1,8,0:0:0:0:
217,128,4031,2,0,P|169:175|98:205,1,140,6|8,3:2|0:0,0:0:0:0:
0,270,4526,2,0,B|99:245|43:256|153:280,1,140,6|0,3:2|3:0,0:0:0:0:
63,350,5020,1,8,0:0:0:0:
63,350,5185,1,8,0:0:0:0:
63,350,5350,2,0,P|12:382|-6:386,1,70,0|0,3:0|3:0,0:0:0:0:
133,291,5680,2,0,L|201:304,1,70,8|2,0:0|0:3,0:0:0:0:
266,240,6009,6,0,P|290:269|314:307,1,70,6|0,3:2|3:0,0:0:0:0:
351,376,6339,1,8,0:0:0:0:
400,186,6669,2,0,L|403:40,1,140,6|8,3:2|0:0,0:0:0:0:
486,155,7163,2,0,L|483:294,1,140,6|0,3:2|3:0,0:0:0:0:
399,300,7658,1,8,0:0:0:0:
399,300,7822,1,8,0:0:0:0:
399,300,7987,2,0,L|299:293,1,70,0|0,3:0|3:0,0:0:0:0:
216,250,8317,2,0,P|243:228|273:209,1,70,8|2,0:0|0:3,0:0:0:0:
370,173,8647,6,0,L|348:89,1,70,6|0,3:2|3:0,0:0:0:0:
333,16,8976,1,8,0:0:0:0:
169,96,9306,2,0,P|125:134|92:151,1,70,6|0,3:2|3:0,0:0:0:0:
43,196,9636,1,8,0:0:0:0:
128,246,9800,6,0,P|65:213|-20:229,1,140,4|0,0:0|3:0,0:0:0:0:
16,318,10295,1,8,0:0:0:0:
16,318,10460,1,8,0:0:0:0:
16,318,10625,2,0,P|51:343|91:352,1,70,0|0,3:0|3:0,0:0:0:0:
173,335,10954,2,0,L|223:338,2,35,8|8|8,0:0|0:0|0:0,0:0:0:0:
128,246,11284,6,0,L|121:152,1,70,6|0,3:2|3:0,0:0:0:0:
92,89,11614,1,8,0:0:0:0:
240,203,11943,2,0,P|283:225|395:247,1,140,6|8,3:2|0:0,0:0:0:0:
483,201,12438,2,0,B|503:134|503:134|470:44,1,140,6|0,3:2|3:0,0:0:0:0:
385,91,12932,1,8,0:0:0:0:
385,91,13097,1,8,0:0:0:0:
385,91,13262,2,0,L|295:100,1,70,0|0,3:0|3:0,0:0:0:0:
479,69,13592,2,0,L|470:-21,1,70,8|2,0:0|0:3,0:0:0:0:
454,157,13921,6,0,L|460:226,1,70,6|0,3:2|3:0,0:0:0:0:
503,307,14251,1,8,0:0:0:0:
331,368,14581,2,0,P|347:318|362:213,1,140,6|8,3:2|0:0,0:0:0:0:
276,159,15075,2,0,P|206:168|139:189,1,140,6|0,3:2|3:0,0:0:0:0:
67,245,15570,1,8,0:0:0:0:
67,245,15735,1,8,0:0:0:0:
67,245,15899,2,0,L|80:338,1,70,0|0,3:0|3:0,0:0:0:0:
160,352,16229,2,0,P|224:372|257:373,1,70,8|2,0:0|0:3,0:0:0:0:
307,274,16559,6,0,P|318:307|322:341,1,70,6|0,3:2|3:0,0:0:0:0:
407,376,16888,1,8,0:0:0:0:
453,199,17218,2,0,L|495:46,1,140,6|8,3:2|0:0,0:0:0:0:
376,21,17713,2,0,P|326:37|275:50,1,105,4|0,3:2|0:0,0:0:0:0:
261,44,18042,2,0,P|230:78|192:106,1,70,2|8,3:2|0:0,0:0:0:0:
216,183,18372,2,0,B|134:203|167:169|61:187,1,140,8|0,0:0|3:0,0:0:0:0:
7,243,18866,1,8,0:0:0:0:
167,329,19196,6,0,P|206:354|251:372,1,70,6|0,3:2|3:0,0:0:0:0:
316,344,19526,1,8,0:0:0:0:
412,190,19855,2,0,P|380:205|351:224,1,70,6|0,3:2|3:0,0:0:0:0:
268,257,20185,1,8,0:0:0:0:
223,177,20350,6,0,L|238:16,1,140,4|0,0:0|3:0,0:0:0:0:
157,14,20844,1,8,0:0:0:0:
157,14,21009,1,8,0:0:0:0:
157,14,21174,2,0,L|83:31,1,70,0|0,3:0|3:0,0:0:0:0:
30,100,21504,1,8,0:0:0:0:
30,100,21586,1,8,0:0:0:0:
30,100,21669,1,8,0:0:0:0:
97,160,21833,6,0,P|114:199|122:250,1,70,6|0,3:1|3:0,0:0:0:0:
103,315,22163,1,8,0:0:0:0:
250,215,22493,2,0,P|283:256|312:280,1,70,2|0,3:1|3:0,0:0:0:0:
418,271,22822,1,8,0:0:0:0:
347,337,22987,6,0,P|380:254|380:194,1,140,2|0,3:1|3:0,0:0:0:0:
347,120,23482,1,8,0:0:0:0:
497,18,23811,1,0,3:0:0:0:
497,18,23976,1,2,3:1:0:0:
497,18,24141,2,0,P|470:78|458:92,1,70,8|2,0:0|0:1,0:0:0:0:
359,105,24471,6,0,L|340:22,1,70,2|0,3:2|3:0,0:0:0:0:
452,164,24800,2,0,P|489:188|521:200,1,70,8|0,0:0|0:0,0:0:0:0:
363,192,25130,2,0,P|313:187|208:223,1,140,2|8,3:2|0:0,0:0:0:0:
166,278,25625,2,0,P|99:299|30:296,1,140,2|0,3:2|3:0,0:0:0:0:
28,204,26119,1,8,0:0:0:0:
217,201,26449,1,0,3:0:0:0:
217,201,26614,1,0,3:0:0:0:
217,201,26778,2,0,L|304:212,1,70,10|2,0:0|0:3,0:0:0:0:
351,146,27108,5,2,3:2:0:0:
351,146,27273,1,0,3:0:0:0:
351,146,27438,2,0,P|374:111|392:67,1,70,10|0,0:0|0:0,0:0:0:0:
460,137,27767,2,0,L|483:275,1,140,2|8,3:2|0:0,0:0:0:0:
512,361,28262,2,0,B|475:335|428:334|428:334|414:348|377:372,1,140,2|0,3:2|3:0,0:0:0:0:
301,335,28756,1,8,0:0:0:0:
101,349,29086,1,0,3:0:0:0:
101,349,29251,1,0,3:0:0:0:
101,349,29416,2,0,P|146:374|184:390,1,70,10|0,0:0|0:0,0:0:0:0:
252,349,29745,5,2,3:2:0:0:
252,349,29910,1,0,3:0:0:0:
252,349,30075,2,0,P|268:314|285:273,1,70,10|0,0:0|0:0,0:0:0:0:
362,244,30405,2,0,P|396:260|438:277,1,70,2|0,3:2|3:0,0:0:0:0:
511,304,30735,1,8,0:0:0:0:
471,382,30899,2,0,P|401:371|345:317,1,140,2|0,3:2|3:0,0:0:0:0:
304,247,31394,2,0,L|289:170,1,70,8|0,0:0|0:0,0:0:0:0:
313,89,31724,1,0,3:0:0:0:
313,89,31888,1,0,3:0:0:0:
313,89,32053,2,0,L|347:52,2,35,8|8|8,0:0|0:0|0:0,0:0:0:0:
222,49,32383,6,0,P|169:63|136:67,1,70,6|0,3:1|3:0,0:0:0:0:
62,57,32713,1,8,0:0:0:0:
175,198,33042,2,0,P|134:181|87:177,1,70,2|0,3:1|3:0,0:0:0:0:
38,226,33372,1,8,0:0:0:0:
105,287,33537,6,0,P|69:304|7:388,1,140,2|0,3:1|3:0,0:0:0:0:
108,376,34031,1,8,0:0:0:0:
291,337,34361,1,0,3:0:0:0:
291,337,34526,1,2,3:1:0:0:
291,337,34691,2,0,L|308:257,1,70,8|2,0:0|0:1,0:0:0:0:
377,212,35020,5,2,3:2:0:0:
377,212,35185,1,0,0:0:0:0:
377,212,35350,2,0,P|412:190|467:176,1,70,8|0,0:0|0:0,0:0:0:0:
499,112,35680,2,0,B|406:122|406:122|359:99,1,140,2|8,3:2|0:0,0:0:0:0:
281,63,36174,6,0,L|302:213,1,140,2|0,3:2|3:0,0:0:0:0:
218,242,36669,1,8,0:0:0:0:
356,365,36998,1,0,3:0:0:0:
356,365,37163,1,0,3:0:0:0:
356,365,37328,2,0,L|343:278,1,70,10|2,0:0|0:3,0:0:0:0:
448,335,37658,5,2,3:2:0:0:
448,335,37822,1,0,3:0:0:0:
448,335,37987,2,0,P|497:355|533:380,1,70,10|0,0:0|0:0,0:0:0:0:
346,295,38317,2,0,B|273:318|288:285|203:309,1,140,2|8,3:2|0:0,0:0:0:0:
127,349,38811,2,0,P|73:332|42:249,1,140,2|0,3:2|3:0,0:0:0:0:
114,205,39306,1,8,0:0:0:0:
7,70,39636,1,0,3:0:0:0:
7,70,39800,1,0,3:0:0:0:
7,70,39965,2,0,P|22:110|42:141,1,70,10|0,0:0|0:0,0:0:0:0:
136,191,40295,5,2,3:2:0:0:
136,191,40460,1,0,3:0:0:0:
136,191,40625,2,0,L|226:180,1,70,10|0,0:0|0:0,0:0:0:0:
286,141,40954,2,0,P|321:155|385:255,1,140,2|8,3:2|0:0,0:0:0:0:
352,321,41449,1,2,3:2:0:0:
476,188,41778,1,0,3:0:0:0:
476,188,41943,2,0,L|492:271,1,70,8|0,0:0|0:0,0:0:0:0:
420,314,42273,1,0,3:0:0:0:
420,314,42438,1,0,3:0:0:0:
420,314,42603,2,0,L|363:305,3,35,8|8|8|8,0:0|0:0|0:0|0:0,0:0:0:0:
376,298,42932,6,0,B|288:316|288:316|228:300,1,140,6|8,3:1|0:0,0:0:0:0:
167,246,43427,2,0,P|146:271|132:316,1,70,2|2,0:0|3:2,0:0:0:0:
189,377,43756,2,0,P|223:374|255:360,1,70,2|8,3:1|0:0,0:0:0:0:
327,272,44086,6,0,L|330:107,1,140,6|0,3:2|3:0,0:0:0:0:
377,55,44581,1,8,0:0:0:0:
377,55,44745,2,0,P|326:12|229:3,1,140,8|0,0:0|3:0,0:0:0:0:
178,48,45240,1,8,0:0:0:0:
70,200,45570,6,0,L|184:215,1,105,6|0,3:1|0:0,0:0:0:0:
188,217,45899,1,8,0:0:0:0:
277,232,46064,2,0,P|312:269|326:302,1,70,2|2,0:0|3:2,0:0:0:0:
269,362,46394,2,0,L|199:352,1,70,2|8,3:1|0:0,0:0:0:0:
98,290,46724,6,0,P|104:256|119:128,1,140,6|0,3:2|3:0,0:0:0:0:
86,70,47218,1,8,0:0:0:0:
86,70,47383,2,0,P|23:100|-1:171,1,140,8|0,0:0|3:0,0:0:0:0:
20,262,47877,1,8,0:0:0:0:
20,262,47960,1,8,0:0:0:0:
20,262,48042,1,8,0:0:0:0:
101,222,48207,6,0,B|183:197|172:231|256:201,1,140,6|8,3:1|0:0,0:0:0:0:
278,122,48702,2,0,P|326:143|346:157,1,70,2|2,0:0|3:2,0:0:0:0:
407,214,49031,2,0,L|424:297,1,70,2|8,3:1|0:0,0:0:0:0:
304,288,49361,6,0,P|322:229|344:129,1,140,6|0,3:2|3:0,0:0:0:0:
351,68,49855,1,10,0:0:0:0:
351,68,50020,2,0,L|331:-22,2,70,8|0|0,0:0|0:0|3:0,0:0:0:0:
370,157,50515,1,8,0:0:0:0:
183,141,50844,6,0,B|103:130|103:130|65:95,1,105,6|0,3:1|0:0,0:0:0:0:
75,104,51174,1,8,0:0:0:0:
11,169,51339,2,0,P|19:205|25:264,1,70,2|2,0:0|3:2,0:0:0:0:
3,328,51669,1,2,3:1:0:0:
140,209,51998,2,0,P|184:257|258:308,1,140,6|0,3:2|3:0,0:0:0:0:
337,284,52493,1,8,0:0:0:0:
337,284,52658,2,0,P|371:339|384:355,1,70,8|0,0:0|3:0,0:0:0:0:
465,347,52987,2,0,L|498:312,4,35,8|8|8|8|8,3:1|0:0|3:1|0:0|0:0,0:0:0:0:
451,236,53482,6,0,L|449:150,1,70,6|0,3:2|3:0,0:0:0:0:
470,77,53811,1,8,0:0:0:0:
302,147,54141,2,0,P|334:97|361:21,1,140,6|8,3:2|0:0,0:0:0:0:
231,58,54636,2,0,P|171:55|92:69,1,140,6|0,3:2|3:0,0:0:0:0:
28,134,55130,1,8,0:0:0:0:
28,134,55295,1,8,0:0:0:0:
28,134,55460,2,0,L|49:218,1,70,0|0,3:0|3:0,0:0:0:0:
132,247,55789,2,0,P|109:316|96:341,1,70,8|2,0:0|0:3,0:0:0:0:
141,138,56119,6,0,L|221:155,1,70,6|0,3:2|3:0,0:0:0:0:
290,110,56449,1,8,0:0:0:0:
389,262,56778,2,0,P|310:235|242:250,1,140,6|8,3:2|0:0,0:0:0:0:
136,224,57273,2,0,P|124:320|111:390,1,140,6|0,3:2|3:0,0:0:0:0:
216,384,57767,1,8,0:0:0:0:
216,384,57932,1,8,0:0:0:0:
216,384,58097,2,0,L|330:374,1,70,0|0,3:0|3:0,0:0:0:0:
339,310,58427,2,0,P|385:266|401:243,1,70,8|2,0:0|0:3,0:0:0:0:
449,149,58756,6,0,L|478:237,1,70,6|0,3:2|3:0,0:0:0:0:
465,306,59086,1,8,0:0:0:0:
331,181,59416,2,0,B|224:200|224:200|188:184,1,140,6|8,3:2|0:0,0:0:0:0:
98,91,59910,2,0,B|151:51|151:51|239:60,1,140,4|0,3:2|3:0,0:0:0:0:
321,86,60405,1,8,0:0:0:0:
321,86,60570,1,8,0:0:0:0:
321,86,60735,2,0,P|403:121|416:124,1,70,0|0,3:0|3:0,0:0:0:0:
464,72,61064,2,0,P|478:111|490:159,1,70,8|0,0:0|0:0,0:0:0:0:
457,255,61394,6,0,L|359:235,1,70,6|0,3:2|3:0,0:0:0:0:
312,292,61724,1,8,0:0:0:0:
384,115,62053,2,0,L|286:135,1,70,6|0,3:2|3:0,0:0:0:0:
225,144,62383,1,8,0:0:0:0:
292,207,62548,6,0,P|253:290|202:355,1,140,4|0,0:0|3:0,0:0:0:0:
142,349,63042,1,8,0:0:0:0:
142,349,63207,1,8,0:0:0:0:
142,349,63372,2,0,L|107:260,1,70,0|0,3:0|3:0,0:0:0:0:
170,204,63702,1,8,0:0:0:0:
170,204,63784,1,8,0:0:0:0:
170,204,63866,1,8,0:0:0:0:
267,216,64031,6,0,L|354:188,1,70,6|0,3:1|3:0,0:0:0:0:
361,107,64361,1,8,0:0:0:0:
490,306,64691,2,0,P|475:268|462:219,1,70,2|0,3:1|3:0,0:0:0:0:
441,152,65020,1,8,0:0:0:0:
363,200,65185,6,0,P|341:249|281:322,1,140,2|0,3:1|3:0,0:0:0:0:
205,357,65680,1,8,0:0:0:0:
56,252,66009,1,0,3:0:0:0:
56,252,66174,1,2,3:1:0:0:
56,252,66339,2,0,L|132:262,1,70,8|2,0:0|0:1,0:0:0:0:
203,212,66669,6,0,P|243:165|260:134,1,70,2|0,3:2|3:0,0:0:0:0:
210,74,66998,2,0,L|194:-19,1,70,8|0,0:0|0:0,0:0:0:0:
305,82,67328,2,0,B|368:107|368:107|445:92,1,140,2|8,3:2|0:0,0:0:0:0:
364,145,67822,6,0,L|352:293,1,140,2|0,3:2|3:0,0:0:0:0:
407,362,68317,1,8,0:0:0:0:
229,319,68647,1,0,3:0:0:0:
229,319,68811,1,0,3:0:0:0:
229,319,68976,2,0,L|141:340,1,70,10|2,0:0|0:3,0:0:0:0:
66,360,69306,5,2,3:2:0:0:
66,360,69471,1,0,0:0:0:0:
66,360,69636,2,0,P|79:329|88:291,1,70,10|0,0:0|0:0,0:0:0:0:
50,209,69965,2,0,P|90:170|179:166,1,140,2|8,3:2|0:0,0:0:0:0:
253,201,70460,2,0,P|285:146|276:47,1,140,2|0,3:2|3:0,0:0:0:0:
217,10,70954,1,8,0:0:0:0:
394,51,71284,1,0,3:0:0:0:
394,51,71449,1,0,3:0:0:0:
394,51,71614,2,0,L|480:40,1,70,10|0,0:0|0:0,0:0:0:0:
447,144,71943,5,2,3:2:0:0:
447,144,72108,1,0,3:0:0:0:
447,144,72273,2,0,L|526:177,1,70,10|0,0:0|0:0,0:0:0:0:
462,248,72603,2,0,P|420:274|383:285,1,70,2|0,3:2|3:0,0:0:0:0:
309,262,72932,1,8,0:0:0:0:
368,366,73097,2,0,B|291:344|312:376|217:355,1,140,2|0,3:2|3:0,0:0:0:0:
137,360,73592,2,0,P|132:312|146:269,1,70,8|0,0:0|0:0,0:0:0:0:
189,217,73921,1,0,3:0:0:0:
189,217,74086,1,0,3:0:0:0:
189,217,74251,2,0,L|237:226,2,35,8|8|8,0:0|0:0|0:0,0:0:0:0:
106,145,74581,6,0,L|26:168,1,70,6|0,3:1|3:0,0:0:0:0:
10,251,74910,1,8,0:0:0:0:
194,134,75240,2,0,L|217:54,1,70,2|0,3:1|3:0,0:0:0:0:
304,59,75570,1,8,0:0:0:0:
288,148,75735,6,0,P|308:209|349:282,1,140,2|0,3:1|3:0,0:0:0:0:
408,339,76229,1,8,0:0:0:0:
229,302,76559,1,0,3:0:0:0:
229,302,76724,1,2,3:1:0:0:
229,302,76888,2,0,L|137:285,1,70,8|2,0:0|0:0,0:0:0:0:
54,265,77218,5,2,3:2:0:0:
54,265,77383,1,0,3:0:0:0:
54,265,77548,2,0,P|57:305|68:348,1,70,8|0,0:0|0:0,0:0:0:0:
124,208,77877,2,0,B|139:164|139:164|134:52,1,140,2|8,3:2|0:0,0:0:0:0:
57,0,78372,6,0,B|123:31|123:31|219:14,1,140,2|0,3:2|3:0,0:0:0:0:
277,42,78866,1,8,0:0:0:0:
224,216,79196,1,0,3:0:0:0:
224,216,79361,1,0,3:0:0:0:
224,216,79526,2,0,P|194:163|181:131,1,70,10|2,0:0|0:3,0:0:0:0:
142,262,79855,5,2,3:2:0:0:
142,262,80020,1,0,3:0:0:0:
142,262,80185,2,0,L|150:356,1,70,10|0,0:0|0:0,0:0:0:0:
234,361,80515,2,0,P|288:347|375:293,1,140,2|8,3:2|0:0,0:0:0:0:
441,248,81009,2,0,P|373:228|314:192,1,140,2|0,3:2|3:0,0:0:0:0:
262,116,81504,1,8,0:0:0:0:
426,18,81833,1,0,3:0:0:0:
426,18,81998,1,0,3:0:0:0:
426,18,82163,2,0,L|439:101,1,70,10|0,0:0|0:0,0:0:0:0:
512,177,82493,5,2,3:2:0:0:
512,177,82658,1,0,3:0:0:0:
512,177,82822,2,0,L|429:164,1,70,10|0,0:0|0:0,0:0:0:0:
367,216,83152,2,0,P|300:226|212:186,1,140,2|8,3:2|0:0,0:0:0:0:
140,227,83647,2,0,P|74:250|5:240,1,140,2|0,3:2|3:0,0:0:0:0:
0,150,84141,1,8,0:0:0:0:
122,31,84471,1,0,3:0:0:0:
122,31,84636,1,0,3:0:0:0:
122,31,84800,2,0,L|171:40,3,35,8|8|8|8,0:0|0:0|0:0|0:0,0:0:0:0:
167,48,85130,6,0,B|251:35|231:62|316:42,1,140,6|8,3:1|0:0,0:0:0:0:
391,78,85625,2,0,P|410:116|421:162,1,70,2|2,0:0|3:2,0:0:0:0:
484,64,85954,2,0,P|501:33|512:0,1,70,2|8,3:1|0:0,0:0:0:0:
512,197,86284,6,0,L|487:355,1,140,6|0,3:2|3:0,0:0:0:0:
403,353,86778,1,8,0:0:0:0:
403,353,86943,2,0,B|346:334|346:334|237:360,1,140,8|0,0:0|3:0,0:0:0:0:
180,379,87438,1,8,0:0:0:0:
265,218,87767,6,0,P|284:152|278:67,1,140,6|8,3:1|0:0,0:0:0:0:
223,10,88262,2,0,L|141:26,1,70,2|2,0:0|3:2,0:0:0:0:
120,107,88592,2,0,P|87:98|38:91,1,70,2|8,3:1|0:0,0:0:0:0:
0,218,88921,6,0,P|69:220|143:195,1,140,6|0,3:2|3:0,0:0:0:0:
213,149,89416,1,8,0:0:0:0:
213,149,89581,2,0,B|228:219|228:219|192:291,1,140,8|0,0:0|3:0,0:0:0:0:
155,372,90075,1,8,0:0:0:0:
155,372,90158,1,8,0:0:0:0:
155,372,90240,1,8,0:0:0:0:
253,363,90405,6,0,B|332:347|320:374|412:353,1,140,6|8,3:1|0:0,0:0:0:0:
451,287,90899,2,0,P|442:244|413:200,1,70,2|2,0:0|3:2,0:0:0:0:
336,179,91229,2,0,P|301:186|271:203,1,70,2|8,3:1|0:0,0:0:0:0:
372,276,91559,6,0,P|404:218|420:115,1,140,6|0,3:2|3:0,0:0:0:0:
400,62,92053,1,10,0:0:0:0:
400,62,92218,2,0,L|306:42,2,70,8|0|0,0:0|0:0|3:0,0:0:0:0:
479,16,92713,1,8,0:0:0:0:
344,137,93042,6,0,B|256:159|256:159|194:142,1,140,6|8,3:1|0:0,0:0:0:0:
119,124,93537,2,0,P|107:160|80:216,1,70,2|2,0:0|3:2,0:0:0:0:
31,255,93866,1,2,3:1:0:0:
212,243,94196,2,0,P|235:296|289:366,1,140,6|0,3:2|3:0,0:0:0:0:
170,384,94691,1,8,0:0:0:0:
170,384,94855,2,0,L|182:292,1,70,8|0,0:0|3:0,0:0:0:0:
133,235,95185,2,0,L|84:221,4,35,8|8|8|8|8,3:1|0:0|3:1|0:0|0:0,0:0:0:0:
146,142,95680,6,0,P|158:108|167:57,1,70,6|0,3:2|3:0,0:0:0:0:
116,3,96009,1,8,0:0:0:0:
255,120,96339,2,0,P|264:189|285:255,1,140,6|8,3:2|0:0,0:0:0:0:
391,326,96833,2,0,B|434:272|517:241,1,140,6|0,3:2|3:0,0:0:0:0:
426,197,97328,1,8,0:0:0:0:
426,197,97493,1,8,0:0:0:0:
426,197,97658,2,0,L|337:176,1,70,0|0,3:0|3:0,0:0:0:0:
294,115,97987,2,0,P|284:91|272:48,1,70,8|2,0:0|0:3,0:0:0:0:
218,179,98317,6,0,L|197:265,1,70,6|0,3:2|3:0,0:0:0:0:
118,285,98647,1,8,0:0:0:0:
296,249,98976,2,0,P|337:313|397:371,1,140,6|8,3:2|0:0,0:0:0:0:
491,329,99471,2,0,P|508:261|512:191,1,140,6|0,3:2|3:0,0:0:0:0:
458,132,99965,1,8,0:0:0:0:
458,132,100130,1,8,0:0:0:0:
458,132,100295,2,0,L|365:122,1,70,0|0,3:0|3:0,0:0:0:0:
301,167,100625,2,0,P|259:151|228:132,1,70,8|2,0:0|0:3,0:0:0:0:
279,22,100954,6,0,L|364:8,1,70,6|0,3:2|3:0,0:0:0:0:
431,39,101284,1,8,0:0:0:0:
301,167,101614,2,0,P|354:191|405:267,1,140,6|8,3:2|0:0,0:0:0:0:
309,353,102108,2,0,B|230:341|230:341|203:320,1,105,6|0,3:2|0:0,0:0:0:0:
199,317,102438,2,0,P|158:327|121:332,1,70,2|8,3:2|0:0,0:0:0:0:
48,290,102767,2,0,P|26:238|69:171,1,140,8|0,0:0|3:0,0:0:0:0:
143,121,103262,1,8,0:0:0:0:
308,232,103592,6,0,P|345:226|388:216,1,70,6|0,3:2|3:0,0:0:0:0:
448,163,103921,1,8,0:0:0:0:
363,315,104251,2,0,P|400:320|443:331,1,70,6|0,3:2|3:0,0:0:0:0:
512,366,104581,1,8,0:0:0:0:
503,275,104745,6,0,L|463:123,1,140,4|0,0:0|3:0,0:0:0:0:
445,40,105240,1,8,0:0:0:0:
445,40,105405,1,8,0:0:0:0:
445,40,105570,2,0,P|492:56|536:66,2,70,0|0|4,3:0|3:0|0:2,0:0:0:0:
262,36,106229,6,0,P|204:70|125:76,2,140,6|8|2,3:1|0:0|3:0,0:0:0:0:
356,39,107053,1,0,3:0:0:0:
356,39,107218,2,0,L|346:126,1,70,8|0,0:0|3:0,0:0:0:0:
292,181,107548,6,0,P|229:201|209:204,2,70,2|0|8,0:0|3:0|0:0,0:0:0:0:
470,143,108207,2,0,L|493:226,2,70,2|0|8,3:1|3:0|0:0,0:0:0:0:
370,295,108866,6,0,P|325:323|210:330,2,140,2|8|2,3:1|0:0|3:0,0:0:0:0:
410,217,109691,1,0,3:0:0:0:
410,217,109855,1,8,0:0:0:0:
410,217,110020,2,0,P|320:197|253:181,1,140,0|0,3:0|3:0,0:0:0:0:
183,166,110515,2,0,P|142:206|114:223,1,70,8|0,0:0|0:0,0:0:0:0:
42,192,110844,1,2,3:1:0:0:
176,315,111174,1,8,0:0:0:0:
0,260,111504,6,0,P|8:189|15:114,2,140,2|8|2,3:1|0:0|3:0,0:0:0:0:
67,321,112328,1,0,3:0:0:0:
67,321,112493,2,0,P|103:345|145:360,1,70,8|0,0:0|3:0,0:0:0:0:
204,306,112822,6,0,L|277:288,2,70,2|0|8,0:0|3:0|0:0,0:0:0:0:
89,163,113482,2,0,L|21:146,2,70,2|0|8,3:1|3:0|0:0,0:0:0:0:
270,181,114141,6,0,P|315:133|336:40,2,140,2|8|2,3:1|0:0|3:0,0:0:0:0:
187,141,114965,1,0,3:0:0:0:
187,141,115130,1,8,0:0:0:0:
187,141,115295,2,0,L|164:-6,1,140,0|0,3:0|3:0,0:0:0:0:
58,50,115789,2,0,L|98:144,1,70,8|0,0:0|0:0,0:0:0:0:
167,156,116119,1,4,3:2:0:0:
253,125,116284,1,0,3:0:0:0:
285,210,116449,1,12,0:2:0:0:
204,248,116614,1,0,0:0:0:0:
154,172,116778,6,0,B|92:159|79:178|12:155,2,140,6|8|2,3:1|0:0|3:0,0:0:0:0:
324,236,117767,2,0,P|370:189|385:165,1,70,8|0,0:0|3:0,0:0:0:0:
304,123,118097,6,0,L|284:35,2,70,2|0|8,0:0|3:0|0:0,0:0:0:0:
447,236,118756,2,0,L|427:324,2,70,2|0|8,3:1|3:0|0:0,0:0:0:0:
509,64,119416,6,0,L|353:81,2,140,2|8|2,3:1|0:0|3:0,0:0:0:0:
489,158,120240,1,0,3:0:0:0:
489,158,120405,1,8,0:0:0:0:
489,158,120570,2,0,P|421:205|364:225,1,140,0|0,3:0|3:0,0:0:0:0:
298,283,121064,2,0,P|289:328|280:366,1,70,8|0,0:0|0:0,0:0:0:0:
196,380,121394,1,2,3:1:0:0:
377,360,121724,1,8,0:0:0:0:
209,290,122053,6,0,P|189:209|184:134,2,140,2|8|2,3:1|0:0|3:0,0:0:0:0:
286,200,122877,1,0,3:0:0:0:
286,200,123042,2,0,P|293:165|300:131,1,70,8|0,0:0|3:0,0:0:0:0:
338,48,123372,6,0,P|389:44|437:35,2,70,2|0|8,0:0|3:0|0:0,0:0:0:0:
184,152,124031,2,0,P|133:148|85:139,2,70,2|0|8,3:1|3:0|0:0,0:0:0:0:
366,139,124691,6,0,L|355:-27,2,140,2|8|2,3:1|0:0|3:0,0:0:0:0:
358,236,125515,1,0,3:0:0:0:
358,236,125680,1,8,0:0:0:0:
358,236,125844,2,0,B|428:278|428:278|460:278|490:258,1,140,0|0,3:0|3:0,0:0:0:0:
506,160,126339,2,0,P|470:173|443:195,1,70,8|0,0:0|0:0,0:0:0:0:
352,254,126669,2,0,L|311:245,2,35,4|8|4,3:2|0:0|3:0,0:0:0:0:
398,362,126998,2,0,L|432:369,3,35,8|8|8|8,0:0|0:0|0:0|0:0,0:0:0:0:
385,355,127328,6,0,B|290:363|311:340|225:352,1,140,6|8,3:1|0:0,0:0:0:0:
154,356,127822,2,0,L|64:366,1,70,2|2,0:0|3:2,0:0:0:0:
11,307,128152,2,0,P|13:256|21:217,1,70,2|8,3:1|0:0,0:0:0:0:
108,153,128482,6,0,P|121:197|173:290,1,140,6|0,3:2|3:0,0:0:0:0:
251,245,128976,1,8,0:0:0:0:
251,245,129141,2,0,L|269:92,1,140,8|0,0:0|3:0,0:0:0:0:
226,29,129636,1,8,0:0:0:0:
383,118,129965,6,0,B|441:152|441:152|526:134,1,140,6|8,3:1|0:0,0:0:0:0:
486,49,130460,2,0,P|453:32|408:1,1,70,2|2,0:0|3:2,0:0:0:0:
334,23,130789,2,0,P|304:41|273:57,1,70,2|8,3:1|0:0,0:0:0:0:
163,118,131119,6,0,P|225:134|285:218,1,140,6|0,3:2|3:0,0:0:0:0:
311,277,131614,1,8,0:0:0:0:
311,277,131778,2,0,B|223:302|223:302|160:296,1,140,8|0,0:0|3:0,0:0:0:0:
76,288,132273,1,8,0:0:0:0:
76,288,132355,1,8,0:0:0:0:
76,288,132438,1,8,0:0:0:0:
134,373,132603,6,0,P|199:337|276:345,1,140,6|8,3:1|0:0,0:0:0:0:
352,356,133097,2,0,P|389:349|432:344,1,70,2|2,0:0|3:2,0:0:0:0:
497,294,133427,2,0,L|507:212,1,70,2|8,3:1|0:0,0:0:0:0:
394,251,133756,6,0,P|357:200|313:111,1,140,6|0,3:2|3:0,0:0:0:0:
381,63,134251,1,10,0:0:0:0:
381,63,134416,2,0,L|460:78,2,70,8|0|0,0:0|3:0|3:0,0:0:0:0:
308,8,134910,1,8,0:0:0:0:
177,134,135240,6,0,L|30:102,1,140,6|8,3:1|0:0,0:0:0:0:
94,30,135735,2,0,P|145:23|188:31,1,70,2|2,0:0|3:2,0:0:0:0:
243,67,136064,1,2,3:1:0:0:
159,228,136394,2,0,P|220:246|282:304,1,140,6|0,3:2|3:0,0:0:0:0:
342,372,136888,1,8,0:0:0:0:
342,372,137053,2,0,L|427:358,1,70,8|0,0:0|3:0,0:0:0:0:
499,383,137383,2,0,L|519:330,4,35,0|8|8|8|8,3:0|0:0|3:1|0:0|0:0,0:0:0:0:
420,266,137877,6,0,B|401:226|401:226|385:118,1,140,6|8,3:1|0:0,0:0:0:0:
379,39,138372,2,0,P|340:24|297:22,1,70,2|2,0:0|3:2,0:0:0:0:
275,102,138702,2,0,P|242:115|208:119,1,70,2|8,3:1|0:0,0:0:0:0:
316,195,139031,6,0,B|301:289|301:289|282:329,1,140,6|0,3:2|3:0,0:0:0:0:
204,373,139526,1,8,0:0:0:0:
204,373,139691,2,0,B|53:345,1,140,8|0,0:0|3:0,0:0:0:0:
1,283,140185,1,8,0:0:0:0:
144,171,140515,6,0,P|212:156|282:97,1,140,6|8,3:1|0:0,0:0:0:0:
285,25,141009,2,0,P|245:15|201:19,1,70,2|2,0:0|3:2,0:0:0:0:
80,93,141339,2,0,P|114:93|148:83,1,70,2|8,3:1|0:0,0:0:0:0:
267,114,141669,6,0,L|288:268,1,140,6|0,3:2|3:0,0:0:0:0:
352,322,142163,1,8,0:0:0:0:
352,322,142328,2,0,B|381:294|403:255|403:255|425:251|455:236,1,140,8|0,0:0|3:0,0:0:0:0:
495,151,142822,1,8,0:0:0:0:
495,151,142905,1,8,0:0:0:0:
495,151,142987,1,8,0:0:0:0:
405,93,143152,6,0,L|257:115,1,140,6|8,3:1|0:0,0:0:0:0:
187,66,143647,2,0,P|192:31|204:-1,1,70,2|2,0:0|3:2,0:0:0:0:
307,0,143976,2,0,P|319:31|325:66,1,70,2|8,3:1|0:0,0:0:0:0:
275,190,144306,6,0,L|297:338,1,140,6|0,3:2|3:0,0:0:0:0:
219,376,144800,1,10,0:0:0:0:
219,376,144965,2,0,L|128:358,2,70,8|0|0,0:0|3:0|3:0,0:0:0:0:
304,343,145460,1,8,0:0:0:0:
359,170,145789,6,0,P|315:158|218:106,1,140,6|8,3:1|0:0,0:0:0:0:
159,58,146284,2,0,P|121:69|76:78,1,70,2|2,0:0|3:2,0:0:0:0:
9,33,146614,1,2,3:1:0:0:
111,180,146943,2,0,P|65:218|19:313,1,140,6|0,3:2|3:0,0:0:0:0:
88,360,147438,1,8,0:0:0:0:
88,360,147603,2,0,P|132:381|173:383,1,70,8|0,0:0|3:0,0:0:0:0:
216,309,147932,2,0,L|274:275,4,35,8|8|8|8|8,3:1|0:0|3:1|0:0|0:0,0:0:0:0:
142,241,148427,6,0,P|120:198|109:154,1,70,6|0,3:2|3:0,0:0:0:0:
151,94,148756,1,8,0:0:0:0:
5,203,149086,2,0,P|29:134|35:49,1,140,6|8,3:2|0:0,0:0:0:0:
129,0,149581,2,0,L|277:14,1,140,6|0,3:2|3:0,0:0:0:0:
345,79,150075,1,8,0:0:0:0:
345,79,150240,1,8,0:0:0:0:
345,79,150405,2,0,P|369:126|375:164,1,70,0|0,3:0|3:0,0:0:0:0:
293,192,150735,2,0,L|195:163,1,70,8|2,0:0|0:3,0:0:0:0:
360,255,151064,6,0,P|401:280|427:288,1,70,6|0,3:2|3:0,0:0:0:0:
512,277,151394,1,8,0:0:0:0:
342,344,151724,2,0,P|273:356|209:384,1,140,6|8,3:2|0:0,0:0:0:0:
96,366,152218,2,0,P|111:312|123:211,1,140,6|0,3:2|3:0,0:0:0:0:
104,147,152713,1,8,0:0:0:0:
104,147,152877,1,8,0:0:0:0:
104,147,153042,2,0,L|18:163,1,70,0|0,3:0|3:0,0:0:0:0:
150,68,153372,2,0,L|134:-18,1,70,8|2,0:0|0:3,0:0:0:0:
212,138,153702,6,0,P|254:160|299:175,1,70,6|0,3:2|3:0,0:0:0:0:
364,150,154031,1,8,0:0:0:0:
262,309,154361,2,0,P|312:276|408:237,1,140,6|8,3:2|0:0,0:0:0:0:
490,285,154855,2,0,L|514:138,1,140,6|0,3:2|3:0,0:0:0:0:
482,63,155350,1,8,0:0:0:0:
482,63,155515,1,8,0:0:0:0:
482,63,155680,2,0,L|391:68,1,70,0|0,3:0|3:0,0:0:0:0:
362,143,156009,2,0,P|323:172|279:189,1,70,8|2,0:0|0:3,0:0:0:0:
175,131,156339,6,0,L|193:54,1,70,6|0,3:2|3:0,0:0:0:0:
119,5,156669,1,8,0:0:0:0:
274,117,156998,2,0,P|291:159|314:196,1,70,6|0,3:2|3:0,0:0:0:0:
326,269,157328,5,8,0:0:0:0:
232,241,157493,2,0,P|230:315|226:380,1,140,4|0,0:0|3:0,0:0:0:0:
130,302,157987,1,8,0:0:0:0:
130,302,158152,1,8,0:0:0:0:
130,302,158317,2,0,P|88:285|41:280,1,70,0|0,3:0|3:0,0:0:0:0:
0,384,158647,2,0,L|55:372,2,35,8|8|8,0:0|0:0|0:0,0:0:0:0:
44,246,158976,6,0,L|30:150,1,70,6|0,3:2|3:0,0:0:0:0:
4,89,159306,1,8,0:0:0:0:
169,164,159636,2,0,P|126:98|106:13,1,140,6|8,3:2|0:0,0:0:0:0:
256,11,160130,2,0,P|268:79|261:148,1,140,6|0,3:2|3:0,0:0:0:0:
236,240,160625,1,8,0:0:0:0:
236,240,160789,1,8,0:0:0:0:
236,240,160954,2,0,L|264:329,1,70,0|0,3:0|3:0,0:0:0:0:
373,354,161284,2,0,L|351:287,1,70,8|2,0:0|0:3,0:0:0:0:
393,175,161614,6,0,P|429:180|461:190,1,70,6|0,3:2|3:0,0:0:0:0:
512,262,161943,1,8,0:0:0:0:
438,95,162273,2,0,P|383:73|299:8,1,140,6|8,3:2|0:0,0:0:0:0:
202,0,162767,2,0,L|182:150,1,140,6|0,3:2|3:0,0:0:0:0:
127,212,163262,1,8,0:0:0:0:
127,212,163427,1,8,0:0:0:0:
127,212,163592,2,0,P|81:234|39:241,1,70,0|0,3:0|3:0,0:0:0:0:
13,115,163921,2,0,L|91:137,1,70,8|2,0:0|0:3,0:0:0:0:
139,1,164251,6,0,P|145:38|152:72,1,70,6|0,3:2|3:0,0:0:0:0:
220,125,164581,1,8,0:0:0:0:
46,89,164910,2,0,P|28:177|2:241,1,140,6|8,3:2|0:0,0:0:0:0:
6,340,165405,2,0,B|88:317|57:325|157:353,1,140,6|0,3:2|3:0,0:0:0:0:
239,359,165899,1,8,0:0:0:0:
239,359,166064,1,8,0:0:0:0:
239,359,166229,2,0,P|282:341|311:326,1,70,0|0,3:0|3:0,0:0:0:0:
220,247,166559,2,0,P|189:230|156:218,1,70,8|2,0:0|0:3,0:0:0:0:
318,242,166888,6,0,L|341:171,1,70,6|0,3:2|3:0,0:0:0:0:
285,101,167218,1,8,0:0:0:0:
453,169,167548,2,0,P|432:118|420:81,1,70,6|0,3:2|3:0,0:0:0:0:
411,14,167877,1,8,0:0:0:0:
326,49,168042,6,0,B|262:58|282:35|197:52,1,105,4|0,0:0|0:0,0:0:0:0:
209,43,168372,2,0,L|138:76,1,70,2|8,3:2|0:0,0:0:0:0:
132,164,168702,2,0,P|59:149|-2:113,1,140,8|0,0:0|3:0,0:0:0:0:
83,59,169196,1,8,0:0:0:0:
83,59,169278,1,8,0:0:0:0:
83,59,169361,1,8,0:0:0:0:
36,145,169526,6,0,L|46:234,1,70,12|0,3:1|3:0,0:0:0:0:
122,316,169855,2,0,P|127:281|129:246,1,70,8|0,0:0|0:0,0:0:0:0:
0,341,170185,2,0,B|66:323|82:343|160:325,1,140,2|8,3:2|0:0,0:0:0:0:
230,286,170680,6,0,L|395:303,1,140,6|0,3:2|3:0,0:0:0:0:
463,251,171174,1,8,0:0:0:0:
463,251,171339,1,8,0:0:0:0:
463,251,171504,2,0,P|477:293|497:342,2,70,0|0|8,3:0|3:0|0:0,0:0:0:0:
371,93,172163,6,0,P|344:72|297:53,1,70,12|0,3:1|3:0,0:0:0:0:
202,108,172493,2,0,L|133:117,1,70,8|0,0:0|0:0,0:0:0:0:
233,33,172822,2,0,L|256:182,1,140,2|8,3:2|0:0,0:0:0:0:
308,245,173317,6,0,L|285:394,1,140,6|0,3:2|3:0,0:0:0:0:
213,329,173811,1,8,0:0:0:0:
213,329,173976,1,8,0:0:0:0:
213,329,174141,2,0,L|128:340,1,70,0|0,3:0|3:0,0:0:0:0:
52,343,174471,1,8,0:0:0:0:
52,343,174553,1,8,0:0:0:0:
52,343,174636,1,8,0:0:0:0:
89,257,174800,6,0,P|118:215|133:178,1,70,12|0,3:1|3:0,0:0:0:0:
213,329,175130,2,0,P|207:294|195:261,1,70,8|0,0:0|0:0,0:0:0:0:
226,136,175460,2,0,P|277:177|378:196,1,140,2|8,3:2|0:0,0:0:0:0:
442,189,175954,6,0,L|463:19,1,140,6|0,3:2|3:0,0:0:0:0:
383,23,176449,1,8,0:0:0:0:
383,23,176614,1,8,0:0:0:0:
383,23,176778,2,0,P|355:50|309:82,2,70,0|0|8,3:0|3:0|0:0,0:0:0:0:
446,193,177438,6,0,L|361:175,1,70,6|0,3:2|3:0,0:0:0:0:
333,106,177767,1,8,0:0:0:0:
409,271,178097,2,0,P|343:277|309:285,1,70,2|0,3:2|3:0,0:0:0:0:
266,333,178427,1,8,0:0:0:0:
258,242,178592,2,0,P|192:272|96:291,1,140,4|0,0:0|3:0,0:0:0:0:
91,209,179086,1,8,0:0:0:0:
91,209,179251,2,0,P|74:148|70:127,1,70,8|0,0:0|3:0,0:0:0:0:
130,63,179581,2,0,L|170:69,4,35,0|8|8|8|8,3:0|0:0|0:0|0:0|0:0,0:0:0:0:
231,140,180075,6,0,P|292:123|313:119,1,70,6|0,3:2|3:0,0:0:0:0:
385,150,180405,1,8,0:0:0:0:
279,1,180735,2,0,P|348:26|439:43,1,140,6|8,3:2|0:0,0:0:0:0:
486,125,181229,2,0,L|494:282,1,140,6|0,3:2|3:0,0:0:0:0:
419,315,181724,1,8,0:0:0:0:
419,315,181888,1,8,0:0:0:0:
419,315,182053,2,0,L|364:252,2,70,0|0|8,3:0|3:0|0:0,0:0:0:0:
235,384,182713,6,0,P|248:344|256:307,1,70,6|0,3:2|3:0,0:0:0:0:
211,236,183042,1,8,0:0:0:0:
362,320,183372,2,0,P|348:267|335:157,1,140,6|8,3:2|0:0,0:0:0:0:
372,75,183866,2,0,B|438:65|418:84|496:68,1,105,6|0,3:2|0:0,0:0:0:0:
487,81,184196,2,0,P|505:42|514:5,1,70,2|8,3:2|0:0,0:0:0:0:
403,0,184526,2,0,P|337:30|282:88,1,140,8|0,0:0|3:0,0:0:0:0:
210,116,185020,1,8,0:0:0:0:
210,116,185103,1,8,0:0:0:0:
210,116,185185,1,10,0:0:0:0:
233,204,185350,6,0,L|226:284,1,70,6|0,3:2|3:0,0:0:0:0:
278,349,185680,1,8,0:0:0:0:
132,240,186009,2,0,P|88:288|19:340,1,140,6|8,3:2|0:0,0:0:0:0:
137,379,186504,2,0,B|197:364|187:384|262:360,1,105,6|0,3:2|0:0,0:0:0:0:
255,366,186833,2,0,P|271:337|279:290,1,70,2|8,3:2|0:0,0:0:0:0:
258,205,187163,2,0,P|326:220|395:228,1,140,8|0,0:0|3:0,0:0:0:0:
487,219,187658,1,8,0:0:0:0:
318,107,187987,6,0,L|298:14,1,70,6|0,3:2|3:0,0:0:0:0:
208,40,188317,1,8,0:0:0:0:
208,40,188482,1,0,0:0:0:0:
208,40,188647,2,0,L|193:109,1,70,6|8,3:2|0:0,0:0:0:0:
189,122,188894,1,8,0:0:0:0:
186,135,188976,2,0,L|144:139,2,35,8|8|4,0:0|0:0|3:1,0:0:0:0:
256,192,189306,12,0,198207,2:0:0:0:
