osu file format v14

[General]
AudioFilename: Worms of Souls.mp3
AudioLeadIn: 0
PreviewTime: 163802
Countdown: 0
SampleSet: Drum
StackLeniency: 0.7
Mode: 0
LetterboxInBreaks: 0
WidescreenStoryboard: 1

[Editor]
Bookmarks: 419,34556,49039,65591,82143,98694,105936,114212,122487,130763,139039,147315,155591,163867,172143,180418,188694,196970,205246,213522,221798,238350,246625,263177,271453,294212,312832
DistanceSpacing: 0.7
BeatDivisor: 4
GridSize: 16
TimelineZoom: 4.299998

[Metadata]
Title:Worms of Soul
TitleUnicode:Worms of Soul
Artist:Winterhorde
ArtistUnicode:Winterhorde
Creator:kiwies
Version:Somatic Delusions
Source:
Tags:iamtickrate kerupt turtatical english symphonic black metal melodic progressive theremin maestro vicisolum productions
BeatmapID:3523496
BeatmapSetID:1724057

[Difficulty]
HPDrainRate:5
CircleSize:4.2
OverallDifficulty:9.6
ApproachRate:9.8
SliderMultiplier:2
SliderTickRate:1

[Events]
//Background and Video events
0,0,"winterhorde.jpg",0,0
//Break Periods
2,279929,293733
//Storyboard Layer 0 (Background)
//Storyboard Layer 1 (Fail)
//Storyboard Layer 2 (Pass)
//Storyboard Layer 3 (Foreground)
//Storyboard Layer 4 (Overlay)
//Storyboard Sound Samples

[TimingPoints]
419,258.620689655172,4,3,1,50,1,0
419,-400,4,3,1,50,0,0
483,-400,4,3,1,5,0,0
7660,-133.333333333333,4,3,1,50,0,0
7789,-133.333333333333,4,3,1,5,0,0
7918,-133.333333333333,4,3,1,50,0,0
8048,-133.333333333333,4,3,1,5,0,0
8177,-181.818181818181,4,3,1,50,0,0
8242,-181.818181818181,4,3,1,5,0,0
8694,-400,4,3,1,50,0,0
8759,-400,4,3,1,5,0,0
14901,-200,4,3,1,50,0,0
15160,-133.333333333333,4,3,1,50,0,0
15289,-133.333333333333,4,3,1,5,0,0
15418,-250,4,3,1,50,0,0
15548,-250,4,3,1,5,0,0
15677,-200,4,3,1,50,0,0
15936,-133.333333333333,4,3,1,50,0,0
16065,-133.333333333333,4,3,1,5,0,0
16194,-133.333333333333,4,3,1,50,0,0
16324,-133.333333333333,4,3,1,5,0,0
16453,-181.818181818181,4,3,1,50,0,0
16518,-181.818181818181,4,3,1,5,0,0
16970,-399.999999999997,4,3,1,50,0,0
17035,-399.999999999997,4,3,1,5,0,0
24212,-100,4,3,2,50,0,0
24729,-100,4,3,3,50,0,0
25246,-400,4,3,1,50,0,0
25311,-400,4,3,1,5,0,0
29384,-400,4,3,2,55,0,0
29901,-400,4,3,3,55,0,0
30418,-100,4,3,2,50,0,0
30677,-100,4,3,2,40,0,0
31453,-133.333333333333,4,3,1,50,0,0
31582,-133.333333333333,4,3,1,5,0,0
31712,-133.333333333333,4,3,1,50,0,0
31841,-133.333333333333,4,3,1,5,0,0
31970,-133.333333333333,4,3,1,50,0,0
32035,-133.333333333333,4,3,1,5,0,0
32487,-133.333333333333,4,3,1,50,0,0
32617,-133.333333333333,4,3,1,5,0,0
32746,-133.333333333333,4,3,1,50,0,0
32875,-133.333333333333,4,3,1,5,0,0
33005,-133.333333333333,4,3,1,50,0,0
33134,-133.333333333333,4,3,1,5,0,0
33263,-133.333333333333,4,3,1,50,0,0
33393,-133.333333333333,4,3,1,5,0,0
33522,-133.333333333333,4,3,1,50,0,0
34556,-66.6666666666667,4,3,1,60,0,0
34815,-100,4,3,1,65,0,0
37660,-66.6666666666667,4,3,1,65,0,0
37725,-66.6666666666667,4,3,1,5,0,0
37918,-100,4,3,1,65,0,0
40505,-100,4,3,2,65,0,0
40569,-100,4,3,1,65,0,0
40763,-200,4,3,1,65,0,0
40828,-200,4,3,1,5,0,0
41022,-100,4,3,1,65,0,0
44125,-100,4,3,3,65,0,0
44384,-100,4,3,1,65,0,0
44643,-100,4,3,3,65,0,0
44901,-66.6666666666667,4,3,1,65,0,0
44966,-66.6666666666667,4,3,1,5,0,0
45159,-100,4,3,1,65,0,0
48005,-66.6666666666667,4,3,2,65,0,0
48069,-66.6666666666667,4,3,1,5,0,0
48263,-66.6666666666667,4,3,2,65,0,0
48328,-66.6666666666667,4,3,1,5,0,0
48522,-80,4,3,3,65,0,0
48587,-80,4,3,1,5,0,0
48781,-80,4,3,5,65,0,0
48845,-80,4,3,1,5,0,0
49039,-100,4,3,1,70,0,0
63781,-100,4,3,2,70,0,0
64039,-100,4,3,1,70,0,0
64298,-100,4,3,2,70,0,0
64556,-100,4,3,1,70,0,0
64815,-100,4,3,2,70,0,0
65074,-100,4,3,2,70,0,0
65332,-100,4,3,3,70,0,0
65591,-133.333333333333,4,3,1,65,0,0
67078,-133.333333333333,4,3,1,5,0,0
67143,-133.333333333333,4,3,1,65,0,0
68694,-100,4,3,1,65,0,0
70763,-133.333333333333,4,3,1,65,0,0
71216,-133.333333333333,4,3,1,5,0,0
71281,-133.333333333333,4,3,1,65,0,0
73350,-200,4,3,1,65,0,0
73867,-133.333333333333,4,3,1,65,0,0
75354,-133.333333333333,4,3,1,5,0,0
75418,-133.333333333333,4,3,1,65,0,0
76970,-100,4,3,1,65,0,0
79039,-133.333333333333,4,3,1,65,0,0
79492,-133.333333333333,4,3,1,5,0,0
79556,-133.333333333333,4,3,1,65,0,0
80074,-66.6666666666667,4,3,2,65,0,0
80138,-66.6666666666667,4,3,1,5,0,0
80332,-66.6666666666667,4,3,2,65,0,0
80397,-66.6666666666667,4,3,1,5,0,0
80591,-100,4,3,1,65,0,0
80656,-100,4,3,1,5,0,0
80914,-100,4,3,1,65,0,0
81108,-66.6666666666667,4,3,3,65,0,0
81173,-66.6666666666667,4,3,3,5,0,0
81367,-66.6666666666667,4,3,3,65,0,0
81431,-66.6666666666667,4,3,1,5,0,0
81625,-57.1428571428571,4,3,1,65,0,0
81690,-57.1428571428571,4,3,1,5,0,0
81884,-57.1428571428571,4,3,1,65,0,0
81949,-57.1428571428571,4,3,1,5,0,0
82143,-133.333333333333,4,3,1,65,0,0
83630,-133.333333333333,4,3,1,5,0,0
83694,-133.333333333333,4,3,1,65,0,0
85246,-100,4,3,1,65,0,0
86281,-133.333333333333,4,3,1,65,0,0
87768,-133.333333333333,4,3,1,5,0,0
87832,-133.333333333333,4,3,1,65,0,0
89901,-200,4,3,1,65,0,0
90418,-133.333333333333,4,3,1,65,0,0
91906,-133.333333333333,4,3,1,5,0,0
91970,-133.333333333333,4,3,1,65,0,0
93522,-100,4,3,1,65,0,0
94556,-133.333333333333,4,3,1,65,0,0
96043,-133.333333333333,4,3,1,5,0,0
96108,-133.333333333333,4,3,1,65,0,0
96625,-66.6666666666667,4,3,2,65,0,0
96690,-66.6666666666667,4,3,1,5,0,0
96884,-80,4,3,3,65,0,0
96949,-80,4,3,1,5,0,0
97143,-100,4,3,1,65,0,0
97207,-100,4,3,1,5,0,0
97466,-100,4,3,1,65,0,0
97660,-66.6666666666667,4,3,5,65,0,0
97725,-66.6666666666667,4,3,1,5,0,0
97918,-80,4,3,2,65,0,0
97983,-80,4,3,1,5,0,0
98177,-100,4,3,1,65,0,0
98242,-100,4,3,1,5,0,0
98436,-133.333333333333,4,3,1,65,0,0
98500,-133.333333333333,4,3,1,5,0,0
98694,-66.6666666666667,4,3,1,70,0,0
98953,-100,4,3,1,70,0,0
102832,-66.6666666666667,4,3,1,70,0,0
102897,-66.6666666666667,4,3,1,5,0,0
103091,-100,4,3,1,70,0,0
105677,-100,4,3,2,70,0,0
105936,-200,4,3,1,70,0,0
106000,-200,4,3,1,5,0,0
106194,-100,4,3,1,70,0,0
109815,-100,4,3,2,70,0,0
110074,-66.6666666666667,4,3,1,70,0,0
110138,-66.6666666666667,4,3,1,5,0,0
110332,-100,4,3,1,70,0,0
113436,-100,4,3,2,70,0,0
113694,-100,4,3,1,70,0,0
113953,-100,4,3,3,70,0,0
114212,-133.333333333333,4,3,1,70,0,0
114729,-133.333333333333,4,3,1,50,0,0
114793,-133.333333333333,4,3,1,5,0,0
114987,-100,4,3,4,60,0,0
126625,-133.333333333333,4,3,1,50,0,0
126690,-133.333333333333,4,3,1,5,0,0
126884,-100,4,3,2,60,0,0
127143,-100,4,3,3,60,0,0
127401,-133.333333333333,4,3,1,60,0,0
127466,-133.333333333333,4,3,1,5,0,0
127660,-100,4,3,1,60,0,0
127725,-100,4,3,1,5,0,0
127918,-100,4,3,1,60,0,0
127983,-100,4,3,1,5,0,0
128177,-100,4,3,1,60,0,0
128242,-100,4,3,1,5,0,0
128436,-100,4,3,2,60,0,0
128694,-100,4,3,3,60,0,0
128953,-100,4,3,1,60,0,0
129018,-100,4,3,1,5,0,0
129212,-100,4,3,1,60,0,0
129276,-100,4,3,1,5,0,0
129470,-100,4,3,1,60,0,0
129535,-100,4,3,1,5,0,0
129729,-100,4,3,2,60,0,0
130246,-100,4,3,3,60,0,0
130763,-100,4,3,4,60,0,0
132315,-90.9090909090909,4,3,4,60,0,0
143177,-133.333333333333,4,3,1,50,0,0
143242,-133.333333333333,4,3,1,5,0,0
143436,-90.9090909090909,4,3,2,60,0,0
143694,-90.9090909090909,4,3,3,60,0,0
144212,-90.9090909090909,4,3,1,60,0,0
144276,-90.9090909090909,4,3,1,5,0,0
144470,-90.9090909090909,4,3,1,60,0,0
144535,-90.9090909090909,4,3,1,5,0,0
144729,-90.9090909090909,4,3,1,60,0,0
144793,-90.9090909090909,4,3,1,5,0,0
144987,-90.9090909090909,4,3,2,60,0,0
145246,-90.9090909090909,4,3,3,60,0,0
145763,-90.9090909090909,4,3,1,60,0,0
145828,-90.9090909090909,4,3,1,5,0,0
146022,-90.9090909090909,4,3,1,60,0,0
146087,-90.9090909090909,4,3,1,5,0,0
146281,-133.333333333333,4,3,1,50,0,0
146345,-133.333333333333,4,3,1,5,0,0
146798,-153.846153846153,4,3,1,50,0,0
146862,-153.846153846153,4,3,1,5,0,0
147315,-100,4,3,1,60,0,0
163091,-100,4,3,2,60,0,0
163350,-100,4,3,1,70,0,0
163543,-100,4,3,1,5,0,0
163608,-100,4,3,1,70,0,1
179449,-100,4,3,1,5,0,1
179643,-100,4,3,2,60,0,0
179901,-100,4,3,3,60,0,0
180160,-100,4,3,5,60,0,0
180418,-100,4,3,4,60,0,0
192832,-100,4,3,1,60,0,0
192897,-100,4,3,1,5,0,0
193091,-100,4,3,2,60,0,0
193350,-100,4,3,3,60,0,0
193867,-100,4,3,1,60,0,0
193931,-100,4,3,1,5,0,0
194125,-142.857142857143,4,3,1,60,0,0
194190,-142.857142857143,4,3,1,5,0,0
194384,-100,4,3,1,60,0,0
194449,-100,4,3,1,5,0,0
194643,-100,4,3,2,60,0,0
194901,-100,4,3,3,60,0,0
195160,-100,4,3,5,60,0,0
195418,-100,4,3,1,60,0,0
195677,-100,4,3,1,60,0,0
195806,-100,4,3,1,5,0,0
195936,-100,4,3,1,50,0,0
196000,-100,4,3,1,5,0,0
196453,-100,4,3,1,50,0,0
196518,-100,4,3,1,5,0,0
196970,-100,4,3,4,60,0,0
208350,-80,4,3,4,60,0,0
209384,-100,4,3,1,60,0,0
209449,-100,4,3,1,10,0,0
209643,-100,4,3,2,60,0,0
209901,-100,4,3,3,60,0,0
210418,-100,4,3,1,60,0,0
210483,-100,4,3,1,5,0,0
210677,-100,4,3,1,60,0,0
210742,-100,4,3,1,5,0,0
210936,-100,4,3,1,60,0,0
211000,-100,4,3,1,5,0,0
211194,-100,4,3,2,60,0,0
211453,-100,4,3,2,60,0,0
211970,-100,4,3,1,60,0,0
212229,-100,4,3,3,60,0,0
212487,-100,4,3,1,60,0,0
212552,-100,4,3,1,5,0,0
213005,-100,4,3,1,60,0,0
213069,-100,4,3,1,5,0,0
213522,-200,4,3,1,45,0,0
246108,-100,4,3,2,50,0,0
246625,-125,4,3,4,65,0,0
250763,-111.111111111111,4,3,4,65,0,0
254901,-125,4,3,4,65,0,0
259039,-111.111111111111,4,3,4,65,0,0
261884,-80,4,3,1,65,0,0
262143,-80,4,3,1,65,0,0
262401,-80,4,3,2,65,0,0
262660,-80,4,3,1,65,0,0
262918,-80,4,3,3,65,0,0
263177,-50,4,3,1,70,0,1
263436,-80,4,3,1,70,0,1
270418,-80,4,3,1,70,0,1
270677,-80,4,3,2,70,0,1
270936,-80,4,3,1,70,0,1
271194,-80,4,3,3,70,0,1
271453,-80,4,3,1,70,0,1
277660,-80,4,3,1,70,0,1
277918,-80,4,3,2,70,0,1
278177,-80,4,3,1,70,0,1
278436,-80,4,3,2,70,0,1
278694,-80,4,3,3,65,0,1
279212,-80,4,3,5,55,0,1
279729,-80,4,3,1,45,0,0
294212,-133.333333333333,4,3,5,50,0,0
295246,-133.333333333333,4,3,3,55,0,0
296022,-133.333333333333,4,3,2,55,0,0
296281,-133.333333333333,4,3,1,60,0,0
297768,-133.333333333333,4,3,1,5,0,0
297832,-133.333333333333,4,3,1,60,0,0
299384,-100,4,3,1,60,0,0
300418,-133.333333333333,4,3,1,60,0,0
301906,-133.333333333333,4,3,1,5,0,0
301970,-133.333333333333,4,3,1,60,0,0
304039,-100,4,3,1,60,0,0
305591,-133.333333333333,4,3,1,60,0,0
306043,-133.333333333333,4,3,1,5,0,0
306108,-133.333333333333,4,3,1,60,0,0
307660,-100,4,3,1,60,0,0
308694,-133.333333333333,4,3,1,60,0,0
310181,-133.333333333333,4,3,1,5,0,0
310246,-133.333333333333,4,3,1,60,0,0
310505,-133.333333333333,4,3,1,5,0,0
310569,-133.333333333333,4,3,1,60,0,0
310763,-66.6666666666667,4,3,2,60,0,0
310828,-66.6666666666667,4,3,2,5,0,0
311022,-66.6666666666667,4,3,3,60,0,0
311087,-66.6666666666667,4,3,3,5,0,0
311280,-100,4,3,1,60,0,0
311345,-100,4,3,1,5,0,0
311604,-100,4,3,1,60,0,0
311797,-66.6666666666667,4,3,2,60,0,0
311862,-66.6666666666667,4,3,1,5,0,0
312056,-66.6666666666667,4,3,3,60,0,0
312121,-66.6666666666667,4,3,1,5,0,0
312314,-57.1428571428571,4,3,1,60,0,0
312380,-57.1428571428571,4,3,1,5,0,0
312574,-57.1428571428571,4,3,1,60,0,0
312638,-57.1428571428571,4,3,1,5,0,0
312832,-133.333333333333,4,3,1,60,0,0
314319,-133.333333333333,4,3,1,5,0,0
314384,-133.333333333333,4,3,1,60,0,0
315936,-100,4,3,1,60,0,0
316970,-133.333333333333,4,3,1,60,0,0
318457,-133.333333333333,4,3,1,5,0,0
318522,-133.333333333333,4,3,1,60,0,0
320591,-100,4,3,1,60,0,0
321108,-133.333333333333,4,3,1,60,0,0
322595,-133.333333333333,4,3,1,5,0,0
322660,-133.333333333333,4,3,1,60,0,0
324212,-100,4,3,1,60,0,0
326733,-100,4,3,1,5,0,0
326798,-100,4,3,1,60,0,0
327056,-100,4,3,1,5,0,0
327121,-100,4,3,1,60,0,0
327315,-66.6666666666667,4,3,2,60,0,0
327380,-66.6666666666667,4,3,1,5,0,0
327574,-66.6666666666667,4,3,3,60,0,0
327638,-66.6666666666667,4,3,1,5,0,0
327832,-100,4,3,1,60,0,0
327897,-100,4,3,1,5,0,0
328156,-100,4,3,1,60,0,0
328350,-66.6666666666667,4,3,3,60,0,0
328414,-66.6666666666667,4,3,1,5,0,0
328608,-66.6666666666667,4,3,5,60,0,0
328673,-66.6666666666667,4,3,1,5,0,0
328867,-66.6666666666667,4,3,1,60,0,0
328931,-66.6666666666667,4,3,1,5,0,0
329125,-100,4,3,1,60,0,0
329190,-100,4,3,1,5,0,0
329384,-133.333333333333,4,3,1,60,0,0
329449,-200,4,3,1,5,0,0

[Colours]
Combo1 : 15,54,240
Combo2 : 243,243,243
Combo3 : 145,145,145
Combo4 : 255,128,64
Combo5 : 255,47,47
Combo6 : 24,231,148
Combo7 : 0,191,0
Combo8 : 91,173,255

[HitObjects]
512,220,419,22,0,B|441:91|297:132|314:166|173:201|112:64|112:64|198:71|244:-5|244:-5|168:159|245:307|245:307|301:222|431:161|485:279|442:379|351:360|351:360|364:339|364:315,1,1375,4|0,0:1|0:0,0:0:0:0:
153,288,7660,102,0,P|166:323|193:371,1,75.0000028610231,4|0,0:1|0:0,0:0:0:0:
85,225,7918,2,0,P|66:259|27:295,1,75.0000028610231,4|0,0:1|0:0,0:0:0:0:
99,364,8177,2,0,P|113:261|149:197,1,165.000005035401,4|0,0:3|0:0,0:0:0:0:
363,103,8694,6,0,B|330:139|263:110|231:-7|345:-94|508:-7|561:71|483:274|296:280|204:166|204:166|117:60|2:19|-93:170|-69:328|137:349|182:177|66:180|66:180,1,1175,4|0,0:1|0:0,0:0:0:0:
47,194,14901,102,0,L|51:223,1,16.6666666666667,8|0,0:0|0:0,0:0:0:0:
23,306,15160,6,0,B|62:317|62:317|112:293,1,75.0000028610231,4|0,0:0|0:0,0:0:0:0:
24,171,15418,2,0,L|30:216,1,40,4|0,0:1|0:0,0:0:0:0:
164,359,15677,102,0,L|168:330,1,16.6666666666667
346,213,15936,6,0,P|328:185|282:173,1,75.0000028610231,4|0,0:0|0:0,0:0:0:0:
199,281,16194,2,0,P|228:250|261:247,1,75.0000028610231,4|0,0:1|0:0,0:0:0:0:
293,319,16453,2,0,P|272:218|245:155,1,165.000005035401,4|0,0:0|0:0,0:0:0:0:
98,113,16970,102,0,B|121:173|32:207|-63:145|-37:14|24:-23|109:-25|186:4|249:71|203:80|262:156|356:166|420:108|420:108|364:77|348:8|348:8|251:100|289:207|289:207|399:242|498:149|498:149|458:228|494:291,1,1375,4|0,0:0|0:0,0:0:0:0:
485,368,24212,5,8,0:0:0:0:
477,373,24276,1,8,0:0:0:0:
469,377,24341,1,8,0:0:0:0:
460,380,24406,1,8,0:0:0:0:
451,380,24470,2,0,P|417:362|405:320,3,50,8|8|8|8,0:0|0:0|0:0|0:0,0:0:0:0:
320,348,24729,2,0,P|318:305|327:284,3,50,8|8|8|8,0:0|0:0|0:0|0:0,0:0:0:0:
296,329,24987,2,0,P|302:297|322:273,3,50,8|8|8|8,0:0|0:0|0:0|0:0,0:0:0:0:
421,217,25246,102,0,B|456:168|447:86|369:30|268:63|263:171|328:176|356:165|356:165|303:236|196:181|220:156|116:97|58:182|58:182|122:162|174:190,1,775,4|0,0:1|0:0,0:0:0:0:
187,264,29384,5,8,0:0:0:0:
129,42,29643,1,8,0:0:0:0:
115,19,29901,101,8,0:0:0:0:
270,69,30031,1,8,0:0:0:0:
82,149,30160,1,8,0:0:0:0:
203,148,30418,5,8,0:0:0:0:
206,157,30483,1,8,0:0:0:0:
209,166,30548,1,8,0:0:0:0:
212,175,30612,1,8,0:0:0:0:
216,184,30677,2,0,L|208:256,11,50,8|8|8|8|8|0|0|0|0|0|0|0,0:0|0:0|0:0|0:0|0:0|0:0|0:0|0:0|0:0|0:0|0:0|0:0,0:0:0:0:
294,44,31453,102,0,B|301:28|308:8|308:8|306:32|310:49,1,75.0000028610231,4|0,0:0|0:0,0:0:0:0:
338,133,31712,2,0,B|327:151|340:170|340:170|353:155|345:126,1,75.0000028610231,4|0,0:1|0:0,0:0:0:0:
450,131,31970,2,0,P|354:93|218:77,1,225.000008583069,4|0,0:0|0:0,0:0:0:0:
24,144,32487,6,0,B|10:159|4:175|4:175|6:200|22:229,1,75.0000028610231,4|0,0:1|0:0,0:0:0:0:
192,234,32746,2,0,B|206:219|212:203|212:203|210:178|194:149,1,75.0000028610231,4|0,0:1|0:0,0:0:0:0:
60,276,33005,2,0,B|92:298|92:298|132:284,1,75.0000028610231,4|0,0:0|0:0,0:0:0:0:
121,120,33263,2,0,L|136:26,1,75.0000028610231,4|0,0:0|0:0,0:0:0:0:
106,195,33522,101,2,0:3:0:0:
223,336,33781,5,2,0:2:0:0:
311,323,34039,1,2,0:2:0:0:
399,308,34298,1,2,0:2:0:0:
474,338,34556,6,0,B|441:252|344:243|344:243|378:256|388:289,1,225.000008583069,4|0,0:0|0:0,0:0:0:0:
465,263,34815,2,0,P|475:227|503:186,3,50,2|8|2|8,0:2|2:3|0:2|2:3,0:0:0:0:
379,131,35074,5,2,0:2:0:0:
345,109,35138,1,8,2:3:0:0:
304,109,35203,1,2,0:2:0:0:
272,133,35268,1,8,2:3:0:0:
256,169,35332,2,0,P|260:202|280:235,3,50,2|8|2|8,0:2|2:3|0:2|2:3,0:0:0:0:
292,17,35591,101,2,0:2:0:0:
339,0,35656,1,8,2:3:0:0:
388,5,35720,1,2,0:2:0:0:
429,33,35785,1,8,2:3:0:0:
457,74,35850,2,0,P|459:103|449:139,3,50,2|8|2|8,0:2|2:3|0:2|2:3,0:0:0:0:
324,177,36108,5,2,0:2:0:0:
289,168,36173,1,8,2:3:0:0:
255,160,36237,1,2,0:2:0:0:
220,151,36302,1,8,2:3:0:0:
185,141,36367,2,0,L|125:128,3,50,2|8|2|8,0:2|2:3|0:2|2:3,0:0:0:0:
0,10,36625,101,2,0:2:0:0:
24,24,36690,1,8,2:3:0:0:
39,49,36755,1,2,0:2:0:0:
42,78,36819,1,8,2:3:0:0:
34,107,36884,2,0,P|20:131|-5:148,3,50,2|8|2|8,0:2|2:3|0:2|2:3,0:0:0:0:
136,130,37143,5,2,0:2:0:0:
111,137,37207,1,8,2:3:0:0:
93,154,37272,1,2,0:2:0:0:
83,176,37337,1,8,2:3:0:0:
84,201,37401,2,0,P|90:228|110:251,1,50,8|8,0:0|2:3,0:0:0:0:
13,302,37531,2,0,P|36:317|67:318,1,50,8|8,2:3|2:3,0:0:0:0:
132,380,37660,102,0,B|194:323|201:373|257:306|257:306|220:337|179:308,1,225.000008583069,4|0,0:0|0:0,0:0:0:0:
243,370,37918,2,0,P|264:369|299:383,3,50,2|8|2|8,0:2|2:3|0:2|2:3,0:0:0:0:
351,212,38177,5,2,3:2:0:0:
333,237,38242,1,8,2:3:0:0:
326,267,38306,1,2,3:2:0:0:
330,297,38371,1,8,2:3:0:0:
345,324,38436,2,0,P|365:343|410:350,3,50,2|8|2|8,3:2|2:3|3:2|2:3,3:0:0:0:
486,260,38694,101,2,0:2:0:0:
500,222,38759,1,8,2:3:0:0:
498,181,38824,1,2,0:2:0:0:
480,145,38888,1,8,2:3:0:0:
445,124,38953,2,0,P|408:118|375:127,3,50,2|8|2|8,0:2|2:3|0:2|2:3,0:0:0:0:
319,10,39212,5,2,0:2:0:0:
296,54,39276,1,8,2:3:0:0:
255,83,39341,1,2,0:2:0:0:
205,89,39406,1,8,2:3:0:0:
158,72,39470,2,0,P|137:52|127:16,3,50,2|8|2|8,0:2|2:3|0:2|2:3,0:0:0:0:
36,181,39729,101,2,0:2:0:0:
61,158,39793,1,8,2:3:0:0:
95,150,39858,1,2,0:2:0:0:
129,158,39923,1,8,2:3:0:0:
152,184,39987,2,0,P|163:209|157:242,3,50,2|8|2|8,0:2|2:3|0:2|2:3,0:0:0:0:
299,242,40246,5,2,0:2:0:0:
268,259,40311,1,8,2:3:0:0:
246,286,40375,1,2,0:2:0:0:
236,319,40440,1,8,2:3:0:0:
238,354,40505,101,8,0:0:0:0:
198,316,40569,1,8,0:0:0:0:
161,343,40634,1,2,0:2:0:0:
129,327,40699,1,8,0:0:0:0:
135,310,40763,6,0,P|96:307|57:336,1,75,4|0,0:0|0:0,0:0:0:0:
17,384,41022,2,0,P|6:325|-2:315,3,50,2|8|2|8,0:2|2:3|0:2|2:3,0:0:0:0:
136,288,41281,101,2,0:2:0:0:
165,288,41345,1,8,2:3:0:0:
192,299,41410,1,2,0:2:0:0:
216,316,41474,1,8,2:3:0:0:
233,339,41539,2,0,P|245:359|245:385,3,50,2|8|2|8,0:2|2:3|0:2|2:3,0:0:0:0:
373,323,41798,5,2,3:2:0:0:
359,285,41862,1,8,2:3:0:0:
361,244,41927,1,2,3:2:0:0:
385,212,41992,1,8,2:3:0:0:
422,198,42056,2,0,P|456:197|489:211,3,50,2|8|2|8,3:2|2:3|3:2|2:3,3:0:0:0:
264,73,42315,101,2,3:2:0:0:
224,103,42380,1,8,2:3:0:0:
208,150,42444,1,2,3:2:0:0:
213,199,42509,1,8,2:3:0:0:
242,239,42574,2,0,P|266:260|309:263,3,50,2|8|2|8,3:2|2:3|3:2|2:3,0:0:0:0:
386,104,42832,5,2,3:2:0:0:
349,121,42897,1,8,2:3:0:0:
309,115,42962,1,2,3:2:0:0:
279,88,43026,1,8,2:3:0:0:
270,48,43091,2,0,P|273:27|299:0,3,50,2|8|2|8,3:2|2:3|3:2|2:3,0:0:0:0:
146,3,43349,101,2,3:2:0:0:
171,45,43414,1,8,2:3:0:0:
171,95,43479,1,2,3:2:0:0:
142,135,43543,1,8,2:3:0:0:
92,145,43608,2,0,P|52:138|38:121,3,50,2|8|2|8,3:2|2:3|3:2|2:3,0:0:0:0:
8,16,43867,5,10,3:2:0:0:
60,29,43931,1,8,2:3:0:0:
114,40,43996,1,10,3:2:0:0:
167,53,44061,1,8,2:3:0:0:
219,67,44125,2,0,L|203:152,1,50,8|8,0:0|0:0,0:0:0:0:
230,82,44255,2,0,L|214:167,1,50,8|8,0:0|0:0,0:0:0:0:
248,246,44384,101,10,3:2:0:0:
301,236,44449,1,8,2:3:0:0:
355,224,44513,1,10,3:2:0:0:
409,212,44578,1,8,2:3:0:0:
462,200,44643,2,0,L|450:111,1,50,8|8,0:0|0:0,0:0:0:0:
474,190,44772,2,0,L|458:105,1,50,8|8,0:0|0:0,0:0:0:0:
478,40,44901,6,0,B|449:41|424:28|424:28|399:98|362:129|362:129|335:113|295:116,1,225.000008583069,4|0,0:0|0:0,0:0:0:0:
343,45,45160,2,0,P|390:67|403:79,3,50,2|8|2|8,3:2|2:3|3:2|2:3,0:0:0:0:
220,131,45418,101,2,3:2:0:0:
230,104,45483,1,8,2:3:0:0:
230,76,45548,1,2,3:2:0:0:
218,49,45612,1,8,2:3:0:0:
197,29,45677,2,0,P|166:19|143:23,3,50,2|8|2|8,3:2|2:3|3:2|2:3,0:0:0:0:
61,86,45936,5,2,3:2:0:0:
94,107,46000,1,8,2:3:0:0:
119,137,46065,1,2,3:2:0:0:
131,175,46130,1,8,2:3:0:0:
134,214,46194,2,0,P|131:245|117:276,3,50,2|8|2|8,3:2|2:3|3:2|2:3,0:0:0:0:
161,358,46453,101,2,3:2:0:0:
136,350,46518,1,8,2:3:0:0:
113,344,46582,1,2,3:2:0:0:
90,337,46647,1,8,2:3:0:0:
66,330,46712,2,0,L|4:310,3,50,2|8|2|8,3:2|2:3|3:2|2:3,0:0:0:0:
139,225,46970,5,6,3:1:0:0:
172,215,47035,1,8,2:3:0:0:
206,220,47099,1,2,3:2:0:0:
235,238,47164,1,8,2:3:0:0:
252,268,47229,2,0,P|256:292|246:323,3,50,2|8|2|8,3:2|2:3|3:2|2:3,0:0:0:0:
369,378,47487,101,6,3:0:0:0:
349,337,47552,1,8,2:3:0:0:
346,291,47617,1,2,3:2:0:0:
366,250,47681,1,8,2:3:0:0:
403,225,47746,2,0,P|435:219|463:231,3,50,2|8|2|8,3:2|2:3|3:2|2:3,0:0:0:0:
305,204,48005,6,0,B|241:121|296:0|388:75,1,225.000008583069,8|0,0:0|0:0,0:0:0:0:
427,105,48263,2,0,P|300:119|182:165,1,225.000008583069,8|0,0:0|0:0,0:0:0:0:
140,212,48522,102,0,B|235:290|222:183|336:298,1,187.5,8|0,3:0|3:0,3:0:0:0:
377,228,48781,2,0,P|302:244|241:361,1,187.5,8|0,0:0|0:0,0:0:0:0:
152,362,49039,5,6,0:0:0:0:
147,360,49103,1,0,0:0:0:0:
142,359,49168,1,0,0:0:0:0:
137,358,49232,1,0,0:0:0:0:
132,357,49297,1,2,0:0:0:0:
127,356,49362,1,0,0:0:0:0:
122,354,49426,1,0,0:0:0:0:
117,353,49491,1,0,0:0:0:0:
113,352,49556,1,2,0:0:0:0:
108,351,49620,1,0,0:0:0:0:
103,350,49685,1,0,0:0:0:0:
98,349,49750,1,0,0:0:0:0:
93,347,49814,1,2,0:0:0:0:
88,346,49879,1,0,0:0:0:0:
83,345,49944,1,0,0:0:0:0:
79,344,50008,1,0,0:0:0:0:
74,343,50074,101,10,0:0:0:0:
87,335,50138,1,0,0:0:0:0:
97,324,50202,1,0,0:0:0:0:
104,311,50267,1,0,0:0:0:0:
108,296,50331,1,2,0:0:0:0:
108,281,50396,1,0,0:0:0:0:
105,267,50461,1,0,0:0:0:0:
99,253,50526,1,0,0:0:0:0:
89,241,50591,5,2,0:0:0:0:
73,228,50656,1,0,0:0:0:0:
57,215,50720,1,0,0:0:0:0:
46,199,50785,1,0,0:0:0:0:
41,179,50849,1,2,0:0:0:0:
42,160,50914,1,0,0:0:0:0:
50,141,50979,1,0,0:0:0:0:
63,126,51043,1,0,0:0:0:0:
80,116,51108,101,6,0:0:0:0:
93,138,51173,1,0,0:0:0:0:
113,152,51237,1,0,0:0:0:0:
137,157,51302,1,0,0:0:0:0:
161,152,51367,1,2,0:0:0:0:
181,138,51431,1,0,0:0:0:0:
196,117,51496,1,0,0:0:0:0:
214,100,51561,1,0,0:0:0:0:
237,92,51625,1,2,0:0:0:0:
262,94,51690,1,0,0:0:0:0:
282,108,51755,1,0,0:0:0:0:
293,130,51819,1,0,0:0:0:0:
294,155,51884,1,2,0:0:0:0:
282,177,51949,1,0,0:0:0:0:
263,193,52013,1,0,0:0:0:0:
249,213,52078,1,0,0:0:0:0:
247,238,52143,6,0,P|253:264|289:274,7,50,10|0|0|0|2|0|0|0,0:0|0:0|0:0|0:0|0:0|0:0|0:0|0:0,0:0:0:0:
307,357,52660,2,0,P|331:357|359:334,7,50,2|0|0|0|2|0|0|0,0:0|0:0|0:0|0:0|0:0|0:0|0:0|0:0,0:0:0:0:
433,223,53177,101,6,0:0:0:0:
423,200,53241,1,0,0:0:0:0:
401,187,53306,1,0,0:0:0:0:
377,190,53370,1,0,0:0:0:0:
359,206,53435,1,2,0:0:0:0:
354,230,53500,1,0,0:0:0:0:
364,253,53564,1,0,0:0:0:0:
385,265,53629,1,0,0:0:0:0:
409,262,53694,5,2,0:0:0:0:
401,243,53759,1,0,0:0:0:0:
385,230,53824,1,0,0:0:0:0:
367,221,53888,1,0,0:0:0:0:
346,219,53953,1,2,0:0:0:0:
326,225,54018,1,0,0:0:0:0:
311,238,54082,1,0,0:0:0:0:
302,255,54147,1,0,0:0:0:0:
297,274,54212,101,10,0:0:0:0:
287,275,54276,1,0,0:0:0:0:
277,272,54340,1,0,0:0:0:0:
268,267,54405,1,0,0:0:0:0:
261,261,54469,1,2,0:0:0:0:
255,253,54534,1,0,0:0:0:0:
251,243,54599,1,0,0:0:0:0:
250,233,54663,1,0,0:0:0:0:
251,224,54729,5,2,0:0:0:0:
262,207,54793,1,0,0:0:0:0:
272,190,54857,1,0,0:0:0:0:
277,171,54922,1,0,0:0:0:0:
276,151,54986,1,2,0:0:0:0:
268,133,55051,1,0,0:0:0:0:
254,118,55116,1,0,0:0:0:0:
236,109,55180,1,0,0:0:0:0:
216,107,55245,101,6,0:0:0:0:
218,132,55311,1,0,0:0:0:0:
207,154,55375,1,0,0:0:0:0:
187,169,55440,1,0,0:0:0:0:
161,171,55505,1,2,0:0:0:0:
138,160,55569,1,0,0:0:0:0:
119,142,55634,1,0,0:0:0:0:
94,136,55699,1,0,0:0:0:0:
70,144,55763,5,2,0:0:0:0:
63,151,55828,1,0,0:0:0:0:
58,159,55892,1,0,0:0:0:0:
56,169,55957,1,0,0:0:0:0:
58,179,56021,1,2,0:0:0:0:
62,188,56086,1,0,0:0:0:0:
68,195,56151,1,0,0:0:0:0:
77,200,56215,1,0,0:0:0:0:
87,202,56281,102,0,P|107:178|98:150,7,50,10|0|0|0|2|0|0|0,0:0|0:0|0:0|0:0|0:0|0:0|0:0|0:0,0:0:0:0:
198,118,56798,2,0,P|186:89|160:71,7,50,2|0|0|0|2|0|0|0,0:0|0:0|0:0|0:0|0:0|0:0|0:0|0:0,0:0:0:0:
255,247,57315,5,6,0:0:0:0:
259,246,57379,1,0,0:0:0:0:
264,245,57444,1,0,0:0:0:0:
269,244,57508,1,0,0:0:0:0:
274,244,57573,1,2,0:0:0:0:
279,243,57638,1,0,0:0:0:0:
284,242,57702,1,0,0:0:0:0:
289,241,57767,1,0,0:0:0:0:
294,241,57832,1,2,0:0:0:0:
299,240,57896,1,0,0:0:0:0:
304,239,57961,1,0,0:0:0:0:
309,238,58026,1,0,0:0:0:0:
314,238,58090,1,2,0:0:0:0:
319,237,58155,1,0,0:0:0:0:
324,236,58220,1,0,0:0:0:0:
329,235,58284,1,0,0:0:0:0:
334,235,58349,101,10,0:0:0:0:
322,224,58414,1,0,0:0:0:0:
314,211,58478,1,0,0:0:0:0:
311,197,58543,1,0,0:0:0:0:
310,182,58607,1,2,0:0:0:0:
314,167,58672,1,0,0:0:0:0:
322,154,58737,1,0,0:0:0:0:
332,144,58801,1,0,0:0:0:0:
345,137,58867,5,2,0:0:0:0:
364,133,58931,1,0,0:0:0:0:
383,130,58995,1,0,0:0:0:0:
401,120,59060,1,0,0:0:0:0:
414,106,59124,1,2,0:0:0:0:
422,87,59189,1,0,0:0:0:0:
423,67,59254,1,0,0:0:0:0:
417,48,59318,1,0,0:0:0:0:
405,33,59383,101,6,0:0:0:0:
384,48,59449,1,0,0:0:0:0:
381,72,59513,1,0,0:0:0:0:
388,96,59578,1,0,0:0:0:0:
402,116,59643,1,2,0:0:0:0:
419,133,59707,1,0,0:0:0:0:
430,155,59772,1,0,0:0:0:0:
434,179,59837,1,0,0:0:0:0:
427,203,59901,5,2,0:0:0:0:
404,223,59966,1,0,0:0:0:0:
374,224,60030,1,0,0:0:0:0:
348,209,60095,1,0,0:0:0:0:
335,183,60159,1,2,0:0:0:0:
337,154,60224,1,0,0:0:0:0:
356,131,60289,1,0,0:0:0:0:
384,121,60353,1,0,0:0:0:0:
412,131,60418,102,0,P|431:153|425:183,7,50,10|0|0|0|6|0|0|0,0:0|0:0|0:0|0:0|0:0|0:0|0:0|0:0,0:0:0:0:
509,223,60936,2,0,P|499:247|464:269,7,50,6|0|0|0|2|0|0|0,0:0|0:0|0:0|0:0|0:0|0:0|0:0|0:0,0:0:0:0:
376,335,61453,5,6,0:0:0:0:
353,347,61518,1,0,0:0:0:0:
328,349,61582,1,0,0:0:0:0:
304,341,61647,1,0,0:0:0:0:
285,324,61712,1,2,0:0:0:0:
270,303,61776,1,0,0:0:0:0:
250,286,61841,1,0,0:0:0:0:
226,277,61906,1,0,0:0:0:0:
202,283,61970,101,2,0:0:0:0:
189,292,62035,1,0,0:0:0:0:
175,296,62099,1,0,0:0:0:0:
160,295,62164,1,0,0:0:0:0:
147,288,62228,1,2,0:0:0:0:
137,277,62293,1,0,0:0:0:0:
132,263,62358,1,0,0:0:0:0:
133,249,62422,1,0,0:0:0:0:
139,235,62487,6,0,P|170:232|172:267,7,50,10|0|0|0|2|0|0|0,0:0|0:0|0:0|0:0|0:0|0:0|0:0|0:0,0:0:0:0:
270,194,63005,2,0,P|287:218|276:258,7,50,2|0|0|0|2|0|0|0,0:0|0:0|0:0|0:0|0:0|0:0|0:0|0:0,0:0:0:0:
277,346,63522,101,8,0:0:0:0:
307,363,63587,1,8,0:0:0:0:
341,368,63651,1,8,0:0:0:0:
375,360,63716,1,8,0:0:0:0:
402,337,63781,2,0,P|417:311|418:282,3,50,8|8|8|8,0:0|0:0|0:0|0:0,0:0:0:0:
460,146,64039,5,8,0:0:0:0:
473,183,64104,1,8,0:0:0:0:
486,220,64168,1,8,0:0:0:0:
501,257,64233,1,8,0:0:0:0:
512,295,64298,2,0,L|501:369,3,50,8|8|8|8,0:0|0:0|0:0|0:0,0:0:0:0:
303,275,64556,101,8,0:0:0:0:
279,248,64621,1,8,0:0:0:0:
277,212,64686,1,8,0:0:0:0:
293,181,64750,1,8,0:0:0:0:
315,179,64815,5,8,0:0:0:0:
339,153,64880,1,8,0:0:0:0:
343,118,64944,1,8,0:0:0:0:
325,87,65009,1,0,0:0:0:0:
307,93,65074,102,0,P|279:86|243:86,3,50,8|8|8|8,0:0|0:0|0:0|0:0,0:0:0:0:
154,135,65332,2,0,P|128:147|100:170,3,50,8|8|8|8,0:0|0:0|0:0|0:0,0:0:0:0:
102,249,65591,5,6,0:0:0:0:
100,258,65656,1,0,0:0:0:0:
98,267,65720,1,0,0:0:0:0:
97,277,65785,1,0,0:0:0:0:
96,287,65849,1,0,0:0:0:0:
266,320,66108,101,2,0:0:0:0:
264,311,66173,1,0,0:0:0:0:
262,302,66237,1,0,0:0:0:0:
261,292,66302,1,0,0:0:0:0:
260,282,66367,1,0,0:0:0:0:
108,384,66625,6,0,B|234:303|111:231|271:168,1,262.500010013581,14|0,0:0|0:0,3:0:0:0:
253,193,67143,2,0,P|225:212|148:129,1,150.000005722046,2|0,0:0|0:0,0:0:0:0:
317,7,67660,102,0,B|325:54|325:54|370:96|370:96|379:148,1,150.000005722046,2|0,0:0|0:0,0:0:0:0:
483,255,68177,1,2,0:0:0:0:
415,17,68436,1,0,0:0:0:0:
298,234,68694,6,0,B|306:201|283:176|283:176|345:218|336:296,1,200,10|0,0:0|0:0,0:0:0:0:
424,335,69212,2,0,B|405:273|335:295|335:295|317:355|228:346,1,200,2|0,0:0|0:0,0:0:0:0:
3,354,69729,101,2,0:0:0:0:
12,352,69793,1,0,0:0:0:0:
21,350,69858,1,0,0:0:0:0:
31,349,69923,1,0,0:0:0:0:
41,348,69987,1,0,0:0:0:0:
213,272,70246,5,2,0:0:0:0:
204,270,70311,1,0,0:0:0:0:
195,268,70375,1,0,0:0:0:0:
185,267,70440,1,0,0:0:0:0:
175,266,70505,1,0,0:0:0:0:
104,102,70763,102,0,B|136:162|136:162|84:272|84:272|139:361,1,262.500010013581,14|0,0:0|0:0,0:0:0:0:
141,335,71281,2,0,B|101:276|101:276|7:273,1,150.000005722046,2|0,0:0|0:0,0:0:0:0:
55,6,71798,6,0,L|218:43,1,150.000005722046,2|0,0:0|0:0,0:0:0:0:
309,239,72315,1,2,0:0:0:0:
393,68,72574,1,0,0:0:0:0:
182,181,72832,102,0,P|208:221|235:325,1,150.000005722046,10|0,0:0|0:0,0:0:0:0:
379,290,73350,2,0,P|350:325|335:388,1,100,2|0,0:0|0:0,0:0:0:0:
123,381,73867,5,2,0:0:0:0:
121,372,73931,1,0,0:0:0:0:
119,363,73996,1,0,0:0:0:0:
118,353,74061,1,0,0:0:0:0:
117,343,74125,1,0,0:0:0:0:
245,212,74384,101,2,0:0:0:0:
243,221,74449,1,0,0:0:0:0:
241,230,74513,1,0,0:0:0:0:
240,240,74578,1,0,0:0:0:0:
239,250,74643,1,0,0:0:0:0:
67,215,74901,6,0,P|153:275|274:391,1,262.500010013581,14|0,0:0|0:0,0:0:0:0:
274,357,75418,2,0,B|191:348|220:400|110:381,1,150.000005722046,2|0,3:0|3:0,3:0:0:0:
2,207,75936,102,0,P|47:230|132:157,1,150.000005722046,2|0,0:0|0:0,0:0:0:0:
247,0,76453,1,2,0:0:0:0:
55,145,76712,1,0,0:0:0:0:
298,223,76970,6,0,B|337:210|359:171|359:171|282:194|203:146,1,200,10|0,0:0|0:0,0:0:0:0:
170,21,77487,2,0,B|200:51|198:85|198:85|266:56|351:101,1,200,2|0,0:0|0:0,0:0:0:0:
493,176,78005,101,2,0:0:0:0:
491,185,78069,1,0,0:0:0:0:
489,194,78134,1,0,0:0:0:0:
488,204,78199,1,0,0:0:0:0:
487,214,78263,1,0,0:0:0:0:
406,38,78522,5,2,0:0:0:0:
405,28,78587,1,0,0:0:0:0:
404,18,78651,1,0,0:0:0:0:
402,9,78716,1,0,0:0:0:0:
400,0,78781,1,0,0:0:0:0:
512,52,79039,102,0,B|486:102|420:128|420:128|421:137|421:137|360:157|318:217,1,262.500010013581,14|0,0:0|0:0,0:0:0:0:
309,201,79556,2,0,B|324:185|329:164|329:164|374:287,1,150.000005722046,2|0,3:0|3:0,3:0:0:0:
390,284,79880,1,0,3:0:0:0:
387,290,79944,1,0,3:0:0:0:
386,298,80009,1,0,3:0:0:0:
384,305,80074,6,0,B|364:310|345:333|345:333|218:299|218:299|220:278|199:240,1,225.000008583069,8|0,0:0|0:0,0:0:0:0:
231,182,80332,2,0,B|240:152|240:152|213:115|179:100|179:100|142:133|142:169|142:169|162:206,1,225.000008583069,8|0,3:0|3:0,3:0:0:0:
112,278,80591,102,0,P|192:234|337:215,1,200,12|0,0:0|0:0,0:0:0:0:
359,157,80914,1,0,0:0:0:0:
364,165,80979,1,0,0:0:0:0:
371,171,81043,1,0,0:0:0:0:
378,178,81108,6,0,B|384:251|345:341|345:341|340:307|301:266,1,225.000008583069,8|0,0:0|0:0,0:0:0:0:
298,213,81367,2,0,B|326:215|344:201|344:201|433:280|433:280|457:261|497:262,1,225.000008583069,8|0,0:0|0:0,0:0:0:0:
482,338,81625,102,0,B|455:346|435:380|435:380|425:278|495:172,1,262.500002503395,12|0,0:1|0:0,0:0:0:0:
504,116,81884,2,0,B|510:97|525:81|525:81|436:65|381:137|381:137|414:117|462:143,1,262.500002503395,12|0,0:1|0:0,0:0:0:0:
462,49,82143,5,6,0:0:0:0:
460,40,82207,1,0,0:0:0:0:
458,31,82272,1,0,0:0:0:0:
457,21,82337,1,0,0:0:0:0:
456,11,82401,1,0,0:0:0:0:
352,128,82660,101,2,0:0:0:0:
354,137,82724,1,0,0:0:0:0:
356,146,82789,1,0,0:0:0:0:
357,156,82854,1,0,0:0:0:0:
358,166,82918,1,0,0:0:0:0:
270,62,83177,6,0,B|241:27|241:27|340:56|340:56|340:54|340:54|470:90,1,262.500010013581,14|0,0:0|0:0,0:0:0:0:
482,73,83694,2,0,L|314:25,1,150.000005722046,2|0,0:0|0:0,0:0:0:0:
141,165,84212,102,0,B|169:138|207:145|207:145|247:186|305:160,1,150.000005722046,2|0,0:0|0:0,0:0:0:0:
368,132,84729,1,2,0:0:0:0:
319,327,84987,1,0,0:0:0:0:
0,182,85246,6,0,B|6:166|4:141|4:141|73:173|61:253|61:253|53:227|37:218,1,200,10|0,0:0|0:0,0:0:0:0:
147,300,85763,2,0,B|142:339|94:362|94:362|146:337|195:325|186:294|162:290,1,200,2|0,0:0|0:0,0:0:0:0:
203,188,86281,101,2,0:0:0:0:
212,186,86345,1,0,0:0:0:0:
221,185,86410,1,0,0:0:0:0:
231,185,86474,1,0,0:0:0:0:
241,186,86539,1,0,0:0:0:0:
326,83,86798,5,2,0:0:0:0:
335,86,86862,1,0,0:0:0:0:
344,91,86927,1,0,0:0:0:0:
351,96,86992,1,0,0:0:0:0:
358,102,87056,1,0,0:0:0:0:
458,278,87315,102,0,B|399:228|337:266|354:290|258:337|202:245,1,262.500010013581,14|0,0:0|0:0,0:0:0:0:
215,222,87832,2,0,B|240:249|240:249|242:279|224:306|224:306|224:257|202:252,1,150.000005722046,2|0,0:0|0:0,0:0:0:0:
71,145,88350,6,0,B|121:153|121:153|162:123|162:123|215:132,1,150.000005722046,2|0,0:0|0:0,0:0:0:0:
311,181,88867,1,2,0:0:0:0:
172,13,89125,1,0,0:0:0:0:
46,209,89384,102,0,P|61:273|141:312,1,150.000005722046,10|0,0:0|0:0,0:0:0:0:
249,349,89901,2,0,P|192:337|140:363,1,100,2|0,0:0|0:0,0:0:0:0:
142,211,90418,5,2,0:0:0:0:
149,206,90483,1,0,0:0:0:0:
158,202,90548,1,0,0:0:0:0:
167,199,90612,1,0,0:0:0:0:
177,197,90677,1,0,0:0:0:0:
313,256,90936,101,2,0:0:0:0:
309,248,91000,1,0,0:0:0:0:
303,240,91065,1,0,0:0:0:0:
296,233,91130,1,0,0:0:0:0:
288,227,91194,1,0,0:0:0:0:
209,315,91453,6,0,P|233:202|293:49,1,262.500010013581,14|0,0:0|0:0,0:0:0:0:
319,56,91970,2,0,P|292:104|377:126,1,150.000005722046,2|0,0:0|0:0,0:0:0:0:
478,47,92487,102,0,B|507:21|507:21|481:150,1,150.000005722046,2|0,0:0|0:0,0:0:0:0:
428,232,93005,1,2,0:0:0:0:
369,1,93263,1,0,0:0:0:0:
232,112,93522,6,0,B|241:132|271:147|271:147|248:156|215:148|215:148|181:112|130:117,1,200,10|0,0:0|0:0,0:0:0:0:
36,105,94039,2,0,B|37:171|58:200|58:200|90:193|90:193|51:173|48:134,1,200,2|0,0:0|0:0,0:0:0:0:
92,278,94556,101,2,0:0:0:0:
91,286,94621,1,0,0:0:0:0:
92,296,94686,1,0,0:0:0:0:
94,305,94750,1,0,0:0:0:0:
97,315,94815,1,0,0:0:0:0:
239,220,95074,5,2,0:0:0:0:
242,212,95139,1,0,0:0:0:0:
243,202,95204,1,0,0:0:0:0:
244,193,95268,1,0,0:0:0:0:
244,183,95333,1,0,0:0:0:0:
248,327,95591,102,0,B|213:305|213:305|196:344|196:344|193:345|193:345|183:369|183:369|351:336,1,262.500010013581,14|0,0:0|0:0,0:0:0:0:
360,329,96108,2,0,B|349:314|322:308|322:308|311:254|342:207,1,150.000005722046,2|0,0:0|0:0,0:0:0:0:
372,177,96431,1,0,0:0:0:0:
375,169,96496,1,0,0:0:0:0:
376,161,96561,1,0,0:0:0:0:
375,153,96625,6,0,B|390:174|418:183|418:183|349:243|241:203,1,225.000008583069,8|0,0:0|0:0,0:0:0:0:
210,150,96884,2,0,B|177:122|199:108|208:56|208:56|207:108|254:147,1,187.5,8|0,0:0|0:0,0:0:0:0:
317,61,97143,102,0,P|280:159|285:286,1,200,4|0,0:0|0:0,0:0:0:0:
298,284,97466,1,0,0:0:0:0:
305,290,97531,1,0,0:0:0:0:
310,298,97595,1,0,0:0:0:0:
310,308,97660,6,0,B|291:338|291:338|288:336|288:336|139:319|139:319|134:321|134:321|114:260,1,225.000008583069,8|0,0:0|0:0,0:0:0:0:
195,245,97918,2,0,B|228:219|237:163|237:163|232:219|254:254,1,187.5,8|0,0:0|0:0,0:0:0:0:
152,359,98177,102,0,B|134:378|134:378|92:226,1,150,4|0,0:0|0:0,0:0:0:0:
24,203,98436,2,0,B|34:145|34:145|36:147|36:147|51:63,1,112.500004291535,4|0,0:1|0:0,0:0:0:0:
120,60,98694,6,0,B|78:0|78:0|-8:32,1,150.000005722046,6|2,0:0|0:2,0:0:0:0:
129,160,98953,2,0,L|200:141,3,50,2|8|2|8,0:2|2:3|0:2|2:3,0:0:0:0:
240,39,99212,101,2,0:2:0:0:
262,58,99276,1,8,2:3:0:0:
277,83,99341,1,2,0:2:0:0:
288,110,99406,1,8,2:3:0:0:
291,139,99470,2,0,P|291:162|278:202,3,50,2|8|2|8,0:2|2:3|0:2|2:3,0:0:0:0:
411,146,99729,5,2,0:2:0:0:
388,113,99793,1,8,2:3:0:0:
384,72,99858,1,2,0:2:0:0:
400,35,99923,1,8,2:3:0:0:
429,8,99987,2,0,P|457:-2|489:4,3,50,2|8|2|8,0:2|2:3|0:2|2:3,0:0:0:0:
512,164,100246,101,2,0:2:0:0:
488,170,100311,1,8,2:3:0:0:
464,176,100375,1,2,0:2:0:0:
440,182,100440,1,8,2:3:0:0:
416,187,100505,2,0,L|352:200,3,50,2|8|2|8,0:2|2:3|0:2|2:3,0:0:0:0:
337,337,100763,5,2,0:2:0:0:
381,363,100828,1,8,2:3:0:0:
432,365,100893,1,2,0:2:0:0:
475,339,100957,1,8,2:3:0:0:
497,294,101022,2,0,P|498:260|477:233,3,50,2|8|2|8,0:2|2:3|0:2|2:3,0:0:0:0:
301,254,101281,101,2,0:2:0:0:
258,245,101345,1,8,2:3:0:0:
221,260,101410,1,2,0:2:0:0:
199,295,101474,1,8,2:3:0:0:
194,336,101539,2,0,P|206:359|240:377,3,50,2|8|2|8,0:2|2:3|0:2|2:3,0:0:0:0:
59,358,101798,5,2,0:2:0:0:
95,331,101862,1,8,2:3:0:0:
115,290,101927,1,2,0:2:0:0:
120,245,101992,1,8,2:3:0:0:
103,203,102056,2,0,P|91:191|52:174,3,50,2|8|2|8,0:2|2:3|0:2|2:3,0:0:0:0:
4,113,102315,101,2,0:2:0:0:
6,92,102380,1,8,2:3:0:0:
10,72,102444,1,2,0:2:0:0:
14,52,102509,1,8,2:3:0:0:
4,28,102574,5,8,0:0:0:0:
58,37,102638,1,8,2:3:0:0:
112,47,102703,1,8,0:0:0:0:
167,53,102768,1,8,2:3:0:0:
222,61,102832,102,0,B|250:114|202:121|260:194|260:194|240:158|285:111,1,225.000008583069,4|0,0:0|0:0,0:0:0:0:
304,46,103091,2,0,P|290:15|283:-9,3,50,2|8|2|8,0:2|2:3|0:2|2:3,0:0:0:0:
439,105,103349,5,2,0:2:0:0:
404,124,103414,1,8,2:3:0:0:
382,157,103479,1,2,0:2:0:0:
370,194,103543,1,8,2:3:0:0:
371,234,103608,2,0,P|383:258|405:284,3,50,2|8|2|8,0:2|2:3|0:2|2:3,0:0:0:0:
303,345,103867,101,2,0:2:0:0:
274,304,103931,1,8,2:3:0:0:
232,275,103996,1,2,0:2:0:0:
183,263,104061,1,8,2:3:0:0:
133,268,104125,2,0,P|97:281|76:298,3,50,2|8|2|8,0:2|2:3|0:2|2:3,0:0:0:0:
208,377,104384,5,2,0:2:0:0:
215,347,104449,1,8,2:3:0:0:
222,318,104513,1,2,0:2:0:0:
229,288,104578,1,8,2:3:0:0:
236,258,104643,2,0,L|251:206,3,50,2|8|2|8,0:2|2:3|0:2|2:3,0:0:0:0:
163,117,104901,101,2,0:2:0:0:
149,154,104966,1,8,2:3:0:0:
118,180,105031,1,2,0:2:0:0:
79,189,105095,1,8,2:3:0:0:
40,177,105160,2,0,P|21:160|5:129,3,50,2|8|2|8,0:2|2:3|0:2|2:3,0:0:0:0:
83,2,105418,5,8,0:0:0:0:
137,12,105483,1,8,2:3:0:0:
191,22,105548,1,8,0:0:0:0:
244,32,105612,1,8,2:3:0:0:
298,39,105677,101,8,0:0:0:0:
260,79,105742,1,8,0:0:0:0:
279,119,105806,1,8,0:0:0:0:
249,138,105871,1,8,0:0:0:0:
262,156,105936,6,0,P|273:188|282:242,1,75,4|0,0:1|0:0,0:0:0:0:
196,317,106194,2,0,P|219:301|243:298,3,50,2|8|2|8,0:2|0:0|0:2|0:0,0:0:0:0:
345,349,106453,101,2,0:2:0:0:
380,367,106518,1,8,2:3:0:0:
419,363,106582,1,2,0:2:0:0:
450,337,106647,1,8,2:3:0:0:
461,298,106712,2,0,P|456:261|429:237,3,50,2|8|2|8,0:2|2:3|0:2|2:3,0:0:0:0:
365,164,106970,5,2,0:2:0:0:
345,122,107035,1,8,2:3:0:0:
357,78,107099,1,2,0:2:0:0:
394,54,107164,1,8,2:3:0:0:
436,68,107229,2,0,P|406:72|377:95,3,50,2|8|2|8,0:2|2:3|0:2|2:3,0:0:0:0:
296,224,107487,101,2,0:2:0:0:
265,226,107552,1,8,2:3:0:0:
234,228,107617,1,2,0:2:0:0:
204,231,107681,1,8,2:3:0:0:
173,232,107746,2,0,L|109:211,3,50,2|8|2|8,0:2|2:3|0:2|2:3,0:0:0:0:
48,45,108005,5,2,0:2:0:0:
10,69,108069,1,8,2:3:0:0:
0,113,108134,1,2,0:2:0:0:
21,153,108199,1,8,2:3:0:0:
63,166,108263,2,0,P|90:144|117:139,3,50,2|8|2|8,0:2|2:3|0:2|2:3,0:0:0:0:
189,46,108522,101,2,0:2:0:0:
214,21,108587,1,8,2:3:0:0:
247,13,108651,1,2,0:2:0:0:
281,19,108716,1,8,2:3:0:0:
309,39,108781,2,0,P|321:74|316:107,3,50,2|8|2|8,0:2|2:3|0:2|2:3,0:0:0:0:
241,235,109039,5,2,0:2:0:0:
210,229,109104,1,8,2:3:0:0:
189,208,109168,1,2,0:2:0:0:
181,179,109233,1,8,2:3:0:0:
197,153,109298,2,0,P|225:138|254:144,3,50,2|8|2|8,0:2|2:3|0:2|2:3,0:0:0:0:
355,203,109556,101,10,0:2:0:0:
390,222,109621,1,8,2:3:0:0:
429,217,109686,1,10,0:2:0:0:
456,188,109750,1,8,2:3:0:0:
473,151,109815,5,8,0:0:0:0:
471,196,109880,1,8,0:0:0:0:
469,240,109944,1,8,0:0:0:0:
468,285,110009,1,8,0:0:0:0:
465,330,110074,102,0,B|481:315|506:313|506:313|433:290|366:328|366:328|389:324|415:340,1,225.000008583069,4|0,0:0|0:0,0:0:0:0:
277,332,110332,2,0,P|281:308|293:286,3,50,2|8|2|8,0:2|2:3|0:2|2:3,0:0:0:0:
349,180,110591,5,2,0:2:0:0:
330,149,110656,1,8,2:3:0:0:
298,131,110720,1,2,0:2:0:0:
263,129,110785,1,8,2:3:0:0:
232,146,110850,2,0,P|216:164|211:200,3,50,0|8|2|8,0:2|2:3|0:2|2:3,0:0:0:0:
83,50,111108,101,2,0:2:0:0:
108,12,111173,1,8,2:3:0:0:
151,2,111237,1,2,0:2:0:0:
189,23,111302,1,8,2:3:0:0:
202,68,111367,2,0,P|173:84|158:106,3,50,2|8|2|8,0:2|2:3|0:2|2:3,0:0:0:0:
31,183,111625,5,2,0:2:0:0:
46,207,111690,1,8,2:3:0:0:
61,233,111755,1,2,0:2:0:0:
76,259,111819,1,8,2:3:0:0:
92,283,111884,2,0,L|154:280,3,50,2|8|2|8,0:2|2:3|0:2|2:3,0:0:0:0:
159,143,112143,101,2,0:2:0:0:
193,122,112207,1,8,2:3:0:0:
232,126,112272,1,2,0:2:0:0:
264,151,112337,1,8,2:3:0:0:
278,188,112401,2,0,P|279:212|268:235,3,50,2|8|2|8,0:2|2:3|0:2|2:3,0:0:0:0:
374,344,112660,5,2,0:2:0:0:
415,363,112725,1,8,2:3:0:0:
455,341,112789,1,2,0:2:0:0:
475,302,112854,1,8,2:3:0:0:
463,259,112918,2,0,P|450:242|417:227,3,50,2|8|2|8,0:2|2:3|0:2|2:3,0:0:0:0:
360,35,113177,101,8,0:0:0:0:
355,80,113242,1,8,2:3:0:0:
349,125,113306,1,8,0:0:0:0:
343,170,113371,1,8,2:3:0:0:
337,215,113436,5,8,0:0:0:0:
331,202,113500,1,8,0:0:0:0:
325,189,113565,1,8,0:0:0:0:
319,176,113630,1,8,0:0:0:0:
313,163,113694,101,8,2:3:0:0:
363,153,113759,1,8,2:3:0:0:
413,145,113824,1,8,2:3:0:0:
462,137,113888,1,8,2:3:0:0:
512,128,113953,5,8,0:0:0:0:
500,119,114018,1,8,0:0:0:0:
488,111,114082,1,8,0:0:0:0:
476,103,114147,1,8,0:0:0:0:
464,95,114212,85,4,0:1:0:0:
464,95,114729,2,0,P|420:131|356:110,1,112.500004291535
255,0,114987,86,0,B|264:46|264:46|272:50|272:50|282:111,1,100,14|0,0:0|0:0,0:0:0:0:
172,216,115246,2,0,B|165:173|165:173|156:169|156:169|147:123,1,100,0|0,0:0|0:0,0:0:0:0:
277,175,115505,1,2,0:0:0:0:
274,188,115634,1,0,0:0:0:0:
168,40,115763,102,0,L|69:59,1,100,12|0,0:0|0:0,0:0:0:0:
0,203,116022,2,0,L|98:222,1,100
177,134,116281,1,2,0:0:0:0:
173,120,116410,1,0,0:0:0:0:
27,285,116539,6,0,B|8:331|8:331|37:385,1,100,6|0,0:0|0:0,0:0:0:0:
202,317,116798,2,0,B|221:271|221:271|192:217,1,100,8|0,0:0|0:0,0:0:0:0:
122,358,117056,1,2,0:0:0:0:
126,373,117186,1,0,0:0:0:0:
305,356,117315,101,6,0:0:0:0:
128,283,117444,1,0,0:0:0:0:
336,201,117574,1,2,0:0:0:0:
197,226,117703,1,0,0:0:0:0:
392,319,117832,5,14,0:0:0:0:
315,127,117962,1,0,0:0:0:0:
200,305,118091,1,2,0:0:0:0:
226,154,118220,1,0,0:0:0:0:
414,235,118350,102,0,B|433:251|433:251|526:228,1,100,6|0,0:0|0:0,0:0:0:0:
512,74,118608,2,0,B|493:58|493:58|400:81,1,100,2|0,0:0|0:0,0:0:0:0:
359,157,118867,1,10,0:0:0:0:
372,161,118996,1,0,0:0:0:0:
288,0,119125,6,0,B|310:62|310:62|295:96,1,100,6|0,0:0|0:0,0:0:0:0:
162,104,119384,2,0,B|140:42|140:42|155:8,1,100,2|0,0:0|0:0,0:0:0:0:
232,133,119643,1,2,0:0:0:0:
228,147,119772,1,0,0:0:0:0:
188,255,119901,102,0,B|231:246|231:246|234:241|234:241|288:229,1,100,14|0,0:0|0:0,0:0:0:0:
95,165,120160,2,0,B|52:174|52:174|49:179|49:179|-5:191,1,100,2|0,0:0|0:0,0:0:0:0:
71,312,120418,1,2,0:0:0:0:
77,298,120548,1,0,0:0:0:0:
182,176,120677,6,0,B|193:129|193:129|142:88,1,100,6|0,0:0|0:0,0:0:0:0:
33,4,120936,2,0,B|22:51|22:51|73:92,1,100,10|0,0:0|0:0,0:0:0:0:
157,8,121194,1,2,0:0:0:0:
140,14,121324,1,0,0:0:0:0:
95,165,121453,101,6,0:0:0:0:
262,14,121582,1,0,0:0:0:0:
287,177,121712,1,2,0:0:0:0:
152,96,121841,1,0,0:0:0:0:
382,66,121970,5,14,0:0:0:0:
202,228,122099,1,0,0:0:0:0:
304,89,122229,1,2,0:0:0:0:
375,212,122358,1,0,0:0:0:0:
491,44,122487,102,0,B|497:98|497:98|496:100|496:100|503:181,1,100,6|0,0:0|0:0,0:0:0:0:
409,292,122746,2,0,B|415:238|415:238|414:236|414:236|421:155,1,100,2|0,0:0|0:0,0:0:0:0:
304,89,123005,1,10,0:0:0:0:
313,117,123134,1,0,0:0:0:0:
243,243,123263,6,0,B|193:257|193:257|123:226,1,100,6|0,0:0|0:0,0:0:0:0:
50,58,123522,2,0,B|100:44|100:44|170:75,1,100,2|0,0:0|0:0,0:0:0:0:
211,149,123781,1,2,0:0:0:0:
200,177,123910,1,0,0:0:0:0:
97,293,124039,102,0,L|-19:267,1,100,14|0,0:0|0:0,0:0:0:0:
152,384,124298,2,0,L|268:358,1,100,2|0,0:0|0:0,0:0:0:0:
346,273,124556,1,2,0:0:0:0:
361,303,124686,1,0,0:0:0:0:
470,195,124815,6,0,L|480:327,1,100,6|0,0:0|0:0,0:0:0:0:
331,154,125074,2,0,L|341:22,1,100,10|0,0:0|0:0,0:0:0:0:
467,31,125332,101,2,0:0:0:0:
475,59,125462,1,0,0:0:0:0:
364,181,125591,5,6,0:0:0:0:
231,47,125720,1,0,0:0:0:0:
413,121,125849,1,2,0:0:0:0:
201,210,125979,1,0,0:0:0:0:
326,34,126108,101,14,0:0:0:0:
389,268,126237,1,0,0:0:0:0:
324,62,126367,1,2,0:0:0:0:
280,237,126496,1,0,0:0:0:0:
164,112,126625,6,0,P|101:101|42:141,1,112.500004291535,4|0,0:0|0:0,0:0:0:0:
34,147,126884,1,8,0:0:0:0:
14,176,126949,1,8,0:0:0:0:
16,210,127013,1,8,0:0:0:0:
40,235,127078,1,8,0:0:0:0:
74,241,127143,1,8,0:0:0:0:
95,228,127207,1,8,0:0:0:0:
120,223,127272,1,8,0:0:0:0:
143,231,127337,1,8,0:0:0:0:
156,243,127401,102,0,P|141:295|78:315,1,112.500004291535,4|0,0:1|0:0,0:0:0:0:
70,327,127660,2,0,P|162:336|234:364,1,150,4|0,0:0|0:0,0:0:0:0:
364,300,127918,2,0,P|245:305|180:339,1,150,4|0,0:0|0:0,0:0:0:0:
165,229,128177,2,0,P|167:169|253:158,1,150,4|0,0:1|0:0,0:0:0:0:
268,176,128436,1,8,0:0:0:0:
297,202,128500,1,8,0:0:0:0:
337,203,128565,1,8,0:0:0:0:
369,179,128630,1,8,0:0:0:0:
375,139,128694,1,8,0:0:0:0:
365,115,128759,1,8,0:0:0:0:
341,106,128824,1,8,0:0:0:0:
321,121,128888,1,8,0:0:0:0:
321,146,128953,6,0,B|437:137|437:137|478:84,1,150,4|0,0:0|0:0,0:0:0:0:
512,262,129212,2,0,B|484:227|484:227|356:237,1,150,4|0,0:0|0:0,0:0:0:0:
257,302,129470,2,0,P|253:355|332:337,1,150,4|0,0:1|0:0,0:0:0:0:
337,313,129729,1,8,0:0:0:0:
315,279,129793,1,8,0:0:0:0:
278,262,129858,1,8,0:0:0:0:
237,262,129923,1,8,0:0:0:0:
203,282,129987,1,8,0:0:0:0:
184,299,130052,1,8,0:0:0:0:
159,302,130117,1,8,0:0:0:0:
137,289,130181,1,8,0:0:0:0:
121,241,130246,101,8,0:0:0:0:
102,224,130311,1,8,0:0:0:0:
77,221,130375,1,8,0:0:0:0:
55,234,130440,1,8,0:0:0:0:
41,255,130505,1,8,0:0:0:0:
39,279,130569,1,8,0:0:0:0:
51,300,130634,1,8,0:0:0:0:
73,312,130699,1,8,0:0:0:0:
97,312,130763,6,0,L|112:172,1,100,4|0,0:0|0:0,0:0:0:0:
213,113,131022,2,0,L|228:253,1,100,2|2,0:0|0:0,0:0:0:0:
108,102,131281,1,10,0:0:0:0:
105,86,131410,1,0,0:0:0:0:
253,9,131539,102,0,B|304:33|304:33|319:84,1,100,2|0,0:0|0:0,0:0:0:0:
483,70,131798,2,0,B|432:46|432:46|417:-5,1,100,2|2,0:0|0:0,0:0:0:0:
390,129,132056,1,2,0:0:0:0:
394,142,132186,1,0,0:0:0:0:
497,239,132315,6,0,P|450:217|396:243,1,110.000003356934,10|0,0:0|0:0,0:0:0:0:
307,365,132574,2,0,P|355:389|408:361,1,110.000003356934,2|2,0:0|0:0,0:0:0:0:
310,201,132832,1,10,0:0:0:0:
278,270,132962,1,0,0:0:0:0:
164,138,133091,102,0,L|138:32,1,110.000003356934,2|0,0:0|0:0,0:0:0:0:
328,0,133349,2,0,L|302:106,1,110.000003356934,10|2,0:0|0:0,0:0:0:0:
150,228,133608,1,2,0:0:0:0:
221,208,133737,1,0,0:0:0:0:
67,95,133867,5,10,0:0:0:0:
187,332,133996,1,0,0:0:0:0:
0,188,134125,1,2,0:0:0:0:
205,127,134255,1,0,0:0:0:0:
36,280,134384,101,10,0:0:0:0:
284,368,134513,1,0,0:0:0:0:
135,174,134643,1,2,0:0:0:0:
55,359,134772,1,0,0:0:0:0:
245,253,134901,6,0,B|298:269|298:269|309:264|309:264|376:286,1,110.000003356934,10|0,0:0|0:0,0:0:0:0:
383,83,135160,2,0,B|330:99|330:99|319:94|319:94|252:116,1,110.000003356934,2|2,0:0|0:0,0:0:0:0:
465,272,135418,1,10,0:0:0:0:
437,204,135548,1,0,0:0:0:0:
489,8,135677,102,0,P|503:94|509:147,1,110.000003356934,2|0,0:0|0:0,0:0:0:0:
344,201,135936,2,0,P|358:115|364:62,1,110.000003356934,10|0,0:0|0:0,0:0:0:0:
512,214,136194,1,2,0:0:0:0:
484,282,136324,1,0,0:0:0:0:
331,370,136453,6,0,B|360:319|360:319|432:327,1,110.000003356934,10|0,0:0|0:0,0:0:0:0:
264,232,136712,2,0,B|214:211|214:211|158:263,1,110.000003356934,2|2,0:0|0:0,0:0:0:0:
169,384,136970,1,10,0:0:0:0:
239,357,137099,1,0,0:0:0:0:
69,229,137229,102,0,B|62:260|62:260|99:356,1,110.000003356934,2|0,0:0|0:0,0:0:0:0:
189,242,137487,2,0,B|196:211|196:211|159:115,1,110.000003356934,10|0,0:0|0:0,0:0:0:0:
78,16,137746,1,2,0:0:0:0:
58,90,137875,1,0,0:0:0:0:
261,100,138005,5,10,0:0:0:0:
0,37,138134,1,2,0:0:0:0:
95,226,138263,1,2,0:0:0:0:
192,62,138393,1,0,0:0:0:0:
0,210,138522,101,10,0:0:0:0:
154,0,138651,1,2,0:0:0:0:
262,173,138781,1,2,0:0:0:0:
58,90,138910,1,0,0:0:0:0:
326,7,139039,6,0,B|363:49|363:49|341:132,1,110.000003356934,10|0,0:0|0:0,0:0:0:0:
448,251,139298,2,0,B|411:209|411:209|433:126,1,110.000003356934,2|2,0:0|0:0,0:0:0:0:
482,28,139556,1,10,0:0:0:0:
508,100,139686,1,0,0:0:0:0:
315,204,139815,102,0,B|258:198|258:198|257:199|257:199|192:193,1,110.000003356934,2|0,0:0|0:0,0:0:0:0:
72,103,140074,2,0,B|129:97|129:97|130:98|130:98|195:92,1,110.000003356934,10|2,0:0|0:0,0:0:0:0:
311,72,140332,1,2,0:0:0:0:
280,0,140462,1,0,0:0:0:0:
103,190,140591,6,0,B|89:245|89:245|119:312,1,110.000003356934,10|0,0:0|0:0,0:0:0:0:
223,382,140850,2,0,B|209:327|209:327|239:260,1,110.000003356934,2|0,0:0|0:0,0:0:0:0:
357,233,141108,1,10,0:0:0:0:
293,190,141237,1,0,0:0:0:0:
452,329,141367,102,0,L|324:316,1,110.000003356934,2|0,0:0|0:0,0:0:0:0:
403,162,141625,2,0,L|531:149,1,110.000003356934,10|0,0:0|0:0,0:0:0:0:
309,33,141884,5,2,0:0:0:0:
333,105,142013,1,0,0:0:0:0:
186,245,142143,101,10,0:0:0:0:
21,130,142272,1,0,0:0:0:0:
223,78,142401,1,2,0:0:0:0:
98,287,142531,1,0,0:0:0:0:
101,69,142660,5,10,0:0:0:0:
263,274,142789,1,0,0:0:0:0:
50,209,142918,1,2,0:0:0:0:
315,138,143048,1,0,0:0:0:0:
158,127,143177,102,0,P|137:182|163:249,1,112.500004291535,4|0,0:0|0:0,0:0:0:0:
179,257,143436,1,8,0:0:0:0:
219,273,143500,1,8,0:0:0:0:
263,274,143565,1,8,0:0:0:0:
303,256,143630,1,8,0:0:0:0:
332,223,143694,1,8,0:0:0:0:
348,201,143759,1,8,0:0:0:0:
373,189,143824,1,8,0:0:0:0:
400,189,143888,1,8,0:0:0:0:
423,203,143953,1,8,0:0:0:0:
426,224,144018,1,8,0:0:0:0:
417,243,144082,1,8,0:0:0:0:
394,241,144147,1,8,0:0:0:0:
382,222,144212,6,0,P|383:146|393:53,1,165.000005035401,4|0,0:0|0:0,0:0:0:0:
479,0,144470,2,0,P|485:75|501:167,1,165.000005035401,4|0,0:1|0:0,0:0:0:0:
510,337,144729,2,0,B|492:303|441:291|441:291|403:328|336:307,1,165.000005035401,4|0,0:0|0:0,0:0:0:0:
332,298,144987,1,8,0:0:0:0:
297,270,145052,1,8,0:0:0:0:
254,259,145117,1,8,0:0:0:0:
212,271,145181,1,8,0:0:0:0:
181,302,145246,1,8,0:0:0:0:
156,314,145311,1,8,0:0:0:0:
130,305,145375,1,8,0:0:0:0:
117,280,145440,1,8,0:0:0:0:
122,252,145505,1,8,0:0:0:0:
146,239,145569,1,8,0:0:0:0:
172,245,145634,1,8,0:0:0:0:
171,272,145699,1,8,0:0:0:0:
147,286,145763,102,0,B|109:219|109:219|136:102,1,165.000005035401,4|0,0:0|0:0,0:0:0:0:
259,90,146022,2,0,B|244:46|244:46|213:173,1,165.000005035401,4|0,0:1|0:0,0:0:0:0:
277,296,146281,2,0,P|334:336|363:203,1,262.500010013581,4|0,0:0|0:0,0:0:0:0:
371,208,146798,2,0,P|370:312|274:290,1,227.499989585877,4|0,0:1|0:0,0:0:0:0:
234,225,147315,53,6,0:0:0:0:
237,215,147380,1,0,0:0:0:0:
240,206,147444,1,0,0:0:0:0:
242,196,147509,1,0,0:0:0:0:
243,186,147574,1,0,0:0:0:0:
242,176,147638,1,0,0:0:0:0:
240,166,147703,1,0,0:0:0:0:
237,157,147768,1,0,0:0:0:0:
233,148,147832,1,2,0:0:0:0:
227,139,147897,1,0,0:0:0:0:
221,131,147962,1,0,0:0:0:0:
214,125,148026,1,0,0:0:0:0:
206,118,148091,1,0,0:0:0:0:
197,114,148156,1,0,0:0:0:0:
188,110,148220,1,0,0:0:0:0:
178,107,148285,1,0,0:0:0:0:
168,105,148350,6,0,L|153:174,3,50,14|0|0|0,0:0|0:0|0:0|0:0,0:0:0:0:
149,114,148608,2,0,L|134:183,3,50
55,63,148867,2,0,L|40:-6,3,50,2|0|0|0,0:0|0:0|0:0|0:0,0:0:0:0:
36,54,149125,2,0,L|21:-15,3,50
3,174,149384,101,2,0:0:0:0:
11,179,149449,1,0,0:0:0:0:
18,185,149513,1,0,0:0:0:0:
25,192,149578,1,0,0:0:0:0:
31,199,149643,1,0,0:0:0:0:
37,206,149707,1,0,0:0:0:0:
42,214,149772,1,0,0:0:0:0:
47,222,149837,1,0,0:0:0:0:
51,230,149901,1,2,0:0:0:0:
55,239,149966,1,0,0:0:0:0:
58,248,150031,1,0,0:0:0:0:
60,257,150095,1,0,0:0:0:0:
62,266,150160,1,0,0:0:0:0:
64,275,150224,1,0,0:0:0:0:
65,284,150289,1,0,0:0:0:0:
65,294,150354,1,0,0:0:0:0:
63,303,150418,6,0,L|5:294,3,50,14|0|0|0,0:0|0:0|0:0|0:0,0:0:0:0:
51,319,150677,2,0,L|-7:310,3,50
142,377,150936,2,0,L|200:386,3,50,2|0|0|0,0:0|0:0|0:0|0:0,0:0:0:0:
154,361,151194,2,0,L|212:370,3,50
146,263,151453,101,2,0:0:0:0:
148,253,151518,1,0,0:0:0:0:
150,243,151582,1,0,0:0:0:0:
152,233,151647,1,0,0:0:0:0:
154,223,151712,5,0,0:0:0:0:
169,235,151776,1,0,0:0:0:0:
182,249,151841,1,0,0:0:0:0:
196,263,151906,1,0,0:0:0:0:
210,276,151970,101,2,0:0:0:0:
226,250,152035,1,0,0:0:0:0:
248,229,152099,1,0,0:0:0:0:
273,214,152164,1,0,0:0:0:0:
302,206,152229,1,0,0:0:0:0:
331,205,152293,1,0,0:0:0:0:
359,214,152358,1,0,0:0:0:0:
384,229,152423,1,0,0:0:0:0:
403,251,152487,6,0,L|389:310,3,50,14|0|0|0,0:0|0:0|0:0|0:0,0:0:0:0:
368,262,152746,2,0,L|354:321,3,50
452,180,153005,2,0,L|438:121,3,50,2|0|0|0,0:0|0:0|0:0|0:0,0:0:0:0:
440,179,153263,2,0,L|426:120,3,50
367,59,153522,101,2,0:0:0:0:
359,65,153587,1,0,0:0:0:0:
352,72,153651,1,0,0:0:0:0:
346,80,153716,1,0,0:0:0:0:
341,88,153781,5,0,0:0:0:0:
325,75,153845,1,0,0:0:0:0:
307,65,153910,1,0,0:0:0:0:
287,58,153974,1,0,0:0:0:0:
267,57,154039,101,2,0:0:0:0:
259,86,154104,1,0,0:0:0:0:
242,110,154168,1,0,0:0:0:0:
218,129,154233,1,0,0:0:0:0:
189,137,154298,5,0,0:0:0:0:
163,107,154362,1,0,0:0:0:0:
128,86,154427,1,0,0:0:0:0:
88,79,154492,1,0,0:0:0:0:
49,86,154556,102,0,L|61:146,3,50,14|0|0|0,0:0|0:0|0:0|0:0,0:0:0:0:
19,107,154815,2,0,L|31:167,3,50
131,187,155074,2,0,L|119:247,3,50,2|0|0|0,0:0|0:0|0:0|0:0,0:0:0:0:
145,198,155332,2,0,L|133:258,3,50
56,348,155591,5,6,0:0:0:0:
67,357,155656,1,0,0:0:0:0:
80,363,155720,1,0,0:0:0:0:
94,367,155785,1,0,0:0:0:0:
108,368,155849,1,0,0:0:0:0:
122,367,155914,1,0,0:0:0:0:
136,364,155979,1,0,0:0:0:0:
149,358,156043,1,0,0:0:0:0:
161,350,156108,1,2,0:0:0:0:
171,339,156173,1,0,0:0:0:0:
183,330,156237,1,0,0:0:0:0:
196,323,156302,1,0,0:0:0:0:
210,318,156367,1,0,0:0:0:0:
224,316,156431,1,0,0:0:0:0:
239,316,156496,1,0,0:0:0:0:
253,319,156561,1,0,0:0:0:0:
264,328,156625,102,0,P|286:360|290:381,3,50,14|0|0|0,0:0|0:0|0:0|0:0,0:0:0:0:
284,303,156884,2,0,P|297:339|289:367,3,50
424,271,157143,2,0,P|402:303|398:324,3,50,2|0|0|0,0:0|0:0|0:0|0:0,0:0:0:0:
409,261,157401,2,0,P|396:297|404:325,3,50
283,180,157660,5,2,0:0:0:0:
268,159,157724,1,0,0:0:0:0:
267,134,157789,1,0,0:0:0:0:
279,112,157854,1,0,0:0:0:0:
300,100,157918,1,0,0:0:0:0:
325,99,157983,1,0,0:0:0:0:
346,112,158048,1,0,0:0:0:0:
361,131,158112,1,0,0:0:0:0:
383,142,158177,1,2,0:0:0:0:
407,145,158242,1,0,0:0:0:0:
430,135,158306,1,0,0:0:0:0:
445,115,158371,1,0,0:0:0:0:
450,90,158436,1,0,0:0:0:0:
442,66,158500,1,0,0:0:0:0:
423,49,158565,1,0,0:0:0:0:
398,44,158630,1,0,0:0:0:0:
373,49,158694,102,0,L|357:125,3,50,14|0|0|0,0:0|0:0|0:0|0:0,0:0:0:0:
347,63,158953,2,0,L|331:139,3,50
274,255,159212,6,0,L|258:179,3,50,2|0|0|0,0:0|0:0|0:0|0:0,0:0:0:0:
263,250,159470,2,0,L|247:174,3,50
191,78,159729,101,2,0:0:0:0:
165,62,159793,1,0,0:0:0:0:
135,54,159858,1,0,0:0:0:0:
106,64,159923,1,0,0:0:0:0:
85,85,159987,5,0,0:0:0:0:
105,84,160052,1,0,0:0:0:0:
124,90,160117,1,0,0:0:0:0:
136,105,160181,1,0,0:0:0:0:
140,124,160246,101,2,0:0:0:0:
110,116,160311,1,0,0:0:0:0:
81,122,160375,1,0,0:0:0:0:
58,142,160440,1,0,0:0:0:0:
48,170,160505,1,0,0:0:0:0:
52,199,160569,1,0,0:0:0:0:
67,224,160634,1,0,0:0:0:0:
94,236,160699,1,0,0:0:0:0:
123,235,160763,6,0,P|149:213|160:180,3,50,14|0|0|0,0:0|0:0|0:0|0:0,0:0:0:0:
153,257,161022,2,0,P|161:221|153:197,3,50
72,348,161281,102,0,P|46:326|35:293,3,50,2|0|0|0,0:0|0:0|0:0|0:0,0:0:0:0:
48,364,161539,2,0,P|34:334|42:310,3,50
89,146,161798,5,2,0:0:0:0:
118,119,161862,1,0,0:0:0:0:
157,114,161927,1,0,0:0:0:0:
195,125,161992,1,0,0:0:0:0:
224,151,162056,101,0,0:0:0:0:
211,166,162121,1,0,0:0:0:0:
210,186,162186,1,0,0:0:0:0:
218,203,162250,1,0,0:0:0:0:
235,212,162315,5,2,0:0:0:0:
263,183,162380,1,0,0:0:0:0:
302,179,162444,1,0,0:0:0:0:
336,199,162509,1,0,0:0:0:0:
344,238,162574,2,0,P|319:215|283:212,3,50
396,119,162832,101,8,0:0:0:0:
442,98,162897,1,8,0:0:0:0:
485,110,162962,1,8,0:0:0:0:
505,143,163026,1,8,0:0:0:0:
503,178,163091,1,8,0:0:0:0:
486,203,163156,1,8,0:0:0:0:
463,212,163220,1,8,0:0:0:0:
443,208,163285,1,8,0:0:0:0:
434,195,163349,6,0,B|456:169|456:169|477:310,1,150,4|0,0:0|0:0,0:0:0:0:
366,318,163608,2,0,B|358:361|358:361|367:381|367:381|388:280,1,150,4|0,0:1|0:0,0:0:0:0:
336,215,163867,101,6,0:0:0:0:
327,209,163931,1,0,0:0:0:0:
317,205,163996,1,0,0:0:0:0:
307,203,164061,1,0,0:0:0:0:
297,202,164125,1,0,0:0:0:0:
287,203,164190,1,0,0:0:0:0:
277,204,164255,1,0,0:0:0:0:
267,207,164319,1,0,0:0:0:0:
257,211,164384,1,2,0:0:0:0:
248,216,164449,1,0,0:0:0:0:
240,222,164513,1,0,0:0:0:0:
233,229,164578,1,0,0:0:0:0:
227,237,164643,1,0,0:0:0:0:
222,245,164707,1,0,0:0:0:0:
219,254,164772,1,0,0:0:0:0:
217,263,164837,1,0,0:0:0:0:
216,272,164901,5,10,0:0:0:0:
229,257,164966,1,0,0:0:0:0:
235,237,165031,1,0,0:0:0:0:
234,217,165095,1,0,0:0:0:0:
227,198,165160,101,0,0:0:0:0:
213,171,165224,1,0,0:0:0:0:
211,141,165289,1,0,0:0:0:0:
221,112,165354,1,0,0:0:0:0:
245,94,165418,5,2,0:0:0:0:
237,128,165483,1,0,0:0:0:0:
217,157,165548,1,0,0:0:0:0:
187,175,165612,1,0,0:0:0:0:
152,181,165677,101,0,0:0:0:0:
130,193,165742,1,0,0:0:0:0:
113,211,165806,1,0,0:0:0:0:
103,234,165871,1,0,0:0:0:0:
105,259,165936,5,2,0:0:0:0:
110,251,166000,1,0,0:0:0:0:
114,242,166065,1,0,0:0:0:0:
118,233,166130,1,0,0:0:0:0:
121,224,166194,1,0,0:0:0:0:
123,215,166259,1,0,0:0:0:0:
125,206,166324,1,0,0:0:0:0:
126,197,166388,1,0,0:0:0:0:
127,187,166453,1,2,0:0:0:0:
127,177,166518,1,0,0:0:0:0:
127,168,166582,1,0,0:0:0:0:
126,159,166647,1,0,0:0:0:0:
124,150,166712,1,0,0:0:0:0:
121,141,166776,1,0,0:0:0:0:
118,132,166841,1,0,0:0:0:0:
115,123,166906,1,0,0:0:0:0:
112,114,166970,101,10,0:0:0:0:
127,126,167035,1,0,0:0:0:0:
146,131,167099,1,0,0:0:0:0:
165,129,167164,1,0,0:0:0:0:
182,119,167229,5,0,0:0:0:0:
208,105,167293,1,0,0:0:0:0:
238,103,167358,1,0,0:0:0:0:
266,112,167423,1,0,0:0:0:0:
285,134,167487,101,2,0:0:0:0:
260,158,167552,1,0,0:0:0:0:
225,162,167617,1,0,0:0:0:0:
194,145,167681,1,0,0:0:0:0:
178,113,167746,5,0,0:0:0:0:
169,89,167811,1,0,0:0:0:0:
152,70,167875,1,0,0:0:0:0:
129,59,167940,1,0,0:0:0:0:
103,59,168005,101,6,0:1:0:0:
111,71,168069,1,0,0:0:0:0:
122,80,168134,1,0,0:0:0:0:
136,85,168199,1,0,0:0:0:0:
150,87,168263,5,0,0:0:0:0:
170,87,168328,1,0,0:0:0:0:
189,92,168393,1,0,0:0:0:0:
205,103,168457,1,0,0:0:0:0:
214,120,168522,101,2,0:0:0:0:
191,108,168587,1,0,0:0:0:0:
180,85,168651,1,0,0:0:0:0:
176,60,168716,1,0,0:0:0:0:
186,37,168781,1,0,0:0:0:0:
208,26,168845,1,0,0:0:0:0:
233,25,168910,1,0,0:0:0:0:
258,38,168974,1,0,0:0:0:0:
274,57,169039,1,10,0:0:0:0:
297,65,169104,1,0,0:0:0:0:
321,60,169168,1,0,0:0:0:0:
340,44,169233,1,0,0:0:0:0:
352,22,169298,5,0,0:0:0:0:
370,29,169362,1,0,0:0:0:0:
383,43,169427,1,0,0:0:0:0:
390,61,169492,1,0,0:0:0:0:
385,80,169556,101,2,0:0:0:0:
363,86,169621,1,0,0:0:0:0:
343,97,169686,1,0,0:0:0:0:
328,113,169750,1,0,0:0:0:0:
317,133,169815,5,0,0:0:0:0:
311,147,169880,1,0,0:0:0:0:
300,157,169944,1,0,0:0:0:0:
286,164,170009,1,0,0:0:0:0:
270,163,170074,101,2,0:0:0:0:
285,150,170138,1,0,0:0:0:0:
304,146,170203,1,0,0:0:0:0:
323,149,170268,1,0,0:0:0:0:
339,160,170332,5,0,0:0:0:0:
358,176,170397,1,0,0:0:0:0:
382,183,170462,1,0,0:0:0:0:
406,177,170526,1,0,0:0:0:0:
422,157,170591,101,2,0:0:0:0:
393,165,170656,1,0,0:0:0:0:
371,185,170720,1,0,0:0:0:0:
362,213,170785,1,0,0:0:0:0:
367,242,170849,5,0,0:0:0:0:
366,266,170914,1,0,0:0:0:0:
354,288,170979,1,0,0:0:0:0:
331,299,171043,1,0,0:0:0:0:
305,297,171108,101,14,0:0:0:0:
313,262,171173,1,0,0:0:0:0:
303,228,171237,1,0,0:0:0:0:
273,208,171302,1,0,0:0:0:0:
237,209,171367,5,0,0:0:0:0:
208,218,171431,1,0,0:0:0:0:
177,216,171496,1,0,0:0:0:0:
151,199,171561,1,0,0:0:0:0:
141,170,171625,101,6,0:1:0:0:
165,173,171690,1,0,0:0:0:0:
183,189,171755,1,0,0:0:0:0:
193,211,171819,1,0,0:0:0:0:
194,236,171884,5,0,0:0:0:0:
199,255,171949,1,0,0:0:0:0:
211,269,172013,1,0,0:0:0:0:
228,278,172078,1,0,0:0:0:0:
248,277,172143,101,6,0:0:0:0:
240,270,172207,1,0,0:0:0:0:
232,265,172272,1,0,0:0:0:0:
222,261,172337,1,0,0:0:0:0:
213,257,172401,1,0,0:0:0:0:
204,255,172466,1,0,0:0:0:0:
194,252,172531,1,0,0:0:0:0:
184,251,172595,1,0,0:0:0:0:
174,250,172660,1,2,0:0:0:0:
164,249,172724,1,0,0:0:0:0:
154,250,172789,1,0,0:0:0:0:
144,251,172854,1,0,0:0:0:0:
134,252,172918,1,0,0:0:0:0:
124,254,172983,1,0,0:0:0:0:
115,257,173048,1,0,0:0:0:0:
105,261,173112,1,0,0:0:0:0:
96,265,173177,5,10,0:0:0:0:
109,271,173242,1,0,0:0:0:0:
119,281,173306,1,0,0:0:0:0:
128,293,173371,1,0,0:0:0:0:
134,306,173436,101,0,0:0:0:0:
138,286,173500,1,0,0:0:0:0:
144,266,173565,1,0,0:0:0:0:
155,249,173630,1,0,0:0:0:0:
170,236,173694,5,2,0:0:0:0:
177,259,173759,1,0,0:0:0:0:
191,279,173824,1,0,0:0:0:0:
211,293,173888,1,0,0:0:0:0:
234,300,173953,101,0,0:0:0:0:
242,287,174018,1,0,0:0:0:0:
253,277,174082,1,0,0:0:0:0:
266,271,174147,1,0,0:0:0:0:
281,269,174212,5,2,0:0:0:0:
282,283,174276,1,0,0:0:0:0:
285,297,174341,1,0,0:0:0:0:
291,311,174406,1,0,0:0:0:0:
300,322,174470,1,0,0:0:0:0:
312,332,174535,1,0,0:0:0:0:
325,338,174599,1,0,0:0:0:0:
340,341,174664,1,0,0:0:0:0:
355,341,174729,1,2,0:0:0:0:
370,337,174793,1,0,0:0:0:0:
383,330,174858,1,0,0:0:0:0:
394,321,174923,1,0,0:0:0:0:
403,309,174987,1,0,0:0:0:0:
409,295,175052,1,0,0:0:0:0:
411,280,175117,1,0,0:0:0:0:
409,265,175181,1,0,0:0:0:0:
402,251,175246,101,10,0:0:0:0:
386,264,175311,1,0,0:0:0:0:
366,269,175375,1,0,0:0:0:0:
346,266,175440,1,0,0:0:0:0:
328,256,175505,5,0,0:0:0:0:
346,239,175569,1,0,0:0:0:0:
357,216,175634,1,0,0:0:0:0:
358,190,175699,1,0,0:0:0:0:
348,167,175763,101,2,0:0:0:0:
373,183,175828,1,0,0:0:0:0:
402,189,175893,1,0,0:0:0:0:
430,181,175957,1,0,0:0:0:0:
454,162,176022,5,0,0:0:0:0:
462,143,176087,1,0,0:0:0:0:
464,123,176151,1,0,0:0:0:0:
455,104,176216,1,0,0:0:0:0:
439,91,176281,101,2,0:0:0:0:
432,114,176345,1,0,0:0:0:0:
431,139,176410,1,0,0:0:0:0:
439,162,176474,1,0,0:0:0:0:
455,180,176539,5,0,0:0:0:0:
453,154,176604,1,0,0:0:0:0:
439,133,176668,1,0,0:0:0:0:
418,118,176733,1,0,0:0:0:0:
393,113,176798,101,2,0:0:0:0:
382,151,176862,1,0,0:0:0:0:
352,177,176927,1,0,0:0:0:0:
311,174,176992,1,0,0:0:0:0:
281,147,177056,1,0,0:0:0:0:
244,130,177121,1,0,0:0:0:0:
204,135,177186,1,0,0:0:0:0:
176,162,177250,1,0,0:0:0:0:
166,201,177315,5,10,0:0:0:0:
183,183,177380,1,0,0:0:0:0:
206,176,177444,1,0,0:0:0:0:
231,178,177509,1,0,0:0:0:0:
251,193,177574,101,0,0:0:0:0:
257,211,177638,1,0,0:0:0:0:
255,231,177703,1,0,0:0:0:0:
242,246,177768,1,0,0:0:0:0:
222,249,177832,5,2,0:0:0:0:
200,221,177897,1,0,0:0:0:0:
167,208,177962,1,0,0:0:0:0:
132,209,178026,1,0,0:0:0:0:
105,231,178091,1,0,0:0:0:0:
93,247,178156,1,0,0:0:0:0:
75,256,178220,1,0,0:0:0:0:
54,257,178285,1,0,0:0:0:0:
38,244,178350,101,6,0:0:0:0:
76,236,178414,1,0,0:0:0:0:
114,248,178479,1,0,0:0:0:0:
141,276,178543,1,0,0:0:0:0:
150,314,178608,5,0,0:0:0:0:
135,309,178673,1,0,0:0:0:0:
125,297,178737,1,0,0:0:0:0:
119,283,178802,1,0,0:0:0:0:
116,268,178867,101,6,0:1:0:0:
153,281,178931,1,0,0:0:0:0:
193,278,178996,1,0,0:0:0:0:
223,251,179061,1,0,0:0:0:0:
231,212,179125,5,0,0:0:0:0:
216,216,179190,1,0,0:0:0:0:
206,227,179255,1,0,0:0:0:0:
202,241,179319,1,0,0:0:0:0:
202,256,179384,102,0,B|202:282|231:296|231:296|261:241|321:247,1,150,10|0,0:0|0:0,0:0:0:0:
314,336,179643,1,8,0:0:0:0:
314,336,179707,1,8,0:0:0:0:
314,336,179772,2,0,L|296:421,1,50,8|8,0:0|0:0,0:0:0:0:
399,243,179901,6,0,L|452:233,3,50,8|8|8|8,0:0|0:0|0:0|0:0,0:0:0:0:
503,341,180160,2,0,L|450:331,3,50,8|8|8|8,0:0|0:0|0:0|0:0,0:0:0:0:
418,340,180418,38,0,P|450:243|495:143,1,200,4|2,0:0|0:0,0:0:0:0:
345,157,180806,1,0,0:0:0:0:
494,45,180936,2,0,L|370:18,1,100,10|0,0:0|0:0,0:0:0:0:
219,189,181194,5,6,0:0:0:0:
336,78,181324,1,0,0:0:0:0:
187,29,181453,1,2,0:0:0:0:
346,176,181582,1,0,0:0:0:0:
218,282,181712,2,0,P|214:230|193:179,1,100,2|0,0:0|0:0,0:0:0:0:
283,16,181970,101,14,0:0:0:0:
149,116,182099,1,0,0:0:0:0:
291,224,182229,1,2,0:0:0:0:
205,35,182358,1,0,0:0:0:0:
104,183,182487,2,0,L|2:163,1,100,2|0,0:0|0:0,0:0:0:0:
232,114,182746,5,6,0:0:0:0:
136,255,182875,1,0,0:0:0:0:
68,95,183005,1,10,0:0:0:0:
224,221,183134,1,0,0:0:0:0:
126,356,183263,2,0,P|116:295|92:259,1,100,2|0,0:0|0:0,0:0:0:0:
301,70,183522,102,0,B|324:95|362:93|362:93|299:123|303:201,1,200,6|2,0:0|0:0,0:0:0:0:
216,101,183910,1,0,0:0:0:0:
278,320,184039,6,0,B|303:330|315:359|315:359|392:360|421:295|401:254,1,200,14|2,0:0|0:0,0:0:0:0:
385,181,184427,1,0,0:0:0:0:
512,56,184556,101,6,0:0:0:0:
481,210,184686,1,0,0:0:0:0:
315,64,184815,1,2,0:0:0:0:
503,136,184944,1,0,0:0:0:0:
339,240,185074,2,0,P|363:178|373:126,1,100,10|0,0:0|0:0,0:0:0:0:
256,0,185332,5,6,0:0:0:0:
400,60,185462,1,0,0:0:0:0:
224,152,185591,1,2,0:0:0:0:
353,0,185720,1,0,0:0:0:0:
225,74,185850,2,0,L|115:48,1,100,2|0,0:0|0:0,0:0:0:0:
231,237,186108,101,14,0:0:0:0:
312,108,186237,1,0,0:0:0:0:
114,166,186367,1,2,0:0:0:0:
308,215,186496,1,0,0:0:0:0:
182,309,186625,2,0,P|189:262|207:212,1,100,2|0,3:0|3:0,3:0:0:0:
22,137,186884,5,6,0:0:0:0:
96,273,187013,1,0,0:0:0:0:
188,142,187143,1,10,0:0:0:0:
14,259,187272,1,0,0:0:0:0:
130,359,187401,2,0,L|242:327,1,100,2|0,0:0|0:0,0:0:0:0:
468,184,187660,102,0,B|487:181|509:215|509:215|431:204|381:278,1,200,6|2,0:0|0:0,0:0:0:0:
359,368,188048,1,0,0:0:0:0:
297,111,188177,6,0,B|307:27|399:30|399:30|368:53|379:125,1,200,14|2,0:0|0:0,0:0:0:0:
470,84,188565,1,0,0:0:0:0:
319,221,188694,102,0,B|279:194|226:181|226:181|223:183|223:183|177:170|90:182,1,200,6|2,0:0|0:0,0:0:0:0:
72,259,189082,1,0,0:0:0:0:
28,82,189212,2,0,L|8:195,1,100,10|0,0:0|0:0,0:0:0:0:
170,81,189470,5,6,0:0:0:0:
20,0,189600,1,0,0:0:0:0:
98,121,189729,101,2,0:0:0:0:
160,0,189858,1,0,0:0:0:0:
251,92,189987,2,0,B|247:141|247:141|245:145|245:145|241:201,1,100,2|0,0:0|0:0,0:0:0:0:
151,272,190246,5,14,0:0:0:0:
335,199,190375,1,0,0:0:0:0:
236,349,190505,1,2,0:0:0:0:
160,179,190634,1,0,0:0:0:0:
343,293,190763,2,0,P|396:279|456:281,1,100,2|0,0:0|0:0,0:0:0:0:
249,233,191022,101,6,0:0:0:0:
108,374,191151,1,0,0:0:0:0:
17,245,191281,1,10,0:0:0:0:
181,286,191410,1,0,0:0:0:0:
74,170,191539,2,0,B|69:143|69:143|97:51,1,100,2|0,0:0|0:0,0:0:0:0:
151,0,191798,6,0,B|180:40|242:35|242:35|243:42|243:42|293:12|355:45,1,200,6|2,0:0|0:0,0:0:0:0:
418,117,192186,1,0,0:0:0:0:
295,109,192315,102,0,B|292:153|292:153|289:169|289:169|291:173|291:173|288:228,1,100,10|0,0:0|0:0,0:0:0:0:
283,285,192574,1,2,0:0:0:0:
421,362,192832,6,0,P|476:337|456:253,1,150,4|0,0:0|0:0,0:0:0:0:
431,245,193091,1,8,0:0:0:0:
401,264,193156,1,8,0:0:0:0:
407,298,193220,1,8,0:0:0:0:
438,312,193285,1,8,0:0:0:0:
470,299,193349,1,8,0:0:0:0:
480,271,193414,1,8,0:0:0:0:
473,246,193479,1,8,0:0:0:0:
458,232,193543,1,8,0:0:0:0:
438,225,193608,1,8,0:0:0:0:
420,214,193673,1,8,0:0:0:0:
412,195,193737,1,8,0:0:0:0:
414,175,193802,1,8,0:0:0:0:
426,159,193867,102,0,B|455:175|455:175|375:171|309:212,1,150,4|0,0:0|0:0,0:0:0:0:
271,347,194125,2,0,P|287:306|341:279,1,104.999996795654,4|0,0:1|0:0,0:0:0:0:
383,349,194384,2,0,P|353:256|302:184,1,150,4|0,0:0|0:0,0:0:0:0:
294,194,194643,1,8,0:0:0:0:
254,194,194707,1,8,0:0:0:0:
227,224,194772,1,8,0:0:0:0:
191,242,194837,1,8,0:0:0:0:
151,236,194901,1,8,0:0:0:0:
128,209,194966,1,8,0:0:0:0:
121,179,195031,1,8,0:0:0:0:
134,152,195095,1,8,0:0:0:0:
155,138,195160,2,0,B|179:182|179:182|153:251,1,100,8|0,0:0|0:0,0:0:0:0:
20,193,195418,5,8,0:0:0:0:
24,153,195483,1,8,0:0:0:0:
29,113,195548,1,8,0:0:0:0:
34,73,195612,1,8,0:0:0:0:
38,33,195677,2,0,B|84:37|84:37|86:40|86:40|143:46,1,100,4|0,0:0|0:0,0:0:0:0:
347,202,195936,102,0,B|360:148|320:85|242:71|190:110|190:110|235:126|248:174,1,300,4|0,0:0|0:0,0:0:0:0:
160,190,196453,2,0,B|173:259|122:258|95:288|91:326|91:326|35:259|88:190|127:221|97:267,1,300,4|0,0:0|0:0,0:0:0:0:
167,341,196970,5,12,0:0:0:0:
0,251,197099,1,0,0:0:0:0:
182,217,197229,1,0,0:0:0:0:
62,332,197358,1,0,0:0:0:0:
247,384,197487,2,0,P|257:339|233:282,1,100,10|0,0:0|0:0,0:0:0:0:
143,101,197746,101,2,0:0:0:0:
309,32,197875,1,0,0:0:0:0:
152,193,198005,1,10,0:0:0:0:
193,13,198134,1,0,0:0:0:0:
354,112,198263,2,0,P|399:92|448:81,1,100,2|0,0:0|0:0,0:0:0:0:
345,376,198522,5,10,0:0:0:0:
265,214,198651,1,0,0:0:0:0:
432,358,198781,1,2,0:0:0:0:
437,180,198910,1,0,0:0:0:0:
282,309,199039,2,0,P|233:295|184:292,1,100,10|0,0:0|0:0,0:0:0:0:
87,26,199298,101,2,0:0:0:0:
247,109,199427,1,0,0:0:0:0:
56,114,199556,1,10,0:0:0:0:
223,13,199686,1,0,0:0:0:0:
164,213,199815,2,0,P|150:143|139:113,1,100,2|0,0:0|0:0,0:0:0:0:
44,331,200074,6,0,B|53:345|91:365|91:365|129:284|241:294,1,200,10|0,0:0|0:0,0:0:0:0:
183,379,200462,1,0,0:0:0:0:
337,145,200591,102,0,B|290:142|274:192|274:192|308:326,1,200,10|0,0:0|0:0,0:0:0:0:
365,227,200979,1,0,0:0:0:0:
298,384,201108,5,10,0:0:0:0:
205,257,201237,1,0,0:0:0:0:
375,312,201367,1,2,0:0:0:0:
205,365,201496,1,0,0:0:0:0:
365,227,201625,2,0,P|420:232|461:264,1,100,10|0,0:0|0:0,0:0:0:0:
283,294,201884,101,2,0:0:0:0:
209,124,202013,1,0,0:0:0:0:
379,144,202143,1,10,0:0:0:0:
208,232,202272,1,0,0:0:0:0:
269,63,202401,2,0,L|317:186,1,100,0|2,0:0|0:0,0:0:0:0:
212,0,202660,5,10,0:0:0:0:
402,66,202789,1,0,0:0:0:0:
209,124,202918,1,2,0:0:0:0:
336,19,203048,1,0,0:0:0:0:
140,72,203177,2,0,P|126:124|119:192,1,100,10|0,0:0|0:0,0:0:0:0:
182,327,203436,101,2,0:0:0:0:
33,218,203565,1,2,0:0:0:0:
201,174,203694,1,10,0:0:0:0:
41,303,203824,1,0,0:0:0:0:
271,273,203953,2,0,L|147:236,1,100
426,364,204212,6,0,B|460:327|514:326|514:326|453:317|416:243,1,200,10|0,0:0|0:0,0:0:0:0:
330,374,204599,1,0,0:0:0:0:
293,148,204729,102,0,B|292:195|355:217|355:217|391:170|362:122,1,200,10|0,0:0|0:0,0:0:0:0:
472,187,205117,1,0,0:0:0:0:
340,40,205246,6,0,B|317:44|290:35|290:35|276:66|227:81,1,100,8|0,0:0|0:0,0:0:0:0:
124,129,205505,1,0,0:0:0:0:
210,0,205634,1,2,0:0:0:0:
218,209,205763,102,0,B|230:230|230:230|135:204,1,100,10|0,0:0|0:0,0:0:0:0:
31,157,206022,1,2,0:0:0:0:
84,303,206151,1,0,0:0:0:0:
284,165,206281,2,0,B|320:220|320:220|305:293,1,100,10|0,0:0|0:0,0:0:0:0:
183,383,206539,2,0,L|206:273,1,100
195,140,206798,5,10,0:0:0:0:
363,71,206927,1,0,0:0:0:0:
414,187,207056,1,0,0:0:0:0:
258,69,207186,1,0,0:0:0:0:
343,291,207315,2,0,P|395:274|446:265,1,100,10|0,0:0|0:0,0:0:0:0:
274,208,207574,101,2,0:0:0:0:
235,315,207703,1,0,0:0:0:0:
84,200,207832,1,8,0:0:0:0:
136,370,207962,1,0,0:0:0:0:
198,158,208091,2,0,P|160:126|103:125,1,100,2|0,0:0|0:0,0:0:0:0:
20,275,208350,6,0,B|2:295|2:295|71:312|124:266|125:199|125:199|104:203|76:200,1,250,10|2,0:0|0:0,0:0:0:0:
4,181,208737,1,0,0:0:0:0:
220,173,208867,101,10,0:0:0:0:
150,338,208996,1,0,0:0:0:0:
59,79,209125,1,0,0:0:0:0:
60,62,209384,6,0,P|107:18|193:26,1,150,4|0,0:0|0:0,0:0:0:0:
211,50,209643,1,8,0:0:0:0:
236,80,209707,1,8,0:0:0:0:
274,91,209772,1,8,0:0:0:0:
313,85,209837,1,8,0:0:0:0:
342,58,209901,1,8,0:0:0:0:
356,31,209966,1,8,0:0:0:0:
374,14,210031,1,8,0:0:0:0:
393,10,210095,1,8,0:0:0:0:
411,16,210160,1,8,0:0:0:0:
423,31,210224,1,8,0:0:0:0:
422,50,210289,1,8,0:0:0:0:
410,66,210354,1,8,0:0:0:0:
391,73,210418,102,0,P|410:35|510:31,1,150,4|0,0:0|0:0,0:0:0:0:
512,179,210677,2,0,B|502:210|502:210|463:83,1,150,4|0,0:1|0:0,0:0:0:0:
316,25,210936,2,0,B|277:36|277:36|227:81|227:81|151:99,1,150,4|0,0:0|0:0,0:0:0:0:
150,90,211194,1,8,0:0:0:0:
111,100,211259,1,8,0:0:0:0:
91,135,211324,1,8,0:0:0:0:
91,174,211388,1,8,0:0:0:0:
118,203,211453,1,8,0:0:0:0:
147,210,211518,1,8,0:0:0:0:
173,222,211582,1,8,0:0:0:0:
189,247,211647,1,8,0:0:0:0:
190,277,211712,1,8,0:0:0:0:
175,303,211776,1,8,0:0:0:0:
148,317,211841,1,8,0:0:0:0:
118,312,211906,1,8,0:0:0:0:
93,275,211970,5,8,0:0:0:0:
124,249,212035,1,8,0:0:0:0:
163,254,212099,1,8,0:0:0:0:
193,278,212164,1,8,0:0:0:0:
213,312,212229,1,8,0:0:0:0:
239,324,212293,1,8,0:0:0:0:
268,320,212358,1,8,0:0:0:0:
291,301,212423,1,8,0:0:0:0:
305,260,212487,102,0,B|305:244|314:229|314:229|238:193|142:229|142:229|195:197|190:143,1,300,4|0,0:0|0:0,0:0:0:0:
11,84,213005,2,0,B|-32:167|38:222|38:222|47:173|95:146|95:146|56:146|31:114,1,300,4|0,0:1|0:0,0:0:0:0:
187,338,213522,22,0,L|185:366,1,16.6666666666667,12|0,0:0|0:0,0:0:0:0:
179,341,214039,6,0,L|177:369,1,16.6666666666667,8|0,0:0|0:0,0:0:0:0:
171,344,214556,102,0,L|169:372,1,16.6666666666667,8|0,0:0|0:0,0:0:0:0:
163,347,215074,6,0,L|161:375,1,16.6666666666667,8|0,0:0|0:0,0:0:0:0:
54,337,215591,102,0,L|56:309,1,16.6666666666667,8|0,0:0|0:0,0:0:0:0:
62,334,216108,6,0,L|64:306,1,16.6666666666667,8|0,0:0|0:0,0:0:0:0:
70,331,216625,102,0,L|72:303,1,16.6666666666667,8|0,0:0|0:0,0:0:0:0:
78,328,217143,6,0,L|80:300,1,16.6666666666667,8|0,0:0|0:0,0:0:0:0:
79,335,217487,1,0,0:0:0:0:
181,175,217660,101,8,0:0:0:0:
84,145,217832,1,8,0:0:0:0:
54,242,218005,1,8,0:0:0:0:
151,272,218177,1,8,0:0:0:0:
154,260,218522,1,0,0:0:0:0:
380,326,218694,5,8,0:0:0:0:
283,356,218867,1,8,0:0:0:0:
253,259,219039,1,8,0:0:0:0:
350,229,219212,1,8,0:0:0:0:
349,242,219556,1,0,0:0:0:0:
424,20,219729,101,8,0:0:0:0:
454,117,219901,1,8,0:0:0:0:
357,147,220074,1,8,0:0:0:0:
327,50,220246,1,8,0:0:0:0:
343,51,220591,1,0,0:0:0:0:
180,146,220763,5,8,0:0:0:0:
210,49,220936,1,8,0:0:0:0:
113,19,221108,1,8,0:0:0:0:
83,116,221281,1,8,0:0:0:0:
66,250,221798,101,12,0:0:0:0:
75,248,222315,5,8,0:0:0:0:
86,245,222832,101,8,0:0:0:0:
96,243,223349,5,8,0:0:0:0:
168,323,223867,101,8,0:0:0:0:
177,325,224384,5,8,0:0:0:0:
188,328,224901,101,8,0:0:0:0:
198,330,225418,5,8,0:0:0:0:
202,342,225763,1,0,0:0:0:0:
216,160,225936,101,8,0:0:0:0:
296,308,226108,1,8,0:0:0:0:
169,255,226281,1,8,0:0:0:0:
319,178,226453,1,8,0:0:0:0:
322,190,226798,1,0,0:0:0:0:
44,196,226970,5,8,0:0:0:0:
136,352,227143,1,8,0:0:0:0:
165,166,227315,1,8,0:0:0:0:
29,289,227487,1,8,0:0:0:0:
32,301,227832,1,0,0:0:0:0:
225,113,228005,101,8,0:0:0:0:
223,306,228177,1,8,0:0:0:0:
100,210,228350,1,8,0:0:0:0:
321,134,228522,1,8,0:0:0:0:
325,146,228867,1,0,0:0:0:0:
243,11,229039,5,8,0:0:0:0:
202,224,229212,1,8,0:0:0:0:
84,88,229384,1,8,0:0:0:0:
340,39,229556,1,8,0:0:0:0:
338,52,229901,1,0,0:0:0:0:
456,159,230074,101,12,0:0:0:0:
458,168,230591,5,8,0:0:0:0:
461,178,231108,101,8,0:0:0:0:
463,189,231625,5,8,0:0:0:0:
390,254,232143,101,8,0:0:0:0:
388,264,232660,5,8,0:0:0:0:
385,275,233177,101,8,0:0:0:0:
383,284,233694,5,8,0:0:0:0:
392,293,234039,1,0,0:0:0:0:
362,88,234212,101,8,0:0:0:0:
289,231,234384,1,8,0:0:0:0:
409,193,234556,1,8,0:0:0:0:
273,86,234729,1,8,0:0:0:0:
265,96,235074,1,0,0:0:0:0:
206,320,235246,5,8,0:0:0:0:
394,284,235418,1,8,0:0:0:0:
220,200,235591,1,8,0:0:0:0:
268,371,235763,1,8,0:0:0:0:
278,362,236108,1,0,0:0:0:0:
141,170,236281,101,8,0:0:0:0:
79,375,236453,1,8,0:0:0:0:
265,273,236625,1,8,0:0:0:0:
59,268,236798,1,8,0:0:0:0:
65,279,237143,1,0,0:0:0:0:
276,73,237315,5,8,0:0:0:0:
362,271,237487,1,8,0:0:0:0:
180,202,237660,1,8,0:0:0:0:
419,83,237832,1,8,0:0:0:0:
321,363,238350,101,12,0:0:0:0:
329,366,238867,5,8,0:0:0:0:
337,369,239384,101,8,0:0:0:0:
345,372,239901,5,8,0:0:0:0:
397,306,240418,101,8,0:0:0:0:
389,303,240936,5,8,0:0:0:0:
381,300,241453,101,8,0:0:0:0:
373,297,241970,5,8,0:0:0:0:
372,304,242315,1,0,0:0:0:0:
319,99,242487,101,8,0:0:0:0:
412,23,242660,1,8,0:0:0:0:
454,145,242832,1,8,0:0:0:0:
359,216,243005,1,8,0:0:0:0:
348,204,243350,1,0,0:0:0:0:
118,308,243522,5,8,0:0:0:0:
211,384,243695,1,8,0:0:0:0:
253,262,243867,1,8,0:0:0:0:
158,191,244040,1,8,0:0:0:0:
160,204,244384,1,0,0:0:0:0:
76,1,244556,101,8,0:0:0:0:
0,94,244729,1,8,0:0:0:0:
122,136,244901,1,8,0:0:0:0:
193,41,245074,1,8,0:0:0:0:
179,38,245418,1,0,0:0:0:0:
305,177,245591,5,8,0:0:0:0:
260,64,245763,1,8,0:0:0:0:
381,0,245936,1,8,0:0:0:0:
424,106,246109,101,8,0:0:0:0:
410,112,246174,1,8,0:0:0:0:
396,118,246238,1,8,0:0:0:0:
382,124,246303,1,8,0:0:0:0:
368,130,246368,1,8,0:0:0:0:
354,136,246432,1,8,0:0:0:0:
340,142,246497,1,8,0:0:0:0:
326,148,246562,1,8,0:0:0:0:
305,177,246625,54,0,L|295:253,5,53.3333333333333,12|0|0|0|0|0,0:0|0:0|0:0|0:0|0:0|0:0,0:0:0:0:
400,287,247143,2,0,L|391:201,5,53.3333333333333,10|0|2|0|2|0,0:0|0:0|0:0|0:0|0:0|0:0,0:0:0:0:
359,128,247661,5,10,0:0:0:0:
316,97,247746,1,0,0:0:0:0:
263,106,247832,1,2,0:0:0:0:
233,150,247918,1,0,0:0:0:0:
224,203,248005,1,2,0:0:0:0:
180,233,248091,1,0,0:0:0:0:
126,233,248177,1,10,0:0:0:0:
84,199,248263,1,0,0:0:0:0:
81,145,248350,1,2,0:0:0:0:
119,107,248436,1,0,0:0:0:0:
172,111,248522,1,2,0:0:0:0:
209,149,248608,1,0,0:0:0:0:
192,199,248694,101,10,0:0:0:0:
152,144,248781,1,0,0:0:0:0:
170,80,248867,1,2,0:0:0:0:
228,49,248953,1,0,0:0:0:0:
286,81,249039,1,2,0:0:0:0:
308,143,249125,1,0,0:0:0:0:
355,190,249212,1,10,0:0:0:0:
421,189,249298,1,0,0:0:0:0:
461,136,249384,1,2,0:0:0:0:
454,69,249470,1,0,0:0:0:0:
398,32,249556,1,2,0:0:0:0:
333,51,249643,1,0,0:0:0:0:
308,120,249729,6,0,P|338:88|363:86,5,53.3333333333333,10|0|2|0|2|0,0:0|0:0|0:0|0:0|0:0|0:0,0:0:0:0:
418,140,250246,2,0,P|447:148|471:193,5,53.3333333333333,10|0|2|0|2|0,0:0|0:0|0:0|0:0|0:0|0:0,0:0:0:0:
398,285,250763,102,0,L|406:208,2,59.9999981689454,10|0|2,0:0|0:0|0:0,0:0:0:0:
286,236,251023,1,0,0:0:0:0:
298,245,251108,1,2,0:0:0:0:
310,254,251194,2,0,L|300:335,3,59.9999981689454,0|10|0|2,0:0|0:0|0:0|0:0,0:0:0:0:
191,339,251539,6,0,L|104:327,2,59.9999981689454,0|2|0,0:0|0:0|0:0,0:0:0:0:
42,234,251799,1,10,0:0:0:0:
50,245,251884,1,0,0:0:0:0:
59,256,251970,2,0,L|141:242,3,59.9999981689454,2|0|2|0,0:0|0:0|0:0|0:0,0:0:0:0:
203,153,252315,101,10,0:0:0:0:
213,112,252401,1,0,0:0:0:0:
223,71,252487,1,2,0:0:0:0:
175,16,252574,5,0,0:0:0:0:
178,33,252660,1,2,0:0:0:0:
181,50,252746,1,0,0:0:0:0:
141,110,252832,102,0,L|210:100,2,59.9999981689454,10|0|2,0:0|0:0|0:0,0:0:0:0:
327,15,253092,1,0,0:0:0:0:
321,28,253177,1,2,0:0:0:0:
315,41,253263,2,0,L|245:32,3,59.9999981689454,0|10|0|2,0:0|0:0|0:0|0:0,0:0:0:0:
417,154,253608,6,0,L|430:72,2,59.9999981689454,0|2|0,0:0|0:0|0:0,0:0:0:0:
307,137,253867,1,10,0:0:0:0:
315,149,253953,1,0,0:0:0:0:
323,160,254039,2,0,L|310:236,3,59.9999981689454,2|0|2|0,0:0|0:0|0:0|0:0,0:0:0:0:
267,336,254384,101,10,0:0:0:0:
225,328,254470,1,0,0:0:0:0:
183,320,254556,1,2,0:0:0:0:
134,261,254643,5,0,0:0:0:0:
117,267,254729,1,2,0:0:0:0:
100,273,254815,1,0,0:0:0:0:
39,318,254901,102,0,L|48:246,5,53.3333333333333,14|0|2|0|2|0,0:0|0:0|0:0|0:0|0:0|0:0,0:0:0:0:
123,171,255418,2,0,L|131:253,5,53.3333333333333,10|0|2|0|2|0,0:0|0:0|0:0|0:0|0:0|0:0,0:0:0:0:
231,279,255936,5,10,0:0:0:0:
268,315,256022,1,0,0:0:0:0:
322,316,256108,1,2,0:0:0:0:
365,286,256194,1,0,0:0:0:0:
372,232,256281,1,2,0:0:0:0:
344,186,256367,1,0,0:0:0:0:
293,168,256453,1,10,0:0:0:0:
258,128,256539,1,0,0:0:0:0:
258,74,256625,1,2,0:0:0:0:
293,34,256712,1,0,0:0:0:0:
345,29,256798,1,2,0:0:0:0:
387,61,256884,1,0,0:0:0:0:
395,112,256970,101,10,0:0:0:0:
336,80,257056,1,0,0:0:0:0:
270,92,257143,1,2,0:0:0:0:
231,146,257229,1,0,0:0:0:0:
226,212,257315,1,2,0:0:0:0:
186,266,257401,1,0,0:0:0:0:
120,279,257487,1,10,0:0:0:0:
62,243,257574,1,0,0:0:0:0:
45,178,257660,1,2,0:0:0:0:
77,119,257746,1,0,0:0:0:0:
139,96,257832,1,2,0:0:0:0:
196,128,257918,1,0,0:0:0:0:
211,200,258005,6,0,P|185:232|141:232,5,53.3333333333333,10|0|2|0|2|0,0:0|0:0|0:0|0:0|0:0|0:0,0:0:0:0:
90,183,258522,2,0,P|49:163|40:118,5,53.3333333333333,10|0|2|0|2|0,0:0|0:0|0:0|0:0|0:0|0:0,0:0:0:0:
30,265,259039,102,0,L|14:340,2,59.9999981689454,14|0|2,0:0|0:0|0:0,0:0:0:0:
124,376,259298,1,0,0:0:0:0:
112,380,259384,1,2,0:0:0:0:
100,383,259470,2,0,L|116:305,3,59.9999981689454,0|10|0|2,0:0|0:0|0:0|0:0,0:0:0:0:
203,252,259815,6,0,L|278:232,2,59.9999981689454,0|2|0,0:0|0:0|0:0,0:0:0:0:
329,316,260074,1,10,0:0:0:0:
332,328,260160,1,0,0:0:0:0:
335,340,260246,2,0,L|259:321,3,59.9999981689454,2|0|2|0,0:0|0:0|0:0|0:0,0:0:0:0:
451,236,260591,101,10,0:0:0:0:
456,277,260677,1,0,0:0:0:0:
464,318,260763,1,2,0:0:0:0:
412,267,260850,5,0,0:0:0:0:
416,249,260936,1,2,0:0:0:0:
420,231,261022,1,0,0:0:0:0:
483,192,261108,102,0,L|476:112,2,59.9999981689454,10|0|2,0:0|0:0|0:0,0:0:0:0:
406,68,261367,1,0,0:0:0:0:
395,76,261453,1,2,0:0:0:0:
385,85,261539,2,0,L|375:164,3,59.9999981689454,0|10|0|0,0:0|0:0|0:0|0:0,0:0:0:0:
302,257,261884,6,0,B|332:239|332:239|180:215,1,187.5,6|0,0:1|0:0,0:0:0:0:
142,282,262143,101,8,0:0:0:0:
136,245,262207,1,8,0:0:0:0:
132,207,262272,1,8,0:0:0:0:
129,169,262337,1,8,0:0:0:0:
126,131,262401,2,0,L|146:71,3,62.5,8|8|8|8,0:0|0:0|0:0|0:0,0:0:0:0:
282,73,262660,5,8,0:0:0:0:
312,113,262725,1,8,0:0:0:0:
358,130,262789,1,8,0:0:0:0:
406,116,262854,1,8,0:0:0:0:
436,76,262918,2,0,P|438:42|416:6,3,62.5,8|8|8|8,0:0|0:0|0:0|0:0,0:0:0:0:
327,240,263177,70,0,B|295:214|289:184|289:184|292:182|292:182|288:159|296:124|296:124|294:122|294:122|340:105|414:166,1,200,6|0,0:0|0:0,0:0:0:0:
431,260,263436,5,0,0:0:0:0:
417,311,263500,1,8,2:3:0:0:
367,329,263565,1,0,0:0:0:0:
317,310,263630,1,8,2:3:0:0:
293,262,263694,1,2,0:0:0:0:
297,209,263759,1,8,2:3:0:0:
283,157,263824,1,0,0:0:0:0:
239,127,263888,1,8,2:3:0:0:
185,130,263953,1,0,0:0:0:0:
146,166,264018,1,8,2:3:0:0:
139,218,264082,1,0,0:0:0:0:
169,261,264147,1,8,2:3:0:0:
220,277,264212,1,2,0:0:0:0:
269,259,264276,1,8,2:3:0:0:
290,210,264341,1,0,0:0:0:0:
283,157,264406,1,8,2:3:0:0:
306,109,264470,1,0,0:0:0:0:
352,83,264535,1,8,2:3:0:0:
403,92,264599,1,0,0:0:0:0:
434,134,264664,1,8,2:3:0:0:
433,187,264729,1,2,0:0:0:0:
401,227,264793,1,8,2:3:0:0:
348,238,264858,1,0,0:0:0:0:
298,218,264923,1,8,2:3:0:0:
276,170,264987,1,0,0:0:0:0:
271,116,265052,1,8,2:3:0:0:
244,69,265117,1,0,0:0:0:0:
194,49,265181,1,8,2:3:0:0:
143,62,265246,1,2,0:0:0:0:
111,106,265311,1,8,2:3:0:0:
116,158,265375,1,0,0:0:0:0:
148,199,265440,1,8,2:3:0:0:
199,212,265505,1,0,0:0:0:0:
234,250,265569,1,8,2:3:0:0:
235,303,265634,1,0,0:0:0:0:
205,346,265699,1,8,2:3:0:0:
153,355,265763,1,2,0:0:0:0:
106,328,265828,1,8,2:3:0:0:
92,276,265893,1,0,0:0:0:0:
106,225,265957,1,8,2:3:0:0:
153,199,266022,1,0,0:0:0:0:
205,206,266087,1,8,2:3:0:0:
246,238,266151,1,0,0:0:0:0:
270,286,266216,1,8,2:3:0:0:
318,307,266281,1,2,0:0:0:0:
370,303,266345,1,8,2:3:0:0:
408,265,266410,1,0,0:0:0:0:
415,211,266475,1,8,2:3:0:0:
392,163,266539,1,0,0:0:0:0:
344,140,266604,1,8,2:3:0:0:
291,147,266668,1,0,0:0:0:0:
254,186,266733,1,8,2:3:0:0:
200,186,266798,1,2,0:0:0:0:
157,155,266862,1,8,2:3:0:0:
144,102,266927,1,0,0:0:0:0:
167,54,266992,1,8,2:3:0:0:
216,33,267056,1,2,0:0:0:0:
268,40,267121,1,8,2:3:0:0:
301,82,267186,1,0,0:0:0:0:
303,134,267250,1,8,2:3:0:0:
273,178,267315,101,6,0:0:0:0:
272,231,267380,1,8,2:3:0:0:
306,270,267444,1,0,0:0:0:0:
358,279,267509,1,8,2:3:0:0:
403,252,267574,1,0,0:0:0:0:
420,202,267638,1,8,2:3:0:0:
403,151,267703,1,0,0:0:0:0:
352,130,267768,1,8,2:3:0:0:
301,134,267832,1,2,0:0:0:0:
265,174,267897,1,8,2:3:0:0:
229,214,267962,1,0,0:0:0:0:
177,216,268026,1,8,2:3:0:0:
129,191,268091,1,0,0:0:0:0:
113,139,268156,1,8,2:3:0:0:
125,87,268220,1,0,0:0:0:0:
168,57,268285,1,8,2:3:0:0:
221,55,268349,1,2,0:0:0:0:
264,84,268414,1,8,2:3:0:0:
279,135,268479,1,0,0:0:0:0:
267,186,268543,1,8,2:3:0:0:
228,222,268608,1,0,0:0:0:0:
218,275,268673,1,8,2:3:0:0:
241,322,268737,1,0,0:0:0:0:
288,346,268802,1,8,2:3:0:0:
339,332,268867,1,2,0:0:0:0:
370,289,268931,1,8,2:3:0:0:
373,236,268996,1,0,0:0:0:0:
341,193,269061,1,8,2:3:0:0:
289,179,269125,1,0,0:0:0:0:
236,191,269190,1,8,2:3:0:0:
205,233,269255,1,0,0:0:0:0:
192,284,269319,1,8,2:3:0:0:
150,317,269384,1,2,0:0:0:0:
97,317,269449,1,8,2:3:0:0:
57,282,269513,1,0,0:0:0:0:
47,229,269578,1,8,2:3:0:0:
69,180,269643,1,0,0:0:0:0:
118,159,269707,1,8,2:3:0:0:
171,161,269772,1,0,0:0:0:0:
215,189,269837,1,8,2:3:0:0:
266,198,269901,1,2,0:0:0:0:
314,176,269966,1,8,2:3:0:0:
335,127,270031,1,0,0:0:0:0:
323,75,270095,1,8,2:3:0:0:
281,41,270160,1,2,0:0:0:0:
228,39,270224,1,8,2:3:0:0:
183,68,270289,1,0,0:0:0:0:
168,119,270354,1,8,2:3:0:0:
182,169,270418,5,8,0:0:0:0:
233,153,270483,1,8,2:3:0:0:
284,137,270548,1,8,2:3:0:0:
333,121,270612,1,8,2:3:0:0:
384,106,270677,2,0,L|445:87,3,62.5,8|8|8|8,0:0|0:0|0:0|0:0,0:0:0:0:
235,23,270936,101,8,0:0:0:0:
251,73,271000,1,8,2:3:0:0:
266,124,271065,1,8,2:3:0:0:
282,173,271130,1,8,2:3:0:0:
298,224,271194,2,0,L|316:286,3,62.5,8|8|8|8,0:0|0:0|0:0|0:0,0:0:0:0:
165,327,271453,5,6,0:0:0:0:
119,300,271518,1,8,2:3:0:0:
109,247,271582,1,0,0:0:0:0:
144,207,271647,1,8,2:3:0:0:
197,205,271712,1,0,0:0:0:0:
232,244,271776,1,8,2:3:0:0:
254,292,271841,1,0,0:0:0:0:
300,318,271906,1,8,2:3:0:0:
352,312,271970,1,2,0:0:0:0:
391,276,272035,1,8,2:3:0:0:
402,223,272099,1,0,0:0:0:0:
384,172,272164,1,8,2:3:0:0:
338,146,272229,1,0,0:0:0:0:
284,148,272293,1,8,2:3:0:0:
242,181,272358,1,0,0:0:0:0:
191,188,272423,1,8,2:3:0:0:
147,160,272487,1,2,0:0:0:0:
134,110,272552,1,8,2:3:0:0:
158,63,272617,1,0,0:0:0:0:
207,46,272681,1,8,2:3:0:0:
255,64,272746,1,0,0:0:0:0:
271,115,272811,1,8,2:3:0:0:
252,164,272875,1,0,0:0:0:0:
204,188,272940,1,8,2:3:0:0:
182,236,273005,1,2,0:0:0:0:
191,287,273069,1,8,2:3:0:0:
227,325,273134,1,0,0:0:0:0:
278,336,273199,1,8,2:3:0:0:
327,318,273263,1,0,0:0:0:0:
357,274,273328,1,8,2:3:0:0:
360,218,273393,1,0,0:0:0:0:
333,173,273457,1,8,2:3:0:0:
286,149,273522,1,2,0:0:0:0:
233,153,273587,1,8,2:3:0:0:
192,185,273651,1,0,0:0:0:0:
170,234,273716,1,8,2:3:0:0:
125,261,273781,1,0,0:0:0:0:
74,259,273845,1,8,2:3:0:0:
33,227,273910,1,0,0:0:0:0:
17,176,273975,1,8,2:3:0:0:
34,127,274039,1,2,0:0:0:0:
76,97,274104,1,8,2:3:0:0:
129,96,274168,1,0,0:0:0:0:
172,125,274233,1,8,2:3:0:0:
182,177,274298,1,0,0:0:0:0:
156,223,274362,1,8,2:3:0:0:
148,274,274427,1,0,0:0:0:0:
171,322,274492,1,8,2:3:0:0:
217,347,274556,1,2,0:0:0:0:
269,342,274621,1,8,2:3:0:0:
310,309,274686,1,0,0:0:0:0:
324,259,274750,1,8,2:3:0:0:
304,209,274815,1,0,0:0:0:0:
258,180,274880,1,8,2:3:0:0:
243,129,274944,1,0,0:0:0:0:
263,80,275009,1,8,2:3:0:0:
313,62,275074,1,2,0:0:0:0:
352,76,275138,1,8,2:3:0:0:
371,108,275203,1,0,0:0:0:0:
362,139,275268,1,8,2:3:0:0:
340,154,275332,1,2,0:0:0:0:
318,153,275397,1,8,2:3:0:0:
307,141,275462,1,0,0:0:0:0:
306,130,275526,1,8,2:3:0:0:
307,125,275591,101,6,0:0:0:0:
350,123,275656,1,8,2:3:0:0:
381,150,275720,1,0,0:0:0:0:
386,192,275785,1,8,2:3:0:0:
367,229,275849,1,0,0:0:0:0:
327,244,275914,1,8,2:3:0:0:
286,230,275979,1,0,0:0:0:0:
256,199,276043,1,8,2:3:0:0:
213,195,276108,1,2,0:0:0:0:
178,221,276173,1,8,2:3:0:0:
167,261,276237,1,0,0:0:0:0:
185,299,276302,1,8,2:3:0:0:
221,321,276367,1,0,0:0:0:0:
263,318,276431,1,8,2:3:0:0:
289,284,276496,1,0,0:0:0:0:
290,241,276561,1,8,2:3:0:0:
261,210,276625,1,2,0:0:0:0:
219,204,276690,1,8,2:3:0:0:
188,233,276755,1,0,0:0:0:0:
148,249,276819,1,8,2:3:0:0:
106,239,276884,1,0,0:0:0:0:
81,204,276949,1,8,2:3:0:0:
84,161,277013,1,0,0:0:0:0:
114,131,277078,1,8,2:3:0:0:
156,126,277143,1,2,0:0:0:0:
189,152,277207,1,8,2:3:0:0:
233,155,277272,1,0,0:0:0:0:
266,128,277337,1,8,2:3:0:0:
282,89,277401,1,0,0:0:0:0:
261,51,277466,1,8,2:3:0:0:
219,43,277531,1,0,0:0:0:0:
187,71,277595,1,8,2:3:0:0:
192,113,277660,5,8,0:0:0:0:
234,80,277724,1,8,2:3:0:0:
286,81,277789,1,8,2:3:0:0:
334,105,277854,1,8,2:3:0:0:
352,154,277918,2,0,L|341:241,3,62.5,8|8|8|8,0:0|0:0|0:0|0:0,0:0:0:0:
220,367,278177,101,8,2:3:0:0:
230,315,278242,1,8,2:3:0:0:
238,263,278306,1,8,2:3:0:0:
247,210,278371,1,8,2:3:0:0:
257,157,278436,5,8,0:0:0:0:
278,180,278500,1,8,0:0:0:0:
275,212,278565,1,8,0:0:0:0:
248,230,278630,1,8,0:0:0:0:
216,228,278694,1,8,0:0:0:0:
192,205,278759,1,8,0:0:0:0:
178,175,278824,1,8,0:0:0:0:
150,159,278888,1,8,0:0:0:0:
117,163,278953,1,8,0:0:0:0:
95,186,279018,1,8,0:0:0:0:
92,217,279082,1,8,0:0:0:0:
107,244,279147,1,8,0:0:0:0:
137,254,279212,1,8,0:0:0:0:
162,246,279276,1,8,0:0:0:0:
174,222,279341,1,8,0:0:0:0:
168,196,279406,1,8,0:0:0:0:
143,184,279470,1,8,0:0:0:0:
123,192,279535,1,8,0:0:0:0:
116,213,279600,1,8,0:0:0:0:
123,225,279664,1,8,0:0:0:0:
134,226,279729,1,4,0:0:0:0:
86,338,294212,69,8,0:0:0:0:
135,267,294470,5,8,0:0:0:0:
250,252,294729,101,8,0:0:0:0:
345,346,294987,5,8,0:0:0:0:
497,317,295246,101,8,0:0:0:0:
507,155,295505,5,8,0:0:0:0:
360,60,295763,101,8,0:0:0:0:
214,169,296022,5,8,0:0:0:0:
338,211,296281,5,2,0:0:0:0:
340,202,296345,1,0,0:0:0:0:
342,193,296410,1,0,0:0:0:0:
343,183,296474,1,0,0:0:0:0:
344,173,296539,1,0,0:0:0:0:
229,19,296798,5,2,0:0:0:0:
231,28,296862,1,0,0:0:0:0:
233,37,296927,1,0,0:0:0:0:
234,47,296992,1,0,0:0:0:0:
235,57,297056,1,0,0:0:0:0:
390,106,297315,102,0,B|345:69|296:106|296:106|239:215|139:161,1,262.500010013581,14|0,0:0|0:0,0:0:0:0:
163,151,297832,2,0,P|217:160|239:251,1,150.000005722046,2|0,0:0|0:0,0:0:0:0:
57,359,298349,6,0,B|58:309|19:283|19:283|20:248|39:222,1,150.000005722046,2|0,0:0|0:0,0:0:0:0:
213,75,298867,1,2,0:0:0:0:
24,128,299125,1,0,0:0:0:0:
231,319,299384,102,0,B|215:313|189:345|189:345|194:293|265:259|302:287,1,200,10|0,0:0|0:0,0:0:0:0:
475,212,299901,2,0,B|464:163|464:163|392:158|370:226|414:257,1,200,2|0,0:0|0:0,0:0:0:0:
480,45,300418,5,2,0:0:0:0:
471,43,300483,1,0,0:0:0:0:
462,41,300548,1,0,0:0:0:0:
452,40,300612,1,0,0:0:0:0:
442,39,300677,1,0,0:0:0:0:
288,154,300936,101,2,0:0:0:0:
297,152,301000,1,0,0:0:0:0:
306,150,301065,1,0,0:0:0:0:
316,149,301130,1,0,0:0:0:0:
326,148,301194,1,0,0:0:0:0:
250,16,301453,6,0,B|260:82|134:132|166:87|101:53|42:135,1,262.500010013581,14|0,0:0|0:0,0:0:0:0:
61,141,301970,2,0,P|81:72|4:49,1,150.000005722046,2|0,0:0|0:0,0:0:0:0:
0,283,302487,102,0,B|32:296|44:338|44:338|50:299|104:281,1,150.000005722046,2|0,0:0|0:0,0:0:0:0:
250,120,303005,1,2,0:0:0:0:
334,350,303263,1,0,0:0:0:0:
475,62,303522,5,10,0:0:0:0:
298,192,303781,1,0,0:0:0:0:
460,333,304039,2,0,B|483:275|446:245|446:245|443:247|443:247|395:203|428:142,1,200,2|0,0:0|0:0,0:0:0:0:
321,0,304556,101,2,0:0:0:0:
323,9,304621,1,0,0:0:0:0:
325,18,304686,1,0,0:0:0:0:
326,28,304750,1,0,0:0:0:0:
327,38,304815,1,0,0:0:0:0:
212,192,305074,5,2,0:0:0:0:
214,183,305138,1,0,0:0:0:0:
216,174,305203,1,0,0:0:0:0:
217,164,305268,1,0,0:0:0:0:
218,154,305332,1,0,0:0:0:0:
207,33,305591,102,0,B|150:42|150:42|355:134,1,262.500010013581,14|0,0:0|0:0,0:0:0:0:
352,107,306108,2,0,B|331:96|331:96|198:136,1,150.000005722046,2|0,0:0|0:0,0:0:0:0:
39,54,306625,6,0,B|53:104|53:104|89:130|89:130|104:203,1,150.000005722046,2|0,0:0|0:0,0:0:0:0:
123,358,307143,1,2,0:0:0:0:
17,205,307401,1,0,0:0:0:0:
286,309,307660,102,0,B|224:297|164:255|164:255|185:316|227:309,1,200,10|0,0:0|0:0,0:0:0:0:
409,363,308177,2,0,B|420:334|454:327|454:327|387:285|388:189,1,200,2|0,0:0|0:0,0:0:0:0:
284,16,308694,5,2,0:0:0:0:
293,14,308759,1,0,0:0:0:0:
302,12,308824,1,0,0:0:0:0:
312,11,308888,1,0,0:0:0:0:
322,10,308953,1,0,0:0:0:0:
476,125,309212,101,2,0:0:0:0:
467,123,309276,1,0,0:0:0:0:
458,121,309341,1,0,0:0:0:0:
448,120,309406,1,0,0:0:0:0:
438,119,309470,1,0,0:0:0:0:
281,241,309729,6,0,B|255:219|228:218|228:218|188:87|188:87|157:84|114:54,1,262.500010013581,14|0,0:0|0:0,0:0:0:0:
97,52,310246,2,0,L|142:224,1,150.000005722046,2|0,0:0|0:0,0:0:0:0:
81,248,310569,1,0,0:0:0:0:
80,259,310634,1,0,0:0:0:0:
79,270,310699,1,0,0:0:0:0:
78,281,310763,102,0,B|101:298|118:338|118:338|156:328|187:308|187:308|244:320|265:353,1,225.000008583069,8|0,0:0|0:0,0:0:0:0:
193,384,311022,2,0,B|157:341|171:292|171:292|208:274|234:217|234:217|241:239|277:248,1,225.000008583069,8|0,0:0|0:0,0:0:0:0:
318,286,311281,6,0,L|517:238,1,200,4|0,0:1|0:0,0:0:0:0:
489,326,311604,1,0,0:0:0:0:
474,330,311668,1,0,0:0:0:0:
459,334,311733,1,0,0:0:0:0:
445,338,311798,102,0,B|445:278|389:238|389:238|404:240|404:240|368:192|408:128,1,225.000008583069,8|0,0:0|0:0,0:0:0:0:
332,64,312056,2,0,B|376:95|395:155|395:155|412:98|488:58,1,225.000008583069,8|0,0:0|0:0,0:0:0:0:
377,10,312315,6,0,B|276:22|200:85|200:85|239:74|277:99,1,262.500002503395,4|0,0:1|0:0,0:0:0:0:
270,198,312574,2,0,B|260:169|260:169|244:154|244:154|198:42|198:42|150:51|104:21,1,262.500002503395,4|0,0:0|0:0,0:0:0:0:
30,123,312832,101,2,0:0:0:0:
38,118,312897,1,0,0:0:0:0:
46,114,312962,1,0,0:0:0:0:
55,111,313026,1,0,0:0:0:0:
64,109,313091,1,0,0:0:0:0:
184,200,313350,5,2,0:0:0:0:
176,195,313414,1,0,0:0:0:0:
168,191,313479,1,0,0:0:0:0:
159,188,313543,1,0,0:0:0:0:
149,186,313608,1,0,0:0:0:0:
25,199,313867,102,0,P|102:153|280:131,1,262.500010013581,14|0,0:0|0:0,0:0:0:0:
294,140,314384,2,0,B|284:165|298:195|298:195|274:168|248:150|270:103,1,150.000005722046,2|0,0:0|0:0,0:0:0:0:
343,39,314901,6,0,P|379:99|453:99,1,150.000005722046,2|0,0:0|0:0,0:0:0:0:
421,30,315418,1,2,0:0:0:0:
483,253,315677,1,0,0:0:0:0:
254,168,315936,102,0,B|236:151|236:151|315:134|380:183|380:183|356:195,1,200,10|0,0:0|0:0,0:0:0:0:
234,320,316453,2,0,B|246:349|240:375|240:375|316:315|284:210,1,200,2|0,0:0|0:0,0:0:0:0:
129,140,316970,5,2,0:0:0:0:
132,148,317035,1,0,0:0:0:0:
135,157,317100,1,0,0:0:0:0:
136,166,317164,1,0,0:0:0:0:
138,176,317229,1,0,0:0:0:0:
70,300,317487,101,2,0:0:0:0:
73,292,317552,1,0,0:0:0:0:
76,283,317617,1,0,0:0:0:0:
77,274,317681,1,0,0:0:0:0:
79,264,317746,1,0,0:0:0:0:
22,132,318005,6,0,B|69:60|165:65|165:65|175:133|260:128,1,262.500010013581,14|0,0:0|0:0,0:0:0:0:
264,107,318522,2,0,P|199:95|195:19,1,150.000005722046,2|0,0:0|0:0,0:0:0:0:
395,64,319039,102,0,B|389:132|389:132|391:135|391:135|385:224,1,150.000005722046,2|0,0:0|0:0,0:0:0:0:
338,317,319556,1,2,0:0:0:0:
500,163,319815,1,0,0:0:0:0:
92,120,320074,5,0,0:0:0:0:
303,207,320332,1,0,0:0:0:0:
241,34,320591,2,0,B|227:22|216:-5|216:-5|200:147,1,200,2|0,0:0|0:0,0:0:0:0:
222,332,321108,101,2,0:0:0:0:
229,328,321173,1,0,0:0:0:0:
238,323,321237,1,0,0:0:0:0:
246,321,321302,1,0,0:0:0:0:
255,320,321367,1,0,0:0:0:0:
329,226,321625,5,2,0:0:0:0:
337,225,321690,1,0,0:0:0:0:
346,224,321755,1,0,0:0:0:0:
355,225,321819,1,0,0:0:0:0:
365,226,321884,1,0,0:0:0:0:
448,337,322143,102,0,B|481:367|481:367|445:130,1,262.500010013581,14|0,0:0|0:0,0:0:0:0:
423,125,322660,2,0,L|451:293,1,150.000005722046,2|0,0:0|0:0,0:0:0:0:
293,361,323177,6,0,P|263:312|342:301,1,150.000005722046,2|0,0:0|0:0,0:0:0:0:
377,354,323694,1,2,0:0:0:0:
140,282,323953,1,0,0:0:0:0:
350,93,324212,102,0,B|360:104|377:105|377:105|356:169|266:190|213:117,1,200,10|0,0:0|0:0,0:0:0:0:
112,4,324729,2,0,B|157:1|179:55|179:55|118:92|142:168,1,200,2|0,0:0|0:0,0:0:0:0:
78,293,325246,5,2,0:0:0:0:
75,285,325311,1,0,0:0:0:0:
72,276,325375,1,0,0:0:0:0:
71,267,325440,1,0,0:0:0:0:
70,258,325505,1,0,0:0:0:0:
239,352,325763,101,2,0:0:0:0:
242,344,325828,1,0,0:0:0:0:
245,335,325893,1,0,0:0:0:0:
246,326,325957,1,0,0:0:0:0:
248,317,326022,1,0,0:0:0:0:
165,147,326281,6,0,P|142:200|271:150,1,350,14|0,0:0|0:0,0:0:0:0:
254,173,326798,2,0,P|250:224|201:152,1,200,2|0,0:0|0:0,0:0:0:0:
228,70,327121,1,0,0:0:0:0:
242,65,327186,1,0,0:0:0:0:
256,65,327250,1,0,0:0:0:0:
270,69,327315,102,0,B|326:76|353:127|353:127|357:112|357:112|409:123|480:76,1,225.000008583069,8|0,0:0|0:0,0:0:0:0:
405,10,327574,2,0,B|363:1|363:1|434:87|459:221,1,225.000008583069,8|0,0:0|0:0,0:0:0:0:
378,289,327832,6,0,P|332:282|403:250,1,200,4|0,0:0|0:0,0:0:0:0:
444,334,328156,1,0,0:0:0:0:
438,347,328220,1,0,0:0:0:0:
428,358,328285,1,0,0:0:0:0:
415,366,328350,102,0,B|248:384|248:384|282:375|296:349,1,225.000008583069,8|0,0:0|0:0,0:0:0:0:
241,241,328608,2,0,B|239:204|266:175|266:175|181:215|194:317|260:320,1,225.000008583069,8|0,0:0|0:0,0:0:0:0:
335,255,328867,6,0,B|304:249|304:249|58:283,1,225.000008583069,4|0,0:1|0:0,0:0:0:0:
0,164,329125,2,0,L|159:185,1,150,4|0,0:0|0:0,0:0:0:0:
263,92,329384,102,0,P|268:52|231:119,1,300.000011444092,4|0,0:0|0:0,0:0:0:0:
