osu file format v14

[General]
AudioFilename: audio.ogg
AudioLeadIn: 0
PreviewTime: 343900
Countdown: 0
SampleSet: Drum
StackLeniency: 0.4
Mode: 0
LetterboxInBreaks: 0
WidescreenStoryboard: 1

[Editor]
Bookmarks: 59778,271816,289930
DistanceSpacing: 1
BeatDivisor: 4
GridSize: 32
TimelineZoom: 3.899997

[Metadata]
Title:Chronic Death
TitleUnicode:Chronic Death
Artist:Winterhorde
ArtistUnicode:Winterhorde
Creator:iamtickrate
Version:Worlds of Scales and Passages
Source:
Tags:melodic progressive extreme death english atmospheric black metal maestro vicisolum productions
BeatmapID:3473589
BeatmapSetID:1699956

[Difficulty]
HPDrainRate:5
CircleSize:4.3
OverallDifficulty:9.3
ApproachRate:9.7
SliderMultiplier:2
SliderTickRate:1

[Events]
//Background and Video events
0,0,"bg.jpg",0,0
//Break Periods
//Storyboard Layer 0 (Background)
//Storyboard Layer 1 (Fail)
//Storyboard Layer 2 (Pass)
//Storyboard Layer 3 (Foreground)
//Storyboard Layer 4 (Overlay)
//Storyboard Sound Samples

[TimingPoints]
392,306.122448979592,4,3,1,60,1,0
392,-117.647058823529,4,3,1,60,0,0
698,-117.647058823529,4,3,2,60,0,0
774,-117.647058823529,4,3,3,60,0,0
851,-117.647058823529,4,3,1,60,0,0
2228,-100,4,3,1,60,0,0
2458,-100,4,3,1,5,0,0
2534,-100,4,3,1,60,0,0
2764,-100,4,3,1,5,0,0
2840,-117.647058823529,4,3,1,60,0,0
3147,-117.647058823529,4,3,2,60,0,0
3223,-117.647058823529,4,3,3,60,0,0
3300,-117.647058823529,4,3,1,60,0,0
4677,-100,4,3,1,60,0,0
4983,-100,4,3,3,60,0,0
5289,-100,4,3,1,60,0,0
5596,-100,4,3,4,60,0,0
5902,306.122448979592,4,3,1,60,1,0
5902,-117.647058823529,4,3,1,60,0,0
6208,-117.647058823529,4,3,2,60,0,0
6284,-117.647058823529,4,3,3,60,0,0
6361,-117.647058823529,4,3,1,60,0,0
7738,-100,4,3,1,60,0,0
7968,-100,4,3,1,5,0,0
8044,-100,4,3,1,60,0,0
8274,-100,4,3,1,5,0,0
8350,-100,4,3,1,60,0,0
9575,-117.647058823529,4,3,1,60,0,0
9881,-117.647058823529,4,3,2,60,0,0
9957,-117.647058823529,4,3,3,60,0,0
10034,-117.647058823529,4,3,1,60,0,0
11412,-100,4,3,1,60,0,0
11641,-100,4,3,1,5,0,0
11717,-100,4,3,1,60,0,0
11947,-100,4,3,1,5,0,0
12024,-117.647058823529,4,3,1,60,0,0
12330,-117.647058823529,4,3,2,60,0,0
12406,-117.647058823529,4,3,3,60,0,0
12483,-117.647058823529,4,3,1,60,0,0
13861,-100,4,3,1,60,0,0
14167,-100,4,3,3,60,0,0
14473,-100,4,3,1,60,0,0
14779,-100,4,3,4,60,0,0
15085,306.122448979592,4,3,1,60,1,0
15085,-117.647058823529,4,3,1,60,0,0
15391,-117.647058823529,4,3,2,60,0,0
15467,-117.647058823529,4,3,3,60,0,0
15544,-117.647058823529,4,3,1,60,0,0
16921,-100,4,3,1,60,0,0
20595,-100,4,3,3,60,0,0
20901,-100,4,3,4,60,0,0
21207,-66.6666666666667,4,3,1,60,0,1
21437,-66.6666666666667,4,3,1,5,0,1
21513,-83.3333333333333,4,3,1,60,0,1
30391,-83.3333333333333,4,3,3,60,0,1
30697,-83.3333333333333,4,3,4,60,0,1
31003,-66.6666666666667,4,3,1,60,0,1
31232,-66.6666666666667,4,3,1,5,0,1
31309,-83.3333333333333,4,3,1,60,0,1
35595,-100,4,3,3,60,0,1
35901,-100,4,3,1,60,0,0
40187,-100,4,3,3,60,0,0
40493,-100,4,3,4,60,0,0
40799,-66.6666666666667,4,3,1,60,0,1
41028,-66.6666666666667,4,3,1,5,0,1
41105,-83.3333333333333,4,3,1,60,0,1
49982,-83.3333333333333,4,3,3,60,0,1
50288,-83.3333333333333,4,3,4,60,0,1
50595,-66.6666666666667,4,3,1,60,0,1
50824,-66.6666666666667,4,3,1,5,0,1
50901,-83.3333333333333,4,3,1,60,0,1
55187,-100,4,3,3,60,0,1
55493,-100,4,3,1,60,0,0
61309,-133.333333333333,4,3,1,60,0,0
61615,-133.333333333333,4,2,1,30,0,0
66513,-80,4,3,1,60,0,0
66590,-80,4,3,1,5,0,0
66666,-80,4,3,1,60,0,0
66896,-80,4,3,1,5,0,0
66972,-166.666666666667,4,3,1,60,0,0
70493,-133.333333333333,4,2,1,45,0,0
76309,-80,4,3,1,60,0,0
76386,-80,4,3,1,5,0,0
76462,-80,4,3,1,60,0,0
76692,-80,4,3,1,5,0,0
76768,-166.666666666667,4,3,1,60,0,0
78452,-117.647058823529,4,3,1,60,0,0
78528,-117.647058823529,4,3,1,5,0,0
78605,-117.647058823529,4,3,1,60,0,0
78681,-117.647058823529,4,3,1,5,0,0
78758,-117.647058823529,4,3,1,60,0,0
79370,-117.647058823529,4,3,2,60,0,0
79676,-117.647058823529,4,3,1,60,0,0
79829,-117.647058823529,4,3,3,60,0,0
80135,-117.647058823529,4,3,1,60,0,0
80289,-117.647058823529,4,3,4,60,0,0
80595,-117.647058823529,4,3,1,60,0,0
81207,-66.6666666666667,4,3,1,60,0,1
81437,-66.6666666666667,4,3,1,5,0,1
81513,-83.3333333333333,4,3,1,60,0,1
90391,-83.3333333333333,4,3,1,70,0,1
90467,-83.3333333333333,4,3,1,60,0,1
90544,-83.3333333333333,4,3,3,60,0,1
90697,-83.3333333333333,4,3,1,60,0,1
90850,-83.3333333333333,4,3,4,60,0,1
91003,-66.6666666666667,4,3,1,60,0,1
91232,-66.6666666666667,4,3,1,5,0,1
91309,-83.3333333333333,4,3,1,60,0,1
95289,-83.3333333333333,4,3,3,60,0,1
95595,-100,4,3,4,60,0,1
95901,-100,4,3,1,60,0,0
100187,-83.3333333333333,4,3,1,70,0,1
100263,-83.3333333333333,4,3,1,60,0,1
100340,-83.3333333333333,4,3,3,60,0,1
100493,-83.3333333333333,4,3,1,60,0,1
100646,-83.3333333333333,4,3,4,60,0,1
100799,-66.6666666666667,4,3,1,60,0,1
101028,-66.6666666666667,4,3,1,5,0,1
101105,-83.3333333333333,4,3,1,60,0,1
109982,-83.3333333333333,4,3,3,60,0,1
110288,-83.3333333333333,4,3,4,60,0,1
110595,-66.6666666666667,4,3,1,60,0,1
110824,-66.6666666666667,4,3,1,5,0,1
110901,-83.3333333333333,4,3,1,60,0,1
115493,-100,4,3,1,60,0,0
120391,-111.111111111111,4,3,3,60,0,0
120850,-111.111111111111,4,3,4,60,0,0
122533,-111.111111111111,4,3,2,60,0,0
122840,-111.111111111111,4,3,3,60,0,0
123299,-111.111111111111,4,3,4,60,0,0
124982,-111.111111111111,4,3,2,60,0,0
125289,-111.111111111111,4,3,3,60,0,0
125748,-111.111111111111,4,3,4,60,0,0
127431,-111.111111111111,4,3,2,60,0,0
127738,-100,4,3,3,60,0,0
128197,-111.111111111111,4,3,4,60,0,0
129880,-111.111111111111,4,3,2,30,0,0
130187,-90.9090909090909,4,3,3,60,0,0
130646,-111.111111111111,4,3,4,60,0,0
131105,-90.9090909090909,4,3,4,60,0,0
131564,-100,4,3,4,60,0,0
132023,-111.111111111111,4,3,4,60,0,0
132329,-111.111111111111,4,3,2,60,0,0
132636,-111.111111111111,4,3,3,60,0,0
133095,-111.111111111111,4,3,4,60,0,0
133554,-111.111111111111,4,3,2,60,0,0
134013,-111.111111111111,4,3,4,60,0,0
134778,-111.111111111111,4,3,2,60,0,0
135085,-111.111111111111,4,3,3,60,0,0
135544,-100,4,3,2,60,0,0
136003,-111.111111111111,4,3,3,60,0,0
136462,-111.111111111111,4,3,4,60,0,0
137533,-100,4,3,3,60,0,0
137993,-90.9090909090909,4,3,2,60,0,0
138452,-100,4,3,3,60,0,0
138911,-105.263157894737,4,3,1,60,0,0
139982,-100,4,3,1,60,0,0
140442,-100,4,3,2,60,0,0
140901,-100,4,3,3,60,0,0
141360,-100,4,3,4,60,0,0
141819,-100,4,3,3,60,0,0
142125,-100,4,3,2,60,0,0
142431,-100,4,3,3,60,0,0
142891,-100,4,3,4,60,0,0
143350,-100,4,3,2,60,0,0
143809,-100,4,3,3,60,0,0
143962,-100,4,3,4,60,0,0
144268,-100,4,3,2,60,0,0
144880,-100,4,3,3,60,0,0
145340,-100,4,3,4,60,0,0
145799,-100,4,3,2,60,0,0
146258,-100,4,3,3,60,0,0
146411,-100,4,3,4,60,0,0
146717,-100,4,3,2,60,0,0
147329,-100,4,3,3,60,0,0
147789,-100,4,3,4,60,0,0
148248,-100,4,3,2,60,0,0
148707,-100,4,3,3,60,0,0
148860,-100,4,3,4,60,0,0
149166,-100,4,3,1,60,0,0
149472,-100,4,3,4,60,0,0
149778,-100,4,3,3,60,0,0
150238,-100,4,3,2,60,0,0
150697,-100,4,3,3,60,0,0
151309,-100,4,3,4,60,0,0
151615,-100,4,3,2,60,0,0
152227,-100,4,3,3,60,0,0
152687,-100,4,3,4,60,0,0
153146,-100,4,3,2,60,0,0
153605,-100,4,3,4,60,0,0
154064,-100,4,3,1,60,0,0
154370,-100,4,3,4,60,0,0
154676,-100,4,3,3,60,0,0
155136,-100,4,3,2,60,0,0
155595,-100,4,3,3,60,0,0
156054,-100,4,3,2,60,0,0
156513,-100,4,3,4,60,0,0
157125,-83.3333333333333,4,3,1,60,0,0
157355,-83.3333333333333,4,3,1,5,0,0
157431,-100,4,3,1,60,0,0
157508,-100,4,3,1,30,0,0
157738,-100,4,3,1,60,0,0
157814,-100,4,3,1,30,0,0
158044,-100,4,3,1,60,0,0
158120,-100,4,3,1,30,0,0
158350,-100,4,3,2,60,0,0
158656,-100,4,3,3,60,0,0
158962,-100,4,3,1,60,0,0
159574,-86.9565217391304,4,3,1,60,0,0
160952,-50,4,3,1,60,0,0
161105,-33.3333333333333,4,3,1,60,0,0
161258,-100,4,3,1,60,0,0
166309,-100,4,3,3,60,0,0
166615,-100,4,3,4,60,0,0
166921,-100,4,3,1,60,0,0
173350,-100,4,3,3,60,0,0
173656,306.122448979592,4,3,1,60,1,0
173656,-100,4,3,1,60,0,0
175493,-100,4,3,3,60,0,0
175799,-100,4,3,4,60,0,0
176105,-100,4,3,1,60,0,0
179166,-100,4,3,3,60,0,0
179472,-100,4,3,4,60,0,0
179778,-66.6666666666667,4,3,1,60,0,1
180007,-66.6666666666667,4,3,1,5,0,1
180084,-83.3333333333333,4,3,1,60,0,1
182380,-83.3333333333333,4,3,2,60,0,1
182839,-83.3333333333333,4,3,1,60,0,1
182992,-83.3333333333333,4,3,3,60,0,1
183451,-83.3333333333333,4,3,1,60,0,1
183604,-83.3333333333333,4,3,4,60,0,1
184063,-83.3333333333333,4,3,1,60,0,1
184216,-83.3333333333333,4,3,4,45,0,1
184675,-66.6666666666667,4,3,1,60,0,1
184905,-66.6666666666667,4,3,1,5,0,1
184981,-83.3333333333333,4,3,1,60,0,1
187431,-83.3333333333333,4,3,2,60,0,1
187737,-83.3333333333333,4,3,3,60,0,1
188043,-83.3333333333333,4,3,1,60,0,1
188349,-33.3333333333333,4,3,1,60,0,1
188425,-33.3333333333333,4,3,1,5,0,1
188502,-83.3333333333333,4,3,2,60,0,1
188961,-83.3333333333333,4,3,3,60,0,1
189267,-83.3333333333333,4,3,4,60,0,1
189574,-83.3333333333333,4,3,1,60,0,0
189803,-83.3333333333333,4,3,1,5,0,0
189880,-100,4,3,1,60,0,0
194471,-83.3333333333333,4,3,1,60,0,0
194701,-83.3333333333333,4,3,1,5,0,0
194778,-100,4,3,1,60,0,0
196920,-200,4,3,1,45,0,0
197124,-200,4,3,1,5,0,0
197226,-66.6666666666667,4,3,1,60,0,0
197839,-80,4,3,1,60,0,0
198451,-100,4,3,1,60,0,0
199369,377.358490566038,3,2,1,20,1,0
199369,-250,3,2,1,20,0,0
200815,-200,3,2,2,5,0,0
200878,-200,3,2,2,20,0,0
201255,-200,3,2,2,5,0,0
201350,-200,3,2,2,20,0,0
201633,-166.666666666667,3,2,2,20,0,0
203079,-200,3,2,2,5,0,0
203142,-333.333333333333,3,2,2,20,0,0
203771,-200,3,2,2,5,0,0
203834,-200,3,2,2,30,0,0
204400,-200,3,2,2,5,0,0
204526,-200,3,2,2,20,0,0
205029,-250,3,2,2,30,0,0
206098,-200,3,2,2,5,0,0
206161,-500,3,2,2,30,0,0
206853,-200,3,2,2,5,0,0
206916,-333.333333333333,3,2,2,30,0,0
208362,-333.333333333333,3,2,2,5,0,0
208425,-200,3,2,2,45,0,0
208928,-200,3,2,2,5,0,0
209054,-200,3,2,2,45,0,0
209557,-250,3,2,2,45,0,0
210249,-200,3,2,2,5,0,0
210312,-333.333333333333,3,2,2,45,0,0
210563,-200,3,2,2,5,0,0
210626,-200,3,2,2,45,0,0
211192,-200,3,2,2,5,0,0
211318,-200,3,2,2,45,0,0
211821,-333.333333333333,3,2,2,45,0,0
212513,-200,3,2,2,5,0,0
212576,-200,3,2,2,45,0,0
212828,-200,3,2,2,5,0,0
212891,-200,3,2,2,45,0,0
212953,368.098159509202,3,2,2,45,1,0
212953,-250,3,2,2,45,0,0
214364,-200,3,2,2,5,0,0
214425,348.837209302326,3,2,2,45,1,0
214425,-166.666666666667,3,2,2,45,0,0
214948,-200,3,2,2,5,0,0
215006,425.531914893617,3,2,2,45,1,0
215006,-200,3,2,2,45,0,0
215147,-200,3,2,2,5,0,0
215218,361.44578313253,3,2,2,45,1,0
215218,-250,3,2,2,45,0,0
215880,-200,3,2,2,5,0,0
215940,410.958904109589,3,2,2,45,1,0
215940,-333.333333333333,3,2,2,45,0,0
216282,-200,3,2,2,5,0,0
216350,377.358490566038,3,2,2,45,1,0
216350,-500,3,2,2,45,0,0
217104,-200,3,2,2,5,0,0
217199,-500,3,2,2,45,0,0
217482,-200,3,2,2,45,0,0
218551,-200,3,2,2,5,0,0
218614,361.44578313253,3,2,2,45,1,0
218614,-333.333333333333,3,2,2,45,0,0
218915,-200,3,2,2,5,0,0
218975,-200,3,2,2,45,0,0
219336,-200,3,2,2,5,0,0
219456,-200,3,2,2,45,0,0
219697,398.009950248756,3,2,2,45,1,0
219697,-166.666666666667,3,2,2,45,0,0
220824,-200,3,2,2,5,0,0
220891,375,3,2,2,45,1,0
220891,-333.333333333333,3,2,2,45,0,0
221332,-200,3,2,2,5,0,0
221391,-333.333333333333,3,2,2,45,0,0
221641,-166.666666666667,3,2,2,45,0,0
221954,-200,3,2,2,5,0,0
222016,371.517027863777,3,2,2,5,1,0
222016,-200,3,2,2,45,0,0
222573,-200,3,2,2,5,0,0
222635,-200,3,2,2,45,0,0
223130,392.156862745098,3,2,2,45,1,0
223130,-200,3,2,2,45,0,0
223848,-200,3,2,2,5,0,0
223914,375,3,2,2,45,1,0
223914,-333.333333333333,3,2,2,45,0,0
224226,-200,3,2,2,5,0,0
224289,376.175548589342,3,2,2,45,1,0
224289,-250,3,2,2,45,0,0
224602,-200,3,2,2,5,0,0
224665,-333.333333333333,3,2,2,45,0,0
225354,-200,3,2,2,5,0,0
225417,-500,3,2,2,45,0,0
226107,-200,3,2,2,5,0,0
226169,-250,3,2,2,45,0,0
226484,-200,3,2,2,5,0,0
226546,370.37037037037,3,2,2,5,1,0
226546,-200,3,2,2,45,0,0
227101,-200,3,2,2,5,0,0
227163,-200,3,2,2,45,0,0
227679,379.746835443038,3,2,2,45,1,0
227679,-250,3,2,2,45,0,0
228375,-200,3,2,2,5,0,0
228438,-333.333333333333,3,2,2,45,0,0
228754,-200,3,2,2,5,0,0
228818,389.61038961039,3,2,2,45,1,0
228818,-200,3,2,2,45,0,0
229337,-200,3,2,2,5,0,0
229402,-200,3,2,2,45,0,0
229947,375,3,2,2,45,1,0
229947,-333.333333333333,3,2,2,45,0,0
230634,-200,3,2,2,5,0,0
230697,-200,3,2,2,45,0,0
231009,-200,3,2,2,5,0,0
231072,-250,3,2,2,45,0,0
232509,-200,3,2,2,5,0,0
232572,-166.666666666667,3,2,2,45,0,0
233134,-200,3,2,2,5,0,0
233197,-200,3,2,2,45,0,0
233259,-200,3,2,2,5,0,0
233338,375,3,2,2,5,1,0
233338,-250,3,2,2,45,0,0
234400,-200,3,2,2,5,0,0
234463,377.358490566038,3,2,1,15,1,0
234463,-133.333333333333,3,2,1,15,0,0
235595,-133.333333333333,3,2,1,50,0,0
236727,-133.333333333333,3,2,1,15,0,0
237859,-133.333333333333,3,2,1,50,0,0
238991,-133.333333333333,3,2,1,15,0,0
240123,-133.333333333333,3,2,1,50,0,0
241255,-133.333333333333,3,2,1,15,0,0
242387,-133.333333333333,3,2,1,50,0,0
243519,-133.333333333333,3,2,1,15,0,0
244651,-133.333333333333,3,2,1,50,0,0
245029,-66.6666666666667,3,2,1,50,0,0
245406,-133.333333333333,3,2,1,50,0,0
245784,-133.333333333333,3,2,1,15,0,0
246916,-133.333333333333,3,2,1,50,0,0
247293,-66.6666666666667,3,2,1,50,0,0
247670,-133.333333333333,3,2,1,50,0,0
248048,-133.333333333333,3,2,1,15,0,0
249180,-133.333333333333,3,2,1,50,0,0
250312,-133.333333333333,3,2,1,15,0,0
251444,-133.333333333333,3,2,1,50,0,0
252576,-133.333333333333,3,2,1,15,0,0
253708,-133.333333333333,3,2,1,50,0,0
254840,-133.333333333333,3,2,1,15,0,0
255972,-133.333333333333,3,2,1,50,0,0
257104,-133.333333333333,3,2,1,15,0,0
258236,-133.333333333333,3,2,1,50,0,0
259369,-133.333333333333,3,2,1,15,0,0
260501,-133.333333333333,3,2,1,50,0,0
261633,-133.333333333333,3,2,1,15,0,0
262765,-133.333333333333,3,2,1,50,0,0
263897,-133.333333333333,3,2,1,15,0,0
265029,-133.333333333333,3,2,1,50,0,0
266161,-133.333333333333,3,2,1,15,0,0
267293,-133.333333333333,3,2,1,50,0,0
268425,-133.333333333333,3,2,1,15,0,0
269557,-133.333333333333,3,2,1,50,0,0
271758,-133.333333333333,3,2,1,5,0,0
271821,-100,3,2,1,50,0,0
278425,-100,3,2,1,5,0,0
278488,-100,3,2,1,50,0,0
278802,-100,3,2,1,5,0,0
278865,-100,3,2,1,50,0,0
288802,-200,3,2,1,50,0,0
289054,-200,3,3,2,50,0,0
289557,-200,3,3,3,50,0,0
289935,-200,3,2,1,50,0,0
290249,-200,3,2,1,5,0,0
290312,-100,3,2,1,50,0,0
292513,-100,3,2,1,5,0,0
292576,-100,3,2,1,50,0,0
292953,-125,3,2,1,50,0,0
293331,-76.9230769230769,3,2,1,50,0,0
293708,-200,3,3,3,50,0,0
294085,-200,3,3,4,50,0,0
294463,-100,3,2,1,50,0,0
298236,-200,3,3,3,50,0,0
298614,-200,3,3,4,50,0,0
298991,-200,3,2,1,50,0,0
299746,-100,3,2,1,50,0,0
300375,-100,3,3,2,50,0,0
300501,-200,3,3,1,50,0,0
300626,-200,3,3,3,50,0,0
300878,-200,3,3,1,50,0,0
301003,-200,3,3,4,50,0,0
301255,-83.3333333333333,3,2,1,50,0,0
302262,-83.3333333333333,3,3,4,50,0,0
302387,-83.3333333333333,3,2,1,50,0,0
302639,-83.3333333333333,3,3,2,50,0,0
302765,-83.3333333333333,3,2,1,50,0,0
302891,-83.3333333333333,3,3,3,50,0,0
303142,-83.3333333333333,3,2,1,50,0,0
303268,-83.3333333333333,3,3,4,50,0,0
303519,-83.3333333333333,3,2,1,50,0,0
304903,-83.3333333333333,3,3,2,50,0,0
305029,-83.3333333333333,3,2,1,50,0,0
305155,-83.3333333333333,3,3,3,50,0,0
305406,-83.3333333333333,3,2,1,50,0,0
305532,-83.3333333333333,3,3,4,50,0,0
305784,303.030303030303,6,3,1,60,1,0
306314,-100,6,3,1,5,0,0
306390,-90.9090909090909,6,3,1,60,0,0
306920,-90.9090909090909,6,3,1,5,0,0
306996,-83.3333333333333,6,3,1,60,0,0
307526,-83.3333333333333,6,3,1,5,0,0
307602,300,4,3,4,60,1,0
307827,-100,4,3,4,5,0,0
307902,-100,4,3,4,60,0,0
308427,-100,4,3,4,5,0,0
308502,-100,4,3,4,60,0,0
308802,285.714285714286,4,3,1,60,1,0
309087,-100,4,3,3,60,0,0
309373,-100,4,3,4,60,0,0
309587,-100,4,3,4,5,0,0
309662,-100,4,3,4,60,0,0
309944,281.690140845071,4,3,1,30,1,0
310225,-100,4,3,1,45,0,0
310507,-100,4,3,1,60,0,0
311070,-100,4,3,1,25,0,0
311352,-100,4,3,1,40,0,0
311634,-100,4,3,1,60,0,0
313605,-100,4,3,1,25,0,0
313887,-100,4,3,1,40,0,0
314169,-100,4,3,1,60,0,0
314451,284.36018957346,4,3,1,60,1,0
314664,-100,4,3,4,5,0,0
314735,-100,4,3,3,60,0,0
315019,-100,4,3,4,60,0,0
315304,-100,4,3,1,60,0,0
315588,-100,4,3,1,25,0,0
315872,-100,4,3,1,40,0,0
316157,-100,4,3,1,60,0,0
316725,292.682926829268,4,3,1,60,1,0
317017,279.06976744186,4,3,2,60,1,0
317017,-100,4,3,2,60,0,0
317296,281.69014084507,4,3,3,60,1,0
317296,-100,4,3,3,60,0,0
317577,-100,4,3,4,60,0,0
317859,281.69014084507,4,3,1,60,1,0
317859,-100,4,3,1,60,0,0
318071,-100,4,3,1,5,0,0
318141,-100,4,3,1,60,0,0
319197,-100,4,3,1,5,0,0
319267,-100,4,3,1,60,0,0
320042,-100,4,3,1,5,0,0
320112,-100,4,3,1,60,0,0
320605,-100,4,3,1,5,0,0
320675,-100,4,3,1,60,0,0
321243,284.36018957346,4,3,1,60,1,0
321243,-90.9090909090909,4,3,1,60,0,0
322380,-76.9230769230769,4,3,1,60,0,0
323446,-76.9230769230769,4,3,1,5,0,0
323517,-90.9090909090909,4,3,1,60,0,0
325792,283.018867924528,4,3,1,60,1,0
325792,-40,4,3,1,60,0,0
325862,-40,4,3,1,5,0,0
327301,-333.333333333333,4,3,1,60,0,0
327427,-333.333333333333,4,3,3,60,0,0
327985,-333.333333333333,4,3,3,5,0,0
328056,-76.9230769230769,4,3,1,60,0,0
334848,-90.9090909090909,4,3,1,60,0,0
341924,-90.9090909090909,4,3,2,60,0,0
342207,-90.9090909090909,4,3,1,60,0,0
342490,-90.9090909090909,4,3,2,60,0,0
342773,-90.9090909090909,4,3,1,60,0,0
343056,-90.9090909090909,4,3,2,60,0,0
343339,-90.9090909090909,4,3,3,60,0,0
343622,-90.9090909090909,4,3,4,60,0,0
343905,-83.3333333333333,4,3,1,60,0,1
361169,-83.3333333333333,4,3,3,60,0,1
361452,-83.3333333333333,4,3,1,60,0,1
361735,-83.3333333333333,4,3,4,60,0,1
362018,-66.6666666666667,4,3,1,60,0,0
362301,-83.3333333333333,4,3,1,60,0,0
362867,-66.6666666666667,4,3,1,60,0,0
363150,-83.3333333333333,4,3,1,60,0,0
363928,-83.3333333333333,4,3,1,5,0,0
363999,-83.3333333333333,4,3,1,60,0,0
364211,-83.3333333333333,4,3,1,5,0,0
364282,-66.6666666666667,4,3,1,60,0,0
364565,-83.3333333333333,4,3,1,60,0,0
365131,-66.6666666666667,4,3,1,60,0,0
365414,-83.3333333333333,4,3,1,60,0,0
366192,-83.3333333333333,4,3,1,5,0,0
366263,-83.3333333333333,4,3,1,60,0,0
366475,-83.3333333333333,4,3,1,5,0,0
366546,-66.6666666666667,4,3,1,60,0,0
366829,-83.3333333333333,4,3,1,60,0,0
367395,-66.6666666666667,4,3,1,60,0,0
367678,-83.3333333333333,4,3,1,60,0,0
368457,-83.3333333333333,4,3,1,5,0,0
368527,-83.3333333333333,4,3,1,60,0,0
368740,-83.3333333333333,4,3,1,5,0,0
368810,-66.6666666666667,4,3,1,60,0,0
369093,-83.3333333333333,4,3,1,60,0,0
369659,-66.6666666666667,4,3,1,60,0,0
369942,-83.3333333333333,4,3,1,60,0,0
370225,-83.3333333333333,4,3,3,60,0,0
370508,-83.3333333333333,4,3,1,60,0,0
370791,-83.3333333333333,4,3,4,60,0,0
371075,-83.3333333333333,4,3,1,60,0,1
372773,-74.0740740740741,4,3,1,60,0,0
372985,-74.0740740740741,4,3,1,5,0,0
373056,-74.0740740740741,4,3,1,60,0,0
373339,-83.3333333333333,4,3,1,60,0,1
375037,-74.0740740740741,4,3,1,60,0,0
375249,-74.0740740740741,4,3,1,5,0,0
375320,-74.0740740740741,4,3,1,60,0,0
375603,-83.3333333333333,4,3,1,60,0,1
377301,-74.0740740740741,4,3,1,60,0,0
377513,-74.0740740740741,4,3,1,5,0,0
377584,-74.0740740740741,4,3,1,60,0,0
377867,-83.3333333333333,4,3,1,60,0,1
379565,-74.0740740740741,4,3,3,60,0,0
379777,-74.0740740740741,4,3,3,5,0,0
379848,-33.3333333333333,4,3,2,60,0,0
379919,-33.3333333333333,4,3,2,5,0,0

[Colours]
Combo1 : 100,100,100
Combo2 : 184,175,133
Combo3 : 151,151,151
Combo4 : 160,125,90

[HitObjects]
76,46,392,6,0,B|69:89|69:89|62:92|62:92|55:141,1,85.0000016212464,12|0,0:0|0:0,0:0:0:0:
179,260,698,2,0,L|165:210,1,42.5000008106232,8|8,0:0|0:0,0:0:0:0:
145,146,851,1,0,0:0:0:0:
45,288,1004,2,0,L|57:221,2,42.5000008106232
133,358,1310,5,12,0:0:0:0:
162,352,1386,1,0,0:0:0:0:
191,346,1463,1,0,0:0:0:0:
220,341,1539,1,0,0:0:0:0:
249,335,1616,2,0,L|313:319,1,42.5000008106232,2|0,0:0|0:0,0:0:0:0:
255,344,1769,2,0,L|319:328,1,42.5000008106232,0|0,0:0|0:0,0:0:0:0:
378,272,1922,1,2,0:0:0:0:
378,272,1999,1,0,0:0:0:0:
378,272,2075,2,0,L|314:256,1,42.5000008106232,0|0,0:0|0:0,0:0:0:0:
481,359,2228,6,0,B|460:363|441:361|441:361|491:292|455:228,1,150,12|0,0:0|0:0,0:0:0:0:
396,188,2534,2,0,B|442:193|459:229|459:229|462:191|500:162,1,150,4|0,0:2|0:0,0:0:0:0:
512,81,2840,6,0,B|494:66|494:66|412:81,1,85.0000016212464,12|0,0:1|0:0,0:0:0:0:
274,28,3147,2,0,L|283:69,1,42.5000008106232,8|8,0:0|0:0,0:0:0:0:
304,152,3300,1,0,0:0:0:0:
365,41,3453,2,0,L|376:-12,2,42.5000008106232
218,124,3759,5,12,0:0:0:0:
189,118,3835,1,0,0:0:0:0:
160,112,3912,1,0,0:0:0:0:
131,107,3988,1,0,0:0:0:0:
102,101,4065,2,0,L|38:85,1,42.5000008106232,2|0,0:0|0:0,0:0:0:0:
103,89,4218,2,0,L|39:73,1,42.5000008106232,0|0,0:0|0:0,0:0:0:0:
20,180,4371,1,2,0:0:0:0:
20,180,4448,1,0,0:0:0:0:
20,180,4524,2,0,L|84:164,1,42.5000008106232,0|0,0:0|0:0,0:0:0:0:
193,214,4677,5,8,0:0:0:0:
181,262,4754,1,8,0:0:0:0:
169,310,4830,1,8,0:0:0:0:
158,359,4907,1,8,0:0:0:0:
142,347,4983,5,8,0:0:0:0:
171,342,5060,1,8,0:0:0:0:
200,338,5136,1,8,0:0:0:0:
229,334,5213,1,8,0:0:0:0:
239,317,5289,5,8,0:0:0:0:
288,325,5366,1,8,0:0:0:0:
337,333,5443,1,8,0:0:0:0:
386,340,5519,1,8,0:0:0:0:
374,352,5596,5,8,0:0:0:0:
371,332,5672,1,8,0:0:0:0:
368,312,5749,1,8,0:0:0:0:
365,292,5825,1,8,0:0:0:0:
344,250,5902,6,0,B|328:274|326:307|326:307|361:345,1,85.0000016212464,12|0,0:0|0:0,0:0:0:0:
508,351,6208,2,0,L|466:360,1,42.5000008106232,8|8,0:0|0:0,0:0:0:0:
390,384,6361,1,0,0:0:0:0:
457,230,6514,2,0,L|498:239,2,42.5000008106232
436,16,6820,5,12,0:0:0:0:
430,45,6896,1,0,0:0:0:0:
424,74,6973,1,0,0:0:0:0:
419,103,7049,1,0,0:0:0:0:
413,132,7126,2,0,L|397:196,1,42.5000008106232,2|0,0:0|0:0,0:0:0:0:
401,139,7279,2,0,L|385:203,1,42.5000008106232
318,80,7432,1,2,0:0:0:0:
318,80,7509,1,0,0:0:0:0:
318,80,7585,2,0,L|305:16,1,42.5000008106232,0|0,0:0|0:0,0:0:0:0:
282,178,7738,6,0,B|199:150|255:117|153:90,1,150,12|0,0:0|0:0,0:0:0:0:
116,35,8044,2,0,B|129:17|128:-3|128:-3|158:74|75:109,1,150,12|0,0:2|0:0,0:0:0:0:
10,150,8350,5,12,0:1:0:0:
40,124,8427,1,8,0:0:0:0:
79,118,8504,1,0,0:0:0:0:
113,137,8580,1,8,0:0:0:0:
130,173,8657,5,2,0:0:0:0:
152,192,8733,1,8,0:0:0:0:
180,201,8810,1,0,0:0:0:0:
209,197,8886,1,8,0:0:0:0:
229,174,8963,5,2,0:0:0:0:
186,188,9039,1,8,0:0:0:0:
169,229,9116,1,0,0:0:0:0:
181,271,9192,1,8,0:0:0:0:
220,293,9269,5,2,0:0:0:0:
238,322,9345,1,8,0:0:0:0:
233,356,9422,1,0,0:0:0:0:
208,380,9498,1,8,0:0:0:0:
173,384,9575,6,0,B|135:365|135:365|134:356|134:356|81:332,1,85.0000016212464,4|0,0:0|0:0,0:0:0:0:
10,265,9881,2,0,P|0:290|0:314,1,42.5000008106232,8|8,0:0|0:0,0:0:0:0:
31,376,10034,1,0,0:0:0:0:
69,197,10187,2,0,P|49:185|22:179,2,42.5000008106232
154,257,10493,5,12,0:0:0:0:
183,250,10570,1,0,0:0:0:0:
211,244,10646,1,0,0:0:0:0:
240,238,10723,1,0,0:0:0:0:
268,232,10799,2,0,L|324:220,1,42.5000008106232,2|0,0:0|0:0,0:0:0:0:
274,218,10953,2,0,L|330:206,1,42.5000008106232,0|0,0:0|0:0,0:0:0:0:
240,132,11106,1,2,0:0:0:0:
240,132,11182,1,0,0:0:0:0:
240,132,11259,2,0,L|184:120,1,42.5000008106232,0|0,0:0|0:0,0:0:0:0:
328,6,11412,6,0,B|346:48|346:48|312:99|348:159,1,150,12|0,0:0|0:0,0:0:0:0:
406,96,11718,2,0,B|340:75|340:75|331:79|331:79|220:50,1,150,4|0,0:2|0:0,0:0:0:0:
475,15,12024,6,0,B|496:31|496:31|481:105,1,85.0000016212464,12|0,0:1|0:0,0:0:0:0:
335,188,12330,2,0,P|336:161|346:136,1,42.5000008106232,8|8,0:0|0:0,0:0:0:0:
406,96,12483,1,0,0:0:0:0:
472,212,12636,2,0,P|492:195|512:190,2,42.5000008106232
440,314,12942,5,12,0:0:0:0:
410,307,13019,1,0,0:0:0:0:
382,301,13095,1,0,0:0:0:0:
353,295,13172,1,0,0:0:0:0:
325,289,13248,2,0,L|268:277,1,42.5000008106232,2|0,0:0|0:0,0:0:0:0:
313,299,13402,2,0,L|256:287,1,42.5000008106232,0|0,0:0|0:0,0:0:0:0:
230,205,13555,1,2,0:0:0:0:
230,205,13631,1,0,0:0:0:0:
230,205,13708,2,0,L|286:193,1,42.5000008106232,0|0,0:0|0:0,0:0:0:0:
225,363,13861,5,8,0:0:0:0:
176,350,13937,1,8,0:0:0:0:
127,338,14014,1,8,0:0:0:0:
78,326,14090,1,8,0:0:0:0:
59,332,14167,5,8,0:0:0:0:
63,301,14243,1,8,0:0:0:0:
69,271,14320,1,8,0:0:0:0:
75,240,14396,1,8,0:0:0:0:
93,230,14473,5,8,0:0:0:0:
92,180,14549,1,8,0:0:0:0:
86,129,14626,1,8,0:0:0:0:
81,78,14703,1,8,0:0:0:0:
55,91,14779,5,8,0:0:0:0:
84,96,14856,1,8,0:0:0:0:
113,101,14932,1,8,0:0:0:0:
142,106,15009,1,8,0:0:0:0:
165,122,15085,6,0,B|188:111|201:78|201:78|193:39,1,85.0000016212464,12|0,0:0|0:0,0:0:0:0:
327,0,15391,2,0,P|341:26|341:44,1,42.5000008106232,8|8,0:0|0:0,0:0:0:0:
336,118,15544,1,0,0:0:0:0:
474,38,15697,2,0,P|461:14|460:-16,2,42.5000008106232
431,143,16003,5,12,0:0:0:0:
434,172,16079,1,0,0:0:0:0:
437,201,16156,1,0,0:0:0:0:
440,230,16232,1,0,0:0:0:0:
443,259,16309,2,0,L|450:316,1,42.5000008106232,2|0,0:0|0:0,0:0:0:0:
458,267,16462,2,0,L|465:324,1,42.5000008106232,0|0,0:0|0:0,0:0:0:0:
352,367,16615,1,2,0:0:0:0:
352,367,16692,1,0,0:0:0:0:
352,367,16768,2,0,L|359:310,1,42.5000008106232,0|0,0:0|0:0,0:0:0:0:
291,211,16921,5,4,0:0:0:0:
293,251,16998,1,8,0:0:0:0:
271,284,17074,1,0,0:0:0:0:
232,295,17151,1,8,0:0:0:0:
194,282,17227,5,2,0:0:0:0:
163,281,17304,1,8,0:0:0:0:
136,293,17380,1,0,0:0:0:0:
121,319,17457,1,8,0:0:0:0:
127,348,17533,5,4,0:1:0:0:
164,322,17610,1,8,0:0:0:0:
175,278,17687,1,0,0:0:0:0:
153,238,17763,1,8,0:0:0:0:
112,218,17840,5,2,0:0:0:0:
87,192,17916,1,8,0:0:0:0:
83,156,17993,1,0,0:0:0:0:
96,124,18069,1,8,0:0:0:0:
123,102,18146,5,2,0:0:0:0:
129,151,18222,1,8,0:0:0:0:
171,177,18299,1,0,0:0:0:0:
220,176,18375,1,8,0:0:0:0:
260,145,18452,5,2,0:0:0:0:
299,139,18528,1,8,0:0:0:0:
335,155,18605,1,0,0:0:0:0:
353,190,18681,1,8,0:0:0:0:
347,229,18758,5,2,0:0:0:0:
297,204,18835,1,8,0:0:0:0:
304,149,18911,1,0,0:0:0:0:
351,119,18988,1,8,0:0:0:0:
404,127,19064,5,2,0:0:0:0:
446,110,19141,1,8,0:0:0:0:
465,69,19217,1,0,0:0:0:0:
455,24,19294,1,8,0:0:0:0:
415,3,19370,5,2,0:0:0:0:
382,41,19447,1,8,0:0:0:0:
384,90,19523,1,0,0:0:0:0:
419,125,19600,1,8,0:0:0:0:
465,142,19676,5,2,0:0:0:0:
489,173,19753,1,8,0:0:0:0:
489,212,19829,1,0,0:0:0:0:
471,248,19906,1,8,0:0:0:0:
432,259,19982,5,4,0:2:0:0:
402,224,20059,1,8,0:0:0:0:
357,216,20136,1,0,0:0:0:0:
316,234,20212,1,8,0:0:0:0:
297,275,20289,5,2,0:0:0:0:
294,309,20365,1,8,0:0:0:0:
273,337,20442,1,0,0:0:0:0:
239,346,20518,1,8,0:0:0:0:
205,336,20595,5,8,0:0:0:0:
209,316,20671,1,8,0:0:0:0:
213,296,20748,1,8,0:0:0:0:
217,276,20824,1,8,0:0:0:0:
235,265,20901,5,8,0:0:0:0:
234,255,20977,1,8,0:0:0:0:
233,244,21054,1,8,0:0:0:0:
232,234,21130,1,8,0:0:0:0:
215,199,21207,6,0,B|376:237|376:237|421:303,1,225.000008583069,4|0,0:2|0:0,0:0:0:0:
436,373,21513,1,2,0:1:0:0:
408,333,21590,1,8,0:0:0:0:
419,286,21666,1,2,0:1:0:0:
457,256,21743,1,8,0:0:0:0:
504,257,21819,5,2,0:1:0:0:
507,274,21896,1,8,0:0:0:0:
503,291,21972,1,2,0:1:0:0:
490,304,22049,1,8,0:0:0:0:
473,309,22125,5,2,0:1:0:0:
447,247,22202,1,8,0:0:0:0:
388,217,22278,1,2,0:1:0:0:
325,238,22355,1,8,0:0:0:0:
291,294,22431,1,2,0:1:0:0:
227,312,22508,1,8,0:0:0:0:
166,284,22585,1,2,0:1:0:0:
148,220,22661,1,8,0:0:0:0:
178,161,22738,1,2,0:1:0:0:
231,135,22814,1,8,0:0:0:0:
284,142,22891,1,2,0:1:0:0:
316,176,22967,1,8,0:0:0:0:
309,217,23044,5,2,0:1:0:0:
254,192,23120,1,8,0:0:0:0:
247,138,23197,1,2,0:1:0:0:
266,94,23273,1,8,0:0:0:0:
303,73,23350,2,0,L|377:89,3,59.9999981689454,2|8|2|8,0:1|0:0|0:1|0:0,0:0:0:0:
184,10,23656,5,2,0:1:0:0:
197,75,23732,1,8,0:0:0:0:
161,131,23809,1,2,0:1:0:0:
94,131,23886,1,8,0:0:0:0:
37,163,23962,1,2,0:1:0:0:
19,220,24039,1,8,0:0:0:0:
41,268,24115,1,2,0:1:0:0:
84,287,24192,1,8,0:0:0:0:
124,275,24268,2,0,L|111:206,3,59.9999981689454,2|8|2|8,0:1|0:0|0:1|0:0,0:0:0:0:
314,176,24574,5,2,0:1:0:0:
367,215,24651,1,8,0:0:0:0:
371,280,24727,1,2,0:1:0:0:
333,334,24804,1,8,0:0:0:0:
268,346,24880,1,2,0:1:0:0:
215,315,24957,1,8,0:0:0:0:
200,263,25033,1,2,0:1:0:0:
215,217,25110,1,8,0:0:0:0:
246,188,25187,1,2,0:1:0:0:
281,184,25263,1,8,0:0:0:0:
308,196,25340,1,2,0:1:0:0:
322,215,25416,1,8,0:0:0:0:
320,239,25493,2,0,L|244:227,3,59.9999981689454,2|8|2|8,0:1|0:0|0:1|0:0,0:0:0:0:
384,323,25799,5,2,0:1:0:0:
394,338,25875,1,8,0:0:0:0:
409,348,25952,1,2,0:1:0:0:
426,351,26028,1,8,0:0:0:0:
443,346,26105,5,4,0:0:0:0:
472,284,26181,1,8,0:0:0:0:
439,222,26258,1,2,0:1:0:0:
371,207,26335,1,8,0:0:0:0:
317,250,26411,1,2,0:1:0:0:
250,252,26488,1,8,0:0:0:0:
205,212,26564,1,2,0:1:0:0:
195,158,26641,1,8,0:0:0:0:
214,114,26717,2,0,L|291:127,3,59.9999981689454,2|8|2|8,0:1|0:0|0:1|0:0,0:0:0:0:
374,4,27023,5,2,0:1:0:0:
420,52,27100,1,8,0:0:0:0:
408,116,27176,1,2,0:1:0:0:
350,147,27253,1,8,0:0:0:0:
289,122,27329,1,2,0:1:0:0:
264,60,27406,1,8,0:0:0:0:
204,33,27482,1,2,0:1:0:0:
142,57,27559,1,8,0:0:0:0:
116,118,27636,1,2,0:1:0:0:
132,175,27712,1,8,0:0:0:0:
178,203,27789,1,2,0:1:0:0:
225,202,27865,1,8,0:0:0:0:
254,172,27942,5,2,0:1:0:0:
210,131,28018,1,8,0:0:0:0:
155,133,28095,1,2,0:1:0:0:
116,160,28171,1,8,0:0:0:0:
102,200,28248,2,0,L|125:277,3,59.9999981689454,2|8|2|8,0:1|0:0|0:1|0:0,0:0:0:0:
115,375,28554,5,4,0:0:0:0:
134,312,28630,1,8,0:0:0:0:
193,282,28707,1,2,0:1:0:0:
257,291,28783,1,8,0:0:0:0:
297,343,28860,1,2,0:1:0:0:
356,355,28937,1,8,0:0:0:0:
402,327,29013,1,2,0:1:0:0:
419,281,29090,1,8,0:0:0:0:
408,240,29166,2,0,L|329:251,3,59.9999981689454,2|8|2|8,0:1|0:0|0:1|0:0,0:0:0:0:
285,73,29472,5,2,0:1:0:0:
255,125,29549,1,8,0:0:0:0:
278,179,29625,1,2,0:1:0:0:
334,199,29702,1,8,0:0:0:0:
388,174,29778,1,2,0:1:0:0:
406,116,29855,1,8,0:0:0:0:
381,61,29931,1,2,0:1:0:0:
324,39,30008,1,8,0:0:0:0:
266,55,30085,1,2,0:1:0:0:
232,97,30161,1,8,0:0:0:0:
185,110,30238,1,2,0:1:0:0:
145,95,30314,1,8,0:0:0:0:
126,64,30391,5,8,0:0:0:0:
161,70,30467,1,8,0:0:0:0:
196,76,30544,1,8,0:0:0:0:
231,82,30620,1,8,0:0:0:0:
232,97,30697,5,8,0:0:0:0:
255,94,30773,1,8,0:0:0:0:
279,91,30850,1,8,0:0:0:0:
302,88,30926,1,8,0:0:0:0:
306,75,31003,6,0,B|268:113|268:113|307:233|307:233|260:278,1,225.000008583069,4|0,0:0|0:0,0:0:0:0:
211,208,31309,1,2,0:1:0:0:
245,174,31386,1,8,0:0:0:0:
291,165,31462,1,2,0:1:0:0:
335,184,31539,1,8,0:0:0:0:
358,225,31615,5,2,0:1:0:0:
348,240,31692,1,8,0:0:0:0:
349,257,31768,1,2,0:1:0:0:
355,273,31845,1,8,0:0:0:0:
371,280,31921,5,2,0:1:0:0:
417,251,31998,1,8,0:0:0:0:
420,197,32074,1,2,0:1:0:0:
394,149,32151,1,8,0:0:0:0:
345,125,32227,1,2,0:1:0:0:
296,128,32304,1,8,0:0:0:0:
259,150,32380,1,2,0:1:0:0:
220,151,32457,1,8,0:0:0:0:
192,136,32533,1,2,0:1:0:0:
182,116,32610,1,8,0:0:0:0:
183,99,32687,1,2,0:1:0:0:
189,90,32763,1,8,0:0:0:0:
193,88,32840,2,0,L|209:156,3,59.9999981689454,2|8|2|8,0:1|0:0|0:1|0:0,0:0:0:0:
89,20,33146,5,2,0:1:0:0:
73,10,33222,1,8,0:0:0:0:
55,5,33299,1,2,0:1:0:0:
37,6,33375,1,8,0:0:0:0:
20,13,33452,5,4,0:0:0:0:
0,75,33528,1,8,0:0:0:0:
37,130,33605,1,0,0:0:0:0:
94,145,33681,1,8,0:0:0:0:
137,186,33758,1,2,0:1:0:0:
143,239,33835,1,8,0:0:0:0:
124,289,33911,2,0,P|101:304|54:306,1,59.9999981689454,2|8,0:1|0:0,0:0:0:0:
66,199,34064,5,2,0:1:0:0:
115,165,34141,1,8,0:0:0:0:
168,166,34217,1,2,0:1:0:0:
211,187,34294,1,8,0:0:0:0:
230,223,34370,2,0,L|217:293,3,59.9999981689454,2|8|2|8,0:1|0:0|0:1|0:0,0:0:0:0:
342,331,34676,5,2,0:1:0:0:
407,343,34753,1,8,0:0:0:0:
459,303,34829,1,2,0:1:0:0:
461,236,34906,1,8,0:0:0:0:
413,191,34982,1,2,0:1:0:0:
353,178,35059,1,8,0:0:0:0:
325,131,35136,1,2,0:1:0:0:
333,84,35212,1,8,0:0:0:0:
368,61,35289,5,8,0:0:0:0:
382,117,35365,1,8,0:0:0:0:
390,177,35442,1,8,0:0:0:0:
399,235,35518,1,8,0:0:0:0:
415,245,35595,5,8,0:0:0:0:
408,279,35671,1,8,0:0:0:0:
403,313,35748,2,0,L|390:388,1,50,8|8,0:0|0:0,0:0:0:0:
330,240,35901,5,12,0:2:0:0:
287,214,35977,1,0,0:0:0:0:
237,222,36054,1,0,0:0:0:0:
202,257,36130,1,0,0:0:0:0:
198,307,36207,5,10,0:0:0:0:
249,317,36283,1,0,0:0:0:0:
289,286,36360,2,0,P|298:252|277:216,1,50
103,210,36513,5,10,3:0:0:0:
129,238,36590,1,0,3:0:0:0:
132,277,36666,1,0,3:0:0:0:
119,315,36743,1,0,3:0:0:0:
86,339,36819,5,10,3:0:0:0:
43,311,36896,1,0,0:0:0:0:
24,266,36972,1,0,0:0:0:0:
20,215,37049,1,0,0:0:0:0:
39,169,37125,5,10,0:0:0:0:
62,214,37202,1,0,0:0:0:0:
109,228,37278,2,0,P|141:209|162:176,1,50
156,29,37431,5,10,0:0:0:0:
136,65,37508,1,0,0:0:0:0:
102,87,37585,1,0,0:0:0:0:
63,93,37661,1,0,0:0:0:0:
26,80,37738,5,10,0:0:0:0:
61,26,37814,1,0,0:0:0:0:
125,14,37891,2,0,P|158:19|178:29,1,50
247,124,38044,5,10,0:0:0:0:
218,187,38120,1,0,0:0:0:0:
149,200,38197,2,0,P|123:187|111:164,1,50
292,18,38350,5,10,3:0:0:0:
312,62,38426,1,0,3:0:0:0:
353,89,38503,1,0,3:0:0:0:
402,89,38579,1,0,3:0:0:0:
449,73,38656,5,10,3:0:0:0:
436,24,38732,1,0,3:0:0:0:
390,2,38809,2,0,P|358:8|325:41,1,50,0|0,3:0|3:0,3:0:0:0:
299,183,38962,5,10,0:0:0:0:
331,162,39039,1,0,0:0:0:0:
370,157,39115,1,0,0:0:0:0:
410,164,39192,1,0,0:0:0:0:
441,188,39268,5,10,0:0:0:0:
395,207,39344,1,0,0:0:0:0:
362,245,39421,1,0,0:0:0:0:
351,293,39497,1,0,0:0:0:0:
363,341,39574,5,10,0:0:0:0:
412,333,39650,1,0,0:0:0:0:
437,289,39727,2,0,P|434:259|391:213,1,50
314,148,39880,5,10,0:0:0:0:
326,188,39957,1,0,0:0:0:0:
309,224,40033,1,0,0:0:0:0:
277,247,40110,1,0,0:0:0:0:
236,242,40187,5,8,0:0:0:0:
241,214,40263,1,8,0:0:0:0:
243,185,40340,1,8,0:0:0:0:
246,156,40416,1,8,0:0:0:0:
227,150,40493,5,8,0:0:0:0:
223,130,40569,1,8,0:0:0:0:
220,111,40646,1,8,0:0:0:0:
217,91,40722,1,8,0:0:0:0:
237,65,40799,6,0,B|206:68|179:50|179:50|161:102|161:102|165:132|165:132|146:154|146:154|136:219,1,225.000008583069,4|0,0:2|0:0,0:0:0:0:
159,314,41105,1,2,0:1:0:0:
198,288,41181,1,8,0:0:0:0:
246,288,41258,1,2,0:1:0:0:
287,312,41335,1,8,0:0:0:0:
298,358,41411,5,2,0:1:0:0:
280,363,41488,1,8,0:0:0:0:
262,360,41564,1,2,0:1:0:0:
246,350,41641,1,8,0:0:0:0:
236,334,41717,5,2,0:1:0:0:
284,288,41794,1,8,0:0:0:0:
349,292,41870,1,2,0:1:0:0:
391,342,41947,1,8,0:0:0:0:
455,353,42023,1,2,0:1:0:0:
507,312,42100,1,8,0:0:0:0:
511,246,42176,1,2,0:1:0:0:
462,200,42253,1,8,0:0:0:0:
396,203,42329,1,2,0:1:0:0:
345,170,42406,1,8,0:0:0:0:
336,117,42482,1,2,0:1:0:0:
360,75,42559,1,8,0:0:0:0:
400,62,42636,5,2,0:1:0:0:
406,121,42712,1,8,0:0:0:0:
373,163,42789,1,2,0:1:0:0:
326,172,42865,1,8,0:0:0:0:
289,149,42942,2,0,L|299:76,3,59.9999981689454,2|8|2|8,0:1|0:0|0:1|0:0,0:0:0:0:
230,18,43248,5,4,0:1:0:0:
164,8,43325,1,8,0:0:0:0:
114,51,43401,1,2,0:1:0:0:
102,116,43478,1,8,0:0:0:0:
135,173,43554,1,2,0:1:0:0:
127,232,43630,1,8,0:0:0:0:
84,265,43707,1,2,0:1:0:0:
35,262,43783,1,8,0:0:0:0:
5,234,43860,2,0,L|16:168,3,59.9999981689454,2|8|2|8,0:1|0:0|0:1|0:0,0:0:0:0:
123,335,44166,5,2,0:1:0:0:
173,378,44243,1,8,0:0:0:0:
238,373,44319,1,2,0:1:0:0:
280,321,44396,1,8,0:0:0:0:
294,257,44472,1,2,0:1:0:0:
336,213,44549,1,8,0:0:0:0:
389,210,44625,1,2,0:1:0:0:
432,231,44702,1,8,0:0:0:0:
449,269,44778,1,2,0:1:0:0:
443,304,44855,1,8,0:0:0:0:
422,325,44931,1,2,0:1:0:0:
398,329,45008,1,8,0:0:0:0:
381,320,45085,2,0,L|393:251,3,59.9999981689454,2|8|2|8,0:1|0:0|0:1|0:0,0:0:0:0:
311,187,45391,5,2,0:1:0:0:
297,175,45467,1,8,0:0:0:0:
280,167,45544,1,2,0:1:0:0:
262,164,45620,1,8,0:0:0:0:
244,169,45697,5,4,0:1:0:0:
291,218,45773,1,8,0:0:0:0:
358,202,45850,1,0,0:0:0:0:
380,137,45926,1,8,0:0:0:0:
340,80,46003,1,2,0:1:0:0:
281,67,46079,1,8,0:0:0:0:
229,85,46156,1,2,0:1:0:0:
183,69,46232,1,8,0:0:0:0:
161,32,46309,2,0,L|232:23,3,59.9999981689454,2|8|2|8,0:1|0:0|0:1|0:0,0:0:0:0:
33,42,46615,5,2,0:1:0:0:
88,78,46692,1,8,0:0:0:0:
90,143,46768,1,2,0:1:0:0:
48,194,46845,1,8,0:0:0:0:
46,259,46921,1,2,0:1:0:0:
83,306,46998,1,8,0:0:0:0:
136,310,47074,1,2,0:1:0:0:
178,286,47151,1,8,0:0:0:0:
192,246,47227,1,2,0:1:0:0:
186,210,47304,1,8,0:0:0:0:
165,188,47380,1,2,0:1:0:0:
142,180,47457,1,8,0:0:0:0:
124,183,47533,5,2,0:1:0:0:
132,242,47610,1,8,0:0:0:0:
176,273,47687,1,2,0:1:0:0:
223,269,47763,1,8,0:0:0:0:
252,239,47840,2,0,P|265:212|259:178,3,59.9999981689454,2|8|2|8,0:1|0:0|0:1|0:0,0:0:0:0:
368,374,48146,5,4,0:0:0:0:
322,326,48222,1,8,0:0:0:0:
330,260,48299,1,2,0:1:0:0:
383,219,48375,1,8,0:0:0:0:
448,224,48452,1,2,0:1:0:0:
497,190,48528,1,8,0:0:0:0:
512,139,48605,1,2,0:1:0:0:
494,93,48681,1,8,0:0:0:0:
458,71,48758,2,0,L|446:153,3,59.9999981689454,2|8|2|8,0:1|0:0|0:1|0:0,0:0:0:0:
354,22,49064,5,2,0:1:0:0:
348,76,49141,1,8,0:0:0:0:
318,121,49217,1,2,0:1:0:0:
267,141,49294,1,8,0:0:0:0:
213,140,49370,1,2,0:1:0:0:
171,113,49447,1,8,0:0:0:0:
154,74,49523,1,2,0:1:0:0:
156,38,49600,1,8,0:0:0:0:
175,14,49676,2,0,L|251:16,3,59.9999981689454,2|8|2|8,0:1|0:0|0:1|0:0,0:0:0:0:
292,73,49982,5,8,0:0:0:0:
286,108,50059,1,8,0:0:0:0:
280,143,50136,1,8,0:0:0:0:
274,178,50212,1,8,0:0:0:0:
259,179,50288,5,8,0:0:0:0:
260,200,50365,1,8,0:0:0:0:
263,224,50442,1,8,0:0:0:0:
266,247,50518,1,8,0:0:0:0:
279,236,50595,6,0,B|260:166|190:181|190:181|185:188|185:188|132:221|64:170,1,225.000008583069,4|0,0:0|0:0,0:0:0:0:
27,107,50901,1,2,0:1:0:0:
69,127,50977,1,8,0:0:0:0:
82,173,51054,1,2,0:1:0:0:
64,217,51130,1,8,0:0:0:0:
20,238,51207,5,2,0:1:0:0:
8,224,51283,1,8,0:0:0:0:
4,206,51360,1,2,0:1:0:0:
9,188,51437,1,8,0:0:0:0:
22,176,51513,5,2,0:1:0:0:
74,162,51590,1,8,0:0:0:0:
116,194,51666,1,2,0:1:0:0:
126,247,51743,1,8,0:0:0:0:
102,294,51819,1,2,0:1:0:0:
105,342,51896,1,8,0:0:0:0:
136,369,51972,1,2,0:1:0:0:
172,371,52049,1,8,0:0:0:0:
197,356,52125,1,2,0:1:0:0:
208,334,52202,1,8,0:0:0:0:
206,316,52278,1,2,0:1:0:0:
199,305,52355,1,8,0:0:0:0:
193,302,52431,2,0,L|178:364,3,59.9999981689454,2|8|2|8,0:1|0:0|0:1|0:0,0:0:0:0:
283,238,52738,5,2,0:1:0:0:
298,228,52814,1,8,0:0:0:0:
315,224,52891,1,2,0:1:0:0:
332,223,52967,1,8,0:0:0:0:
349,228,53044,5,6,0:1:0:0:
366,291,53120,1,8,0:0:0:0:
425,320,53197,1,2,0:1:0:0:
485,294,53273,1,8,0:0:0:0:
502,229,53350,1,2,0:1:0:0:
474,176,53426,1,8,0:0:0:0:
422,158,53503,1,2,0:1:0:0:
392,120,53579,1,8,0:0:0:0:
399,78,53656,1,2,0:1:0:0:
427,56,53732,1,8,0:0:0:0:
457,56,53809,1,2,0:1:0:0:
477,68,53886,1,8,0:0:0:0:
483,84,53962,2,0,L|461:152,3,59.9999981689454,2|8|2|8,0:1|0:0|0:1|0:0,0:0:0:0:
339,12,54268,5,2,0:1:0:0:
268,0,54345,1,8,0:0:0:0:
209,40,54421,1,2,0:1:0:0:
199,112,54498,1,8,0:0:0:0:
242,169,54574,1,2,0:1:0:0:
248,235,54651,1,8,0:0:0:0:
215,284,54727,1,2,0:1:0:0:
162,294,54804,1,8,0:0:0:0:
126,262,54880,5,8,0:0:0:0:
185,252,54957,1,8,0:0:0:0:
244,243,55033,1,8,0:0:0:0:
303,234,55110,1,8,0:0:0:0:
320,218,55187,5,8,0:0:0:0:
354,224,55263,1,8,0:0:0:0:
388,232,55340,2,0,L|454:248,1,50,8|8,0:0|0:0,0:0:0:0:
302,374,55493,5,12,0:2:0:0:
286,319,55569,1,0,0:0:0:0:
240,283,55646,1,0,0:0:0:0:
183,277,55722,1,0,0:0:0:0:
136,310,55799,5,10,0:0:0:0:
167,348,55875,1,0,0:0:0:0:
217,350,55952,2,0,P|246:334|261:291,1,50
159,176,56104,5,10,3:0:0:0:
126,215,56181,1,0,3:0:0:0:
82,229,56258,1,0,3:0:0:0:
38,220,56334,1,0,3:0:0:0:
7,186,56411,5,10,3:0:0:0:
22,131,56488,1,0,3:0:0:0:
66,97,56564,1,0,3:0:0:0:
121,85,56641,1,0,3:0:0:0:
175,93,56717,5,10,3:0:0:0:
150,143,56794,1,0,0:0:0:0:
174,192,56870,2,0,P|210:212|236:209,1,50
354,88,57023,5,10,3:0:0:0:
311,102,57100,1,0,3:0:0:0:
267,93,57176,1,0,3:0:0:0:
234,60,57253,1,0,3:0:0:0:
230,15,57329,5,10,3:0:0:0:
293,26,57405,1,0,0:0:0:0:
324,83,57482,2,0,P|321:112|305:145,1,50
229,228,57636,5,10,0:0:0:0:
198,291,57712,1,0,0:0:0:0:
235,351,57789,2,0,P|261:362|286:357,1,50
482,310,57942,5,10,3:0:0:0:
464,256,58018,1,0,3:0:0:0:
421,217,58095,1,0,3:0:0:0:
365,211,58171,1,0,3:0:0:0:
312,231,58248,5,10,3:0:0:0:
326,278,58324,1,0,3:0:0:0:
369,303,58401,2,0,P|416:294|440:276,1,50,0|0,3:0|3:0,3:0:0:0:
500,189,58554,5,10,0:0:0:0:
459,210,58630,1,0,0:0:0:0:
413,206,58707,1,0,0:0:0:0:
378,175,58783,1,0,0:0:0:0:
366,130,58859,5,10,0:0:0:0:
422,137,58936,1,0,0:0:0:0:
471,108,59013,1,0,0:0:0:0:
486,54,59089,1,0,0:0:0:0:
464,0,59166,5,10,0:0:0:0:
430,46,59242,1,0,0:0:0:0:
373,54,59319,2,0,P|338:41|311:17,1,50,0|0,0:0|3:0,0:0:0:0:
275,160,59472,5,10,3:0:0:0:
268,115,59549,1,0,3:0:0:0:
238,81,59625,1,0,3:0:0:0:
195,66,59702,1,0,3:0:0:0:
150,71,59778,5,10,3:0:0:0:
125,130,59854,1,0,3:0:0:0:
153,188,59931,2,0,P|182:205|221:206,1,50,0|0,3:0|3:0,3:0:0:0:
321,290,60085,5,10,0:0:0:0:
362,232,60162,1,0,0:0:0:0:
344,166,60238,2,0,P|316:142|287:142,1,50
212,376,60391,5,12,0:0:0:0:
238,81,60544,1,0,0:0:0:0:
91,313,60697,1,0,0:0:0:0:
415,150,60850,5,12,0:2:0:0:
80,192,61003,1,0,0:0:0:0:
321,290,61156,1,0,0:0:0:0:
309,23,61309,6,0,P|283:80|254:176,1,150.000005722046,12|2,0:0|3:0,0:0:0:0:
446,211,61921,5,0,3:0:0:0:
431,202,62074,2,0,L|335:226,1,75.0000028610231,0|2,0:0|3:0,0:0:0:0:
313,302,62380,2,0,L|208:280,1,75.0000028610231,0|0,0:0|3:0,0:0:0:0:
160,214,62687,2,0,B|188:293|125:268|164:365,1,150.000005722046,0|0,0:0|0:0,0:0:0:0:
76,374,63146,2,0,P|62:326|60:277,1,75.0000028610231,0|0,3:0|0:0,0:0:0:0:
0,181,63452,5,2,3:0:0:0:
13,198,63605,2,0,L|115:173,1,75.0000028610231,0|0,0:0|3:0,0:0:0:0:
170,101,63911,2,0,B|111:85|111:85|99:72|99:72|19:50,1,150.000005722046,0|0,0:0|0:0,0:0:0:0:
218,9,64370,5,0,3:0:0:0:
234,5,64523,2,0,L|266:95,1,75.0000028610231,0|2,0:0|3:0,0:0:0:0:
195,171,64829,2,0,L|163:81,1,75.0000028610231,0|0,0:0|3:0,0:0:0:0:
344,168,65136,6,0,P|302:174|262:136,1,75.0000028610231,0|2,0:0|3:0,0:0:0:0:
289,75,65442,2,0,P|331:69|371:107,1,75.0000028610231,0|0,0:0|3:0,0:0:0:0:
510,239,65748,6,0,L|436:251,1,75.0000028610231,0|2,0:0|3:0,0:0:0:0:
419,169,66054,2,0,L|493:157,1,75.0000028610231,0|4,0:0|3:0,0:0:0:0:
494,158,66513,6,0,B|471:149|468:137|468:137|484:146|499:144,1,62.5,4|0,0:2|0:0,0:0:0:0:
466,28,66666,2,0,P|431:94|377:219,1,187.5,4|0,0:2|0:0,0:0:0:0:
389,304,66972,2,0,B|439:282|407:264|461:242|461:242|399:188|300:206|287:286|287:286|275:364|163:380|101:329|91:237|177:213|213:244|213:244|196:200|222:169|222:169|287:177|338:133|365:44|300:-42|177:-34|141:40|136:113|136:113|176:63|240:90,1,1259.99996154785,4|2,0:1|3:0,0:0:0:0:
62,10,70493,5,2,3:0:0:0:
44,20,70646,2,0,L|66:107,1,75.0000028610231,0|2,0:0|3:0,0:0:0:0:
142,146,70952,2,0,L|123:218,1,75.0000028610231,0|2,0:0|3:0,0:0:0:0:
30,178,71258,1,0,0:0:0:0:
40,290,71411,6,0,P|116:300|196:317,1,150.000005722046,4|2,3:0|3:0,0:0:0:0:
272,378,71870,6,0,P|305:350|351:344,1,75.0000028610231,0|2,0:0|3:0,0:0:0:0:
332,239,72176,2,0,P|299:267|253:273,1,75.0000028610231,0|2,0:0|3:0,0:0:0:0:
435,335,72482,6,0,L|414:244,1,75.0000028610231,0|2,0:0|3:0,0:0:0:0:
512,185,72789,2,0,L|491:276,1,75.0000028610231,0|2,0:0|3:0,0:0:0:0:
349,145,73095,6,0,P|389:174|426:164,1,75.0000028610231,0|2,0:0|3:0,0:0:0:0:
493,59,73401,2,0,P|453:88|416:78,1,75.0000028610231,0|0,0:0|0:0,0:0:0:0:
340,11,73707,6,0,B|276:74|271:6|193:68,1,150.000005722046,0|0,0:0|0:0,0:0:0:0:
152,140,74166,2,0,P|203:141|231:158,1,75.0000028610231,2|0,3:0|0:0,0:0:0:0:
132,17,74472,5,2,3:0:0:0:
111,9,74625,2,0,P|90:48|81:95,1,75.0000028610231,0|2,0:0|3:0,0:0:0:0:
3,114,74931,2,0,P|36:174|64:257,1,150.000005722046,0|0,0:0|0:0,0:0:0:0:
147,295,75391,2,0,P|160:246|179:215,1,75.0000028610231,2|0,3:0|0:0,0:0:0:0:
13,321,75697,1,2,3:0:0:0:
14,338,75850,2,0,P|52:359|90:345,1,75.0000028610231,0|2,0:0|3:0,0:0:0:0:
80,352,76309,6,0,B|75:328|75:328|108:372,1,62.5,4|0,0:2|0:0,0:0:0:0:
167,384,76462,2,0,P|185:291|231:157,1,187.5,4|0,0:2|0:0,0:0:0:0:
138,108,76768,2,0,B|142:156|118:210|118:210|168:250|236:237|236:237|261:261|283:301|283:301|301:268|338:248|338:248|396:281|447:271|447:271|448:217|494:159,1,599.999981689454,4|0,0:1|0:0,0:0:0:0:
468,84,78452,6,0,B|443:81|443:81|425:114,1,42.5000008106232,2|0,0:0|0:0,0:0:0:0:
465,78,78605,2,0,B|440:75|440:75|422:108,1,42.5000008106232,0|0,0:0|0:0,0:0:0:0:
386,179,78758,5,4,0:0:0:0:
239,113,78911,1,8,0:0:0:0:
192,134,78988,1,8,0:0:0:0:
146,155,79064,1,8,0:0:0:0:
99,176,79141,1,8,0:0:0:0:
53,197,79217,5,4,0:2:0:0:
128,104,79370,1,8,0:0:0:0:
138,136,79447,1,8,0:0:0:0:
147,168,79523,1,8,0:0:0:0:
157,200,79600,1,8,0:0:0:0:
166,232,79676,5,4,0:2:0:0:
70,380,79829,1,8,0:0:0:0:
61,354,79906,1,8,0:0:0:0:
52,329,79982,1,8,0:0:0:0:
44,304,80059,1,8,0:0:0:0:
35,279,80136,5,4,0:2:0:0:
169,327,80289,1,8,0:0:0:0:
184,321,80365,1,8,0:0:0:0:
200,315,80442,1,8,0:0:0:0:
215,309,80518,1,8,0:0:0:0:
231,303,80595,5,2,0:0:0:0:
296,188,80748,1,2,0:0:0:0:
418,292,80901,1,2,0:0:0:0:
377,368,81054,1,2,0:0:0:0:
205,228,81207,6,0,B|251:218|251:218|356:297|356:297|420:283,1,225.000008583069,4|0,0:2|0:0,0:0:0:0:
473,328,81513,1,2,0:1:0:0:
437,294,81590,1,8,0:0:0:0:
431,246,81666,1,2,0:1:0:0:
452,202,81743,1,8,0:0:0:0:
493,178,81819,5,2,0:1:0:0:
491,196,81896,1,8,0:0:0:0:
484,212,81972,1,2,0:1:0:0:
470,224,82049,1,8,0:0:0:0:
452,228,82125,5,2,0:1:0:0:
425,167,82202,1,8,0:0:0:0:
364,141,82278,1,2,0:1:0:0:
298,154,82355,1,8,0:0:0:0:
255,204,82431,1,2,0:1:0:0:
247,270,82508,1,8,0:0:0:0:
202,319,82585,1,2,0:1:0:0:
136,325,82661,1,8,0:0:0:0:
81,287,82738,1,2,0:1:0:0:
69,228,82814,1,8,0:0:0:0:
92,179,82891,1,2,0:1:0:0:
134,157,82967,1,8,0:0:0:0:
176,159,83044,5,2,0:1:0:0:
164,217,83120,1,8,0:0:0:0:
118,247,83197,1,2,0:1:0:0:
70,248,83273,1,8,0:0:0:0:
35,224,83350,2,0,P|19:193|19:157,3,59.9999981689454,2|8|2|8,0:1|0:0|0:1|0:0,0:0:0:0:
100,29,83656,5,4,0:0:0:0:
94,94,83732,1,8,0:0:0:0:
139,142,83809,1,0,0:0:0:0:
205,147,83886,1,8,0:0:0:0:
260,181,83962,1,2,0:1:0:0:
287,235,84039,1,8,0:0:0:0:
274,286,84115,1,2,0:1:0:0:
235,312,84192,1,8,0:0:0:0:
193,307,84268,2,0,L|185:237,3,59.9999981689454,2|8|2|8,0:1|0:0|0:1|0:0,0:0:0:0:
327,351,84574,5,2,0:1:0:0:
291,295,84651,1,8,0:0:0:0:
304,231,84727,1,2,0:1:0:0:
355,189,84804,1,8,0:0:0:0:
421,194,84880,1,2,0:1:0:0:
464,238,84957,1,8,0:0:0:0:
472,291,85033,1,2,0:1:0:0:
454,335,85110,1,8,0:0:0:0:
418,357,85187,1,2,0:1:0:0:
382,355,85263,1,8,0:0:0:0:
357,336,85340,1,2,0:1:0:0:
347,314,85416,1,8,0:0:0:0:
349,296,85493,2,0,L|430:279,3,59.9999981689454,2|8|2|8,0:1|0:0|0:1|0:0,0:0:0:0:
456,172,85799,5,2,0:1:0:0:
473,172,85875,1,8,0:0:0:0:
489,178,85952,1,2,0:1:0:0:
503,187,86028,1,8,0:0:0:0:
512,202,86105,5,4,0:0:0:0:
469,255,86181,1,8,0:0:0:0:
401,240,86258,1,0,0:0:0:0:
370,177,86335,1,8,0:0:0:0:
388,110,86411,1,2,0:1:0:0:
375,50,86488,1,8,0:0:0:0:
330,20,86564,1,2,0:1:0:0:
281,22,86641,1,8,0:0:0:0:
249,49,86717,2,0,L|273:133,3,59.9999981689454,2|8|2|8,0:1|0:0|0:1|0:0,0:0:0:0:
85,40,87023,5,2,0:1:0:0:
144,69,87100,1,8,0:0:0:0:
163,131,87176,1,2,0:1:0:0:
134,190,87253,1,8,0:0:0:0:
71,208,87329,1,2,0:1:0:0:
15,242,87406,1,8,0:0:0:0:
4,307,87482,1,2,0:1:0:0:
42,360,87559,1,8,0:0:0:0:
108,367,87636,1,2,0:1:0:0:
151,327,87712,1,8,0:0:0:0:
162,272,87789,1,2,0:1:0:0:
141,228,87865,1,8,0:0:0:0:
100,213,87942,5,2,0:1:0:0:
115,270,88018,1,8,0:0:0:0:
157,302,88095,1,2,0:1:0:0:
205,301,88171,1,8,0:0:0:0:
237,276,88248,2,0,P|250:241|248:214,3,59.9999981689454,2|8|2|8,0:1|0:0|0:1|0:0,0:0:0:0:
379,362,88554,5,4,0:0:0:0:
342,308,88630,1,8,0:0:0:0:
340,242,88707,1,0,0:0:0:0:
374,187,88783,1,8,0:0:0:0:
433,159,88860,1,2,0:1:0:0:
491,173,88937,1,8,0:0:0:0:
512,222,89013,1,2,0:1:0:0:
501,270,89090,1,8,0:0:0:0:
464,291,89166,2,0,L|440:211,3,59.9999981689454,2|8|2|8,0:1|0:0|0:1|0:0,0:0:0:0:
397,143,89472,5,2,0:1:0:0:
353,101,89549,1,8,0:0:0:0:
293,97,89625,1,2,0:1:0:0:
247,136,89702,1,8,0:0:0:0:
240,195,89778,1,2,0:1:0:0:
198,238,89855,1,8,0:0:0:0:
138,241,89931,1,2,0:1:0:0:
94,198,90008,1,8,0:0:0:0:
89,137,90085,1,2,0:1:0:0:
123,95,90161,1,8,0:0:0:0:
170,84,90238,1,2,0:1:0:0:
209,97,90314,1,8,0:0:0:0:
224,129,90391,5,8,0:0:0:0:
177,137,90467,1,8,0:0:0:0:
129,145,90544,2,0,L|29:163,1,59.9999981689454,8|8,0:0|0:0,0:0:0:0:
77,0,90697,5,8,0:0:0:0:
124,8,90773,1,8,0:0:0:0:
172,16,90850,2,0,L|272:34,1,59.9999981689454,8|8,0:0|0:0,0:0:0:0:
307,146,91003,6,0,B|289:111|319:73|319:73|314:40|314:40|340:47|340:47|377:26|432:49,1,225.000008583069,4|0,0:0|0:0,0:0:0:0:
494,15,91309,1,2,0:1:0:0:
512,59,91386,1,8,0:0:0:0:
504,106,91462,1,2,0:1:0:0:
471,141,91539,1,8,0:0:0:0:
423,144,91615,5,2,0:1:0:0:
408,132,91692,1,8,0:0:0:0:
400,116,91768,1,2,0:1:0:0:
399,97,91845,1,8,0:0:0:0:
407,81,91921,5,2,0:1:0:0:
455,105,91998,1,8,0:0:0:0:
469,156,92074,1,2,0:1:0:0:
447,205,92151,1,8,0:0:0:0:
395,220,92227,1,2,0:1:0:0:
357,250,92304,1,8,0:0:0:0:
346,290,92380,1,2,0:1:0:0:
355,324,92457,1,8,0:0:0:0:
375,345,92533,1,2,0:1:0:0:
397,352,92610,1,8,0:0:0:0:
414,349,92687,1,2,0:1:0:0:
422,341,92763,1,8,0:0:0:0:
424,335,92840,2,0,L|348:321,3,59.9999981689454,2|8|2|8,0:1|0:0|0:1|0:0,0:0:0:0:
311,179,93146,5,2,0:1:0:0:
293,173,93222,1,8,0:0:0:0:
274,173,93299,1,2,0:1:0:0:
257,178,93375,1,8,0:0:0:0:
242,189,93452,5,4,0:0:0:0:
271,247,93528,1,8,0:0:0:0:
242,306,93605,1,0,0:0:0:0:
182,312,93681,1,8,0:0:0:0:
143,265,93758,1,2,0:1:0:0:
90,250,93835,1,8,0:0:0:0:
41,272,93911,2,0,P|22:306|24:334,1,59.9999981689454,2|8,0:1|0:0,0:0:0:0:
144,374,94064,5,2,0:1:0:0:
187,331,94141,1,8,0:0:0:0:
204,279,94217,1,2,0:1:0:0:
199,231,94294,1,8,0:0:0:0:
169,201,94370,2,0,P|142:187|98:184,3,59.9999981689454,2|8|2|8,0:1|0:0|0:1|0:0,0:0:0:0:
12,53,94676,5,2,0:1:0:0:
0,118,94753,1,8,0:0:0:0:
40,170,94829,1,2,0:1:0:0:
107,172,94906,1,8,0:0:0:0:
152,124,94982,1,2,0:1:0:0:
165,64,95059,1,8,0:0:0:0:
212,36,95136,1,2,0:1:0:0:
259,44,95212,1,8,0:0:0:0:
285,77,95289,5,8,0:0:0:0:
249,84,95365,1,8,0:0:0:0:
213,91,95442,1,8,0:0:0:0:
178,98,95518,1,8,0:0:0:0:
164,125,95595,5,8,0:0:0:0:
140,121,95671,1,8,0:0:0:0:
116,117,95748,2,0,L|38:104,1,50,8|8,0:0|0:0,0:0:0:0:
214,16,95901,5,12,3:2:0:0:
238,59,95977,1,0,3:0:0:0:
281,82,96054,1,0,3:0:0:0:
329,73,96130,1,0,3:0:0:0:
365,38,96207,5,10,3:0:0:0:
332,0,96283,1,0,3:0:0:0:
280,3,96360,2,0,P|253:16|229:47,1,50,0|0,3:0|3:0,3:0:0:0:
319,171,96513,5,10,3:0:0:0:
345,141,96590,1,0,3:0:0:0:
383,133,96666,1,0,3:0:0:0:
421,146,96743,1,0,3:0:0:0:
433,184,96819,5,10,3:0:0:0:
386,167,96895,1,0,3:0:0:0:
361,123,96972,1,0,3:0:0:0:
374,75,97048,1,0,3:0:0:0:
417,49,97125,5,10,3:0:0:0:
458,76,97201,1,0,0:0:0:0:
473,126,97278,2,0,P|464:153|449:179,1,50
429,300,97431,5,10,3:0:0:0:
416,261,97508,1,0,3:0:0:0:
385,236,97585,1,0,3:0:0:0:
347,227,97661,1,0,3:0:0:0:
313,248,97738,5,10,3:0:0:0:
351,301,97814,1,0,3:0:0:0:
416,304,97891,2,0,P|445:298|473:274,1,50,0|0,3:0|3:0,3:0:0:0:
369,150,98044,5,10,3:0:0:0:
303,126,98120,1,0,3:0:0:0:
243,163,98197,2,0,P|234:180|231:220,1,50,0|0,3:0|3:0,3:0:0:0:
177,346,98350,5,12,3:1:0:0:
180,296,98426,1,0,3:0:0:0:
153,253,98503,1,0,3:0:0:0:
107,232,98579,1,0,3:0:0:0:
57,241,98656,5,10,3:0:0:0:
65,289,98732,1,0,0:0:0:0:
106,317,98809,2,0,P|146:292|153:267,1,50
134,127,98962,5,10,0:0:0:0:
109,158,99039,1,0,0:0:0:0:
72,170,99115,1,0,0:0:0:0:
32,165,99192,1,0,0:0:0:0:
6,138,99268,5,10,0:0:0:0:
51,117,99345,1,0,0:0:0:0:
76,74,99421,1,0,0:0:0:0:
60,26,99498,1,0,0:0:0:0:
16,1,99574,5,10,0:0:0:0:
0,49,99651,1,0,0:0:0:0:
26,91,99728,2,0,P|58:119|96:110,1,50
151,196,99880,5,10,0:0:0:0:
163,158,99957,1,0,0:0:0:0:
193,133,100033,1,0,0:0:0:0:
233,125,100110,1,0,0:0:0:0:
277,142,100187,5,10,0:0:0:0:
264,187,100263,1,8,0:0:0:0:
252,233,100340,2,0,L|235:290,1,59.9999981689454,8|8,0:0|0:0,0:0:0:0:
72,216,100493,5,10,3:0:0:0:
67,168,100569,1,8,3:0:0:0:
63,119,100646,2,8,L|56:40,1,59.9999981689454,8|8,3:0|3:0,3:0:0:0:
194,10,100799,6,0,B|225:57|225:57|289:44|289:44|314:55|314:55|335:42|335:42|395:34,1,225.000008583069,4|0,0:2|0:0,0:0:0:0:
406,109,101105,1,2,0:1:0:0:
451,121,101181,1,8,0:0:0:0:
495,100,101258,1,2,0:1:0:0:
511,54,101335,1,8,0:0:0:0:
495,9,101411,5,2,0:1:0:0:
477,13,101488,1,8,0:0:0:0:
464,26,101564,1,2,0:1:0:0:
457,42,101641,1,8,0:0:0:0:
459,59,101717,5,2,0:1:0:0:
505,106,101794,1,8,0:0:0:0:
493,170,101870,1,2,0:1:0:0:
430,192,101947,1,8,0:0:0:0:
370,164,102023,1,2,0:1:0:0:
305,181,102100,1,8,0:0:0:0:
276,240,102176,1,2,0:1:0:0:
293,303,102253,1,8,0:0:0:0:
348,338,102329,1,2,0:1:0:0:
407,329,102406,1,8,0:0:0:0:
441,287,102482,1,2,0:1:0:0:
444,238,102559,1,8,0:0:0:0:
418,204,102636,5,2,0:1:0:0:
372,242,102712,1,8,0:0:0:0:
368,296,102789,1,2,0:1:0:0:
392,337,102865,1,8,0:0:0:0:
430,355,102942,2,0,P|468:358|504:336,3,59.9999981689454,2|8|2|8,0:1|0:0|0:1|0:0,0:0:0:0:
360,246,103248,5,4,0:0:0:0:
312,199,103325,1,8,0:0:0:0:
247,202,103401,1,0,0:0:0:0:
197,246,103478,1,8,0:0:0:0:
189,312,103554,1,2,0:1:0:0:
146,353,103630,1,8,0:0:0:0:
92,353,103707,1,2,0:1:0:0:
54,320,103783,1,8,0:0:0:0:
48,279,103860,2,0,L|117:267,3,59.9999981689454,2|8|2|8,0:1|0:0|0:1|0:0,0:0:0:0:
162,159,104166,5,2,0:1:0:0:
192,100,104242,1,8,0:0:0:0:
168,38,104319,1,2,0:1:0:0:
107,14,104395,1,8,0:0:0:0:
48,44,104472,1,2,0:1:0:0:
24,107,104548,1,8,0:0:0:0:
56,166,104625,1,2,0:1:0:0:
121,186,104702,1,8,0:0:0:0:
181,154,104778,1,2,0:1:0:0:
213,100,104855,1,8,0:0:0:0:
264,81,104931,1,2,0:1:0:0:
312,92,105008,1,8,0:0:0:0:
342,122,105085,2,0,L|324:185,3,59.9999981689454,2|8|2|8,0:1|0:0|0:1|0:0,0:0:0:0:
408,51,105391,5,4,0:1:0:0:
424,43,105467,1,8,0:0:0:0:
441,40,105544,1,0,0:0:0:0:
458,42,105620,1,8,0:0:0:0:
474,50,105697,5,4,0:0:0:0:
500,113,105773,1,8,0:0:0:0:
475,177,105850,1,0,0:0:0:0:
407,190,105926,1,8,0:0:0:0:
346,155,106003,1,2,0:1:0:0:
286,153,106079,1,8,0:0:0:0:
248,192,106156,1,2,0:1:0:0:
246,239,106232,1,8,0:0:0:0:
272,272,106309,2,0,L|344:251,3,59.9999981689454,2|8|2|8,0:1|0:0|0:1|0:0,0:0:0:0:
425,349,106615,5,2,0:1:0:0:
396,289,106692,1,8,0:0:0:0:
332,272,106768,1,2,0:1:0:0:
271,300,106845,1,8,0:0:0:0:
237,356,106921,1,2,0:1:0:0:
177,366,106998,1,8,0:0:0:0:
128,342,107074,1,2,0:1:0:0:
110,297,107151,1,8,0:0:0:0:
118,256,107227,1,2,0:1:0:0:
142,228,107304,1,8,0:0:0:0:
171,223,107380,1,2,0:1:0:0:
194,228,107457,1,8,0:0:0:0:
206,240,107533,5,2,0:1:0:0:
174,291,107610,1,8,0:0:0:0:
122,307,107687,1,2,0:1:0:0:
75,295,107763,1,8,0:0:0:0:
51,259,107840,2,0,P|45:230|51:198,3,59.9999981689454,2|8|2|8,0:1|0:0|0:1|0:0,0:0:0:0:
95,41,108146,5,4,0:0:0:0:
35,68,108222,1,8,0:0:0:0:
18,131,108299,1,0,0:0:0:0:
55,185,108375,1,8,0:0:0:0:
121,188,108452,1,2,0:1:0:0:
168,152,108528,1,8,0:0:0:0:
222,152,108605,1,2,0:1:0:0:
261,178,108681,1,8,0:0:0:0:
271,218,108758,2,0,L|191:236,3,59.9999981689454,2|8|2|8,0:1|0:0|0:1|0:0,0:0:0:0:
402,298,109064,5,2,0:1:0:0:
361,261,109141,1,8,0:0:0:0:
353,207,109217,1,2,0:1:0:0:
384,162,109294,1,8,0:0:0:0:
434,144,109370,1,2,0:1:0:0:
463,105,109447,1,8,0:0:0:0:
460,63,109523,1,2,0:1:0:0:
437,35,109600,1,8,0:0:0:0:
408,25,109676,2,0,L|396:94,3,59.9999981689454,2|8|2|8,0:1|0:0|0:1|0:0,0:0:0:0:
293,94,109982,5,8,0:0:0:0:
258,88,110058,1,8,0:0:0:0:
223,82,110135,1,8,0:0:0:0:
188,76,110211,1,8,0:0:0:0:
187,61,110288,5,8,0:0:0:0:
166,62,110364,1,8,0:0:0:0:
142,65,110441,1,8,0:0:0:0:
119,68,110517,1,8,0:0:0:0:
108,88,110595,6,0,B|142:87|164:63|164:63|111:49|58:9|58:9|27:28|37:66,1,225.000008583069,4|0,0:0|0:0,0:0:0:0:
0,120,110901,1,2,0:1:0:0:
23,160,110977,1,8,0:0:0:0:
66,179,111054,1,2,0:1:0:0:
113,170,111130,1,8,0:0:0:0:
144,134,111207,5,2,0:1:0:0:
129,123,111283,1,8,0:0:0:0:
110,124,111360,1,2,0:1:0:0:
94,132,111437,1,8,0:0:0:0:
84,146,111513,5,2,0:1:0:0:
130,174,111590,1,8,0:0:0:0:
140,226,111666,1,2,0:1:0:0:
109,270,111743,1,8,0:0:0:0:
57,286,111819,1,2,0:1:0:0:
30,326,111896,1,8,0:0:0:0:
42,365,111972,1,2,0:1:0:0:
74,380,112049,1,8,0:0:0:0:
102,371,112125,1,2,0:1:0:0:
118,353,112202,1,8,0:0:0:0:
117,335,112278,1,2,0:1:0:0:
112,323,112355,1,8,0:0:0:0:
107,319,112431,2,0,L|30:339,3,59.9999981689454,2|8|2|8,0:1|0:0|0:1|0:0,0:0:0:0:
234,235,112738,5,2,0:1:0:0:
223,248,112814,1,8,0:0:0:0:
207,256,112891,1,2,0:1:0:0:
190,257,112967,1,8,0:0:0:0:
173,252,113044,5,4,0:0:0:0:
215,201,113120,1,8,0:0:0:0:
281,205,113197,1,0,0:0:0:0:
321,256,113273,1,8,0:0:0:0:
324,322,113350,1,2,0:1:0:0:
357,371,113426,1,8,0:0:0:0:
410,378,113503,1,2,0:1:0:0:
454,359,113579,1,8,0:0:0:0:
469,319,113656,1,2,0:1:0:0:
462,283,113732,1,8,0:0:0:0:
439,262,113809,1,2,0:1:0:0:
414,259,113886,1,8,0:0:0:0:
397,266,113962,2,0,L|405:345,3,59.9999981689454,2|8|2|8,0:1|0:0|0:1|0:0,0:0:0:0:
479,138,114268,5,2,0:1:0:0:
437,79,114345,1,8,0:0:0:0:
367,65,114421,1,2,0:1:0:0:
309,109,114498,1,8,0:0:0:0:
299,180,114574,1,2,0:1:0:0:
256,231,114651,1,8,0:0:0:0:
198,242,114727,1,2,0:1:0:0:
154,212,114804,1,8,0:0:0:0:
151,164,114880,5,12,0:1:0:0:
464,223,115033,1,0,0:0:0:0:
129,332,115187,5,12,0:1:0:0:
387,145,115340,1,0,0:0:0:0:
108,59,115493,5,12,0:2:0:0:
65,82,115569,1,0,0:0:0:0:
42,127,115646,1,0,0:0:0:0:
49,175,115722,1,0,0:0:0:0:
84,210,115799,5,10,0:0:0:0:
125,182,115875,1,0,0:0:0:0:
128,131,115952,2,0,P|103:109|64:105,1,50
0,234,116105,5,10,0:0:0:0:
32,257,116181,1,0,0:0:0:0:
54,290,116258,1,0,0:0:0:0:
58,329,116335,1,0,0:0:0:0:
42,365,116411,5,10,0:0:0:0:
16,323,116488,1,0,0:0:0:0:
18,273,116565,1,0,0:0:0:0:
48,235,116641,1,0,0:0:0:0:
96,222,116718,5,10,0:0:0:0:
95,271,116794,1,0,0:0:0:0:
133,303,116871,2,0,P|166:310|208:296,1,50
296,143,117023,5,10,0:0:0:0:
277,174,117099,1,0,0:0:0:0:
242,196,117176,1,0,0:0:0:0:
203,199,117253,1,0,0:0:0:0:
167,184,117329,5,10,0:0:0:0:
229,164,117406,1,0,0:0:0:0:
282,200,117482,2,0,P|290:232|278:264,1,50
385,353,117636,5,10,0:0:0:0:
451,371,117712,1,0,0:0:0:0:
505,325,117789,2,0,P|511:290|498:268,1,50
509,142,117942,5,10,0:0:0:0:
469,113,118018,1,0,0:0:0:0:
418,114,118095,1,0,0:0:0:0:
381,148,118171,1,0,0:0:0:0:
380,199,118248,5,10,0:0:0:0:
429,198,118324,1,0,0:0:0:0:
461,160,118401,2,0,P|440:118|416:108,1,50
300,34,118554,5,10,3:0:0:0:
324,66,118631,1,0,3:0:0:0:
326,105,118707,1,0,3:0:0:0:
311,142,118784,1,0,3:0:0:0:
278,161,118860,5,10,3:0:0:0:
266,112,118937,1,0,3:0:0:0:
225,82,119014,1,0,3:0:0:0:
175,83,119090,1,0,3:0:0:0:
136,114,119166,5,10,3:0:0:0:
173,147,119243,1,0,0:0:0:0:
223,145,119320,2,0,P|255:112|257:86,1,50,0|0,3:0|3:0,3:0:0:0:
127,17,119472,5,10,3:0:0:0:
107,52,119549,1,0,3:0:0:0:
74,71,119625,1,0,3:0:0:0:
34,75,119702,1,0,3:0:0:0:
2,54,119778,5,10,3:0:0:0:
300,2,119931,1,10,0:0:0:0:
47,159,120085,1,12,0:1:0:0:
232,184,120238,1,0,0:0:0:0:
88,250,120391,6,0,P|74:190|13:84,1,179.999994506836,10|0,0:0|0:0,0:0:0:0:
186,241,120850,6,0,P|172:301|155:334,1,89.9999972534181,8|0,0:0|0:0,0:0:0:0:
100,372,121156,1,0,0:0:0:0:
152,144,121309,6,0,P|213:136|249:141,1,89.9999972534181,10|0,0:0|0:0,0:0:0:0:
305,180,121615,1,0,0:0:0:0:
171,308,121768,6,0,P|113:285|77:280,1,89.9999972534181,8|0,0:0|0:0,0:0:0:0:
13,303,122074,1,0,0:0:0:0:
227,231,122227,5,10,0:0:0:0:
258,246,122304,1,0,0:0:0:0:
279,269,122380,1,0,0:0:0:0:
292,292,122457,1,0,0:0:0:0:
296,313,122533,1,8,0:0:0:0:
297,331,122610,1,0,0:0:0:0:
294,344,122687,1,0,0:0:0:0:
290,352,122763,1,0,0:0:0:0:
283,358,122840,6,0,P|276:298|330:189,1,179.999994506836,10|0,0:0|0:0,0:0:0:0:
448,292,123299,6,0,P|435:244|403:202,1,89.9999972534181,8|0,0:0|0:0,0:0:0:0:
411,135,123605,1,0,0:0:0:0:
302,205,123758,6,0,P|258:181|206:173,1,89.9999972534181,10|0,0:0|0:0,0:0:0:0:
153,212,124064,1,0,0:0:0:0:
222,54,124217,6,0,P|265:77|317:85,1,89.9999972534181,8|0,0:0|0:0,0:0:0:0:
371,47,124523,1,0,0:0:0:0:
161,110,124676,5,10,0:0:0:0:
146,79,124753,1,0,0:0:0:0:
123,58,124829,1,0,0:0:0:0:
100,45,124906,1,0,0:0:0:0:
79,41,124982,1,8,0:0:0:0:
61,40,125059,1,0,0:0:0:0:
48,43,125136,1,0,0:0:0:0:
40,47,125212,1,0,0:0:0:0:
34,54,125289,6,0,P|68:97|31:221,1,179.999994506836,10|0,0:0|0:0,0:0:0:0:
204,175,125748,6,0,P|170:218|161:277,1,89.9999972534181,8|0,0:0|0:0,0:0:0:0:
200,317,126054,1,0,0:0:0:0:
15,318,126207,6,0,P|69:318|121:290,1,89.9999972534181,10|0,0:0|0:0,0:0:0:0:
144,243,126513,1,0,0:0:0:0:
280,363,126666,6,0,P|228:341|170:347,1,89.9999972534181,8|0,0:0|0:0,0:0:0:0:
131,383,126972,1,0,0:0:0:0:
261,255,127125,5,10,0:0:0:0:
266,249,127202,1,0,0:0:0:0:
275,247,127278,1,0,0:0:0:0:
288,246,127355,1,0,0:0:0:0:
307,250,127432,1,8,0:0:0:0:
326,259,127508,1,0,0:0:0:0:
347,275,127585,1,0,0:0:0:0:
366,301,127661,1,0,0:0:0:0:
375,335,127738,6,0,P|339:287|384:164,1,200,10|0,0:0|0:0,0:0:0:0:
246,56,128197,6,0,P|231:113|253:158,1,89.9999972534181,8|0,0:0|0:0,0:0:0:0:
312,167,128503,1,0,0:0:0:0:
473,71,128656,6,0,P|420:99|372:90,1,89.9999972534181,10|0,0:0|0:0,0:0:0:0:
348,36,128962,1,0,0:0:0:0:
237,151,129115,6,0,P|184:122|136:131,1,89.9999972534181,8|0,0:0|0:0,0:0:0:0:
112,186,129421,1,0,0:0:0:0:
0,22,129574,5,10,0:0:0:0:
15,19,129651,1,0,0:0:0:0:
32,21,129727,1,0,0:0:0:0:
48,27,129804,1,0,0:0:0:0:
62,38,129880,1,8,0:0:0:0:
71,47,129957,1,0,0:0:0:0:
77,58,130033,1,0,0:0:0:0:
79,66,130110,1,0,0:0:0:0:
80,74,130187,6,0,P|34:145|5:283,1,220.000006713867,10|0,0:0|0:0,0:0:0:0:
155,302,130646,6,0,P|112:303|58:322,1,89.9999972534181,8|0,0:0|0:0,0:0:0:0:
23,379,130952,1,0,0:0:0:0:
142,207,131105,6,0,B|273:223|193:300|344:319,1,220.000006713867,10|0,0:0|0:0,0:0:0:0:
353,231,131564,2,0,P|258:268|162:332,1,200,8|0,0:0|0:0,0:0:0:0:
430,365,132023,5,10,0:0:0:0:
405,341,132100,1,0,0:0:0:0:
391,314,132176,1,0,0:0:0:0:
384,287,132253,1,0,0:0:0:0:
386,267,132329,1,8,0:0:0:0:
389,248,132406,1,0,0:0:0:0:
395,237,132483,1,0,0:0:0:0:
402,230,132559,1,0,0:0:0:0:
406,228,132636,6,0,P|469:267|538:358,1,179.999994506836,10|0,0:0|0:0,0:0:0:0:
352,370,133095,6,0,P|299:346|253:317,1,89.9999972534181,8|0,0:0|0:0,0:0:0:0:
254,255,133401,1,0,0:0:0:0:
341,80,133554,6,0,P|361:134|373:187,1,89.9999972534181,10|0,0:0|0:0,0:0:0:0:
328,230,133860,1,0,0:0:0:0:
186,125,134013,6,0,P|200:68|221:18,1,89.9999972534181,8|0,0:0|0:0,0:0:0:0:
282,9,134319,1,0,0:0:0:0:
232,188,134472,5,10,0:0:0:0:
217,198,134549,1,0,0:0:0:0:
200,203,134625,1,0,0:0:0:0:
181,204,134702,1,0,0:0:0:0:
164,198,134778,5,8,0:0:0:0:
155,162,134855,1,0,0:0:0:0:
129,136,134931,1,0,0:0:0:0:
93,129,135008,1,0,0:0:0:0:
57,138,135085,6,0,P|105:170|138:63,1,179.999994506836,10|0,0:0|0:0,0:0:0:0:
62,2,135544,2,0,B|101:-8|124:23|124:23|49:28|6:91,1,200,8|0,0:0|0:0,0:0:0:0:
129,156,136003,2,0,P|155:262|193:353,1,179.999994506836,10|0,0:0|0:0,0:0:0:0:
79,377,136462,6,0,P|69:341|41:284,1,89.9999972534181,8|0,0:0|0:0,0:0:0:0:
3,231,136768,1,0,0:0:0:0:
172,250,136921,5,2,0:0:0:0:
190,253,136998,1,0,0:0:0:0:
210,251,137074,1,0,0:0:0:0:
230,244,137151,1,0,0:0:0:0:
246,230,137227,1,8,0:0:0:0:
257,220,137304,1,0,0:0:0:0:
264,206,137380,1,8,0:0:0:0:
267,197,137457,1,0,0:0:0:0:
266,192,137533,6,0,P|217:258|201:379,1,200,8|0,0:0|0:0,0:0:0:0:
417,280,137993,2,0,B|385:312|397:353|397:353|357:278|277:302,1,220.000006713867,8|0,0:0|0:0,0:0:0:0:
243,129,138452,2,0,B|286:191|350:210|350:210|320:181|335:134,1,200,10|0,0:0|0:0,0:0:0:0:
178,177,138911,5,12,0:1:0:0:
387,55,139064,2,0,L|423:178,1,94.9999974632264,12|0,0:1|0:0,0:0:0:0:
183,35,139370,2,0,B|225:5|225:5|296:29,1,94.9999974632264,12|0,0:1|0:0,0:0:0:0:
164,212,139676,2,0,B|119:198|119:198|116:189|116:189|70:175,1,94.9999974632264,10|0,0:0|0:0,0:0:0:0:
0,0,139982,5,4,0:0:0:0:
18,8,140059,1,0,0:0:0:0:
33,20,140136,1,0,0:0:0:0:
44,36,140212,1,0,0:0:0:0:
51,54,140289,1,0,0:0:0:0:
54,73,140365,1,0,0:0:0:0:
54,93,140442,5,8,0:0:0:0:
31,111,140519,1,0,0:0:0:0:
13,134,140596,1,0,0:0:0:0:
3,161,140672,1,0,0:0:0:0:
0,191,140749,1,0,0:0:0:0:
3,219,140825,1,0,0:0:0:0:
11,248,140901,5,8,0:0:0:0:
27,226,140978,1,0,0:0:0:0:
47,211,141055,1,0,0:0:0:0:
69,199,141131,1,0,0:0:0:0:
95,191,141208,1,0,0:0:0:0:
120,189,141284,1,0,0:0:0:0:
147,189,141361,5,8,0:0:0:0:
152,208,141437,1,0,0:0:0:0:
153,227,141513,1,0,0:0:0:0:
152,247,141590,1,0,0:0:0:0:
150,266,141666,1,0,0:0:0:0:
145,286,141743,1,0,0:0:0:0:
141,304,141819,6,0,P|109:288|72:278,3,50,8|0|0|0,0:0|0:0|0:0|0:0,0:0:0:0:
223,368,142125,2,0,P|255:352|291:343,3,50,8|0|0|0,0:0|0:0|0:0|0:0,0:0:0:0:
277,225,142431,5,8,0:0:0:0:
293,247,142508,1,0,0:0:0:0:
313,262,142585,1,0,0:0:0:0:
335,274,142661,1,0,0:0:0:0:
361,282,142738,1,0,0:0:0:0:
386,284,142814,1,0,0:0:0:0:
413,284,142891,5,8,0:0:0:0:
403,267,142967,1,0,0:0:0:0:
397,248,143043,1,0,0:0:0:0:
393,229,143120,1,0,0:0:0:0:
390,210,143196,1,0,0:0:0:0:
389,190,143273,1,0,0:0:0:0:
394,170,143350,5,8,0:0:0:0:
371,188,143427,1,0,0:0:0:0:
353,211,143504,1,0,0:0:0:0:
343,238,143580,1,0,0:0:0:0:
340,268,143656,1,0,0:0:0:0:
343,296,143733,1,0,0:0:0:0:
351,325,143809,2,0,P|361:348|379:374,1,50,8|0,0:0|0:0,0:0:0:0:
443,290,143962,2,0,P|453:267|471:241,3,50,8|0|0|0,0:0|0:0|0:0|0:0,0:0:0:0:
325,201,144268,6,0,P|364:219|382:244,1,50,8|0,0:0|0:0,0:0:0:0:
465,137,144421,2,0,P|422:144|398:163,1,50,8|0,0:0|0:0,0:0:0:0:
329,68,144574,2,0,P|340:103|331:134,3,50,8|0|0|0,0:0|0:0|0:0|0:0,0:0:0:0:
506,47,144880,5,8,0:0:0:0:
487,27,144957,1,0,0:0:0:0:
465,14,145034,1,0,0:0:0:0:
442,5,145110,1,0,0:0:0:0:
415,0,145187,1,0,0:0:0:0:
390,1,145263,1,0,0:0:0:0:
363,5,145340,5,8,0:0:0:0:
357,24,145416,1,0,0:0:0:0:
347,41,145493,1,0,0:0:0:0:
334,56,145569,1,0,0:0:0:0:
319,69,145646,1,0,0:0:0:0:
302,79,145722,1,0,0:0:0:0:
283,87,145799,5,8,0:0:0:0:
265,64,145876,1,0,0:0:0:0:
242,46,145953,1,0,0:0:0:0:
215,36,146029,1,0,0:0:0:0:
185,33,146106,1,0,0:0:0:0:
157,36,146182,1,0,0:0:0:0:
128,44,146258,2,0,P|105:54|79:72,1,50,8|0,0:0|0:0,0:0:0:0:
162,144,146411,2,0,P|182:128|211:116,3,50,8|0|0|0,0:0|0:0|0:0|0:0,0:0:0:0:
26,264,146717,6,0,P|8:225|-17:207,1,50,8|0,0:0|0:0,0:0:0:0:
87,140,146870,2,0,P|80:183|61:207,1,50,8|0,0:0|0:0,0:0:0:0:
185,251,147023,2,0,P|150:240|119:249,3,50,8|0|0|0,0:0|0:0|0:0|0:0,0:0:0:0:
303,226,147329,5,8,0:0:0:0:
281,242,147406,1,0,0:0:0:0:
266,262,147483,1,0,0:0:0:0:
254,284,147559,1,0,0:0:0:0:
246,310,147636,1,0,0:0:0:0:
244,335,147712,1,0,0:0:0:0:
244,362,147789,5,8,0:0:0:0:
226,352,147865,1,0,0:0:0:0:
207,343,147942,1,0,0:0:0:0:
188,337,148018,1,0,0:0:0:0:
168,333,148095,1,0,0:0:0:0:
148,332,148171,1,0,0:0:0:0:
128,334,148248,5,8,0:0:0:0:
150,314,148324,1,0,0:0:0:0:
177,302,148401,1,0,0:0:0:0:
206,296,148477,1,0,0:0:0:0:
236,294,148554,1,0,0:0:0:0:
265,295,148630,1,0,0:0:0:0:
293,305,148707,2,0,P|310:320|329:347,1,50,8|0,0:0|0:0,0:0:0:0:
240,384,148860,2,0,P|226:360|222:332,3,50,8|0|0|0,0:0|0:0|0:0|0:0,0:0:0:0:
296,223,149166,5,10,0:0:0:0:
312,210,149243,1,0,0:0:0:0:
330,202,149319,1,0,0:0:0:0:
349,197,149396,1,0,0:0:0:0:
368,197,149472,2,0,P|367:231|373:271,3,50,8|0|0|0,0:0|0:0|0:0|0:0,0:0:0:0:
512,245,149778,5,8,0:0:0:0:
490,258,149855,1,0,0:0:0:0:
471,274,149931,1,0,0:0:0:0:
457,294,150008,1,0,0:0:0:0:
447,317,150085,1,0,0:0:0:0:
441,341,150161,1,0,0:0:0:0:
442,366,150238,5,8,0:0:0:0:
470,345,150314,1,0,0:0:0:0:
489,315,150391,1,0,0:0:0:0:
493,280,150467,1,0,0:0:0:0:
488,245,150544,1,0,0:0:0:0:
474,213,150620,1,0,0:0:0:0:
450,186,150697,5,8,0:0:0:0:
423,198,150773,1,0,0:0:0:0:
393,206,150850,1,0,0:0:0:0:
363,207,150926,1,0,0:0:0:0:
333,202,151003,1,0,0:0:0:0:
305,189,151079,1,0,0:0:0:0:
281,169,151156,2,0,P|263:144|262:113,1,50,8|0,0:0|0:0,0:0:0:0:
372,68,151309,2,0,P|354:93|353:124,3,50,8|0|0|0,0:0|0:0|0:0|0:0,0:0:0:0:
275,16,151615,6,0,P|246:40|221:39,1,50,8|0,0:0|0:0,0:0:0:0:
175,120,151768,2,0,P|146:96|121:97,1,50,8|0,0:0|0:0,0:0:0:0:
76,28,151921,2,0,P|47:52|22:51,3,50,8|0|0|0,0:0|0:0|0:0|0:0,0:0:0:0:
148,109,152227,5,8,0:0:0:0:
126,130,152304,1,0,0:0:0:0:
107,153,152380,1,0,0:0:0:0:
91,178,152457,1,0,0:0:0:0:
79,205,152533,1,0,0:0:0:0:
69,233,152610,1,0,0:0:0:0:
62,262,152687,5,8,0:0:0:0:
86,258,152763,1,0,0:0:0:0:
110,263,152840,1,0,0:0:0:0:
132,274,152916,1,0,0:0:0:0:
149,292,152993,1,0,0:0:0:0:
158,314,153069,1,0,0:0:0:0:
160,339,153146,5,8,0:0:0:0:
134,314,153222,1,0,0:0:0:0:
125,279,153299,1,0,0:0:0:0:
128,244,153375,1,0,0:0:0:0:
144,213,153452,1,0,0:0:0:0:
168,188,153528,1,0,0:0:0:0:
201,177,153605,2,0,P|228:175|278:194,1,50,8|0,0:0|0:0,0:0:0:0:
268,266,153758,2,0,P|241:271|198:302,3,50,8|0|0|0,0:0|0:0|0:0|0:0,0:0:0:0:
359,150,154064,5,10,0:0:0:0:
375,168,154141,1,0,0:0:0:0:
385,190,154217,1,0,0:0:0:0:
392,214,154294,1,0,0:0:0:0:
395,238,154370,2,0,P|374:274|370:296,3,50,8|0|0|0,0:0|0:0|0:0|0:0,0:0:0:0:
470,383,154676,5,8,0:0:0:0:
460,354,154753,1,0,0:0:0:0:
457,324,154829,1,0,0:0:0:0:
461,294,154906,1,0,0:0:0:0:
473,266,154982,2,0,P|490:249|520:234,1,50,8|0,0:0|0:0,0:0:0:0:
462,94,155136,5,8,0:0:0:0:
438,126,155212,1,0,0:0:0:0:
409,154,155289,1,0,0:0:0:0:
376,176,155365,1,0,0:0:0:0:
340,193,155442,1,0,0:0:0:0:
301,203,155518,1,0,0:0:0:0:
262,207,155595,5,8,0:0:0:0:
283,186,155671,1,0,0:0:0:0:
293,157,155748,1,0,0:0:0:0:
292,127,155824,1,0,0:0:0:0:
281,98,155901,2,0,P|268:81|225:62,1,50,8|0,0:0|0:0,0:0:0:0:
117,0,156054,5,8,0:0:0:0:
122,39,156130,1,0,0:0:0:0:
121,79,156207,1,0,0:0:0:0:
114,118,156283,1,0,0:0:0:0:
100,156,156360,1,0,0:0:0:0:
80,190,156436,1,0,0:0:0:0:
55,221,156513,6,0,P|53:190|36:143,3,50,8|0|0|0,0:0|0:0|0:0|0:0,0:0:0:0:
167,221,156819,2,0,P|156:244|150:268,3,50,8|0|0|0,0:0|0:0|0:0|0:0,0:0:0:0:
28,340,157125,6,0,B|18:311|-8:301|-8:301|123:353,1,179.999994506836,12|0,0:0|0:0,0:0:0:0:
166,291,157431,5,8,0:0:0:0:
175,288,157508,1,8,0:0:0:0:
184,285,157585,1,8,0:0:0:0:
193,282,157661,1,8,0:0:0:0:
248,325,157738,5,8,0:0:0:0:
257,328,157815,1,8,0:0:0:0:
266,331,157892,1,8,0:0:0:0:
275,334,157968,1,8,0:0:0:0:
334,298,158044,5,8,0:0:0:0:
343,295,158121,1,8,0:0:0:0:
352,292,158198,1,8,0:0:0:0:
361,289,158274,1,8,0:0:0:0:
425,314,158350,5,8,0:0:0:0:
419,295,158426,1,8,0:0:0:0:
413,277,158503,1,8,0:0:0:0:
406,259,158579,1,8,0:0:0:0:
425,244,158656,5,8,0:0:0:0:
427,229,158732,1,8,0:0:0:0:
429,214,158809,1,8,0:0:0:0:
431,199,158886,1,8,0:0:0:0:
406,166,158962,6,1,P|379:166|357:177,1,50,4|0,0:1|0:0,0:0:0:0:
459,75,159115,1,0,0:0:0:0:
460,79,159192,1,0,0:0:0:0:
460,83,159268,6,1,P|490:83|508:94,1,50,4|0,0:1|0:0,0:0:0:0:
354,4,159421,1,0,0:0:0:0:
353,8,159498,1,0,0:0:0:0:
352,13,159574,5,12,0:2:0:0:
311,31,159651,1,0,0:0:0:0:
351,51,159727,1,0,0:0:0:0:
306,51,159804,1,0,0:0:0:0:
329,88,159880,1,0,0:0:0:0:
287,71,159957,1,0,0:0:0:0:
300,112,160033,1,10,0:1:0:0:
267,81,160110,1,0,0:0:0:0:
270,125,160187,1,0,0:0:0:0:
249,86,160263,1,0,0:0:0:0:
236,128,160340,1,0,0:0:0:0:
223,85,160416,1,0,0:0:0:0:
200,122,160493,1,10,0:1:0:0:
203,78,160569,1,0,0:0:0:0:
171,108,160646,1,0,0:0:0:0:
183,65,160722,1,0,0:0:0:0:
143,88,160799,1,0,0:0:0:0:
168,49,160875,1,0,0:0:0:0:
135,53,160952,6,1,B|137:18|113:8|113:8|108:11|108:11|111:39|135:49,1,100,10|0,0:1|0:0,0:0:0:0:
61,174,161105,6,1,B|66:207|66:207|34:234|34:234|36:191|36:191|62:173,1,150.000005722046,0|0,0:0|0:0,0:0:0:0:
163,154,161258,6,0,P|181:161|161:166,1,50,0|0,0:0|0:0,0:0:0:0:
33,30,161411,5,12,0:0:0:0:
0,63,161488,1,0,0:0:0:0:
2,113,161564,2,0,P|18:137|54:147,1,50,0|0,0:0|0:0,0:0:0:0:
163,178,161717,5,12,0:2:0:0:
205,217,161794,1,0,0:0:0:0:
196,273,161870,2,0,P|179:297|143:307,1,50,0|0,0:0|0:0,0:0:0:0:
0,357,162023,5,8,0:1:0:0:
11,311,162100,1,0,0:0:0:0:
49,285,162176,1,0,0:0:0:0:
94,280,162253,1,0,0:0:0:0:
133,302,162329,1,0,0:0:0:0:
156,341,162406,1,0,0:0:0:0:
198,359,162482,1,10,0:1:0:0:
244,352,162559,1,0,0:0:0:0:
277,320,162636,1,0,0:0:0:0:
276,285,162712,1,0,0:0:0:0:
261,267,162789,1,0,0:0:0:0:
249,264,162865,1,0,0:0:0:0:
241,267,162942,5,10,0:1:0:0:
258,303,163018,1,0,0:0:0:0:
295,315,163095,1,0,0:0:0:0:
333,304,163171,1,0,0:0:0:0:
351,268,163248,1,0,0:0:0:0:
346,228,163324,1,0,0:0:0:0:
315,201,163401,1,10,0:1:0:0:
274,197,163477,1,0,0:0:0:0:
241,173,163554,1,0,0:0:0:0:
235,133,163630,1,0,0:0:0:0:
252,96,163707,1,0,0:0:0:0:
286,75,163783,1,0,0:0:0:0:
325,83,163860,5,12,0:0:0:0:
306,125,163937,1,0,0:0:0:0:
259,143,164013,2,0,P|230:137|207:108,1,50,0|0,0:0|0:0,0:0:0:0:
120,18,164166,5,12,0:2:0:0:
64,0,164243,1,0,0:0:0:0:
20,36,164319,2,0,P|7:62|17:98,1,50,0|0,0:0|0:0,0:0:0:0:
58,202,164472,5,12,0:1:0:0:
75,171,164549,1,0,0:0:0:0:
96,143,164625,1,0,0:0:0:0:
119,116,164702,1,0,0:0:0:0:
143,90,164778,1,0,0:0:0:0:
171,69,164855,1,0,0:0:0:0:
200,50,164931,1,10,0:1:0:0:
228,39,165008,1,0,0:0:0:0:
252,33,165085,1,0,0:0:0:0:
271,30,165161,1,0,0:0:0:0:
286,30,165238,1,0,0:0:0:0:
295,31,165314,1,0,0:0:0:0:
299,32,165391,5,10,0:1:0:0:
276,58,165467,1,0,0:0:0:0:
268,91,165544,1,0,0:0:0:0:
276,125,165620,1,0,0:0:0:0:
299,151,165697,1,0,0:0:0:0:
331,164,165773,1,0,0:0:0:0:
365,160,165850,1,10,0:1:0:0:
390,143,165926,1,0,0:0:0:0:
402,121,166003,1,0,0:0:0:0:
404,101,166079,1,0,0:0:0:0:
399,86,166156,1,0,0:0:0:0:
391,79,166232,1,0,0:0:0:0:
386,76,166309,5,8,0:0:0:0:
380,105,166386,1,8,0:0:0:0:
374,134,166462,1,8,0:0:0:0:
369,163,166539,1,8,0:0:0:0:
383,170,166615,5,8,0:0:0:0:
384,189,166692,1,8,0:0:0:0:
387,208,166768,1,8,0:0:0:0:
391,227,166845,1,8,0:0:0:0:
378,242,166921,5,4,0:2:0:0:
342,224,166998,1,8,0:0:0:0:
303,228,167075,1,0,0:0:0:0:
275,256,167151,1,8,0:0:0:0:
268,295,167227,2,0,P|278:330|304:351,3,50,4|8|0|8,0:2|0:0|0:0|0:0,0:0:0:0:
141,347,167534,5,4,0:2:0:0:
164,308,167610,1,8,0:0:0:0:
162,262,167687,1,0,0:0:0:0:
129,231,167763,1,8,0:0:0:0:
84,222,167840,2,0,P|49:230|31:245,3,50,4|8|0|8,0:2|0:0|0:0|0:0,0:0:0:0:
84,95,168146,5,12,0:1:0:0:
93,106,168222,1,0,0:0:0:0:
99,119,168299,1,0,0:0:0:0:
103,133,168375,1,0,0:0:0:0:
105,147,168452,2,0,P|104:176|95:203,1,50,0|0,0:0|0:0,0:0:0:0:
41,321,168605,5,10,0:1:0:0:
56,343,168681,2,0,L|123:322,1,50,0|0,0:0|0:0,0:0:0:0:
179,218,168835,5,2,0:1:0:0:
194,196,168911,2,0,L|261:217,1,50
311,338,169064,5,10,0:1:0:0:
358,353,169141,1,0,0:0:0:0:
407,347,169217,1,2,0:1:0:0:
440,309,169294,1,0,0:0:0:0:
451,260,169370,2,0,P|414:264|391:286,1,50,2|0,0:1|0:0,0:0:0:0:
311,161,169523,2,0,P|348:165|371:187,1,50,10|0,0:1|0:0,0:0:0:0:
464,30,169676,5,2,0:1:0:0:
431,68,169753,1,0,0:0:0:0:
426,118,169829,1,2,0:1:0:0:
450,164,169906,1,0,0:0:0:0:
490,192,169982,5,12,0:0:0:0:
483,142,170059,1,0,0:0:0:0:
448,105,170136,2,0,P|418:95|386:102,1,50,0|0,0:0|0:0,0:0:0:0:
331,14,170289,5,12,0:2:0:0:
321,42,170365,1,0,0:0:0:0:
291,69,170442,1,0,0:0:0:0:
241,74,170518,1,0,0:0:0:0:
195,34,170595,5,12,0:1:0:0:
247,47,170671,1,0,0:0:0:0:
265,98,170748,1,2,0:1:0:0:
254,151,170824,1,0,0:0:0:0:
210,184,170901,1,2,0:1:0:0:
156,172,170977,1,0,0:0:0:0:
121,128,171054,1,10,0:1:0:0:
67,116,171130,1,0,0:0:0:0:
17,140,171207,1,2,0:1:0:0:
2,192,171283,1,0,0:0:0:0:
25,242,171360,1,2,0:1:0:0:
75,265,171437,1,0,0:0:0:0:
127,250,171513,1,10,0:1:0:0:
156,203,171590,1,0,0:0:0:0:
205,179,171666,1,2,0:1:0:0:
260,183,171743,1,0,0:0:0:0:
299,220,171819,1,2,0:1:0:0:
310,274,171896,1,0,0:0:0:0:
289,324,171972,1,10,0:1:0:0:
242,354,172049,1,0,0:0:0:0:
187,348,172125,1,2,0:1:0:0:
148,308,172202,1,0,0:0:0:0:
144,253,172278,1,2,0:1:0:0:
173,206,172355,1,0,0:0:0:0:
224,186,172431,5,12,0:0:0:0:
237,234,172508,1,0,0:0:0:0:
210,276,172585,2,0,P|187:292|158:292,1,50,0|0,0:0|0:0,0:0:0:0:
50,190,172738,5,12,0:2:0:0:
77,140,172814,1,0,0:0:0:0:
129,116,172891,2,0,P|158:123|183:146,1,50,0|0,0:0|0:0,0:0:0:0:
108,369,173044,5,8,0:0:0:0:
101,319,173120,1,8,0:0:0:0:
93,269,173197,1,8,0:0:0:0:
82,220,173273,1,8,0:0:0:0:
103,217,173350,5,8,0:0:0:0:
106,186,173426,1,8,0:0:0:0:
110,156,173503,1,8,0:0:0:0:
115,126,173579,1,8,0:0:0:0:
93,115,173656,5,12,0:1:0:0:
57,162,173732,1,0,0:0:0:0:
72,220,173809,1,0,0:0:0:0:
124,249,173886,1,0,0:0:0:0:
181,234,173962,1,2,0:1:0:0:
218,185,174039,1,0,0:0:0:0:
272,162,174115,1,10,0:1:0:0:
329,178,174192,1,0,0:0:0:0:
364,226,174268,2,0,P|374:253|368:279,1,50,2|0,0:1|0:0,0:0:0:0:
229,384,174422,5,2,0:1:0:0:
195,334,174498,1,0,0:0:0:0:
208,275,174575,1,10,0:1:0:0:
252,235,174651,1,0,0:0:0:0:
312,228,174728,1,2,0:1:0:0:
355,187,174804,1,0,0:0:0:0:
366,127,174881,1,2,0:1:0:0:
335,75,174957,1,0,0:0:0:0:
278,54,175034,1,10,0:1:0:0:
219,70,175111,1,0,0:0:0:0:
185,119,175187,1,2,0:1:0:0:
126,135,175264,1,0,0:0:0:0:
70,113,175340,1,2,0:1:0:0:
48,56,175417,1,0,0:0:0:0:
68,0,175493,5,8,0:0:0:0:
74,29,175569,1,8,0:0:0:0:
80,58,175646,1,8,0:0:0:0:
86,87,175722,1,8,0:0:0:0:
102,95,175799,5,8,0:0:0:0:
101,114,175875,1,8,0:0:0:0:
100,134,175952,1,8,0:0:0:0:
99,153,176028,1,8,0:0:0:0:
70,180,176105,5,2,0:0:0:0:
87,215,176181,1,8,0:0:0:0:
122,234,176258,1,0,0:0:0:0:
162,229,176335,1,8,0:0:0:0:
190,201,176411,2,0,P|196:172|187:142,3,50,2|8|0|8,0:0|0:0|0:0|0:0,0:0:0:0:
240,56,176717,5,2,0:0:0:0:
268,20,176794,1,8,0:0:0:0:
311,10,176870,1,0,0:0:0:0:
355,18,176947,1,8,0:0:0:0:
383,52,177023,2,0,P|393:78|387:106,3,50,2|8|0|8,0:0|0:0|0:0|0:0,0:0:0:0:
490,144,177329,5,2,0:0:0:0:
450,175,177406,1,8,0:0:0:0:
433,221,177482,1,0,0:0:0:0:
431,271,177559,1,8,0:0:0:0:
451,316,177636,2,0,P|467:334|500:354,3,50,2|8|0|8,0:0|0:0|0:0|0:0,0:0:0:0:
350,369,177942,5,2,0:0:0:0:
345,324,178018,1,8,0:0:0:0:
329,281,178095,1,0,0:0:0:0:
300,246,178171,1,8,0:0:0:0:
262,221,178248,2,0,P|234:213|198:222,3,50,2|8|0|8,0:0|0:0|0:0|0:0,0:0:0:0:
147,311,178554,5,2,0:0:0:0:
120,340,178630,1,8,0:0:0:0:
80,349,178707,1,0,0:0:0:0:
42,335,178783,1,8,0:0:0:0:
14,305,178860,2,0,P|8:274|16:245,3,50,2|8|0|8,0:0|0:0|0:0|0:0,0:0:0:0:
107,209,179166,5,8,0:0:0:0:
103,189,179242,1,8,0:0:0:0:
99,169,179319,1,8,0:0:0:0:
95,149,179395,1,8,0:0:0:0:
77,138,179472,5,8,0:0:0:0:
78,128,179548,1,8,0:0:0:0:
79,117,179625,1,8,0:0:0:0:
80,107,179701,1,8,0:0:0:0:
92,69,179778,6,0,B|134:26|184:33|220:81|220:81|205:123|248:157,1,225.000008583069,4|0,0:2|0:0,0:0:0:0:
365,184,180084,5,2,0:1:0:0:
356,140,180160,1,8,0:0:0:0:
310,140,180237,1,2,0:1:0:0:
271,116,180313,1,8,0:0:0:0:
239,149,180390,1,2,0:1:0:0:
195,159,180466,1,8,0:0:0:0:
200,205,180543,1,2,0:1:0:0:
176,243,180619,1,8,0:0:0:0:
212,272,180696,1,2,0:1:0:0:
222,316,180772,1,8,0:0:0:0:
179,330,180849,1,2,0:1:0:0:
155,369,180925,1,8,0:0:0:0:
112,354,181002,1,2,0:1:0:0:
68,364,181079,1,8,0:0:0:0:
52,321,181155,1,2,0:1:0:0:
14,297,181232,1,8,0:0:0:0:
32,255,181308,1,2,0:1:0:0:
21,211,181385,1,8,0:0:0:0:
66,200,181461,1,2,0:1:0:0:
81,157,181538,1,8,0:0:0:0:
125,169,181614,1,2,0:1:0:0:
157,136,181691,1,8,0:0:0:0:
180,175,181767,1,2,0:1:0:0:
225,179,181844,1,8,0:0:0:0:
225,224,181920,1,2,0:1:0:0:
259,254,181997,1,8,0:0:0:0:
237,293,182073,1,2,0:1:0:0:
244,333,182150,1,8,0:0:0:0:
204,352,182226,5,4,0:0:0:0:
352,90,182380,1,8,0:0:0:0:
336,107,182456,1,8,0:0:0:0:
321,124,182533,1,8,0:0:0:0:
306,142,182609,1,8,0:0:0:0:
292,162,182686,1,8,0:0:0:0:
279,181,182762,1,8,0:0:0:0:
267,201,182839,5,4,0:0:0:0:
135,1,182992,1,8,0:0:0:0:
145,15,183068,1,8,0:0:0:0:
156,29,183145,1,8,0:0:0:0:
166,43,183221,1,8,0:0:0:0:
176,59,183298,1,8,0:0:0:0:
186,75,183374,1,8,0:0:0:0:
193,91,183451,5,4,0:0:0:0:
73,225,183604,1,8,0:0:0:0:
79,214,183681,1,8,0:0:0:0:
85,204,183757,1,8,0:0:0:0:
93,196,183834,1,8,0:0:0:0:
101,188,183910,1,8,0:0:0:0:
112,181,183987,1,8,0:0:0:0:
121,174,184063,5,4,0:0:0:0:
198,266,184216,1,8,0:0:0:0:
192,263,184293,1,8,0:0:0:0:
186,259,184369,1,8,0:0:0:0:
181,255,184446,1,8,0:0:0:0:
176,250,184522,1,8,0:0:0:0:
171,245,184599,1,8,0:0:0:0:
166,240,184675,6,0,B|119:263|111:308|111:308|166:320|184:345|184:345|186:305|221:288,1,225.000008583069,4|0,0:2|0:0,0:0:0:0:
263,349,184982,5,2,0:1:0:0:
303,328,185058,1,8,0:0:0:0:
291,284,185135,1,2,0:1:0:0:
304,240,185211,1,8,0:0:0:0:
264,218,185288,1,2,0:1:0:0:
243,178,185364,1,8,0:0:0:0:
200,195,185441,1,2,0:1:0:0:
157,181,185517,1,8,0:0:0:0:
138,223,185594,1,2,0:1:0:0:
98,245,185670,1,8,0:0:0:0:
73,207,185747,1,2,0:1:0:0:
29,194,185823,1,8,0:0:0:0:
33,148,185900,1,2,0:1:0:0:
12,108,185976,1,8,0:0:0:0:
49,82,186053,1,2,0:1:0:0:
63,39,186130,1,8,0:0:0:0:
108,45,186206,1,2,0:1:0:0:
147,23,186283,1,8,0:0:0:0:
170,64,186359,1,2,0:1:0:0:
215,67,186436,1,8,0:0:0:0:
215,113,186512,1,2,0:1:0:0:
255,135,186589,1,8,0:0:0:0:
223,167,186665,1,2,0:1:0:0:
231,212,186742,1,8,0:0:0:0:
188,224,186819,2,0,L|161:281,1,59.9999981689454,2|8,0:1|0:0,0:0:0:0:
35,301,186971,5,0,0:0:0:0:
31,293,187023,1,0,0:0:0:0:
33,285,187074,1,0,0:0:0:0:
46,262,187124,5,12,0:0:0:0:
269,351,187278,1,0,0:0:0:0:
265,368,187354,1,0,0:0:0:0:
256,384,187431,1,8,0:0:0:0:
188,224,187584,1,8,0:0:0:0:
356,274,187737,5,8,0:0:0:0:
171,361,187890,1,0,0:0:0:0:
163,362,187941,1,0,0:0:0:0:
152,361,187992,1,0,0:0:0:0:
140,342,188043,5,12,0:2:0:0:
289,156,188196,1,0,0:0:0:0:
455,337,188349,6,0,B|476:293|439:268|439:268|445:316|410:302|444:350,1,150.000005722046,4|0,0:1|0:0,0:0:0:0:
365,384,188502,5,8,0:0:0:0:
362,347,188579,1,8,0:0:0:0:
359,311,188655,1,8,0:0:0:0:
356,274,188732,1,8,0:0:0:0:
353,238,188808,1,8,0:0:0:0:
348,202,188885,1,8,0:0:0:0:
324,173,188961,5,8,0:0:0:0:
348,177,189038,1,8,0:0:0:0:
372,181,189114,1,8,0:0:0:0:
396,185,189191,1,8,0:0:0:0:
412,205,189267,5,8,0:0:0:0:
425,202,189344,1,8,0:0:0:0:
437,200,189420,1,8,0:0:0:0:
450,198,189497,1,8,0:0:0:0:
474,176,189573,6,0,P|400:184|276:217,1,179.999994506836,4|0,0:2|0:0,0:0:0:0:
234,164,189880,1,2,0:1:0:0:
205,191,189956,1,8,0:0:0:0:
196,230,190033,1,2,0:1:0:0:
208,267,190109,1,8,0:0:0:0:
240,291,190186,5,2,0:1:0:0:
238,251,190262,1,8,0:0:0:0:
216,217,190339,1,2,0:1:0:0:
180,199,190415,1,8,0:0:0:0:
139,202,190492,5,2,0:1:0:0:
110,194,190568,1,8,0:0:0:0:
88,173,190645,1,2,0:1:0:0:
79,144,190721,1,8,0:0:0:0:
88,115,190798,5,2,0:1:0:0:
134,131,190874,1,8,0:0:0:0:
150,178,190951,1,2,0:1:0:0:
128,223,191028,1,8,0:0:0:0:
80,238,191104,1,2,0:1:0:0:
48,276,191181,1,8,0:0:0:0:
48,325,191257,1,2,0:1:0:0:
83,360,191334,1,8,0:0:0:0:
132,357,191410,5,2,0:1:0:0:
129,316,191487,1,8,0:0:0:0:
154,285,191563,1,2,0:1:0:0:
193,275,191640,1,8,0:0:0:0:
230,287,191716,5,2,0:1:0:0:
259,291,191793,1,8,0:0:0:0:
286,280,191869,1,2,0:1:0:0:
305,256,191946,1,8,0:0:0:0:
310,226,192022,5,2,0:1:0:0:
280,253,192099,1,8,0:0:0:0:
270,291,192175,1,2,0:1:0:0:
283,328,192252,1,8,0:0:0:0:
314,352,192329,1,2,0:1:0:0:
353,355,192405,1,8,0:0:0:0:
389,337,192482,5,2,0:1:0:0:
371,301,192558,1,8,0:0:0:0:
375,261,192635,1,2,0:1:0:0:
404,234,192711,1,8,0:0:0:0:
443,226,192788,1,2,0:1:0:0:
480,239,192864,1,8,0:0:0:0:
498,274,192941,5,2,0:1:0:0:
453,278,193017,1,8,0:0:0:0:
421,245,193094,1,2,0:1:0:0:
423,200,193170,1,8,0:0:0:0:
451,165,193247,5,2,0:1:0:0:
466,134,193323,1,8,0:0:0:0:
458,99,193400,1,2,0:1:0:0:
433,74,193476,1,8,0:0:0:0:
397,71,193553,6,0,L|386:138,3,50,2|8|2|8,0:1|0:0|0:1|0:0,0:0:0:0:
315,4,193859,5,2,0:1:0:0:
307,43,193936,1,8,0:0:0:0:
281,73,194012,1,2,0:1:0:0:
241,79,194089,1,8,0:0:0:0:
204,64,194165,5,2,0:1:0:0:
159,56,194242,1,8,0:0:0:0:
117,71,194318,1,2,0:1:0:0:
90,107,194395,1,8,0:0:0:0:
87,151,194471,6,0,B|108:132|131:122|131:122|131:48|49:-1,1,179.999994506836,4|0,0:0|0:0,0:0:0:0:
0,73,194778,1,2,0:1:0:0:
37,86,194854,1,8,0:0:0:0:
60,118,194931,1,2,0:1:0:0:
63,157,195007,1,8,0:0:0:0:
38,188,195084,5,2,0:1:0:0:
34,148,195160,1,8,0:0:0:0:
56,114,195237,1,2,0:1:0:0:
94,105,195313,1,8,0:0:0:0:
133,114,195390,5,2,0:1:0:0:
117,161,195466,1,8,0:0:0:0:
136,207,195543,1,2,0:1:0:0:
181,227,195619,1,8,0:0:0:0:
230,216,195696,1,2,0:1:0:0:
278,228,195772,1,8,0:0:0:0:
306,269,195849,1,2,0:1:0:0:
297,317,195925,1,8,0:0:0:0:
256,347,196002,5,2,0:1:0:0:
234,307,196079,1,8,0:0:0:0:
246,264,196155,1,2,0:1:0:0:
284,240,196232,1,8,0:0:0:0:
328,241,196308,5,2,0:1:0:0:
362,232,196385,1,8,0:0:0:0:
385,206,196461,1,2,0:1:0:0:
392,171,196538,1,8,0:0:0:0:
380,138,196614,5,2,0:1:0:0:
343,173,196691,1,8,0:0:0:0:
339,222,196767,1,2,0:1:0:0:
366,264,196844,1,8,0:0:0:0:
412,281,196920,6,0,P|435:234|464:213,1,66.6666666666667,4|0,0:1|0:0,0:0:0:0:
380,138,197226,6,0,P|446:256|476:336,1,200.000007629395,4|0,0:1|0:0,0:0:0:0:
192,100,197839,6,0,P|271:55|370:16,1,166.666666666667,4|0,0:1|0:0,0:0:0:0:
164,256,198451,6,0,P|119:177|80:78,1,133.333333333333,4|0,0:1|0:0,0:0:0:0:
385,330,199369,6,0,P|319:303|85:247,1,306.666666666667,4|0,0:0|0:0,0:0:0:0:
22,259,200878,6,0,P|48:231|88:169,1,100,2|0,0:0|0:0,0:0:0:0:
169,172,201350,5,0,0:0:0:0:
168,178,201444,1,0,0:0:0:0:
167,184,201538,1,0,0:0:0:0:
165,191,201633,6,0,B|90:157|27:16|108:-68|300:-62|315:76|242:146|177:105|166:68,1,459.999985961914,2|0,0:0|0:0,0:0:0:0:
168,74,203142,6,0,P|116:80|68:98,1,99.9999969482423
19,40,203834,5,0,0:0:0:0:
17,47,203897,2,0,P|76:58|161:105,1,133.333333333333,2|0,0:0|0:0,0:0:0:0:
175,158,204526,5,0,0:0:0:0:
143,164,204652,1,0,0:0:0:0:
276,55,204903,5,0,0:0:0:0:
244,49,205029,2,0,P|343:203|364:242,1,226.666666666667,2|0,0:0|0:0,0:0:0:0:
401,325,206161,6,0,L|465:286,1,73.3333333333333
486,186,206916,6,0,L|290:308,1,229.999992980957,0|0,0:0|0:0,0:0:0:0:
360,355,208425,6,0,P|348:326|285:229,1,133.333333333333,2|0,0:0|0:0,0:0:0:0:
288,168,209054,5,0,0:0:0:0:
320,174,209180,1,0,0:0:0:0:
180,342,209431,5,0,0:0:0:0:
212,336,209557,2,0,P|166:312|63:291,1,146.666666666667,2|0,0:0|0:0,0:0:0:0:
0,317,210312,6,0,P|12:344|13:367,1,39.9999987792969,0|0,0:0|0:0,0:0:0:0:
77,382,210626,5,0,0:0:0:0:
84,384,210689,2,0,P|95:325|142:240,1,133.333333333333,2|0,0:0|0:0,0:0:0:0:
48,194,211318,5,0,0:0:0:0:
54,226,211444,1,0,0:0:0:0:
175,187,211821,6,0,L|118:87,1,109.999996643066,0|0,0:0|0:0,0:0:0:0:
66,30,212576,6,0,P|43:59|50:100,1,66.6666666666667,0|0,0:0|0:0,0:0:0:0:
1,173,212891,5,0,0:0:0:0:
2,182,212953,2,0,P|27:162|277:37,1,306.666666666667,2|0,0:0|0:0,0:0:0:0:
342,6,214425,6,0,P|318:48|286:179,1,179.999994506836,2|0,0:0|0:0,0:0:0:0:
207,177,215006,6,0,P|215:192|219:209,1,33.3333333333333
285,252,215218,6,0,P|258:184|195:132,1,146.666666666667,2|0,0:0|0:0,0:0:0:0:
140,199,215940,6,0,P|154:212|188:225,1,49.9999984741211
198,221,216350,6,0,L|183:302,1,80
220,373,217199,5,0,0:0:0:0:
216,368,217293,1,0,0:0:0:0:
210,366,217387,1,0,0:0:0:0:
203,366,217482,6,0,P|311:314|476:278,1,283.333333333333,2|0,0:0|0:0,0:0:0:0:
425,352,218614,6,0,L|407:302,1,49.9999984741211,0|0,0:0|0:0,0:0:0:0:
398,225,218975,6,0,P|363:250|319:292,1,100,2|0,0:0|0:0,0:0:0:0:
247,235,219456,5,0,0:0:0:0:
251,232,219537,5,0,0:0:0:0:
255,229,219618,5,0,0:0:0:0:
259,225,219697,6,0,B|347:99|322:-18|158:7|174:102,1,339.999989624024,2|0,0:0|0:0,0:0:0:0:
168,108,220891,6,0,L|242:95,1,69.9999978637696
186,29,221391,5,0,0:0:0:0:
137,12,221516,1,0,0:0:0:0:
76,53,221641,2,0,P|91:99|96:159,1,99.9999969482423,2|0,0:0|0:0,0:0:0:0:
173,186,222016,6,0,P|109:174|70:246,1,150,2|0,0:0|0:0,0:0:0:0:
39,304,222635,5,0,0:0:0:0:
71,310,222759,1,0,0:0:0:0:
209,362,223006,5,0,0:0:0:0:
177,368,223130,2,0,P|210:329|328:268,1,183.333333333333,2|0,0:0|0:0,0:0:0:0:
383,227,223914,6,0,L|374:279,1,49.9999984741211
442,314,224289,6,0,L|454:240,1,66.6666666666667
511,202,224665,6,0,L|492:92,1,109.999996643066
425,40,225417,6,0,L|412:113,1,73.3333333333333
429,188,226169,6,0,L|356:176,1,66.6666666666667
302,102,226546,6,0,P|317:158|333:251,1,150,2|0,0:0|0:0,0:0:0:0:
400,276,227163,5,0,0:0:0:0:
390,307,227286,1,0,0:0:0:0:
279,377,227533,5,0,0:0:0:0:
269,346,227679,2,0,P|205:325|115:314,1,146.666666666667,2|0,0:0|0:0,0:0:0:0:
63,259,228438,6,0,L|12:274,1,49.9999984741211
64,355,228818,6,0,P|97:286|134:241,1,133.333333333333,2|0,0:0|0:0,0:0:0:0:
202,194,229402,5,0,0:0:0:0:
212,225,229532,1,0,0:0:0:0:
52,158,229948,6,0,L|85:50,1,109.999996643066
26,7,230697,6,0,P|44:29|71:85,1,83.3333333333333
132,130,231072,6,0,P|88:120|190:57,1,306.666666666667,2|0,0:0|0:0,0:0:0:0:
226,117,232572,6,0,P|248:137|339:50,1,179.999994506836,2|0,0:0|0:0,0:0:0:0:
280,45,233197,6,0,P|273:55|263:72,1,16.6666666666667
297,124,233338,2,0,P|326:134|509:227,1,226.666666666667,2|0,0:0|0:0,0:0:0:0:
492,223,234463,6,8,L|482:186,17,25.0000009536744
449,81,235595,5,0,3:0:0:0:
449,81,235972,6,0,B|426:161|390:120|372:220,1,150.000005722046,2|0,0:0|0:0,0:0:0:0:
437,334,236727,5,8,0:0:0:0:
430,323,236790,1,8,0:0:0:0:
423,312,236853,2,8,L|385:320,2,25.0000009536744
332,360,237104,5,8,0:0:0:0:
329,369,237167,1,8,0:0:0:0:
327,378,237230,2,8,L|289:370,2,25.0000009536744
247,303,237482,5,8,0:0:0:0:
242,296,237545,1,8,0:0:0:0:
237,289,237608,2,8,L|199:297,2,25.0000009536744
114,347,237859,6,0,B|95:289|95:289|98:257|98:257|73:183,2,150.000005722046,0|2|0,3:0|0:0|0:0,0:0:0:0:
181,150,238991,5,8,0:0:0:0:
190,153,239054,1,8,0:0:0:0:
199,155,239117,2,8,L|191:193,2,25.0000009536744
113,89,239369,5,8,0:0:0:0:
108,90,239432,1,8,0:0:0:0:
103,91,239495,2,8,L|111:129,2,25.0000009536744
193,28,239746,5,8,0:0:0:0:
196,29,239809,1,8,0:0:0:0:
199,30,239872,2,8,L|191:68,2,25.0000009536744
6,0,240123,5,0,3:0:0:0:
6,0,240501,2,0,B|70:-28|151:98|84:88|115:153|167:169,1,250.000009536744,2|0,0:0|0:0,0:0:0:0:
220,113,241255,5,8,0:0:0:0:
227,103,241318,1,8,0:0:0:0:
235,94,241381,2,8,L|273:102,2,25.0000009536744
312,164,241632,5,8,0:0:0:0:
313,173,241695,1,8,0:0:0:0:
315,181,241758,2,8,L|353:183,2,25.0000009536744
410,132,242010,5,8,0:0:0:0:
415,124,242073,1,8,0:0:0:0:
420,118,242136,2,8,L|458:126,2,25.0000009536744
348,36,242387,6,0,B|399:58|429:122|397:149|365:154,1,150.000005722046,0|2,3:0|0:0,0:0:0:0:
378,150,243142,2,0,P|386:167|387:187,3,25.0000009536744,0|0|0|0,0:0|0:0|0:0|0:0,0:0:0:0:
432,270,243519,5,8,0:0:0:0:
435,261,243582,1,8,0:0:0:0:
437,252,243645,2,8,L|475:260,2,25.0000009536744
371,338,243897,5,8,0:0:0:0:
372,343,243960,1,8,0:0:0:0:
373,348,244023,2,8,L|411:340,2,25.0000009536744
309,256,244274,5,8,0:0:0:0:
310,253,244337,1,8,0:0:0:0:
311,250,244400,2,8,L|349:258,2,25.0000009536744
244,314,244652,6,0,B|223:303|218:275|218:275|219:302|194:323,1,100.000003814697,0|0,3:0|0:0,0:0:0:0:
95,359,245029,6,0,P|91:341|85:323,6,37.5000014305115,2|0|0|0|0|0|0,0:0|0:0|0:0|0:0|0:0|0:0|0:0,0:0:0:0:
103,373,245406,6,0,B|136:323|89:324|137:268,1,100.000003814697,0|0,0:0|0:0,0:0:0:0:
237,217,245784,5,8,0:0:0:0:
230,227,245847,1,8,0:0:0:0:
223,239,245910,2,8,L|185:231,2,25.0000009536744
145,166,246161,5,8,0:0:0:0:
144,157,246224,1,8,0:0:0:0:
145,148,246287,2,8,L|107:146,2,25.0000009536744
47,198,246539,5,8,0:0:0:0:
42,206,246602,1,8,0:0:0:0:
37,212,246665,2,8,L|-1:204,1,25.0000009536744,8|8,0:0|0:0,0:0:0:0:
20,131,246790,6,8,L|-8:105,1,25.0000009536744
61,61,246916,2,0,B|78:51|78:51|169:83,1,100.000003814697,0|0,3:0|0:0,0:0:0:0:
239,130,247293,6,0,P|242:115|268:73,6,37.5000014305115,2|0|0|0|0|0|0,0:0|0:0|0:0|0:0|0:0|0:0|0:0,0:0:0:0:
244,152,247670,6,0,B|225:164|196:164|196:164|224:158|245:130,1,100.000003814697,0|0,0:0|0:0,0:0:0:0:
350,77,248048,5,8,0:0:0:0:
341,74,248111,1,8,0:0:0:0:
332,72,248174,2,8,L|340:34,2,25.0000009536744
418,138,248426,5,8,0:0:0:0:
423,137,248489,1,8,0:0:0:0:
428,136,248552,2,8,L|420:98,2,25.0000009536744
330,198,248802,6,8,L|338:160,2,25.0000009536744,8|8|8,0:0|0:0|0:0,0:0:0:0:
398,242,248991,2,8,L|403:217,2,25.0000009536744,8|8|8,0:0|0:0|0:0,0:0:0:0:
458,307,249180,6,0,B|438:287|417:275|383:292|383:292|347:310|357:355,2,150.000005722046,0|2|0,3:0|0:0|0:0,0:0:0:0:
282,291,250312,5,8,0:0:0:0:
275,281,250375,1,8,0:0:0:0:
268,269,250438,2,8,L|230:277,2,25.0000009536744
190,342,250689,5,8,0:0:0:0:
189,351,250752,1,8,0:0:0:0:
190,360,250815,2,8,L|152:362,2,25.0000009536744
92,310,251067,5,8,0:0:0:0:
87,302,251130,1,8,0:0:0:0:
82,296,251193,2,8,L|44:304,2,25.0000009536744
205,193,251444,6,0,B|210:90|92:125|122:171|164:172,2,150.000005722046,0|2|0,3:0|0:0|0:0,0:0:0:0:
81,230,252450,1,0,0:0:0:0:
39,146,252576,5,8,0:0:0:0:
41,133,252639,1,8,0:0:0:0:
43,120,252702,1,8,0:0:0:0:
45,107,252765,1,8,0:0:0:0:
48,94,252828,1,8,0:0:0:0:
50,81,252891,1,8,0:0:0:0:
52,68,252953,2,8,L|59:27,4,25.0000009536744
142,4,253331,5,8,0:0:0:0:
144,21,253394,1,8,0:0:0:0:
147,38,253457,1,8,0:0:0:0:
149,54,253519,1,8,0:0:0:0:
152,71,253582,1,8,0:0:0:0:
212,129,253708,6,0,P|184:146|179:158,2,37.5000014305115,0|0|0,3:0|0:0|0:0,0:0:0:0:
253,35,254085,2,0,L|332:59,1,75.0000028610231,2|0,0:0|0:0,0:0:0:0:
349,155,254463,2,0,L|428:131,1,75.0000028610231
482,27,254840,5,8,0:0:0:0:
492,34,254903,1,8,0:0:0:0:
501,42,254966,2,8,L|493:80,2,25.0000009536744
431,119,255217,5,8,0:0:0:0:
422,120,255280,1,8,0:0:0:0:
414,122,255343,2,8,L|412:160,2,25.0000009536744
463,217,255595,5,8,0:0:0:0:
471,222,255658,1,8,0:0:0:0:
477,227,255721,2,8,L|469:265,2,25.0000009536744
361,288,255972,6,0,P|385:297|415:317,2,50.0000019073487,0|0|0,3:0|0:0|0:0,0:0:0:0:
280,381,256350,2,0,B|308:364|353:374,1,75.0000028610231,2|0,0:0|0:0,0:0:0:0:
281,278,256664,1,0,0:0:0:0:
280,284,256727,2,0,B|257:307|211:309,1,75.0000028610231,0|0,0:0|0:0,0:0:0:0:
96,355,257104,5,8,0:0:0:0:
105,358,257167,1,8,0:0:0:0:
114,360,257230,2,8,L|106:398,2,25.0000009536744
32,294,257482,5,8,0:0:0:0:
27,295,257545,1,8,0:0:0:0:
22,296,257608,2,8,L|30:334,2,25.0000009536744
120,234,257859,6,8,L|112:272,2,25.0000009536744,8|8|8,0:0|0:0|0:0,0:0:0:0:
40,187,258048,2,8,L|45:212,2,25.0000009536744
116,118,258236,6,0,B|121:155|237:189|256:137,2,150.000005722046,0|2|0,3:0|0:0|0:0,0:0:0:0:
218,5,259368,5,8,0:0:0:0:
225,10,259431,1,8,0:0:0:0:
232,15,259494,2,8,L|224:53,2,25.0000009536744
320,106,259746,5,8,0:0:0:0:
311,103,259809,1,8,0:0:0:0:
302,101,259872,2,8,L|310:63,2,25.0000009536744
370,18,260123,5,8,0:0:0:0:
381,25,260186,1,8,0:0:0:0:
392,32,260249,2,8,L|384:70,2,25.0000009536744
464,119,260501,6,0,B|450:130|450:130|441:162,2,50.0000019073487,0|0|0,3:0|0:0|0:0,0:0:0:0:
357,182,260878,2,0,B|371:193|371:193|379:225,1,50.0000019073487,2|0,0:0|0:0,0:0:0:0:
468,293,261130,1,0,0:0:0:0:
468,293,261192,1,0,0:0:0:0:
468,293,261255,2,0,P|427:305|395:330,1,75.0000028610231,0|0,0:0|0:0,0:0:0:0:
294,375,261633,5,8,0:0:0:0:
292,367,261696,1,8,0:0:0:0:
291,359,261758,1,8,0:0:0:0:
290,352,261821,1,8,0:0:0:0:
288,344,261884,2,8,L|281:312,1,25.0000009536744,8|8,0:0|0:0,0:0:0:0:
235,260,262010,2,8,L|239:236,4,25.0000009536744
161,320,262388,5,8,0:0:0:0:
163,329,262451,1,8,0:0:0:0:
164,339,262513,2,8,L|170:376,2,25.0000009536744,8|8|8,0:0|0:0|0:0,0:0:0:0:
32,302,262765,6,0,B|119:288|67:227|176:223,2,150.000005722046,0|2|0,3:0|0:0|0:0,0:0:0:0:
21,147,263897,5,8,0:0:0:0:
28,158,263960,1,8,0:0:0:0:
35,169,264023,2,8,L|73:161,2,25.0000009536744
126,121,264274,5,8,0:0:0:0:
129,112,264337,1,8,0:0:0:0:
131,103,264400,2,8,L|169:111,2,25.0000009536744
211,178,264652,5,8,0:0:0:0:
216,185,264715,1,8,0:0:0:0:
221,192,264778,2,8,L|259:184,2,25.0000009536744
271,41,265029,6,0,B|291:103|291:103|315:119|315:119|338:180,2,150.000005722046,0|2|0,3:0|0:0|0:0,0:0:0:0:
387,55,266161,5,8,0:0:0:0:
384,46,266224,1,8,0:0:0:0:
382,37,266287,2,8,L|344:45,2,25.0000009536744
460,107,266539,5,8,0:0:0:0:
461,102,266602,1,8,0:0:0:0:
462,97,266665,2,8,L|500:105,2,25.0000009536744
395,169,266916,5,8,0:0:0:0:
394,166,266979,1,8,0:0:0:0:
393,163,267042,2,8,L|355:171,2,25.0000009536744
491,219,267293,6,0,B|491:282|408:282|416:260|373:292|373:321,2,150.000005722046,0|2|0,3:0|0:0|0:0,0:0:0:0:
315,233,268425,5,8,0:0:0:0:
302,236,268488,1,8,0:0:0:0:
290,240,268551,2,8,L|287:278,2,25.0000009536744
237,345,268802,5,8,0:0:0:0:
229,340,268865,1,8,0:0:0:0:
220,336,268928,2,8,L|231:293,2,25.0000009536744
167,252,269180,5,8,0:0:0:0:
159,255,269243,1,8,0:0:0:0:
151,258,269306,2,8,L|148:296,2,25.0000009536744
66,351,269557,5,0,3:0:0:0:
66,351,269935,2,0,B|0:281|-4:122|30:73|30:73|40:75|40:75|41:62|41:62|86:-3|222:-2|286:112|266:196|186:248|131:181,1,725.000027656556,2|0,0:0|0:0,0:0:0:0:
136,175,271821,5,4,3:0:0:0:
136,175,272199,2,0,B|200:164|200:164|208:168|208:168|273:156,1,133.333333333333,2|2,0:0|0:0,0:0:0:0:
300,77,272576,2,0,B|364:88|364:88|372:84|372:84|437:96,1,133.333333333333,2|0,0:0|3:0,0:0:0:0:
497,154,272953,1,8,3:0:0:0:
391,342,273205,1,2,0:1:0:0:
476,316,273331,2,0,P|462:266|388:249,1,133.333333333333,2|2,0:1|0:1,0:0:0:0:
283,272,273708,6,0,P|273:303|268:336,1,66.6666666666667,2|0,0:1|0:0,0:0:0:0:
280,356,273897,2,0,P|287:313|301:276,1,66.6666666666667,2|0,0:1|0:0,0:0:0:0:
308,203,274085,5,4,3:1:0:0:
308,203,274463,2,0,B|283:181|283:181|173:206,1,133.333333333333,2|2,0:1|0:1,0:0:0:0:
154,280,274840,2,0,B|129:302|129:302|19:277,1,133.333333333333,2|0,0:1|3:0,0:0:0:0:
5,200,275218,1,8,0:0:0:0:
226,53,275469,2,0,B|187:163|136:77|96:206,1,200,2|2,3:1|0:1,0:0:0:0:
49,0,275972,5,2,0:1:0:0:
62,53,276098,1,0,0:0:0:0:
132,84,276224,1,0,0:0:0:0:
214,40,276350,2,0,L|204:1,1,33.3333333333333,4|0,3:1|0:0,0:0:0:0:
125,2,276538,1,0,0:0:0:0:
211,146,276727,6,0,P|278:128|353:117,1,133.333333333333,2|2,0:1|0:1,0:0:0:0:
348,32,277104,2,0,P|415:50|455:54,1,100,2|0,0:1|0:0,0:0:0:0:
465,44,277356,1,0,3:0:0:0:
427,144,277482,6,0,L|475:352,1,200,8|2,0:0|0:1,0:0:0:0:
354,381,278111,1,2,3:0:0:0:
359,365,278236,6,0,P|322:343|254:328,1,100,2|0,0:1|0:0,0:0:0:0:
252,339,278488,1,2,0:1:0:0:
246,221,278614,6,0,P|209:243|141:258,1,100,6|0,3:1|0:0,0:0:0:0:
139,247,278866,1,0,0:0:0:0:
47,321,278991,6,0,P|86:333|112:353,1,66.6666666666667,2|0,0:1|0:0,0:0:0:0:
115,362,279180,1,0,0:0:0:0:
115,362,279243,1,2,0:1:0:0:
55,232,279369,6,0,P|42:161|20:86,1,133.333333333333,2|0,0:1|3:0,0:0:0:0:
62,22,279746,1,8,0:0:0:0:
196,147,279997,2,0,B|250:125|250:125|286:46|286:46|352:19,1,200,2|2,3:1|0:1,0:0:0:0:
346,111,280501,2,0,L|203:82,1,133.333333333333,2|0,0:1|0:0,0:0:0:0:
456,7,280878,5,4,3:1:0:0:
333,118,281130,1,0,0:0:0:0:
382,185,281255,2,0,P|429:183|475:109,1,133.333333333333,2|2,0:1|0:1,0:0:0:0:
401,76,281633,2,0,P|430:140|463:226,1,133.333333333333,2|0,0:1|3:0,0:0:0:0:
506,273,282010,1,8,0:0:0:0:
385,377,282262,1,2,0:1:0:0:
339,308,282387,6,0,L|235:278,1,100,2|0,0:1|0:0,0:0:0:0:
237,298,282639,1,2,3:0:0:0:
140,366,282765,6,0,L|126:257,1,100,2|0,0:1|0:0,0:0:0:0:
72,221,283016,1,2,0:1:0:0:
72,221,283079,1,0,0:0:0:0:
72,221,283142,2,0,L|86:131,1,66.6666666666667,6|0,3:1|0:0,0:0:0:0:
152,10,283394,1,0,0:0:0:0:
66,61,283519,6,0,P|148:91|204:131,1,133.333333333333,2|2,0:1|0:1,0:0:0:0:
205,198,283897,2,0,P|284:161|352:149,1,133.333333333333,2|0,0:1|3:0,0:0:0:0:
370,79,284274,1,8,0:0:0:0:
494,247,284526,1,2,0:1:0:0:
425,203,284652,6,0,P|405:230|393:261,1,66.6666666666667,0|0,3:0|0:0,0:0:0:0:
423,337,284902,1,0,0:0:0:0:
280,261,285029,6,0,P|303:284|322:311,1,66.6666666666667,4|0,3:1|0:0,0:0:0:0:
313,380,285279,1,0,3:0:0:0:
171,379,285406,6,0,L|62:344,1,100,4|0,3:1|0:0,0:0:0:0:
109,187,285784,2,0,B|171:154|171:154|246:179,1,133.333333333333,2|2,0:1|0:1,0:0:0:0:
237,264,286161,2,0,B|175:297|175:297|100:272,1,133.333333333333,2|0,0:1|3:0,0:0:0:0:
38,245,286538,1,8,0:0:0:0:
89,67,286790,1,2,3:1:0:0:
0,67,286915,6,0,P|30:127|32:185,1,100
25,173,287167,1,8,0:0:0:0:
75,329,287293,2,0,P|87:268|118:187,1,133.333333333333,2|8,3:1|0:0,0:0:0:0:
203,63,287670,1,4,3:1:0:0:
203,63,288048,6,0,L|344:37,1,133.333333333333,2|0,0:1|3:0,0:0:0:0:
371,136,288425,2,0,L|512:162,1,133.333333333333,2|0,0:1|3:0,0:0:0:0:
459,13,288802,6,0,L|475:3,1,12.5,8|8,0:0|0:0,0:0:0:0:
297,131,288928,1,8,0:0:0:0:
440,271,289054,1,8,0:0:0:0:
394,121,289180,6,0,L|408:126,1,12.5,8|8,0:0|0:0,0:0:0:0:
215,72,289306,1,8,0:0:0:0:
245,249,289432,1,8,0:0:0:0:
302,104,289557,6,0,L|310:120,1,12.5,8|8,0:0|0:0,0:0:0:0:
244,2,289683,1,8,0:0:0:0:
137,57,289809,1,8,0:0:0:0:
358,223,289935,6,0,P|331:242|311:301,1,83.3333333333333,4|0,3:1|0:0,0:0:0:0:
289,360,290312,6,0,P|267:269|279:247,1,100,4|0,3:1|0:0,0:0:0:0:
322,159,290689,1,2,0:1:0:0:
186,73,290840,5,0,0:0:0:0:
190,89,290915,5,0,0:0:0:0:
184,106,290991,5,0,0:0:0:0:
171,119,291067,6,0,L|294:84,1,100,12|0,3:1|0:0,0:0:0:0:
283,79,291318,1,2,0:1:0:0:
251,2,291444,2,0,L|123:39,1,133.333333333333,2|8,0:1|0:0,0:0:0:0:
106,57,291758,1,0,0:0:0:0:
106,57,291821,1,2,0:1:0:0:
90,211,292073,1,4,3:1:0:0:
17,151,292199,6,0,P|53:182|110:306,1,166.666666666667,4|0,3:2|0:0,0:0:0:0:
73,348,292576,2,0,P|100:302|196:316,1,133.333333333333,2|0,0:1|3:0,0:0:0:0:
224,230,292953,2,0,P|276:250|278:305,1,106.666666666667,2|0,0:1|3:0,0:0:0:0:
198,367,293331,6,0,L|224:178,1,173.333325398763,12|0,0:2|3:0,0:0:0:0:
164,71,293708,6,8,L|157:53,1,12.5
224,230,293834,1,8,0:0:0:0:
328,91,293960,1,8,0:0:0:0:
245,49,294085,6,8,L|255:29,1,12.5,8|8,0:0|0:0,0:0:0:0:
200,145,294211,1,8,0:0:0:0:
95,132,294337,1,8,0:0:0:0:
155,46,294463,6,0,P|205:122|223:189,1,133.333333333333,4|0,3:1|3:0,0:0:0:0:
316,183,294840,2,0,P|266:259|259:289,1,100,2|0,0:1|0:0,0:0:0:0:
272,284,295091,1,2,0:1:0:0:
190,262,295217,6,0,B|263:301|263:301|291:339,1,100,2|0,0:1|0:0,0:0:0:0:
272,329,295469,1,0,3:0:0:0:
188,367,295595,1,12,0:0:0:0:
188,367,295972,2,0,B|162:341|162:341|58:358,1,133.333333333333,4|4,0:1|0:1,0:0:0:0:
37,375,296287,1,0,0:0:0:0:
37,375,296350,6,0,P|49:341|36:293,1,66.6666666666667,2|0,0:1|0:0,0:0:0:0:
16,222,296601,1,0,3:0:0:0:
6,247,296727,5,4,3:1:0:0:
6,247,297104,2,0,P|79:221|149:207,1,133.333333333333,2|8,0:1|0:0,0:0:0:0:
184,265,297482,6,0,B|168:215|168:215|152:201|152:201|137:137,1,133.333333333333,2|0,0:1|3:0,0:0:0:0:
29,121,297859,2,0,B|38:70|38:70|52:54|52:54|59:-10,1,133.333333333333,10|0,0:1|3:0,0:0:0:0:
164,61,298236,6,8,L|143:66,1,12.5,8|8,0:0|0:0,0:0:0:0:
243,123,298362,1,8,0:0:0:0:
320,49,298488,1,8,0:0:0:0:
239,39,298614,6,8,L|235:24,1,12.5,8|8,0:0|0:0,0:0:0:0:
261,115,298740,1,8,0:0:0:0:
284,193,298865,1,8,0:0:0:0:
347,252,298991,5,4,3:1:0:0:
188,176,299117,1,0,0:0:0:0:
356,132,299243,1,0,3:0:0:0:
215,317,299369,5,2,0:1:0:0:
261,115,299494,1,0,0:0:0:0:
123,243,299620,1,0,3:0:0:0:
350,155,299746,6,0,P|382:161|412:175,2,66.6666666666667,2|0|0,3:1|0:0|3:0,0:0:0:0:
255,378,300123,6,0,P|246:345|246:312,1,66.6666666666667,12|0,0:2|0:0,0:0:0:0:
325,239,300374,1,8,0:0:0:0:
236,89,300500,5,2,0:1:0:0:
204,209,300627,1,8,0:0:0:0:
325,261,300753,1,8,0:0:0:0:
321,152,300878,5,2,0:1:0:0:
381,79,301004,1,8,0:0:0:0:
468,113,301130,1,8,0:0:0:0:
412,215,301255,6,0,P|394:140|341:31,1,159.999995117188,4|0,3:1|3:0,0:0:0:0:
284,4,301633,2,0,P|264:52|264:92,1,79.9999975585938,2|0,0:1|0:0,0:0:0:0:
273,100,301821,1,0,0:0:0:0:
273,100,301884,1,0,3:0:0:0:
184,172,302010,5,2,0:1:0:0:
357,87,302136,1,0,3:0:0:0:
182,17,302262,1,8,3:0:0:0:
303,173,302387,6,0,B|313:233|313:233|291:269|291:269|303:325,1,159.999995117188,8|8,0:0|0:0,0:0:0:0:
394,375,302765,1,2,0:1:0:0:
394,375,302828,1,0,0:0:0:0:
394,375,302891,1,8,0:0:0:0:
238,218,303016,1,8,0:0:0:0:
436,271,303142,5,2,0:1:0:0:
327,246,303268,1,8,0:0:0:0:
274,345,303394,1,8,0:0:0:0:
145,192,303519,6,0,B|138:294|206:235|187:371,1,159.999995117188,4|0,3:1|3:0,0:0:0:0:
64,384,303897,2,0,P|98:348|113:307,2,79.9999975585938,2|0|0,0:1|3:0|3:0,0:0:0:0:
0,231,304274,2,0,P|22:263|33:301,2,79.9999975585938,2|0|0,0:1|3:0|3:0,0:0:0:0:
149,33,304652,6,0,P|113:83|97:127,1,79.9999975585938,12|0,0:2|0:0,0:0:0:0:
62,188,304903,1,8,0:0:0:0:
53,179,304966,1,0,2:0:0:0:
44,171,305029,2,0,P|4:154|-11:154,1,39.9999987792969,2|0,0:1|2:0,0:0:0:0:
183,124,305155,2,0,L|283:153,1,79.9999975585938,8|0,0:0|0:0,0:0:0:0:
141,195,305406,5,2,0:1:0:0:
141,195,305469,1,0,0:0:0:0:
141,195,305532,1,8,0:0:0:0:
238,37,305658,1,8,0:0:0:0:
348,206,305784,6,0,P|315:237|340:129,1,350,4|0,0:0|0:0,0:0:0:0:
354,211,306390,6,0,P|317:244|356:137,1,385.000011749268,4|0,0:2|0:0,0:0:0:0:
361,215,306996,6,0,P|322:251|362:130,1,419.999987182618,4|0,0:2|0:0,0:0:0:0:
436,168,307602,6,0,B|376:172|376:172|365:163|365:163|276:173,1,150,8|0,0:0|0:0,0:0:0:0:
289,179,307902,1,0,0:0:0:0:
198,336,308202,6,0,B|257:346|257:346|269:338|269:338|356:355,1,150,8|0,0:0|0:0,0:0:0:0:
343,360,308502,1,0,0:0:0:0:
105,117,308802,5,12,0:1:0:0:
76,335,309087,1,8,0:0:0:0:
306,216,309373,6,0,B|332:191|332:191|310:63,1,150,8|0,0:0|0:0,0:0:0:0:
306,73,309658,1,0,0:0:0:0:
42,223,309944,5,8,0:0:0:0:
240,282,310225,1,8,0:0:0:0:
44,59,310507,1,8,0:0:0:0:
118,355,310789,1,12,0:0:0:0:
168,172,311070,5,8,0:0:0:0:
33,276,311352,1,8,0:0:0:0:
128,68,311634,1,8,0:0:0:0:
183,350,311915,5,0,0:0:0:0:
197,347,311986,1,0,0:0:0:0:
211,344,312056,1,0,0:0:0:0:
225,341,312127,1,0,0:0:0:0:
239,338,312197,1,8,0:0:0:0:
289,266,312338,1,0,0:0:0:0:
384,364,312479,5,0,0:0:0:0:
381,350,312550,1,0,0:0:0:0:
378,336,312620,1,0,0:0:0:0:
375,322,312691,1,0,0:0:0:0:
372,308,312761,1,8,0:0:0:0:
295,112,313042,5,0,0:0:0:0:
292,126,313113,1,0,0:0:0:0:
289,140,313183,1,0,0:0:0:0:
286,154,313254,1,0,0:0:0:0:
283,168,313324,5,12,0:1:0:0:
409,237,313605,1,8,0:0:0:0:
255,75,313887,1,8,0:0:0:0:
475,23,314169,1,8,0:0:0:0:
260,197,314451,6,0,B|219:187|219:187|189:134|189:134|135:123,1,150,4|0,0:2|0:0,0:0:0:0:
142,146,314735,1,8,0:0:0:0:
60,174,314877,1,8,0:0:0:0:
0,110,315019,1,8,0:0:0:0:
30,25,315161,1,8,0:0:0:0:
117,22,315304,1,4,0:0:0:0:
45,191,315588,5,8,0:0:0:0:
6,26,315872,1,8,0:0:0:0:
122,223,316157,1,8,0:0:0:0:
190,16,316441,1,8,0:0:0:0:
25,190,316725,6,0,B|37:262|37:262|78:295|78:295|94:387,1,200,12|8,0:2|0:0,0:0:0:0:
81,378,317072,1,0,3:0:0:0:
81,378,317128,2,0,L|23:367,1,40,0|0,3:0|3:0,3:0:0:0:
105,261,317296,1,8,0:0:0:0:
214,242,317436,1,8,0:0:0:0:
295,316,317577,1,8,0:0:0:0:
403,304,317718,1,8,0:0:0:0:
468,215,317859,6,0,B|441:198|441:198|296:245,1,150,4|0,0:0|0:0,0:0:0:0:
330,250,318140,1,0,0:0:0:0:
227,17,318422,1,10,0:0:0:0:
415,130,318704,1,0,2:0:0:0:
353,46,318844,1,0,0:0:0:0:
255,108,318985,6,0,B|188:93|188:93|183:87|183:87|91:68,1,150,2|0,0:0|0:0,0:0:0:0:
101,64,319267,1,2,0:0:0:0:
288,226,319549,1,10,0:0:0:0:
60,328,319830,6,0,L|39:165,1,150,4|0,0:0|0:0,0:0:0:0:
43,162,320112,1,2,0:0:0:0:
219,27,320394,6,0,L|198:190,1,150,2|0,0:0|0:0,0:0:0:0:
196,193,320675,1,10,0:0:0:0:
63,0,320957,5,8,0:0:0:0:
115,17,321028,1,8,0:0:0:0:
115,72,321098,1,8,0:0:0:0:
63,89,321168,1,8,0:0:0:0:
31,44,321243,6,0,B|67:36|90:57|90:57|59:153|108:230,1,220.000006713867,4|0,0:0|0:0,0:0:0:0:
152,260,321598,1,0,0:0:0:0:
149,273,321669,1,10,0:1:0:0:
74,348,321811,1,2,0:1:0:0:
170,187,321953,1,10,0:1:0:0:
231,344,322096,1,2,0:1:0:0:
96,209,322238,1,10,0:1:0:0:
364,135,322380,6,0,B|389:139|403:163|403:163|409:161|409:161|420:180|421:207|421:207|428:203|428:203|433:233|428:257|428:257|431:262|431:262|421:281|400:297|400:297|406:297|406:297|397:325|377:336|377:336|379:339|379:339|359:347|326:352|326:352|326:355|326:355|299:367|284:368|284:368|285:372|285:372|266:365|245:355|245:355|247:358|247:358|214:352|192:335|192:335|193:331|193:331|177:321|170:281|170:281|168:286|168:286|155:250|160:229|160:229|168:231|168:231|179:200|207:187|207:187|211:182|211:182|255:178|283:206|283:206|286:205|286:205|319:228|329:261|329:261|336:263|336:263|314:290|286:292|286:292|286:296|286:296|243:287|229:246,1,974.999955368044,2|0,0:1|0:0,0:0:0:0:
232,250,323517,6,0,B|394:203|394:203|389:232|409:257,1,220.000006713867,4|0,0:0|0:0,0:0:0:0:
477,278,323873,1,0,0:0:0:0:
474,289,323944,1,10,0:1:0:0:
470,148,324086,1,2,0:1:0:0:
347,291,324228,1,10,0:1:0:0:
301,89,324370,1,2,0:1:0:0:
390,197,324513,1,10,0:1:0:0:
461,18,324655,5,2,0:0:0:0:
465,51,324726,1,8,0:0:0:0:
445,26,324797,1,0,0:0:0:0:
457,57,324868,1,8,0:0:0:0:
429,41,324939,1,2,0:0:0:0:
448,68,325010,1,8,0:0:0:0:
417,58,325081,1,0,0:0:0:0:
442,80,325152,1,8,0:0:0:0:
410,77,325224,1,2,0:0:0:0:
439,91,325295,1,8,0:0:0:0:
407,95,325366,1,0,0:0:0:0:
440,102,325437,1,8,0:0:0:0:
410,114,325508,1,2,0:0:0:0:
443,111,325579,1,8,0:0:0:0:
417,129,325650,1,0,0:0:0:0:
447,118,325721,1,8,0:0:0:0:
438,148,325792,6,0,B|420:166|445:177|449:205|449:205|439:175|463:155|422:139,1,125,4|0,0:2|0:0,0:0:0:0:
437,147,327301,6,0,L|420:145,2,13.3333329264323,0|0|8,0:0|0:0|0:0,0:0:0:0:
434,138,327490,6,0,P|426:113|418:150,1,104.999996795654,8|0,0:0|0:0,0:0:0:0:
491,55,328056,5,4,0:2:0:0:
434,25,328126,1,8,0:0:0:0:
369,33,328197,1,2,0:1:0:0:
330,85,328268,1,8,0:0:0:0:
329,150,328339,1,2,0:1:0:0:
368,201,328409,1,8,0:0:0:0:
378,265,328480,1,2,0:1:0:0:
353,325,328551,1,8,0:0:0:0:
292,350,328622,1,2,0:1:0:0:
234,341,328692,1,8,0:0:0:0:
196,295,328763,1,2,0:1:0:0:
183,237,328834,1,8,0:0:0:0:
204,182,328905,1,2,0:1:0:0:
204,124,328975,1,8,0:0:0:0:
169,76,329046,1,2,0:1:0:0:
113,57,329117,1,8,0:0:0:0:
58,77,329188,1,2,0:1:0:0:
30,120,329258,1,8,0:0:0:0:
28,172,329329,1,2,0:1:0:0:
55,216,329400,1,8,0:0:0:0:
103,236,329471,1,2,0:1:0:0:
155,232,329542,1,8,0:0:0:0:
196,200,329612,1,2,0:1:0:0:
248,196,329683,1,8,0:0:0:0:
295,216,329754,1,2,0:1:0:0:
317,256,329825,1,8,0:0:0:0:
314,300,329895,1,2,0:1:0:0:
290,339,329966,1,8,0:0:0:0:
248,358,330037,1,2,0:1:0:0:
202,351,330108,1,8,0:0:0:0:
168,321,330178,1,2,0:1:0:0:
157,276,330249,1,8,0:0:0:0:
174,233,330320,5,4,0:1:0:0:
201,205,330391,1,8,0:0:0:0:
212,168,330461,1,0,0:0:0:0:
206,129,330532,1,8,0:0:0:0:
181,98,330603,1,2,0:1:0:0:
142,88,330674,1,8,0:0:0:0:
104,97,330744,1,2,0:1:0:0:
76,125,330815,1,8,0:0:0:0:
66,163,330886,1,2,0:1:0:0:
75,194,330957,1,8,0:0:0:0:
97,216,331027,1,2,0:1:0:0:
128,224,331098,1,8,0:0:0:0:
160,217,331169,1,2,0:1:0:0:
180,192,331240,1,8,0:0:0:0:
183,160,331310,1,2,0:1:0:0:
166,132,331381,1,8,0:0:0:0:
133,127,331452,1,2,0:1:0:0:
108,135,331523,1,8,0:0:0:0:
89,152,331593,1,2,0:1:0:0:
79,176,331664,1,8,0:0:0:0:
80,202,331735,1,2,0:1:0:0:
92,224,331806,1,8,0:0:0:0:
113,237,331876,1,2,0:1:0:0:
138,242,331947,1,8,0:0:0:0:
157,238,332018,1,2,0:1:0:0:
173,227,332089,1,8,0:0:0:0:
184,211,332159,1,2,0:1:0:0:
197,197,332230,1,8,0:0:0:0:
214,188,332301,1,2,0:1:0:0:
233,184,332372,1,8,0:0:0:0:
252,186,332442,1,2,0:1:0:0:
269,194,332513,1,8,0:0:0:0:
282,208,332584,5,4,0:1:0:0:
287,219,332655,1,8,0:0:0:0:
288,231,332725,1,0,0:0:0:0:
285,243,332796,1,8,0:0:0:0:
279,254,332867,1,2,0:1:0:0:
270,263,332938,1,8,0:0:0:0:
259,270,333008,1,2,0:1:0:0:
246,272,333079,1,8,0:0:0:0:
233,270,333150,1,2,0:1:0:0:
220,264,333221,1,8,0:0:0:0:
210,254,333292,1,2,0:1:0:0:
205,241,333362,1,8,0:0:0:0:
205,227,333433,1,2,0:1:0:0:
210,215,333504,1,8,0:0:0:0:
220,206,333575,1,2,0:1:0:0:
232,201,333645,1,8,0:0:0:0:
244,202,333716,1,2,0:1:0:0:
250,204,333787,1,8,0:0:0:0:
254,208,333858,1,2,0:1:0:0:
257,213,333928,1,8,0:0:0:0:
259,218,333999,1,2,0:1:0:0:
259,224,334070,1,8,0:0:0:0:
257,230,334141,1,2,0:1:0:0:
254,235,334211,1,8,0:0:0:0:
249,239,334282,1,2,0:1:0:0:
243,242,334353,1,8,0:0:0:0:
236,244,334424,1,2,0:1:0:0:
229,244,334494,1,8,0:0:0:0:
222,241,334565,1,2,0:1:0:0:
217,236,334636,1,8,0:0:0:0:
213,230,334707,1,2,0:1:0:0:
211,223,334777,1,8,0:0:0:0:
212,217,334848,6,0,L|287:227,3,55.0000016784668,4|8|0|8,0:0|0:0|0:0|0:0,0:0:0:0:
183,330,335131,2,0,L|108:340,3,55.0000016784668,2|8|2|8,0:1|0:0|0:1|0:0,0:0:0:0:
27,242,335414,5,4,0:1:0:0:
38,198,335485,1,8,0:0:0:0:
75,174,335556,1,0,0:0:0:0:
118,175,335626,1,8,0:0:0:0:
155,197,335697,1,2,0:1:0:0:
199,197,335768,1,8,0:0:0:0:
233,169,335839,1,2,0:1:0:0:
242,126,335909,1,8,0:0:0:0:
224,85,335980,5,4,0:1:0:0:
198,114,336051,1,8,0:0:0:0:
192,152,336122,1,0,0:0:0:0:
209,185,336192,1,8,0:0:0:0:
241,206,336263,1,2,0:1:0:0:
279,208,336334,1,8,0:0:0:0:
312,188,336405,1,2,0:1:0:0:
330,154,336475,1,8,0:0:0:0:
328,115,336546,5,4,0:2:0:0:
301,135,336617,1,8,0:0:0:0:
277,158,336688,1,0,0:0:0:0:
259,185,336758,1,8,0:0:0:0:
248,216,336829,1,2,0:1:0:0:
242,248,336900,1,8,0:0:0:0:
239,281,336971,1,2,0:1:0:0:
243,313,337042,1,8,0:0:0:0:
256,342,337112,6,0,L|322:324,3,55.0000016784668,4|8|2|8,0:1|0:0|0:1|0:0,0:0:0:0:
398,244,337395,2,0,L|345:230,3,55.0000016784668,2|8|2|8,0:1|0:0|0:1|0:0,0:0:0:0:
478,368,337678,5,2,0:1:0:0:
448,352,337749,1,8,0:0:0:0:
423,329,337820,1,2,0:1:0:0:
409,298,337891,1,8,0:0:0:0:
405,265,337961,1,2,0:1:0:0:
410,232,338032,1,8,0:0:0:0:
423,201,338103,1,2,0:1:0:0:
447,178,338174,1,8,0:0:0:0:
477,167,338244,5,2,0:1:0:0:
469,204,338315,1,8,0:0:0:0:
440,230,338386,1,2,0:1:0:0:
402,238,338457,1,8,0:0:0:0:
365,226,338527,1,2,0:1:0:0:
337,198,338598,1,8,0:0:0:0:
301,183,338669,1,2,0:1:0:0:
262,189,338740,1,8,0:0:0:0:
230,210,338810,5,2,0:1:0:0:
258,226,338881,1,8,0:0:0:0:
290,229,338952,1,2,0:1:0:0:
319,214,339023,1,8,0:0:0:0:
339,188,339093,1,2,0:1:0:0:
345,155,339164,1,8,0:0:0:0:
336,123,339235,1,2,0:1:0:0:
316,96,339306,1,8,0:0:0:0:
284,86,339376,6,0,L|274:161,3,55.0000016784668,4|8|0|8,0:1|0:0|0:0|0:0,0:0:0:0:
188,214,339659,2,0,L|178:139,3,55.0000016784668,2|8|2|8,0:1|0:0|0:1|0:0,0:0:0:0:
147,19,339942,5,2,0:1:0:0:
165,53,340012,1,8,0:0:0:0:
166,92,340083,1,2,0:1:0:0:
150,128,340154,1,8,0:0:0:0:
120,152,340225,1,2,0:1:0:0:
82,159,340295,1,8,0:0:0:0:
45,146,340367,1,2,0:1:0:0:
17,118,340437,1,8,0:0:0:0:
8,80,340508,5,2,0:1:0:0:
49,64,340579,1,8,0:0:0:0:
92,71,340650,1,2,0:1:0:0:
122,102,340721,1,8,0:0:0:0:
135,144,340792,1,2,0:1:0:0:
132,187,340862,1,8,0:0:0:0:
149,227,340933,1,2,0:1:0:0:
188,247,341004,1,8,0:0:0:0:
231,239,341075,5,2,0:1:0:0:
203,212,341145,1,8,0:0:0:0:
165,202,341216,1,2,0:1:0:0:
126,203,341287,1,8,0:0:0:0:
89,216,341358,1,2,0:1:0:0:
59,240,341428,1,8,0:0:0:0:
43,275,341499,1,2,0:1:0:0:
36,313,341570,1,8,0:0:0:0:
45,350,341641,5,8,0:0:0:0:
98,342,341711,1,8,0:0:0:0:
152,334,341782,1,8,0:0:0:0:
206,326,341853,1,8,0:0:0:0:
212,314,341924,5,8,0:0:0:0:
244,318,341994,1,8,0:0:0:0:
276,322,342065,1,8,0:0:0:0:
308,327,342136,1,8,0:0:0:0:
318,348,342207,5,8,0:0:0:0:
323,293,342277,1,8,0:0:0:0:
329,238,342348,1,8,0:0:0:0:
335,183,342419,1,8,0:0:0:0:
351,178,342490,5,8,0:0:0:0:
348,145,342560,1,8,0:0:0:0:
345,111,342631,1,8,0:0:0:0:
342,77,342702,1,8,0:0:0:0:
315,46,342773,5,8,0:0:0:0:
368,56,342843,1,8,0:0:0:0:
421,67,342914,1,8,0:0:0:0:
474,78,342985,1,8,0:0:0:0:
485,72,343056,5,8,0:0:0:0:
480,104,343126,1,8,0:0:0:0:
474,136,343197,1,8,0:0:0:0:
469,168,343268,1,8,0:0:0:0:
450,183,343339,5,8,0:0:0:0:
451,204,343409,1,8,0:0:0:0:
453,225,343480,1,8,0:0:0:0:
455,246,343551,1,8,0:0:0:0:
475,264,343622,5,8,0:0:0:0:
474,274,343692,1,8,0:0:0:0:
473,285,343763,2,0,L|463:357,1,55.0000016784668,8|8,0:0|0:0,0:0:0:0:
327,254,343904,5,4,3:1:0:0:
285,209,343975,1,8,3:0:0:0:
226,205,344046,1,0,3:0:0:0:
180,236,344117,1,8,3:0:0:0:
158,286,344187,1,0,3:0:0:0:
170,332,344258,1,8,3:0:0:0:
206,352,344329,2,0,P|245:347|267:313,1,59.9999981689454,0|8,3:0|3:0,3:0:0:0:
295,166,344471,5,4,0:1:0:0:
305,180,344542,1,8,0:0:0:0:
312,196,344612,1,0,0:0:0:0:
315,213,344683,1,8,0:0:0:0:
313,230,344754,5,0,0:0:0:0:
258,233,344825,1,8,0:0:0:0:
216,200,344895,1,0,0:0:0:0:
206,146,344966,1,8,0:0:0:0:
235,100,345037,1,2,0:1:0:0:
278,79,345108,1,8,0:0:0:0:
318,88,345178,1,2,0:1:0:0:
343,113,345249,1,8,0:0:0:0:
348,142,345320,2,0,L|278:153,3,59.9999981689454,2|8|2|8,0:1|0:0|0:1|0:0,0:0:0:0:
205,6,345603,5,2,0:1:0:0:
191,58,345674,1,8,0:0:0:0:
153,87,345744,1,2,0:1:0:0:
111,94,345815,1,8,0:0:0:0:
76,82,345886,2,0,P|52:63|38:29,3,59.9999981689454,2|8|2|8,0:1|0:0|0:1|0:0,0:0:0:0:
163,159,346169,5,2,0:1:0:0:
187,213,346240,1,8,0:0:0:0:
177,271,346310,1,2,0:1:0:0:
131,310,346381,1,8,0:0:0:0:
70,309,346452,1,2,0:1:0:0:
28,273,346523,1,8,0:0:0:0:
22,225,346593,1,2,0:1:0:0:
42,188,346664,1,8,0:0:0:0:
75,173,346735,2,0,L|93:248,3,59.9999981689454,2|8|2|8,0:1|0:0|0:1|0:0,0:0:0:0:
181,363,347018,5,2,0:1:0:0:
198,305,347089,1,8,0:0:0:0:
246,271,347159,1,2,0:1:0:0:
306,271,347230,1,8,0:0:0:0:
354,306,347301,1,2,0:1:0:0:
386,349,347372,1,8,0:0:0:0:
432,359,347442,1,2,0:1:0:0:
472,346,347513,1,8,0:0:0:0:
489,314,347584,5,2,0:1:0:0:
437,283,347655,1,8,0:0:0:0:
385,297,347725,1,2,0:1:0:0:
357,336,347796,1,8,0:0:0:0:
367,376,347867,2,0,L|445:361,3,59.9999981689454,2|8|2|8,0:1|0:0|0:1|0:0,0:0:0:0:
305,287,348150,2,0,L|227:272,3,59.9999981689454,2|8|2|8,0:1|0:0|0:1|0:0,0:0:0:0:
400,212,348433,5,4,0:1:0:0:
438,182,348504,1,8,0:0:0:0:
450,135,348575,1,0,0:0:0:0:
438,88,348645,1,8,0:0:0:0:
402,55,348716,1,2,0:1:0:0:
360,48,348787,1,8,0:0:0:0:
328,64,348858,1,2,0:1:0:0:
315,90,348928,1,8,0:0:0:0:
320,113,348999,2,0,L|390:101,3,59.9999981689454,2|8|2|8,0:1|0:0|0:1|0:0,0:0:0:0:
202,3,349282,5,2,0:1:0:0:
235,37,349353,1,8,0:0:0:0:
239,84,349424,1,2,0:1:0:0:
218,126,349494,1,8,0:0:0:0:
176,150,349565,1,2,0:1:0:0:
133,152,349636,1,8,0:0:0:0:
101,134,349707,1,2,0:1:0:0:
86,108,349777,1,8,0:0:0:0:
86,83,349848,5,2,0:1:0:0:
133,90,349919,1,8,0:0:0:0:
160,129,349990,1,2,0:1:0:0:
160,176,350060,1,8,0:0:0:0:
130,214,350131,1,2,0:1:0:0:
93,235,350202,1,8,0:0:0:0:
74,265,350273,1,2,0:1:0:0:
72,294,350343,1,8,0:0:0:0:
81,316,350414,2,0,P|112:340|145:342,3,59.9999981689454,2|8|2|8,0:1|0:0|0:1|0:0,0:0:0:0:
224,262,350697,5,4,0:0:0:0:
260,230,350768,1,8,0:0:0:0:
307,221,350839,1,0,0:0:0:0:
354,225,350909,1,8,0:0:0:0:
397,245,350980,1,2,0:1:0:0:
428,273,351051,1,8,0:0:0:0:
444,305,351122,1,2,0:1:0:0:
448,334,351192,1,8,0:0:0:0:
447,358,351263,2,0,L|382:371,3,59.9999981689454,2|8|2|8,0:1|0:0|0:1|0:0,0:0:0:0:
313,291,351546,5,2,0:1:0:0:
303,243,351617,1,8,0:0:0:0:
322,198,351688,1,2,0:1:0:0:
365,179,351758,1,8,0:0:0:0:
413,183,351829,1,2,0:1:0:0:
453,171,351900,1,8,0:0:0:0:
475,141,351971,1,2,0:1:0:0:
480,111,352042,1,8,0:0:0:0:
472,88,352112,5,2,0:1:0:0:
425,101,352183,1,8,0:0:0:0:
397,140,352254,1,2,0:1:0:0:
397,188,352325,1,8,0:0:0:0:
427,224,352395,1,2,0:1:0:0:
467,234,352466,1,8,0:0:0:0:
499,218,352537,1,2,0:1:0:0:
508,189,352608,1,8,0:0:0:0:
498,167,352678,2,0,L|439:179,3,59.9999981689454,2|8|2|8,0:1|0:0|0:1|0:0,0:0:0:0:
355,60,352961,5,4,0:0:0:0:
313,25,353032,1,8,0:0:0:0:
258,21,353103,1,0,0:0:0:0:
213,52,353174,1,8,0:0:0:0:
195,102,353244,1,2,0:1:0:0:
162,137,353315,1,8,0:0:0:0:
120,143,353386,1,2,0:1:0:0:
85,131,353457,1,8,0:0:0:0:
66,107,353527,2,0,P|57:79|65:46,3,59.9999981689454,2|8|2|8,0:1|0:0|0:1|0:0,0:0:0:0:
209,90,353810,5,2,0:1:0:0:
242,132,353881,1,8,0:0:0:0:
248,185,353952,1,2,0:1:0:0:
225,234,354023,1,8,0:0:0:0:
186,271,354093,1,2,0:1:0:0:
139,282,354164,1,8,0:0:0:0:
97,276,354235,1,2,0:1:0:0:
66,255,354306,1,8,0:0:0:0:
54,227,354376,2,0,L|134:217,3,59.9999981689454,2|8|2|8,0:1|0:0|0:1|0:0,0:0:0:0:
127,355,354659,2,0,L|47:345,3,59.9999981689454,2|8|2|8,0:1|0:0|0:1|0:0,0:0:0:0:
238,239,354942,2,0,L|230:179,3,59.9999981689454,2|8|2|8,0:1|0:0|0:1|0:0,0:0:0:0:
209,325,355225,5,4,0:0:0:0:
242,373,355296,1,8,0:0:0:0:
301,384,355367,1,0,0:0:0:0:
351,354,355437,1,8,0:0:0:0:
363,296,355508,1,2,0:1:0:0:
398,256,355579,1,8,0:0:0:0:
445,247,355650,1,2,0:1:0:0:
482,267,355721,1,8,0:0:0:0:
492,302,355792,2,0,L|403:309,3,59.9999981689454,2|8|2|8,0:1|0:0|0:1|0:0,0:0:0:0:
394,184,356075,5,2,0:1:0:0:
345,149,356145,1,8,0:0:0:0:
325,92,356216,1,2,0:1:0:0:
337,33,356287,1,8,0:0:0:0:
388,2,356358,1,2,0:1:0:0:
440,12,356428,1,8,0:0:0:0:
462,54,356499,1,2,0:1:0:0:
455,95,356570,1,8,0:0:0:0:
426,117,356641,5,2,0:1:0:0:
382,76,356711,1,8,0:0:0:0:
322,65,356782,1,2,0:1:0:0:
269,94,356853,1,8,0:0:0:0:
248,150,356924,1,2,0:1:0:0:
208,185,356994,1,8,0:0:0:0:
159,185,357065,1,2,0:1:0:0:
126,158,357136,1,8,0:0:0:0:
121,122,357207,2,0,L|193:111,3,59.9999981689454,2|8|2|8,0:1|0:0|0:1|0:0,0:0:0:0:
33,23,357490,5,4,0:0:0:0:
91,52,357560,1,8,0:0:0:0:
106,116,357631,1,0,0:0:0:0:
77,175,357702,1,8,0:0:0:0:
22,211,357773,1,2,0:1:0:0:
7,268,357843,1,8,0:0:0:0:
30,316,357914,1,2,0:1:0:0:
74,334,357985,1,8,0:0:0:0:
113,319,358056,2,0,L|94:243,3,59.9999981689454,2|8|2|8,0:1|0:0|0:1|0:0,0:0:0:0:
251,214,358339,5,2,0:1:0:0:
208,263,358409,1,8,0:0:0:0:
218,328,358480,1,2,0:1:0:0:
277,357,358551,1,8,0:0:0:0:
341,340,358622,1,2,0:1:0:0:
364,285,358692,1,8,0:0:0:0:
404,249,358763,1,2,0:1:0:0:
451,243,358834,1,8,0:0:0:0:
488,263,358905,1,2,0:1:0:0:
500,296,358975,1,8,0:0:0:0:
492,325,359046,1,2,0:1:0:0:
474,341,359117,1,8,0:0:0:0:
456,343,359188,2,0,L|470:272,3,59.9999981689454,2|8|2|8,0:1|0:0|0:1|0:0,0:0:0:0:
367,169,359471,2,0,L|381:240,3,59.9999981689454,2|8|2|8,0:1|0:0|0:1|0:0,0:0:0:0:
479,49,359754,5,4,0:0:0:0:
480,109,359825,1,8,0:0:0:0:
442,155,359895,1,0,0:0:0:0:
381,157,359966,1,8,0:0:0:0:
337,114,360037,1,2,0:1:0:0:
315,57,360108,1,8,0:0:0:0:
262,28,360178,1,2,0:1:0:0:
201,29,360249,1,8,0:0:0:0:
156,69,360320,1,2,0:1:0:0:
142,127,360391,1,8,0:0:0:0:
164,181,360461,1,2,0:1:0:0:
213,214,360532,1,8,0:0:0:0:
238,268,360603,1,2,0:1:0:0:
222,326,360674,1,8,0:0:0:0:
177,365,360744,1,2,0:1:0:0:
117,359,360815,1,8,0:0:0:0:
78,313,360886,5,8,0:0:0:0:
143,306,360957,1,8,0:0:0:0:
208,299,361027,1,8,0:0:0:0:
273,293,361098,1,8,0:0:0:0:
279,314,361169,5,8,0:0:0:0:
320,319,361240,1,8,0:0:0:0:
361,324,361310,1,8,0:0:0:0:
402,330,361381,1,8,0:0:0:0:
427,351,361452,5,8,0:0:0:0:
419,284,361523,1,8,0:0:0:0:
413,218,361593,1,8,0:0:0:0:
406,151,361664,1,8,0:0:0:0:
380,145,361735,5,8,0:0:0:0:
383,103,361806,1,8,0:0:0:0:
387,61,361876,1,8,0:0:0:0:
392,19,361947,1,8,0:0:0:0:
413,40,362018,6,0,B|366:61|366:61|346:54|346:54|341:57|341:57|311:46|311:46|258:77,1,150.000005722046,4|0,0:2|0:0,0:0:0:0:
141,30,362301,2,0,L|153:107,1,59.9999981689454,2|8,0:0|0:0,0:0:0:0:
228,194,362442,2,0,L|240:117,1,59.9999981689454,2|8,0:0|0:0,0:0:0:0:
130,34,362584,2,0,L|142:111,1,59.9999981689454,2|8,0:0|0:0,0:0:0:0:
237,202,362725,2,0,L|249:125,1,59.9999981689454,2|8,0:0|0:0,0:0:0:0:
48,148,362867,6,0,B|75:190|75:190|98:200|98:200|79:214|79:214|50:272,1,150.000005722046,4|0,0:2|0:0,0:0:0:0:
7,351,363150,2,0,L|97:363,1,59.9999981689454,2|8,0:0|0:0,0:0:0:0:
203,274,363291,2,0,L|113:286,1,59.9999981689454,2|8,0:0|0:0,0:0:0:0:
10,362,363433,2,0,L|100:374,1,59.9999981689454,2|8,0:0|0:0,0:0:0:0:
200,285,363574,2,0,L|110:297,1,59.9999981689454,2|8,0:0|0:0,0:0:0:0:
303,384,363716,6,0,B|312:358|308:338|308:338|344:313|344:313|367:279|367:279|362:257|380:203,1,179.999994506836,4|0,0:0|0:0,0:0:0:0:
294,246,363999,2,0,B|329:273|338:296|338:296|344:289|344:289|470:274,1,179.999994506836,4|0,0:2|0:0,0:0:0:0:
480,344,364282,6,0,B|490:290|490:290|495:286|495:286|498:239|498:239|460:179,1,150.000005722046,4|0,0:1|0:0,0:0:0:0:
335,98,364565,2,0,L|345:174,1,59.9999981689454,2|8,0:0|0:0,0:0:0:0:
482,127,364707,2,0,L|492:51,1,59.9999981689454,2|8,0:0|0:0,0:0:0:0:
326,102,364848,2,0,L|336:178,1,59.9999981689454,2|8,0:0|0:0,0:0:0:0:
473,123,364990,2,0,L|483:47,1,59.9999981689454,2|8,0:0|0:0,0:0:0:0:
278,28,365131,6,0,B|306:5|306:5|307:11|307:11|413:44,1,150.000005722046,4|0,0:2|0:0,0:0:0:0:
242,149,365414,2,0,L|182:141,1,59.9999981689454,2|8,0:0|0:0,0:0:0:0:
140,28,365556,2,0,L|199:20,1,59.9999981689454,2|8,0:0|0:0,0:0:0:0:
235,162,365697,2,0,L|175:154,1,59.9999981689454,2|8,0:0|0:0,0:0:0:0:
134,38,365839,2,0,L|193:30,1,59.9999981689454,2|8,0:0|0:0,0:0:0:0:
6,111,365980,6,0,B|20:145|20:145|16:154|16:154|70:147|109:107|109:107|62:86,1,179.999994506836,4|0,0:0|0:0,0:0:0:0:
28,37,366263,2,0,B|63:60|78:101|78:101|86:105|86:105|101:155|68:208,1,179.999994506836,4|0,0:2|0:0,0:0:0:0:
7,254,366546,6,0,B|53:233|53:233|73:240|73:240|79:237|79:237|109:248|109:248|162:217,1,150.000005722046,4|0,0:1|0:0,0:0:0:0:
339,225,366829,2,0,L|263:238,1,59.9999981689454,2|8,0:0|0:0,0:0:0:0:
194,150,366971,2,0,L|270:137,1,59.9999981689454,2|8,0:0|0:0,0:0:0:0:
338,214,367112,2,0,L|262:227,1,59.9999981689454,2|8,0:0|0:0,0:0:0:0:
196,136,367254,2,0,L|272:123,1,59.9999981689454,2|8,0:0|0:0,0:0:0:0:
194,376,367395,6,0,B|180:332|180:332|160:311|160:311|183:302|183:302|221:244,1,150.000005722046,4|0,0:2|0:0,0:0:0:0:
342,126,367678,2,0,L|355:202,1,59.9999981689454,2|8,0:0|0:0,0:0:0:0:
309,316,367820,2,0,L|296:240,1,59.9999981689454,2|8,0:0|0:0,0:0:0:0:
331,127,367961,2,0,L|344:203,1,59.9999981689454,2|8,0:0|0:0,0:0:0:0:
295,314,368103,2,0,L|282:238,1,59.9999981689454,2|8,0:0|0:0,0:0:0:0:
512,163,368244,6,0,B|489:178|468:179|468:179|454:220|454:220|427:251|427:251|404:252|357:284,1,179.999994506836,4|0,0:0|0:0,0:0:0:0:
460,325,368527,2,0,B|424:298|400:295|400:295|405:287|405:287|387:162,1,179.999994506836,4|0,0:2|0:0,0:0:0:0:
510,91,368810,6,0,B|520:145|520:145|525:149|525:149|528:196|528:196|490:256,1,150.000005722046,4|0,0:1|0:0,0:0:0:0:
350,85,369093,2,0,L|426:72,1,59.9999981689454,2|8,0:0|0:0,0:0:0:0:
512,11,369235,2,0,L|436:-2,1,59.9999981689454,2|8,0:0|0:0,0:0:0:0:
351,93,369376,2,0,L|427:80,1,59.9999981689454,2|8,0:0|0:0,0:0:0:0:
510,21,369518,2,0,L|434:8,1,59.9999981689454,2|8,0:0|0:0,0:0:0:0:
261,26,369659,6,0,B|238:60|238:60|244:63|244:63|274:170,1,150.000005722046,4|0,0:2|0:0,0:0:0:0:
358,301,369942,5,8,0:0:0:0:
293,313,370013,1,8,0:0:0:0:
228,324,370084,1,8,0:0:0:0:
163,337,370155,1,8,0:0:0:0:
162,357,370225,5,8,0:0:0:0:
120,348,370296,1,8,0:0:0:0:
78,339,370367,1,8,0:0:0:0:
36,332,370438,1,8,0:0:0:0:
20,350,370508,5,8,0:0:0:0:
30,284,370579,1,8,0:0:0:0:
40,217,370650,1,8,0:0:0:0:
50,151,370721,1,8,0:0:0:0:
76,150,370791,5,8,0:0:0:0:
70,108,370862,1,8,0:0:0:0:
65,66,370933,1,8,0:0:0:0:
58,24,371004,1,8,0:0:0:0:
26,19,371075,5,12,0:1:0:0:
15,82,371145,1,0,0:0:0:0:
55,133,371216,1,8,0:0:0:0:
119,126,371287,1,0,0:0:0:0:
177,98,371358,1,8,0:0:0:0:
240,106,371428,1,0,0:0:0:0:
276,159,371499,5,12,0:1:0:0:
247,169,371570,1,0,0:0:0:0:
217,162,371641,1,8,0:0:0:0:
199,137,371711,1,0,0:0:0:0:
197,106,371782,1,8,0:0:0:0:
210,79,371853,1,0,0:0:0:0:
234,61,371924,5,12,0:1:0:0:
280,104,371994,1,0,0:0:0:0:
274,168,372065,1,8,0:0:0:0:
221,206,372136,1,0,0:0:0:0:
191,263,372207,1,8,0:0:0:0:
203,325,372277,1,0,0:0:0:0:
260,356,372348,5,12,0:1:0:0:
248,328,372419,1,0,0:0:0:0:
222,311,372490,1,8,0:0:0:0:
192,307,372560,1,0,0:0:0:0:
163,317,372631,1,8,0:0:0:0:
142,338,372702,1,0,0:0:0:0:
138,371,372773,6,0,B|181:385|181:385|371:334,1,202.500000772476,4|0,0:0|0:0,0:0:0:0:
430,357,373056,1,4,0:0:0:0:
430,357,373197,1,0,0:0:0:0:
500,120,373339,5,12,0:1:0:0:
504,56,373409,1,0,0:0:0:0:
465,3,373480,1,8,0:0:0:0:
399,3,373551,1,0,0:0:0:0:
351,47,373622,1,8,0:0:0:0:
352,111,373692,1,0,0:0:0:0:
399,155,373763,5,12,0:1:0:0:
415,130,373834,1,0,0:0:0:0:
418,101,373905,1,8,0:0:0:0:
409,73,373975,1,0,0:0:0:0:
388,51,374046,1,8,0:0:0:0:
360,39,374117,1,0,0:0:0:0:
331,47,374188,5,12,0:1:0:0:
326,110,374258,1,0,0:0:0:0:
273,147,374329,1,8,0:0:0:0:
208,137,374400,1,0,0:0:0:0:
164,88,374471,1,8,0:0:0:0:
100,82,374541,1,0,0:0:0:0:
51,125,374612,5,12,0:1:0:0:
79,134,374683,1,0,0:0:0:0:
108,130,374754,1,8,0:0:0:0:
129,108,374825,1,0,0:0:0:0:
136,79,374895,1,8,0:0:0:0:
133,49,374966,1,0,0:0:0:0:
104,30,375037,6,0,B|80:115|80:115|86:127|86:127|57:241,1,202.500000772476,4|0,0:0|0:0,0:0:0:0:
84,321,375320,1,4,0:0:0:0:
84,321,375461,1,0,0:0:0:0:
213,208,375603,5,12,0:1:0:0:
276,194,375674,1,0,0:0:0:0:
335,218,375744,1,8,0:0:0:0:
356,279,375815,1,0,0:0:0:0:
408,316,375886,1,8,0:0:0:0:
472,311,375957,1,0,0:0:0:0:
507,257,376027,5,12,0:1:0:0:
480,242,376098,1,0,0:0:0:0:
450,244,376169,1,8,0:0:0:0:
425,261,376240,1,0,0:0:0:0:
410,286,376310,1,8,0:0:0:0:
414,315,376381,1,0,0:0:0:0:
425,342,376452,5,12,0:1:0:0:
465,290,376523,1,0,0:0:0:0:
449,227,376593,1,8,0:0:0:0:
391,196,376664,1,0,0:0:0:0:
363,137,376735,1,8,0:0:0:0:
387,76,376806,1,0,0:0:0:0:
448,58,376876,5,12,0:1:0:0:
443,87,376947,1,0,0:0:0:0:
421,108,377018,1,8,0:0:0:0:
391,115,377089,1,0,0:0:0:0:
361,109,377159,1,8,0:0:0:0:
337,90,377230,1,0,0:0:0:0:
328,57,377301,6,0,B|248:6|248:6|106:70,1,202.500000772476,4|0,0:2|0:0,0:0:0:0:
178,134,377584,1,4,0:0:0:0:
178,134,377725,1,0,0:0:0:0:
13,258,377867,5,12,0:1:0:0:
21,314,377938,1,0,0:0:0:0:
63,351,378008,1,8,0:0:0:0:
120,348,378079,1,0,0:0:0:0:
162,309,378150,1,8,0:0:0:0:
171,252,378221,1,0,0:0:0:0:
147,201,378291,5,12,0:1:0:0:
120,215,378362,1,0,0:0:0:0:
101,239,378433,1,8,0:0:0:0:
96,268,378504,1,0,0:0:0:0:
101,297,378575,1,8,0:0:0:0:
122,317,378645,1,0,0:0:0:0:
150,326,378716,5,12,0:1:0:0:
194,289,378787,1,0,0:0:0:0:
251,285,378858,1,8,0:0:0:0:
291,324,378928,1,0,0:0:0:0:
342,349,378999,1,8,0:0:0:0:
398,342,379070,1,0,0:0:0:0:
413,286,379141,5,12,0:1:0:0:
384,276,379211,1,0,0:0:0:0:
354,279,379282,1,8,0:0:0:0:
331,299,379353,1,0,0:0:0:0:
317,326,379424,1,8,0:0:0:0:
319,355,379494,1,0,0:0:0:0:
337,384,379565,6,0,P|361:284|402:170,1,202.500000772476,8|0,0:0|0:0,0:0:0:0:
435,103,379848,6,0,B|456:92|456:92|460:42|460:42|426:81|426:81|435:103,1,150.000005722046,8|0,0:0|0:0,0:0:0:0:
