osu file format v14

[General]
AudioFilename: audio.mp3
AudioLeadIn: 0
PreviewTime: 122047
Countdown: 0
SampleSet: Normal
StackLeniency: 0.6
Mode: 0
LetterboxInBreaks: 0
WidescreenStoryboard: 0

[Editor]
Bookmarks: 16047,48547,66047
DistanceSpacing: 1.8
BeatDivisor: 4
GridSize: 32
TimelineZoom: 1.9

[Metadata]
Title:Sommarfagel (Video Edit)
TitleUnicode:SommarfÄgel (Video Edit)
Artist:Wintergatan
ArtistUnicode:Wintergatan
Creator:CookieBite
Version:nvm
Source:Wintergatan
Tags:Sweden
BeatmapID:1256704
BeatmapSetID:594112

[Difficulty]
HPDrainRate:6
CircleSize:4
OverallDifficulty:8
ApproachRate:9
SliderMultiplier:1.5
SliderTickRate:1

[Events]
//Background and Video events
0,0,"summerbirdbg.jpg",0,0
//Break Periods
//Storyboard Layer 0 (Background)
//Storyboard Layer 1 (Fail)
//Storyboard Layer 2 (Pass)
//Storyboard Layer 3 (Foreground)
//Storyboard Sound Samples

[TimingPoints]
48,333.333333333333,3,1,0,60,1,0
16047,-133.333333333333,4,2,0,40,0,0
50047,-117.647058823529,4,2,0,40,0,0
106047,331.491712707182,4,1,0,60,1,0
106047,-100,4,1,0,60,0,0
114002,333.333333333333,4,1,0,60,1,0

[Colours]
Combo1 : 106,208,185
Combo2 : 255,85,85
Combo3 : 137,137,194
Combo4 : 181,98,198

[HitObjects]
92,43,16047,6,0,L|86:167,1,112.500004291535
13,197,16547,2,0,P|54:232|112:236,1,112.500004291535
173,171,17047,2,0,P|214:136|272:132,1,112.500004291535
248,219,17547,2,0,L|244:331,1,112.500004291535
159,363,18047,6,0,P|108:339|53:345,1,112.500004291535
20,261,18547,2,0,L|31:138,1,112.500004291535
38,59,19047,1,0,0:0:0:0:
179,36,19381,1,0,0:0:0:0:
128,171,19714,1,0,0:0:0:0:
271,279,20047,6,0,B|213:296|213:296|158:286,1,112.500004291535
85,334,20547,2,0,L|79:219,1,112.500004291535
13,159,21047,2,0,P|66:133|135:154,1,112.500004291535
179,206,21547,2,0,P|232:232|301:211,1,112.500004291535
352,165,22047,6,0,L|356:222,1,56.2500021457673
432,270,22381,2,0,L|428:327,1,56.2500021457673
345,363,22714,1,0,0:0:0:0:
184,281,23047,6,0,L|117:277,1,56.2500021457673
34,123,23547,2,0,L|90:119,1,56.2500021457673
192,58,23881,1,0,0:0:0:0:
192,58,24047,6,0,P|174:118|196:176,1,112.500004291535
247,215,24547,2,0,L|365:213,1,112.500004291535
411,153,25047,2,0,P|438:214|421:262,1,112.500004291535
368,309,25547,2,0,B|307:319|307:319|251:304,1,112.500004291535
193,259,26047,6,0,B|132:249|132:249|76:264,1,112.500004291535
28,311,26547,2,0,L|32:190,1,112.500004291535
37,114,27047,1,0,0:0:0:0:
192,84,27381,1,0,0:0:0:0:
141,233,27714,1,0,0:0:0:0:
275,335,28047,6,0,P|322:322|385:334,1,112.500004291535
460,368,28547,2,0,B|425:332|425:332|427:264,1,112.500004291535
464,181,29047,2,0,L|404:186,1,56.2500021457673
345,137,29381,2,0,L|285:132,1,56.2500021457673
218,168,29714,1,0,0:0:0:0:
369,210,30047,5,0,0:0:0:0:
455,243,30214,1,0,0:0:0:0:
451,336,30381,1,0,0:0:0:0:
361,360,30547,1,0,0:0:0:0:
305,281,30714,1,0,0:0:0:0:
432,134,31047,2,0,L|435:71,1,56.2500021457673
267,49,31547,2,0,L|270:112,2,56.2500021457673
191,26,32047,6,0,P|141:69|94:65,1,112.500004291535
26,32,32547,2,0,B|62:58|62:58|56:129,1,112.500004291535
29,206,33047,2,0,P|98:203|148:233,1,112.500004291535
195,281,33547,2,0,P|264:284|314:254,1,112.500004291535
350,203,34047,6,0,P|342:270|368:313,1,112.500004291535
422,359,34547,2,0,B|387:343|387:343|307:358,1,112.500004291535
236,366,35047,1,0,0:0:0:0:
91,305,35381,1,0,0:0:0:0:
217,210,35714,1,0,0:0:0:0:
75,320,36047,6,0,P|34:287|20:221,1,112.500004291535
52,159,36547,2,0,L|172:148,1,112.500004291535
223,97,37047,2,0,P|241:160|218:205,1,112.500004291535
146,68,37547,2,0,P|190:20|243:18,1,112.500004291535
324,47,38047,1,0,0:0:0:0:
409,75,38214,1,0,0:0:0:0:
409,165,38381,1,0,0:0:0:0:
324,193,38547,1,0,0:0:0:0:
271,120,38714,1,0,0:0:0:0:
324,193,38881,6,0,P|330:227|326:257,1,56.2500021457673
269,324,39214,1,0,0:0:0:0:
386,314,39381,1,0,0:0:0:0:
240,327,39547,1,0,0:0:0:0:
408,311,39714,1,0,0:0:0:0:
217,331,39881,1,0,0:0:0:0:
428,309,40047,6,0,L|441:187,1,112.500004291535
404,126,40547,2,0,P|349:147|289:137,1,112.500004291535
224,108,41047,1,0,0:0:0:0:
224,108,41214,2,0,B|241:138|241:138|225:232,1,112.500004291535
182,279,41714,2,0,P|252:264|301:288,1,112.500004291535
434,336,42381,6,0,L|427:220,1,112.500004291535
241,143,43047,2,0,L|234:259,2,112.500004291535
104,64,44047,5,0,0:0:0:0:
90,141,44214,1,0,0:0:0:0:
76,218,44381,1,0,0:0:0:0:
62,295,44547,2,0,P|118:283|181:312,1,112.500004291535
230,349,45047,2,0,B|204:327|204:327|211:239,2,112.500004291535
375,287,46047,6,0,L|386:158,1,112.500004291535
338,111,46547,2,0,P|282:143|217:123,1,112.500004291535
183,78,47047,2,0,B|206:122|206:122|191:198,2,112.500004291535
183,78,48547,5,0,0:0:0:0:
265,94,48714,1,0,0:0:0:0:
249,176,48881,1,0,0:0:0:0:
166,160,49047,2,0,P|188:237|270:260,1,168.750006437302
335,221,49714,2,0,B|346:190|346:190|343:158,1,56.2500021457673
277,106,50047,6,0,L|280:35,1,63.7500012159348
193,128,50381,2,0,L|196:57,1,63.7500012159348
109,150,50714,2,0,L|112:79,1,63.7500012159348
25,172,51047,1,0,0:0:0:0:
14,260,51214,1,0,0:0:0:0:
80,319,51381,1,0,0:0:0:0:
168,329,51547,2,0,L|246:326,1,63.7500012159348
309,232,51881,1,0,0:0:0:0:
309,232,52047,6,0,B|303:266|303:266|316:313,1,63.7500012159348
397,207,52381,2,0,B|391:241|391:241|404:288,1,63.7500012159348
484,183,52714,2,0,B|478:217|478:217|491:264,1,63.7500012159348
502,105,53047,1,0,0:0:0:0:
439,40,53214,1,0,0:0:0:0:
351,22,53381,1,0,0:0:0:0:
263,35,53547,2,0,P|252:68|254:108,1,63.7500012159348
286,200,53881,1,0,0:0:0:0:
286,200,54047,6,0,L|218:204,1,63.7500012159348
158,267,54381,2,0,L|90:271,1,63.7500012159348
24,214,54714,2,0,B|16:180|16:180|21:143,1,63.7500012159348
74,80,55047,1,0,0:0:0:0:
157,49,55214,1,0,0:0:0:0:
142,137,55381,1,0,0:0:0:0:
125,224,55547,2,0,L|131:298,1,63.7500012159348
241,317,55881,1,0,0:0:0:0:
241,317,56047,6,0,L|246:253,1,63.7500012159348
323,330,56381,2,0,L|328:266,1,63.7500012159348
404,343,56714,2,0,L|409:279,1,63.7500012159348
415,190,57047,1,0,0:0:0:0:
401,101,57214,1,0,0:0:0:0:
332,43,57381,1,0,0:0:0:0:
243,31,57547,2,0,L|170:36,1,63.7500012159348
102,112,57881,1,0,0:0:0:0:
102,112,58047,6,0,P|133:155|121:234,1,127.50000243187
57,283,58547,2,0,B|124:269|124:269|188:282,1,127.50000243187
261,327,59047,2,0,B|233:294|233:294|236:205,1,127.50000243187
275,129,59547,2,0,P|304:139|349:136,1,63.7500012159348
415,87,59881,1,0,0:0:0:0:
415,87,60047,6,0,L|412:228,1,127.50000243187
417,308,60547,1,0,0:0:0:0:
338,265,60714,1,0,0:0:0:0:
341,354,60881,1,0,0:0:0:0:
271,204,61047,6,0,P|335:173|401:198,1,127.50000243187
417,308,61547,1,0,0:0:0:0:
341,354,61714,1,0,0:0:0:0:
338,265,61881,1,0,0:0:0:0:
391,110,62047,5,0,0:0:0:0:
481,141,62214,1,0,0:0:0:0:
409,204,62381,1,0,0:0:0:0:
309,106,62547,2,0,P|342:41|391:27,1,127.50000243187
481,141,63047,5,0,0:0:0:0:
409,204,63214,1,0,0:0:0:0:
391,110,63381,1,0,0:0:0:0:
454,276,63547,2,0,B|398:284|398:284|374:276|374:276|318:284,1,127.50000243187
247,245,64047,1,0,0:0:0:0:
270,344,64214,1,0,0:0:0:0:
173,314,64381,1,0,0:0:0:0:
46,163,64547,5,0,0:0:0:0:
169,193,64714,1,0,0:0:0:0:
134,71,64881,1,0,0:0:0:0:
142,274,65047,6,0,P|212:267|252:211,1,127.50000243187
231,129,65547,1,0,0:0:0:0:
347,77,65714,1,0,0:0:0:0:
334,204,65881,1,0,0:0:0:0:
209,111,66047,6,0,L|212:45,1,63.7500012159348
130,129,66381,2,0,L|133:63,1,63.7500012159348
52,147,66714,2,0,L|55:81,1,63.7500012159348
161,304,67047,1,0,0:0:0:0:
83,220,67214,1,0,0:0:0:0:
195,194,67381,1,0,0:0:0:0:
62,305,67547,2,0,L|59:371,1,63.7500012159348
238,352,67881,1,0,0:0:0:0:
238,352,68047,6,0,L|240:288,1,63.7500012159348
317,365,68381,2,0,L|319:301,1,63.7500012159348
395,378,68714,2,0,L|397:314,1,63.7500012159348
378,155,69047,1,0,0:0:0:0:
449,244,69214,1,0,0:0:0:0:
336,262,69381,1,0,0:0:0:0:
266,155,69547,2,0,L|269:87,1,63.7500012159348
130,60,69881,1,0,0:0:0:0:
130,60,70047,6,0,L|127:123,1,63.7500012159348
208,41,70381,2,0,L|205:104,1,63.7500012159348
286,23,70714,2,0,L|283:86,1,63.7500012159348
345,245,71047,1,0,0:0:0:0:
257,172,71214,1,0,0:0:0:0:
364,133,71381,1,0,0:0:0:0:
437,236,71547,2,0,L|440:302,1,63.7500012159348
325,343,71881,1,0,0:0:0:0:
325,343,72047,6,0,L|322:279,1,63.7500012159348
240,361,72381,2,0,L|237:297,1,63.7500012159348
155,378,72714,2,0,L|152:314,1,63.7500012159348
